  0
SECTION
  2
HEADER
  9
$ACADVER
  1
AC1014
  9
$ACADMAINTVER
 70
     9
  9
$DWGCODEPAGE
  3
ANSI_932
  9
$INSBASE
 10
0.0
 20
0.0
 30
0.0
  9
$EXTMIN
 10
-42.72051933
 20
-34.95597664
 30
-0.00152582
  9
$EXTMAX
 10
99.0122927
 20
68.01909366
 30
0.00000003
  9
$LIMMIN
 10
0.0
 20
0.0
  9
$LIMMAX
 10
420.0
 20
297.0
  9
$ORTHOMODE
 70
     0
  9
$REGENMODE
 70
     1
  9
$FILLMODE
 70
     1
  9
$QTEXTMODE
 70
     0
  9
$MIRRTEXT
 70
     1
  9
$DRAGMODE
 70
     2
  9
$LTSCALE
 40
10.0
  9
$OSMODE
 70
   549
  9
$ATTMODE
 70
     1
  9
$TEXTSIZE
 40
3.0
  9
$TRACEWID
 40
1.0
  9
$TEXTSTYLE
  7
YOKO
  9
$CLAYER
  8
245
  9
$CELTYPE
  6
BYLAYER
  9
$CECOLOR
 62
   256
  9
$CELTSCALE
 40
1.0
  9
$DELOBJ
 70
     1
  9
$DISPSILH
 70
     0
  9
$DIMSCALE
 40
1.0
  9
$DIMASZ
 40
2.23
  9
$DIMEXO
 40
0.5
  9
$DIMDLI
 40
2.5
  9
$DIMRND
 40
0.0
  9
$DIMDLE
 40
0.0
  9
$DIMEXE
 40
1.0
  9
$DIMTP
 40
0.0
  9
$DIMTM
 40
0.0
  9
$DIMTXT
 40
2.8
  9
$DIMCEN
 40
0.0
  9
$DIMTSZ
 40
0.0
  9
$DIMTOL
 70
     0
  9
$DIMLIM
 70
     0
  9
$DIMTIH
 70
     0
  9
$DIMTOH
 70
     0
  9
$DIMSE1
 70
     0
  9
$DIMSE2
 70
     0
  9
$DIMTAD
 70
     3
  9
$DIMZIN
 70
     8
  9
$DIMBLK
  1

  9
$DIMASO
 70
     1
  9
$DIMSHO
 70
     1
  9
$DIMPOST
  1

  9
$DIMAPOST
  1

  9
$DIMALT
 70
     0
  9
$DIMALTD
 70
     2
  9
$DIMALTF
 40
25.4
  9
$DIMLFAC
 40
1.0
  9
$DIMTOFL
 70
     1
  9
$DIMTVP
 40
0.0
  9
$DIMTIX
 70
     1
  9
$DIMSOXD
 70
     0
  9
$DIMSAH
 70
     1
  9
$DIMBLK1
  1
OPEN
  9
$DIMBLK2
  1
OPEN
  9
$DIMSTYLE
  2
BIGT
  9
$DIMCLRD
 70
   256
  9
$DIMCLRE
 70
   256
  9
$DIMCLRT
 70
    40
  9
$DIMTFAC
 40
1.0
  9
$DIMGAP
 40
1.0
  9
$DIMJUST
 70
     0
  9
$DIMSD1
 70
     0
  9
$DIMSD2
 70
     0
  9
$DIMTOLJ
 70
     1
  9
$DIMTZIN
 70
     8
  9
$DIMALTZ
 70
     0
  9
$DIMALTTZ
 70
     0
  9
$DIMFIT
 70
     3
  9
$DIMUPT
 70
     0
  9
$DIMUNIT
 70
     2
  9
$DIMDEC
 70
     3
  9
$DIMTDEC
 70
     3
  9
$DIMALTU
 70
     2
  9
$DIMALTTD
 70
     2
  9
$DIMTXSTY
  7
STANDARD
  9
$DIMAUNIT
 70
     0
  9
$LUNITS
 70
     2
  9
$LUPREC
 70
     3
  9
$SKETCHINC
 40
1.0
  9
$FILLETRAD
 40
1.0
  9
$AUNITS
 70
     0
  9
$AUPREC
 70
     3
  9
$MENU
  1
.
  9
$ELEVATION
 40
0.0
  9
$PELEVATION
 40
0.0
  9
$THICKNESS
 40
0.0
  9
$LIMCHECK
 70
     0
  9
$BLIPMODE
 70
     0
  9
$CHAMFERA
 40
10.0
  9
$CHAMFERB
 40
10.0
  9
$CHAMFERC
 40
0.0
  9
$CHAMFERD
 40
0.0
  9
$SKPOLY
 70
     0
  9
$TDCREATE
 40
2455142.413808402
  9
$TDUPDATE
 40
2455383.577741064
  9
$TDINDWG
 40
0.0076991204
  9
$TDUSRTIMER
 40
0.0076991204
  9
$USRTIMER
 70
     1
  9
$ANGBASE
 50
0.0
  9
$ANGDIR
 70
     0
  9
$PDMODE
 70
     1
  9
$PDSIZE
 40
-5.0
  9
$PLINEWID
 40
0.0
  9
$COORDS
 70
     1
  9
$SPLFRAME
 70
     0
  9
$SPLINETYPE
 70
     6
  9
$SPLINESEGS
 70
     8
  9
$ATTDIA
 70
     0
  9
$ATTREQ
 70
     1
  9
$HANDLING
 70
-16383
  9
$HANDSEED
  5
1377
  9
$SURFTAB1
 70
     6
  9
$SURFTAB2
 70
     6
  9
$SURFTYPE
 70
     6
  9
$SURFU
 70
     6
  9
$SURFV
 70
     6
  9
$UCSNAME
  2

  9
$UCSORG
 10
0.0
 20
0.0
 30
0.0
  9
$UCSXDIR
 10
1.0
 20
0.0
 30
0.0
  9
$UCSYDIR
 10
0.0
 20
1.0
 30
0.0
  9
$PUCSNAME
  2

  9
$PUCSORG
 10
0.0
 20
0.0
 30
0.0
  9
$PUCSXDIR
 10
1.0
 20
0.0
 30
0.0
  9
$PUCSYDIR
 10
0.0
 20
1.0
 30
0.0
  9
$USERI1
 70
     1
  9
$USERI2
 70
     0
  9
$USERI3
 70
     0
  9
$USERI4
 70
     0
  9
$USERI5
 70
     0
  9
$USERR1
 40
0.0
  9
$USERR2
 40
0.0
  9
$USERR3
 40
0.0
  9
$USERR4
 40
0.0
  9
$USERR5
 40
0.0
  9
$WORLDVIEW
 70
     1
  9
$SHADEDGE
 70
     3
  9
$SHADEDIF
 70
    70
  9
$TILEMODE
 70
     1
  9
$MAXACTVP
 70
    16
  9
$PINSBASE
 10
0.0
 20
0.0
 30
0.0
  9
$PLIMCHECK
 70
     0
  9
$PEXTMIN
 10
1.00000000E+20
 20
1.00000000E+20
 30
1.00000000E+20
  9
$PEXTMAX
 10
-1.00000000E+20
 20
-1.00000000E+20
 30
-1.00000000E+20
  9
$PLIMMIN
 10
0.0
 20
0.0
  9
$PLIMMAX
 10
420.0
 20
297.0
  9
$UNITMODE
 70
     0
  9
$VISRETAIN
 70
     0
  9
$PLINEGEN
 70
     0
  9
$PSLTSCALE
 70
     1
  9
$TREEDEPTH
 70
  3020
  9
$PICKSTYLE
 70
     0
  9
$CMLSTYLE
  2
STANDARD
  9
$CMLJUST
 70
     0
  9
$CMLSCALE
 40
1.0
  9
$PROXYGRAPHICS
 70
     1
  9
$MEASUREMENT
 70
     1
  0
ENDSEC
  0
SECTION
  2
CLASSES
  0
CLASS
  1
XRECORD
  2
AcDbXrecord
  3
AutoCAD 2000
 90
        0
280
     0
281
     0
  0
CLASS
  1
ACDBDICTIONARYWDFLT
  2
AcDbDictionaryWithDefault
  3
AutoCAD 2000
 90
        0
280
     0
281
     0
  0
CLASS
  1
ACDBPLACEHOLDER
  2
AcDbPlaceHolder
  3
AutoCAD 2000
 90
        0
280
     0
281
     0
  0
CLASS
  1
LAYOUT
  2
AcDbLayout
  3
AutoCAD 2000
 90
        0
280
     0
281
     0
  0
CLASS
  1
PLOTSETTINGS
  2
AcDbPlotSettings
  3
AutoCAD 2000
 90
        0
280
     0
281
     0
  0
CLASS
  1
LONG_TRANSACTION
  2
AcDbLongTransaction
  3
AutoCAD 2000
 90
        0
280
     0
281
     0
  0
CLASS
  1
LWPOLYLINE
  2
AcDbPolyline
  3
AutoCAD 2000
 90
        0
280
     0
281
     1
  0
CLASS
  1
HATCH
  2
AcDbHatch
  3
AutoCAD 2000
 90
        0
280
     0
281
     1
  0
CLASS
  1
XRECORD
  2
AcDbXrecord
  3
AutoCAD 2000
 90
        0
280
     0
281
     0
  0
CLASS
  1
LONG_TRANSACTION
  2
AcDbLongTransaction
  3
AutoCAD 2000
 90
        0
280
     0
281
     0
  0
CLASS
  1
LWPOLYLINE
  2
AcDbPolyline
  3
AutoCAD 2000
 90
        0
280
     0
281
     1
  0
CLASS
  1
HATCH
  2
AcDbHatch
  3
AutoCAD 2000
 90
        0
280
     0
281
     1
  0
CLASS
  1
XRECORD
  2
AcDbXrecord
  3
AutoCAD 2000
 90
        0
280
     0
281
     0
  0
ENDSEC
  0
SECTION
  2
TABLES
  0
TABLE
  2
VPORT
  5
8
330
0
100
AcDbSymbolTable
 70
     2
  0
VPORT
  5
1352
330
8
100
AcDbSymbolTableRecord
100
AcDbViewportTableRecord
  2
*ACTIVE
 70
     0
 10
0.0
 20
0.0
 11
1.0
 21
1.0
 12
28.14588668
 22
16.53155851
 13
0.0
 23
0.0
 14
7.0
 24
7.0
 15
7.0
 25
7.0
 16
0.0
 26
0.0
 36
1.0
 17
0.0
 27
0.0
 37
0.0
 40
103.77435933
 41
1.45595855
 42
50.0
 43
0.0
 44
0.0
 50
0.0
 51
0.0
 71
     0
 72
  2000
 73
     1
 74
     0
 75
     0
 76
     0
 77
     0
 78
     0
  0
ENDTAB
  0
TABLE
  2
LTYPE
  5
5
330
0
100
AcDbSymbolTable
 70
     4
  0
LTYPE
  5
14
330
5
100
AcDbSymbolTableRecord
100
AcDbLinetypeTableRecord
  2
BYBLOCK
 70
     0
  3

 72
    65
 73
     0
 40
0.0
  0
LTYPE
  5
15
330
5
100
AcDbSymbolTableRecord
100
AcDbLinetypeTableRecord
  2
BYLAYER
 70
     0
  3

 72
    65
 73
     0
 40
0.0
  0
LTYPE
  5
16
330
5
100
AcDbSymbolTableRecord
100
AcDbLinetypeTableRecord
  2
CONTINUOUS
 70
     0
  3
Solid line
 72
    65
 73
     0
 40
0.0
  0
LTYPE
  5
258
330
5
100
AcDbSymbolTableRecord
100
AcDbLinetypeTableRecord
  2
CENTER2
 70
     0
  3
___ _ ___ _ ___ _ ___ _ ___ _ ___ _ ___ _ ___ _
 72
    65
 73
     4
 40
1.125
 49
0.75
 74
     0
 49
-0.125
 74
     0
 49
0.125
 74
     0
 49
-0.125
 74
     0
  0
LTYPE
  5
25C
330
5
100
AcDbSymbolTableRecord
100
AcDbLinetypeTableRecord
  2
HIDDEN2
 70
     0
  3
_ _ _ _ _ _ _ _ _ _ _ _ _ _ _ _ _ _ _ _ _ _ _ _
 72
    65
 73
     2
 40
0.1875
 49
0.125
 74
     0
 49
-0.0625
 74
     0
  0
LTYPE
  5
25D
330
5
100
AcDbSymbolTableRecord
100
AcDbLinetypeTableRecord
  2
PHANTOM2
 70
     0
  3
___ _ _ ___ _ _ ___ _ _ ___ _ _ ___ _ _ ___ _ _
 72
    65
 73
     6
 40
1.25
 49
0.625
 74
     0
 49
-0.125
 74
     0
 49
0.125
 74
     0
 49
-0.125
 74
     0
 49
0.125
 74
     0
 49
-0.125
 74
     0
  0
ENDTAB
  0
TABLE
  2
LAYER
  5
2
330
0
100
AcDbSymbolTable
 70
    12
  0
LAYER
  5
F
330
2
100
AcDbSymbolTableRecord
100
AcDbLayerTableRecord
  2
0
 70
     0
 62
     7
  6
CONTINUOUS
  0
LAYER
  5
1AA
330
2
100
AcDbSymbolTableRecord
100
AcDbLayerTableRecord
  2
240
 70
     0
 62
     4
  6
CONTINUOUS
  0
LAYER
  5
1AB
330
2
100
AcDbSymbolTableRecord
100
AcDbLayerTableRecord
  2
241
 70
     0
 62
   211
  6
CONTINUOUS
  0
LAYER
  5
1AC
330
2
100
AcDbSymbolTableRecord
100
AcDbLayerTableRecord
  2
242
 70
     0
 62
     3
  6
CONTINUOUS
  0
LAYER
  5
1AF
330
2
100
AcDbSymbolTableRecord
100
AcDbLayerTableRecord
  2
245
 70
     0
 62
     2
  6
CENTER2
  0
LAYER
  5
21A
330
2
100
AcDbSymbolTableRecord
100
AcDbLayerTableRecord
  2
246
 70
     0
 62
     3
  6
PHANTOM2
  0
LAYER
  5
21E
330
2
100
AcDbSymbolTableRecord
100
AcDbLayerTableRecord
  2
250
 70
     0
 62
     3
  6
CONTINUOUS
  0
LAYER
  5
21F
330
2
100
AcDbSymbolTableRecord
100
AcDbLayerTableRecord
  2
251
 70
     0
 62
    40
  6
CONTINUOUS
  0
LAYER
  5
5C4
330
2
100
AcDbSymbolTableRecord
100
AcDbLayerTableRecord
  2
DEFPOINTS
 70
     0
 62
     7
  6
CONTINUOUS
  0
ENDTAB
  0
TABLE
  2
STYLE
  5
3
330
0
100
AcDbSymbolTable
 70
     2
  0
STYLE
  5
10
330
3
100
AcDbSymbolTableRecord
100
AcDbTextStyleTableRecord
  2
STANDARD
 70
     0
 40
0.0
 41
1.0
 50
0.0
 71
     0
 42
3.0
  3
romans.shx
  4
BIGFONT.SHX
  0
STYLE
  5
339
330
3
100
AcDbSymbolTableRecord
100
AcDbTextStyleTableRecord
  2
YOKO
 70
     0
 40
0.0
 41
1.0
 50
0.0
 71
     0
 42
3.0
  3
romans.shx
  4
extfont.shx
  0
ENDTAB
  0
TABLE
  2
VIEW
  5
6
330
0
100
AcDbSymbolTable
 70
     0
  0
ENDTAB
  0
TABLE
  2
UCS
  5
7
330
0
100
AcDbSymbolTable
 70
     0
  0
ENDTAB
  0
TABLE
  2
APPID
  5
9
330
0
100
AcDbSymbolTable
 70
    12
  0
APPID
  5
11
330
9
100
AcDbSymbolTableRecord
100
AcDbRegAppTableRecord
  2
ACAD
 70
     0
  0
APPID
  5
1B1
330
9
100
AcDbSymbolTableRecord
100
AcDbRegAppTableRecord
  2
GLOBAL
 70
     0
  0
APPID
  5
2A4
330
9
100
AcDbSymbolTableRecord
100
AcDbRegAppTableRecord
  2
DETAIL
 70
     0
  0
APPID
  5
5FD
330
9
100
AcDbSymbolTableRecord
100
AcDbRegAppTableRecord
  2
GRPNAME
 70
     0
  0
APPID
  5
5FE
330
9
100
AcDbSymbolTableRecord
100
AcDbRegAppTableRecord
  2
GPARA
 70
     0
  0
APPID
  5
6C4
330
9
100
AcDbSymbolTableRecord
100
AcDbRegAppTableRecord
  2
DCO15
 70
     0
  0
APPID
  5
6C5
330
9
100
AcDbSymbolTableRecord
100
AcDbRegAppTableRecord
  2
ITEMNAME
 70
     0
  0
APPID
  5
6C6
330
9
100
AcDbSymbolTableRecord
100
AcDbRegAppTableRecord
  2
GRADE_0
 70
     0
  0
APPID
  5
A18
330
9
100
AcDbSymbolTableRecord
100
AcDbRegAppTableRecord
  2
HATCH_TYPE
 70
     0
  0
APPID
  5
A19
330
9
100
AcDbSymbolTableRecord
100
AcDbRegAppTableRecord
  2
HATCH_DISPLAY
 70
     0
  0
APPID
  5
A1A
330
9
100
AcDbSymbolTableRecord
100
AcDbRegAppTableRecord
  2
HATCH_DISTANCE
 70
     0
  0
APPID
  5
F51
330
9
100
AcDbSymbolTableRecord
100
AcDbRegAppTableRecord
  2
CONTENTBLOCKICON
 70
     0
  0
ENDTAB
  0
TABLE
  2
DIMSTYLE
  5
A
330
0
100
AcDbSymbolTable
 70
     1
  0
DIMSTYLE
105
725
102
{ACAD_REACTORS
330
CFC
330
D0B
330
D1A
330
D29
102
}
330
A
100
AcDbSymbolTableRecord
100
AcDbDimStyleTableRecord
  2
BIGT
 70
     0
  3

  4

  5

  6
OPEN
  7
OPEN
 40
1.0
 41
2.23
 42
0.5
 43
2.5
 44
1.0
 45
0.0
 46
0.0
 47
0.0
 48
0.0
140
2.8
141
0.0
142
0.0
143
25.4
144
1.0
145
0.0
146
1.0
147
1.0
 71
     0
 72
     0
 73
     0
 74
     0
 75
     0
 76
     0
 77
     3
 78
     8
170
     0
171
     2
172
     1
173
     1
174
     1
175
     0
176
   256
177
   256
178
    40
270
     2
271
     3
272
     3
273
     2
274
     2
340
10
275
     0
280
     0
281
     0
282
     0
283
     1
284
     8
285
     0
286
     0
287
     3
288
     0
  0
ENDTAB
  0
TABLE
  2
BLOCK_RECORD
  5
1
330
0
100
AcDbSymbolTable
 70
     8
  0
BLOCK_RECORD
  5
1A
102
{ACAD_XDICTIONARY
360
F4F
102
}
330
1
100
AcDbSymbolTableRecord
100
AcDbBlockTableRecord
  2
*MODEL_SPACE
  0
BLOCK_RECORD
  5
17
102
{ACAD_XDICTIONARY
360
F4D
102
}
330
1
100
AcDbSymbolTableRecord
100
AcDbBlockTableRecord
  2
*PAPER_SPACE
  0
BLOCK_RECORD
  5
594
330
1
100
AcDbSymbolTableRecord
100
AcDbBlockTableRecord
  2
_OPEN
  0
BLOCK_RECORD
  5
6E3
330
1
100
AcDbSymbolTableRecord
100
AcDbBlockTableRecord
  2
矢印なし
  0
BLOCK_RECORD
  5
CFD
330
1
100
AcDbSymbolTableRecord
100
AcDbBlockTableRecord
  2
*D2
  0
BLOCK_RECORD
  5
D0C
330
1
100
AcDbSymbolTableRecord
100
AcDbBlockTableRecord
  2
*D3
  0
BLOCK_RECORD
  5
D1B
330
1
100
AcDbSymbolTableRecord
100
AcDbBlockTableRecord
  2
*D4
  0
BLOCK_RECORD
  5
D2A
330
1
100
AcDbSymbolTableRecord
100
AcDbBlockTableRecord
  2
*D5
  0
BLOCK_RECORD
  5
D70
330
1
100
AcDbSymbolTableRecord
100
AcDbBlockTableRecord
  2
1
1001
CONTENTBLOCKICON
1071
        0
1004
2800000020000000200000000100080000000000000400000000000000000000000000000000000000000000000080000080000000808000800000008000800080800000C0C0C000C0DCC000F0CAA6000020400000206000002080000020A0000020C0000020E00000400000004020000040400000406000004080000040A0
1004
000040C0000040E00000600000006020000060400000606000006080000060A0000060C0000060E00000800000008020000080400000806000008080000080A0000080C0000080E00000A0000000A0200000A0400000A0600000A0800000A0A00000A0C00000A0E00000C0000000C0200000C0400000C0600000C0800000C0
1004
A00000C0C00000C0E00000E0000000E0200000E0400000E0600000E0800000E0A00000E0C00000E0E00040000000400020004000400040006000400080004000A0004000C0004000E00040200000402020004020400040206000402080004020A0004020C0004020E000404000004040200040404000404060004040800040
1004
40A0004040C0004040E00040600000406020004060400040606000406080004060A0004060C0004060E00040800000408020004080400040806000408080004080A0004080C0004080E00040A0000040A0200040A0400040A0600040A0800040A0A00040A0C00040A0E00040C0000040C0200040C0400040C0600040C08000
1004
40C0A00040C0C00040C0E00040E0000040E0200040E0400040E0600040E0800040E0A00040E0C00040E0E00080000000800020008000400080006000800080008000A0008000C0008000E00080200000802020008020400080206000802080008020A0008020C0008020E00080400000804020008040400080406000804080
1004
008040A0008040C0008040E00080600000806020008060400080606000806080008060A0008060C0008060E00080800000808020008080400080806000808080008080A0008080C0008080E00080A0000080A0200080A0400080A0600080A0800080A0A00080A0C00080A0E00080C0000080C0200080C0400080C0600080C0
1004
800080C0A00080C0C00080C0E00080E0000080E0200080E0400080E0600080E0800080E0A00080E0C00080E0E000C0000000C0002000C0004000C0006000C0008000C000A000C000C000C000E000C0200000C0202000C0204000C0206000C0208000C020A000C020C000C020E000C0400000C0402000C0404000C0406000C0
1004
408000C040A000C040C000C040E000C0600000C0602000C0604000C0606000C0608000C060A000C060C000C060E000C0800000C0802000C0804000C0806000C0808000C080A000C080C000C080E000C0A00000C0A02000C0A04000C0A06000C0A08000C0A0A000C0A0C000C0A0E000C0C00000C0C02000C0C04000C0C06000
1004
C0C08000C0C0A000F0FBFF00A4A0A000808080000000FF0000FF000000FFFF00FF000000FF00FF00FFFF0000FFFFFF0000000000000000000000000000000000000000000000000000000000000000000000000000000000000000000000000000000000000000000000000000000000000000000000000000000000000000
1004
00000000000000000000000000000000000000000000000000000000000000000000000000000000000000000000000000000000000000000000000000000000000000000000000000000000000000000000000000000000000000000000000000000000000000000000000000000000000000000000000000000000000000
1004
0000000000000000000000000000000000000000000000000000000000000000000000000000000000000000000000000000000000000000000000FEFEFEFEFEFEFE00000000000000000000000000000000000000000000000000FE000000FEFEFEE7FE000000000000000000000000000000FEFEFEFEFEFEFEFEFEE7E7E7
1004
E7E7E700FE000000000000000000000000000000FE00000000000000E70000E7E7E7E7FAE7FE0000000000000000000000000000FE00000000000000E7000000E7E7E7FAE7E7E700000000000000000000000000FE00000000000000E7000000E7E7FA00E7E7E7FEE7FEFEFEFEFEFEFAFE000000FEE7FEE70000FB00E700E7
1004
E7E7E7E7E7E7E7E700E7000000E7E7E700FE0000000000FEE700E7FBE7E700E700FB00E700E7E7E700E7000000E7000000FE000000FBFBFEE7FBE7FBE7E7E7E7FBFBFBE7FBE7E7E7FBE7FBFBFBE7E7E7E7FEFB0000FEFEE7E70000FB00E700E7E7E7E7E700E7E7E700E7000000000000E7FA000000FE00000000000000E700
1004
0000E7E7E700E7E7E7FEFEFEFEFEFEFEFEFAFA000000FE00000000000000E7000000E7E7E700E7E7E700000000000000000000000000FE00000000000000E7000000E7E7E700E7FE0000000000000000000000000000FEFEFEFEFEFEFEFEFE000000E7E7E700FE0000000000000000000000000000000000000000000000FE
1004
000000FEFEFEFEFE0000000000000000000000000000000000000000000000FEFEFEFEFEFEFE0000000000000000000000000000000000000000000000000000000000000000000000000000000000000000000000000000000000000000000000000000000000000000000000000000000000000000000000000000000000
1004
00000000000000000000000000000000000000000000000000000000000000000000000000000000000000000000000000000000000000000000000000000000000000000000000000000000000000000000000000000000000000000000000000000000000000000000000000000000000000000000000000000000000000
1004
0000000000000000000000000000000000000000000000000000000000000000000000000000000000000000000000000000000000000000
  0
ENDTAB
  0
ENDSEC
  0
SECTION
  2
BLOCKS
  0
BLOCK
  5
1B
330
1A
100
AcDbEntity
  8
0
100
AcDbBlockBegin
  2
*MODEL_SPACE
 70
     0
 10
0.0
 20
0.0
 30
0.0
  3
*MODEL_SPACE
  1

  0
ENDBLK
  5
1C
330
1A
100
AcDbEntity
  8
0
100
AcDbBlockEnd
  0
BLOCK
  5
18
330
17
100
AcDbEntity
 67
     1
  8
0
100
AcDbBlockBegin
  2
*PAPER_SPACE
 70
     0
 10
0.0
 20
0.0
 30
0.0
  3
*PAPER_SPACE
  1

  0
ENDBLK
  5
19
330
17
100
AcDbEntity
 67
     1
  8
0
100
AcDbBlockEnd
  0
BLOCK
  5
598
330
594
100
AcDbEntity
  8
0
100
AcDbBlockBegin
  2
_OPEN
 70
     0
 10
0.0
 20
0.0
 30
0.0
  3
_OPEN
  1

  0
LINE
  5
595
330
594
100
AcDbEntity
  8
0
  6
BYBLOCK
 62
     0
100
AcDbLine
 10
-1.0
 20
0.16666667
 30
0.0
 11
0.0
 21
0.0
 31
0.0
  0
LINE
  5
596
330
594
100
AcDbEntity
  8
0
  6
BYBLOCK
 62
     0
100
AcDbLine
 10
-1.0
 20
-0.16666667
 30
0.0
 11
0.0
 21
0.0
 31
0.0
  0
LINE
  5
597
330
594
100
AcDbEntity
  8
0
  6
BYBLOCK
 62
     0
100
AcDbLine
 10
0.0
 20
0.0
 30
0.0
 11
-1.0
 21
0.0
 31
0.0
  0
ENDBLK
  5
599
330
594
100
AcDbEntity
  8
0
100
AcDbBlockEnd
  0
BLOCK
  5
6E4
330
6E3
100
AcDbEntity
  8
0
100
AcDbBlockBegin
  2
矢印なし
 70
     0
 10
0.0
 20
0.0
 30
0.0
  3
矢印なし
  1

  0
ENDBLK
  5
6E5
330
6E3
100
AcDbEntity
  8
0
100
AcDbBlockEnd
  0
BLOCK
  5
D07
330
CFD
100
AcDbEntity
  8
0
100
AcDbBlockBegin
  2
*D2
 70
     1
 10
0.0
 20
0.0
 30
0.0
  3
*D2
  1

  0
LINE
  5
D55
330
CFD
100
AcDbEntity
  8
250
  6
CONTINUOUS
100
AcDbLine
 10
85.5
 20
-10.0
 30
0.0
 11
99.0
 21
-10.0
 31
0.0
  0
LINE
  5
D56
330
CFD
100
AcDbEntity
  8
250
  6
CONTINUOUS
100
AcDbLine
 10
85.5
 20
10.0
 30
0.0
 11
99.0
 21
10.0
 31
0.0
  0
LINE
  5
D57
330
CFD
100
AcDbEntity
  8
250
  6
CONTINUOUS
100
AcDbLine
 10
98.0
 20
-7.77
 30
0.0
 11
98.0
 21
7.77
 31
0.0
  0
INSERT
  5
D58
330
CFD
100
AcDbEntity
  8
250
  6
CONTINUOUS
100
AcDbBlockReference
  2
_OPEN
 10
98.0
 20
-10.0
 30
0.0
 41
2.23
 42
2.23
 43
2.23
 50
270.0
  0
INSERT
  5
D59
330
CFD
100
AcDbEntity
  8
250
  6
CONTINUOUS
100
AcDbBlockReference
  2
_OPEN
 10
98.0
 20
10.0
 30
0.0
 41
2.23
 42
2.23
 43
2.23
 50
90.0
  0
MTEXT
  5
D5A
330
CFD
100
AcDbEntity
  8
250
  6
CONTINUOUS
 62
    40
100
AcDbMText
 10
95.6
 20
0.0
 30
0.0
 40
2.8
 41
0.0
 71
     5
 72
     1
  1
\A1;{\H2.8;\U+2205}20
 11
0.0
 21
1.0
 31
0.0
1001
ACAD
1000
MTEXTBEGIN
1070
    73
1070
     1
1070
    44
1040
1.0
1070
    74
1070
     0
1000
MTEXTEND
1000
MTEXTBEGIN
1070
    73
1070
     1
1070
    44
1040
1.0
1070
    74
1070
     0
1000
MTEXTEND
  0
POINT
  5
D5B
330
CFD
100
AcDbEntity
  8
DEFPOINTS
  6
CONTINUOUS
 62
     0
100
AcDbPoint
 10
85.0
 20
-10.0
 30
0.0
  0
POINT
  5
D5C
330
CFD
100
AcDbEntity
  8
DEFPOINTS
  6
CONTINUOUS
 62
     0
100
AcDbPoint
 10
85.0
 20
10.0
 30
0.0
  0
POINT
  5
D5D
330
CFD
100
AcDbEntity
  8
DEFPOINTS
  6
CONTINUOUS
 62
     0
100
AcDbPoint
 10
98.0
 20
10.0
 30
0.0
  0
ENDBLK
  5
D08
330
CFD
100
AcDbEntity
  8
0
100
AcDbBlockEnd
  0
BLOCK
  5
D16
330
D0C
100
AcDbEntity
  8
0
100
AcDbBlockBegin
  2
*D3
 70
     1
 10
0.0
 20
0.0
 30
0.0
  3
*D3
  1

  0
LINE
  5
D67
330
D0C
100
AcDbEntity
  8
250
  6
CONTINUOUS
100
AcDbLine
 10
77.0
 20
10.5
 30
0.0
 11
77.0
 21
29.0
 31
0.0
  0
LINE
  5
D68
330
D0C
100
AcDbEntity
  8
250
  6
CONTINUOUS
100
AcDbLine
 10
85.0
 20
10.5
 30
0.0
 11
85.0
 21
29.0
 31
0.0
  0
LINE
  5
D69
330
D0C
100
AcDbEntity
  8
250
  6
CONTINUOUS
100
AcDbLine
 10
79.23
 20
28.0
 30
0.0
 11
82.77
 21
28.0
 31
0.0
  0
INSERT
  5
D6A
330
D0C
100
AcDbEntity
  8
250
  6
CONTINUOUS
100
AcDbBlockReference
  2
_OPEN
 10
77.0
 20
28.0
 30
0.0
 41
2.23
 42
2.23
 43
2.23
 50
180.0
  0
INSERT
  5
D6B
330
D0C
100
AcDbEntity
  8
250
  6
CONTINUOUS
100
AcDbBlockReference
  2
_OPEN
 10
85.0
 20
28.0
 30
0.0
 41
2.23
 42
2.23
 43
2.23
  0
MTEXT
  5
D6C
330
D0C
100
AcDbEntity
  8
250
  6
CONTINUOUS
 62
    40
100
AcDbMText
 10
81.0
 20
30.4
 30
0.0
 40
2.8
 41
0.0
 71
     5
 72
     1
  1
\A1;8
1001
ACAD
1000
MTEXTBEGIN
1070
    73
1070
     1
1070
    44
1040
1.0
1070
    74
1070
     0
1000
MTEXTEND
1000
MTEXTBEGIN
1070
    73
1070
     1
1070
    44
1040
1.0
1070
    74
1070
     0
1000
MTEXTEND
  0
POINT
  5
D6D
330
D0C
100
AcDbEntity
  8
DEFPOINTS
  6
CONTINUOUS
 62
     0
100
AcDbPoint
 10
77.0
 20
10.0
 30
0.0
  0
POINT
  5
D6E
330
D0C
100
AcDbEntity
  8
DEFPOINTS
  6
CONTINUOUS
 62
     0
100
AcDbPoint
 10
85.0
 20
10.0
 30
0.0
  0
POINT
  5
D6F
330
D0C
100
AcDbEntity
  8
DEFPOINTS
  6
CONTINUOUS
 62
     0
100
AcDbPoint
 10
85.0
 20
28.0
 30
0.0
  0
ENDBLK
  5
D17
330
D0C
100
AcDbEntity
  8
0
100
AcDbBlockEnd
  0
BLOCK
  5
D25
330
D1B
100
AcDbEntity
  8
0
100
AcDbBlockBegin
  2
*D4
 70
     1
 10
0.0
 20
0.0
 30
0.0
  3
*D4
  1

  0
LINE
  5
D5E
330
D1B
100
AcDbEntity
  8
250
  6
CONTINUOUS
100
AcDbLine
 10
53.0
 20
9.91871269
 30
0.0
 11
53.0
 21
36.0
 31
0.0
  0
LINE
  5
D5F
330
D1B
100
AcDbEntity
  8
250
  6
CONTINUOUS
100
AcDbLine
 10
85.0
 20
10.5
 30
0.0
 11
85.0
 21
36.0
 31
0.0
  0
LINE
  5
D60
330
D1B
100
AcDbEntity
  8
250
  6
CONTINUOUS
100
AcDbLine
 10
55.23
 20
35.0
 30
0.0
 11
82.77
 21
35.0
 31
0.0
  0
INSERT
  5
D61
330
D1B
100
AcDbEntity
  8
250
  6
CONTINUOUS
100
AcDbBlockReference
  2
_OPEN
 10
53.0
 20
35.0
 30
0.0
 41
2.23
 42
2.23
 43
2.23
 50
180.0
  0
INSERT
  5
D62
330
D1B
100
AcDbEntity
  8
250
  6
CONTINUOUS
100
AcDbBlockReference
  2
_OPEN
 10
85.0
 20
35.0
 30
0.0
 41
2.23
 42
2.23
 43
2.23
  0
MTEXT
  5
D63
330
D1B
100
AcDbEntity
  8
250
  6
CONTINUOUS
 62
    40
100
AcDbMText
 10
69.0
 20
37.4
 30
0.0
 40
2.8
 41
0.0
 71
     5
 72
     1
  1
\A1;32
1001
ACAD
1000
MTEXTBEGIN
1070
    73
1070
     1
1070
    44
1040
1.0
1070
    74
1070
     0
1000
MTEXTEND
1000
MTEXTBEGIN
1070
    73
1070
     1
1070
    44
1040
1.0
1070
    74
1070
     0
1000
MTEXTEND
  0
POINT
  5
D64
330
D1B
100
AcDbEntity
  8
DEFPOINTS
  6
CONTINUOUS
 62
     0
100
AcDbPoint
 10
53.0
 20
9.41871269
 30
0.0
  0
POINT
  5
D65
330
D1B
100
AcDbEntity
  8
DEFPOINTS
  6
CONTINUOUS
 62
     0
100
AcDbPoint
 10
85.0
 20
10.0
 30
0.0
  0
POINT
  5
D66
330
D1B
100
AcDbEntity
  8
DEFPOINTS
  6
CONTINUOUS
 62
     0
100
AcDbPoint
 10
85.0
 20
35.0
 30
0.0
  0
ENDBLK
  5
D26
330
D1B
100
AcDbEntity
  8
0
100
AcDbBlockEnd
  0
BLOCK
  5
D34
330
D2A
100
AcDbEntity
  8
0
100
AcDbBlockBegin
  2
*D5
 70
     1
 10
0.0
 20
0.0
 30
0.0
  3
*D5
  1

  0
LINE
  5
D4C
330
D2A
100
AcDbEntity
  8
250
  6
CONTINUOUS
100
AcDbLine
 10
0.0
 20
31.0
 30
0.0
 11
0.0
 21
43.0
 31
0.0
  0
LINE
  5
D4D
330
D2A
100
AcDbEntity
  8
250
  6
CONTINUOUS
100
AcDbLine
 10
85.0
 20
10.5
 30
0.0
 11
85.0
 21
43.0
 31
0.0
  0
LINE
  5
D4E
330
D2A
100
AcDbEntity
  8
250
  6
CONTINUOUS
100
AcDbLine
 10
2.23
 20
42.0
 30
0.0
 11
82.77
 21
42.0
 31
0.0
  0
INSERT
  5
D4F
330
D2A
100
AcDbEntity
  8
250
  6
CONTINUOUS
100
AcDbBlockReference
  2
_OPEN
 10
0.0
 20
42.0
 30
0.0
 41
2.23
 42
2.23
 43
2.23
 50
180.0
  0
INSERT
  5
D50
330
D2A
100
AcDbEntity
  8
250
  6
CONTINUOUS
100
AcDbBlockReference
  2
_OPEN
 10
85.0
 20
42.0
 30
0.0
 41
2.23
 42
2.23
 43
2.23
  0
MTEXT
  5
D51
330
D2A
100
AcDbEntity
  8
250
  6
CONTINUOUS
 62
    40
100
AcDbMText
 10
42.5
 20
44.4
 30
0.0
 40
2.8
 41
0.0
 71
     5
 72
     1
  1
\A1;85
1001
ACAD
1000
MTEXTBEGIN
1070
    73
1070
     1
1070
    44
1040
1.0
1070
    74
1070
     0
1000
MTEXTEND
1000
MTEXTBEGIN
1070
    73
1070
     1
1070
    44
1040
1.0
1070
    74
1070
     0
1000
MTEXTEND
  0
POINT
  5
D52
330
D2A
100
AcDbEntity
  8
DEFPOINTS
  6
CONTINUOUS
 62
     0
100
AcDbPoint
 10
0.0
 20
30.5
 30
0.0
  0
POINT
  5
D53
330
D2A
100
AcDbEntity
  8
DEFPOINTS
  6
CONTINUOUS
 62
     0
100
AcDbPoint
 10
85.0
 20
10.0
 30
0.0
  0
POINT
  5
D54
330
D2A
100
AcDbEntity
  8
DEFPOINTS
  6
CONTINUOUS
 62
     0
100
AcDbPoint
 10
85.0
 20
42.0
 30
0.0
  0
ENDBLK
  5
D35
330
D2A
100
AcDbEntity
  8
0
100
AcDbBlockEnd
  0
BLOCK
  5
D71
330
D70
100
AcDbEntity
  8
0
100
AcDbBlockBegin
  2
1
 70
     0
 10
0.0
 20
0.0
 30
0.0
  3
1
  1

  0
LINE
  5
11CF
330
D70
100
AcDbEntity
  8
240
100
AcDbLine
 10
47.38545079
 20
11.47297461
 30
0.0
 11
36.38067816
 21
18.24099154
 31
0.0
  0
LINE
  5
11D0
330
D70
100
AcDbEntity
  8
240
100
AcDbLine
 10
47.38545079
 20
-11.47297461
 30
0.0
 11
36.38067816
 21
-18.24099154
 31
0.0
  0
LINE
  5
11D1
330
D70
100
AcDbEntity
  8
245
100
AcDbLine
 10
-32.0
 20
0.0
 30
0.0
 11
86.0
 21
0.0
 31
0.0
1001
GRPNAME
1000
PASTMD4G
  0
LINE
  5
11D2
330
D70
100
AcDbEntity
  8
245
  6
CENTER2
100
AcDbLine
 10
18.0
 20
-31.5
 30
0.0
 11
18.0
 21
31.5
 31
0.0
  0
LINE
  5
11D3
330
D70
100
AcDbEntity
  8
240
  6
CONTINUOUS
100
AcDbLine
 10
0.0
 20
24.215
 30
0.0
 11
0.0
 21
30.5
 31
0.0
  0
LINE
  5
11D4
330
D70
100
AcDbEntity
  8
241
  6
CONTINUOUS
100
AcDbLine
 10
16.125
 20
8.0
 30
0.0
 11
16.125
 21
27.5
 31
0.0
  0
LINE
  5
11D5
330
D70
100
AcDbEntity
  8
241
  6
CONTINUOUS
100
AcDbLine
 10
14.62250093
 20
8.0
 30
0.0
 11
14.62250093
 21
31.5
 31
0.0
  0
LINE
  5
11D6
330
D70
100
AcDbEntity
  8
241
  6
CONTINUOUS
100
AcDbLine
 10
21.37749907
 20
8.0
 30
0.0
 11
21.37749907
 21
31.5
 31
0.0
  0
LINE
  5
11D7
330
D70
100
AcDbEntity
  8
241
  6
CONTINUOUS
100
AcDbLine
 10
19.875
 20
8.0
 30
0.0
 11
19.875
 21
27.5
 31
0.0
  0
LINE
  5
11D8
330
D70
100
AcDbEntity
  8
240
  6
CONTINUOUS
100
AcDbLine
 10
26.0
 20
26.3
 30
0.0
 11
26.0
 21
30.5
 31
0.0
  0
LINE
  5
11D9
330
D70
100
AcDbEntity
  8
240
  6
CONTINUOUS
100
AcDbLine
 10
-2.0
 20
-24.215
 30
0.0
 11
-30.85992514
 21
-22.77200374
 31
0.0
  0
LINE
  5
11DA
330
D70
100
AcDbEntity
  8
240
  6
CONTINUOUS
100
AcDbLine
 10
-2.0
 20
24.215
 30
0.0
 11
-30.85992514
 21
22.77200374
 31
0.0
  0
LINE
  5
11DB
330
D70
100
AcDbEntity
  8
240
  6
CONTINUOUS
100
AcDbLine
 10
-31.0
 20
-6.27
 30
0.0
 11
-27.5
 21
-6.27
 31
0.0
  0
LINE
  5
11DC
330
D70
100
AcDbEntity
  8
240
  6
CONTINUOUS
100
AcDbLine
 10
-31.0
 20
6.27
 30
0.0
 11
-27.5
 21
6.27
 31
0.0
  0
LINE
  5
11DD
330
D70
100
AcDbEntity
  8
240
  6
CONTINUOUS
100
AcDbLine
 10
-32.0
 20
-21.57350094
 30
0.0
 11
-32.0
 21
-7.27
 31
0.0
  0
ARC
  5
11DE
330
D70
100
AcDbEntity
  8
240
  6
CONTINUOUS
100
AcDbCircle
 10
-30.8
 20
-21.57350094
 30
0.0
 40
1.199999999999988
100
AcDbArc
 50
180.0
 51
267.13759477
  0
LINE
  5
11DF
330
D70
100
AcDbEntity
  8
240
  6
CONTINUOUS
100
AcDbLine
 10
-32.0
 20
-7.27
 30
0.0
 11
-31.0
 21
-6.27
 31
0.0
  0
LINE
  5
11E0
330
D70
100
AcDbEntity
  8
240
  6
CONTINUOUS
100
AcDbLine
 10
-32.0
 20
7.27
 30
0.0
 11
-32.0
 21
21.57350094
 31
0.0
  0
LINE
  5
11E1
330
D70
100
AcDbEntity
  8
240
  6
CONTINUOUS
100
AcDbLine
 10
-31.0
 20
6.27
 30
0.0
 11
-32.0
 21
7.27
 31
0.0
  0
ARC
  5
11E2
330
D70
100
AcDbEntity
  8
240
  6
CONTINUOUS
100
AcDbCircle
 10
-30.8
 20
21.57350094
 30
0.0
 40
1.199999999999994
100
AcDbArc
 50
92.86240523
 51
180.0
  0
LINE
  5
11E3
330
D70
100
AcDbEntity
  8
240
  6
CONTINUOUS
100
AcDbLine
 10
34.0
 20
-25.3
 30
0.0
 11
34.0
 21
-22.5
 31
0.0
  0
LINE
  5
11E4
330
D70
100
AcDbEntity
  8
241
  6
CONTINUOUS
100
AcDbLine
 10
16.125
 20
-8.0
 30
0.0
 11
16.125
 21
-27.5
 31
0.0
  0
LINE
  5
11E5
330
D70
100
AcDbEntity
  8
240
  6
CONTINUOUS
100
AcDbLine
 10
0.0
 20
-30.5
 30
0.0
 11
0.0
 21
-24.215
 31
0.0
  0
LINE
  5
11E6
330
D70
100
AcDbEntity
  8
241
  6
CONTINUOUS
100
AcDbLine
 10
14.62250093
 20
-24.33618705
 30
0.0
 11
14.62250093
 21
-31.5
 31
0.0
  0
LINE
  5
11E7
330
D70
100
AcDbEntity
  8
241
  6
CONTINUOUS
100
AcDbLine
 10
19.875
 20
-8.0
 30
0.0
 11
19.875
 21
-27.5
 31
0.0
  0
LINE
  5
11E8
330
D70
100
AcDbEntity
  8
241
  6
CONTINUOUS
100
AcDbLine
 10
21.37749907
 20
-24.33618705
 30
0.0
 11
21.37749907
 21
-31.5
 31
0.0
  0
LINE
  5
11E9
330
D70
100
AcDbEntity
  8
241
  6
CONTINUOUS
100
AcDbLine
 10
26.5
 20
-25.70500591
 30
0.0
 11
26.5
 21
-7.51828235
 31
0.0
  0
LINE
  5
11EA
330
D70
100
AcDbEntity
  8
241
  6
CONTINUOUS
100
AcDbLine
 10
26.0
 20
0.0
 30
0.0
 11
26.0
 21
-26.3
 31
0.0
  0
LINE
  5
11EB
330
D70
100
AcDbEntity
  8
242
  6
CONTINUOUS
100
AcDbLine
 10
26.5
 20
-7.51828235
 30
0.0
 11
33.95512754
 21
-25.59619484
 31
0.0
  0
LINE
  5
11EC
330
D70
100
AcDbEntity
  8
242
  6
CONTINUOUS
100
AcDbLine
 10
26.5
 20
-25.70500591
 30
0.0
 11
34.0
 21
-7.51828235
 31
0.0
  0
LINE
  5
11ED
330
D70
100
AcDbEntity
  8
240
  6
CONTINUOUS
100
AcDbLine
 10
1.0
 20
-31.5
 30
0.0
 11
14.62250093
 21
-31.5
 31
0.0
  0
ARC
  5
11EE
330
D70
100
AcDbEntity
  8
240
  6
CONTINUOUS
100
AcDbCircle
 10
1.0
 20
-30.5
 30
0.0
 40
1.0
100
AcDbArc
 50
180.0
 51
270.0
  0
ARC
  5
11EF
330
D70
100
AcDbEntity
  8
240
  6
CONTINUOUS
100
AcDbCircle
 10
25.0
 20
-30.5
 30
0.0
 40
1.0
100
AcDbArc
 50
270.0
 51
0.0
  0
LINE
  5
11F0
330
D70
100
AcDbEntity
  8
240
  6
CONTINUOUS
100
AcDbLine
 10
16.125
 20
-27.5
 30
0.0
 11
19.875
 21
-27.5
 31
0.0
  0
LINE
  5
11F1
330
D70
100
AcDbEntity
  8
240
  6
CONTINUOUS
100
AcDbLine
 10
16.125
 20
-28.89759526
 30
0.0
 11
14.62250093
 21
-31.5
 31
0.0
  0
LINE
  5
11F2
330
D70
100
AcDbEntity
  8
240
  6
CONTINUOUS
100
AcDbLine
 10
16.125
 20
-27.5
 30
0.0
 11
16.125
 21
-28.89759526
 31
0.0
  0
LINE
  5
11F3
330
D70
100
AcDbEntity
  8
240
  6
CONTINUOUS
100
AcDbLine
 10
19.875
 20
-28.89759526
 30
0.0
 11
21.37749907
 21
-31.5
 31
0.0
  0
LINE
  5
11F4
330
D70
100
AcDbEntity
  8
240
  6
CONTINUOUS
100
AcDbLine
 10
21.37749907
 20
-31.5
 30
0.0
 11
25.0
 21
-31.5
 31
0.0
  0
LINE
  5
11F5
330
D70
100
AcDbEntity
  8
240
  6
CONTINUOUS
100
AcDbLine
 10
19.875
 20
-27.5
 30
0.0
 11
19.875
 21
-28.89759526
 31
0.0
  0
LINE
  5
11F6
330
D70
100
AcDbEntity
  8
240
  6
CONTINUOUS
100
AcDbLine
 10
26.0
 20
-26.3
 30
0.0
 11
33.0
 21
-26.3
 31
0.0
  0
LINE
  5
11F7
330
D70
100
AcDbEntity
  8
241
  6
CONTINUOUS
100
AcDbLine
 10
26.5
 20
-25.70500591
 30
0.0
 11
33.91431406
 21
-25.70500591
 31
0.0
  0
LINE
  5
11F8
330
D70
100
AcDbEntity
  8
240
  6
CONTINUOUS
100
AcDbLine
 10
26.0
 20
-30.5
 30
0.0
 11
26.0
 21
-26.3
 31
0.0
  0
ARC
  5
11F9
330
D70
100
AcDbEntity
  8
240
  6
CONTINUOUS
100
AcDbCircle
 10
33.0
 20
-25.3
 30
0.0
 40
1.0
100
AcDbArc
 50
270.0
 51
0.0
  0
ARC
  5
11FA
330
D70
100
AcDbEntity
  8
241
  6
CONTINUOUS
100
AcDbCircle
 10
12.1117139
 20
-28.0
 30
0.0
 40
8.0
100
AcDbArc
 50
90.0
 51
152.74338069
  0
LINE
  5
11FB
330
D70
100
AcDbEntity
  8
241
  6
CONTINUOUS
100
AcDbLine
 10
5.0
 20
-24.33618705
 30
0.0
 11
14.62250093
 21
-24.33618705
 31
0.0
  0
ARC
  5
11FC
330
D70
100
AcDbEntity
  8
241
  6
CONTINUOUS
100
AcDbCircle
 10
13.0
 20
0.0
 30
0.0
 40
8.0
100
AcDbArc
 50
90.0
 51
180.0
  0
ARC
  5
11FD
330
D70
100
AcDbEntity
  8
241
  6
CONTINUOUS
100
AcDbCircle
 10
13.0
 20
0.0
 30
0.0
 40
8.0
100
AcDbArc
 50
180.0
 51
270.0
  0
LINE
  5
11FE
330
D70
100
AcDbEntity
  8
241
  6
CONTINUOUS
100
AcDbLine
 10
-2.0
 20
24.215
 30
0.0
 11
-2.0
 21
0.0
 31
0.0
  0
LINE
  5
11FF
330
D70
100
AcDbEntity
  8
241
100
AcDbLine
 10
0.0
 20
24.215
 30
0.0
 11
0.0
 21
0.0
 31
0.0
  0
LINE
  5
1200
330
D70
100
AcDbEntity
  8
241
  6
HIDDEN2
100
AcDbLine
 10
-22.0
 20
4.77
 30
0.0
 11
-22.0
 21
0.0
 31
0.0
  0
LINE
  5
1201
330
D70
100
AcDbEntity
  8
240
  6
CONTINUOUS
100
AcDbLine
 10
-26.0
 20
4.77
 30
0.0
 11
-26.0
 21
0.0
 31
0.0
  0
CIRCLE
  5
1202
330
D70
100
AcDbEntity
  8
241
  6
CONTINUOUS
100
AcDbCircle
 10
-9.0
 20
0.0
 30
0.0
 40
3.75
  0
LINE
  5
1203
330
D70
100
AcDbEntity
  8
245
  6
CENTER2
100
AcDbLine
 10
-9.0
 20
-4.75
 30
0.0
 11
-9.0
 21
4.75
 31
0.0
  0
ARC
  5
1204
330
D70
100
AcDbEntity
  8
240
  6
CONTINUOUS
100
AcDbCircle
 10
-27.5
 20
-4.77
 30
0.0
 40
1.499999999999985
100
AcDbArc
 50
270.0
 51
0.0
  0
ARC
  5
1205
330
D70
100
AcDbEntity
  8
241
  6
HIDDEN2
100
AcDbCircle
 10
-23.5
 20
-4.77
 30
0.0
 40
1.499999999999985
100
AcDbArc
 50
270.0
 51
0.0
  0
LINE
  5
1206
330
D70
100
AcDbEntity
  8
241
  6
HIDDEN2
100
AcDbLine
 10
-27.5
 20
-6.27
 30
0.0
 11
-23.5
 21
-6.27
 31
0.0
  0
LINE
  5
1207
330
D70
100
AcDbEntity
  8
240
  6
CONTINUOUS
100
AcDbLine
 10
-26.0
 20
-4.77
 30
0.0
 11
-26.0
 21
0.0
 31
0.0
  0
LINE
  5
1208
330
D70
100
AcDbEntity
  8
241
  6
HIDDEN2
100
AcDbLine
 10
-22.0
 20
-4.77
 30
0.0
 11
-22.0
 21
0.0
 31
0.0
  0
LINE
  5
1209
330
D70
100
AcDbEntity
  8
241
100
AcDbLine
 10
0.0
 20
-24.215
 30
0.0
 11
0.0
 21
0.0
 31
0.0
  0
LINE
  5
120A
330
D70
100
AcDbEntity
  8
241
  6
CONTINUOUS
100
AcDbLine
 10
-2.0
 20
-24.215
 30
0.0
 11
-2.0
 21
0.0
 31
0.0
  0
LINE
  5
120B
330
D70
100
AcDbEntity
  8
240
100
AcDbLine
 10
-2.0
 20
-24.215
 30
0.0
 11
0.0
 21
-24.215
 31
0.0
  0
LINE
  5
120C
330
D70
100
AcDbEntity
  8
241
  6
HIDDEN2
100
AcDbLine
 10
-27.5
 20
6.27
 30
0.0
 11
-23.5
 21
6.27
 31
0.0
  0
ARC
  5
120D
330
D70
100
AcDbEntity
  8
240
  6
CONTINUOUS
100
AcDbCircle
 10
-27.5
 20
4.77
 30
0.0
 40
1.5
100
AcDbArc
 50
0.0
 51
90.0
  0
ARC
  5
120E
330
D70
100
AcDbEntity
  8
241
  6
HIDDEN2
100
AcDbCircle
 10
-23.5
 20
4.77
 30
0.0
 40
1.5
100
AcDbArc
 50
0.0
 51
90.0
  0
LINE
  5
120F
330
D70
100
AcDbEntity
  8
240
100
AcDbLine
 10
-2.0
 20
24.215
 30
0.0
 11
0.0
 21
24.215
 31
0.0
  0
LINE
  5
1210
330
D70
100
AcDbEntity
  8
241
  6
CONTINUOUS
100
AcDbLine
 10
38.06982749
 20
17.20215215
 30
0.0
 11
38.06982749
 21
0.0
 31
0.0
1001
GRPNAME
1000
PASTMD01
  0
LINE
  5
1211
330
D70
100
AcDbEntity
  8
241
  6
CONTINUOUS
100
AcDbLine
 10
39.09198952
 20
16.57351491
 30
0.0
 11
39.09198952
 21
0.0
 31
0.0
1001
GRPNAME
1000
PASTMD01
  0
LINE
  5
1212
330
D70
100
AcDbEntity
  8
241
  6
CONTINUOUS
100
AcDbLine
 10
42.06982749
 20
14.74212243
 30
0.0
 11
42.06982749
 21
0.0
 31
0.0
1001
GRPNAME
1000
PASTMD01
  0
LINE
  5
1213
330
D70
100
AcDbEntity
  8
241
  6
CONTINUOUS
100
AcDbLine
 10
43.09198952
 20
14.11348519
 30
0.0
 11
43.09198952
 21
0.0
 31
0.0
1001
GRPNAME
1000
PASTMD01
  0
LINE
  5
1214
330
D70
100
AcDbEntity
  8
241
100
AcDbLine
 10
34.0
 20
22.5
 30
0.0
 11
34.0
 21
0.0
 31
0.0
  0
LINE
  5
1215
330
D70
100
AcDbEntity
  8
241
  6
CONTINUOUS
100
AcDbLine
 10
26.0
 20
0.0
 30
0.0
 11
26.0
 21
26.3
 31
0.0
  0
LINE
  5
1216
330
D70
100
AcDbEntity
  8
241
  6
CONTINUOUS
100
AcDbLine
 10
13.0
 20
-8.0
 30
0.0
 11
26.0
 21
-8.0
 31
0.0
  0
LINE
  5
1217
330
D70
100
AcDbEntity
  8
241
  6
CONTINUOUS
100
AcDbLine
 10
21.37749907
 20
-24.33618705
 30
0.0
 11
26.0
 21
-24.33618705
 31
0.0
  0
LINE
  5
1218
330
D70
100
AcDbEntity
  8
241
  6
CONTINUOUS
100
AcDbLine
 10
19.875
 20
-20.0
 30
0.0
 11
26.0
 21
-20.0
 31
0.0
  0
LINE
  5
1219
330
D70
100
AcDbEntity
  8
241
  6
CONTINUOUS
100
AcDbLine
 10
14.62250093
 20
-8.0
 30
0.0
 11
14.62250093
 21
-20.0
 31
0.0
  0
LINE
  5
121A
330
D70
100
AcDbEntity
  8
241
  6
CONTINUOUS
100
AcDbLine
 10
21.37749907
 20
-8.0
 30
0.0
 11
21.37749907
 21
-20.0
 31
0.0
  0
LINE
  5
121B
330
D70
100
AcDbEntity
  8
241
  6
CONTINUOUS
100
AcDbLine
 10
14.62250093
 20
-24.33618705
 30
0.0
 11
16.125
 21
-20.85835593
 31
0.0
  0
LINE
  5
121C
330
D70
100
AcDbEntity
  8
241
  6
CONTINUOUS
100
AcDbLine
 10
12.1117139
 20
-20.0
 30
0.0
 11
16.125
 21
-20.0
 31
0.0
  0
LINE
  5
121D
330
D70
100
AcDbEntity
  8
241
  6
CONTINUOUS
100
AcDbLine
 10
21.37749907
 20
-24.33618705
 30
0.0
 11
19.875
 21
-20.85835593
 31
0.0
  0
LINE
  5
121E
330
D70
100
AcDbEntity
  8
241
  6
CONTINUOUS
100
AcDbLine
 10
43.09198952
 20
-14.11348519
 30
0.0
 11
43.09198952
 21
0.0
 31
0.0
1001
GRPNAME
1000
PASTMD01
  0
LINE
  5
121F
330
D70
100
AcDbEntity
  8
241
  6
CONTINUOUS
100
AcDbLine
 10
42.06982749
 20
-14.74212243
 30
0.0
 11
42.06982749
 21
0.0
 31
0.0
1001
GRPNAME
1000
PASTMD01
  0
LINE
  5
1220
330
D70
100
AcDbEntity
  8
241
  6
CONTINUOUS
100
AcDbLine
 10
39.09198952
 20
-16.57351491
 30
0.0
 11
39.09198952
 21
0.0
 31
0.0
1001
GRPNAME
1000
PASTMD01
  0
LINE
  5
1221
330
D70
100
AcDbEntity
  8
241
  6
CONTINUOUS
100
AcDbLine
 10
38.06982749
 20
-17.20215215
 30
0.0
 11
38.06982749
 21
0.0
 31
0.0
1001
GRPNAME
1000
PASTMD01
  0
LINE
  5
1222
330
D70
100
AcDbEntity
  8
241
100
AcDbLine
 10
34.0
 20
-22.5
 30
0.0
 11
34.0
 21
0.0
 31
0.0
  0
ARC
  5
1223
330
D70
100
AcDbEntity
  8
240
100
AcDbCircle
 10
39.0
 20
-22.5
 30
0.0
 40
5.0
100
AcDbArc
 50
121.59182453
 51
179.9999824
  0
LINE
  5
1224
330
D70
100
AcDbEntity
  8
241
  6
CONTINUOUS
100
AcDbLine
 10
26.5
 20
-7.51828235
 30
0.0
 11
34.0
 21
-7.51828235
 31
0.0
  0
LINE
  5
1225
330
D70
100
AcDbEntity
  8
241
  6
CONTINUOUS
100
AcDbLine
 10
13.0
 20
8.0
 30
0.0
 11
26.0
 21
8.0
 31
0.0
  0
ARC
  5
1226
330
D70
100
AcDbEntity
  8
240
100
AcDbCircle
 10
39.0
 20
22.5
 30
0.0
 40
5.0
100
AcDbArc
 50
180.0000176
 51
238.40817547
  0
LINE
  5
1227
330
D70
100
AcDbEntity
  8
240
  6
CONTINUOUS
100
AcDbLine
 10
26.0
 20
26.3
 30
0.0
 11
33.0
 21
26.3
 31
0.0
  0
LINE
  5
1228
330
D70
100
AcDbEntity
  8
240
  6
CONTINUOUS
100
AcDbLine
 10
34.0
 20
22.5
 30
0.0
 11
34.0
 21
25.3
 31
0.0
  0
ARC
  5
1229
330
D70
100
AcDbEntity
  8
240
  6
CONTINUOUS
100
AcDbCircle
 10
33.0
 20
25.3
 30
0.0
 40
1.0
100
AcDbArc
 50
0.0
 51
90.0
  0
LINE
  5
122A
330
D70
100
AcDbEntity
  8
240
  6
CONTINUOUS
100
AcDbLine
 10
1.0
 20
31.5
 30
0.0
 11
14.62250093
 21
31.5
 31
0.0
  0
ARC
  5
122B
330
D70
100
AcDbEntity
  8
240
  6
CONTINUOUS
100
AcDbCircle
 10
1.0
 20
30.5
 30
0.0
 40
1.0
100
AcDbArc
 50
90.0
 51
180.0
  0
ARC
  5
122C
330
D70
100
AcDbEntity
  8
240
  6
CONTINUOUS
100
AcDbCircle
 10
25.0
 20
30.5
 30
0.0
 40
1.0
100
AcDbArc
 50
0.0
 51
90.0
  0
LINE
  5
122D
330
D70
100
AcDbEntity
  8
240
  6
CONTINUOUS
100
AcDbLine
 10
16.125
 20
27.5
 30
0.0
 11
19.875
 21
27.5
 31
0.0
  0
LINE
  5
122E
330
D70
100
AcDbEntity
  8
240
  6
CONTINUOUS
100
AcDbLine
 10
16.125
 20
28.89759526
 30
0.0
 11
14.62250093
 21
31.5
 31
0.0
  0
LINE
  5
122F
330
D70
100
AcDbEntity
  8
240
  6
CONTINUOUS
100
AcDbLine
 10
16.125
 20
27.5
 30
0.0
 11
16.125
 21
28.89759526
 31
0.0
  0
LINE
  5
1230
330
D70
100
AcDbEntity
  8
240
  6
CONTINUOUS
100
AcDbLine
 10
19.875
 20
28.89759526
 30
0.0
 11
21.37749907
 21
31.5
 31
0.0
  0
LINE
  5
1231
330
D70
100
AcDbEntity
  8
240
  6
CONTINUOUS
100
AcDbLine
 10
19.875
 20
27.5
 30
0.0
 11
19.875
 21
28.89759526
 31
0.0
  0
LINE
  5
1232
330
D70
100
AcDbEntity
  8
240
  6
CONTINUOUS
100
AcDbLine
 10
21.37749907
 20
31.5
 30
0.0
 11
25.0
 21
31.5
 31
0.0
  0
LINE
  5
1233
330
D70
100
AcDbEntity
  8
241
100
AcDbLine
 10
75.18194298
 20
2.69629684
 30
0.0
 11
84.18414098
 21
1.10896645
 31
0.0
  0
LINE
  5
1234
330
D70
100
AcDbEntity
  8
241
100
AcDbLine
 10
73.92202417
 20
0.51405346
 30
0.0
 11
84.25
 21
-3.24502232
 31
0.0
  0
LINE
  5
1235
330
D70
100
AcDbEntity
  8
240
100
AcDbLine
 10
84.25
 20
-9.39776986
 30
0.0
 11
75.18194299
 21
-9.6
 31
0.0
  0
LINE
  5
1236
330
D70
100
AcDbEntity
  8
241
100
AcDbLine
 10
68.64497901
 20
-5.06571999
 30
0.0
 11
84.17099374
 21
-8.81217525
 31
0.0
  0
LINE
  5
1237
330
D70
100
AcDbEntity
  8
240
100
AcDbLine
 10
84.25
 20
9.39776986
 30
0.0
 11
75.18194299
 21
9.6
 31
0.0
  0
LINE
  5
1238
330
D70
100
AcDbEntity
  8
246
100
AcDbLine
 10
85.0
 20
10.0
 30
0.0
 11
77.0
 21
10.0
 31
0.0
1001
GRPNAME
1000
PASTMD4G
  0
LINE
  5
1239
330
D70
100
AcDbEntity
  8
246
100
AcDbLine
 10
85.0
 20
-10.0
 30
0.0
 11
77.0
 21
-10.0
 31
0.0
1001
GRPNAME
1000
PASTMD4G
  0
POLYLINE
  5
123A
330
D70
100
AcDbEntity
  8
241
100
AcDb3dPolyline
 66
     1
 10
0.0
 20
0.0
 30
0.0
 70
     8
  0
VERTEX
  5
123B
330
123A
100
AcDbEntity
  8
241
100
AcDbVertex
100
AcDb3dPolylineVertex
 10
78.6921
 20
6.68055
 30
0.0
 70
    32
  0
VERTEX
  5
123C
330
123A
100
AcDbEntity
  8
241
100
AcDbVertex
100
AcDb3dPolylineVertex
 10
78.6857
 20
6.64161
 30
0.0
 70
    32
  0
VERTEX
  5
123D
330
123A
100
AcDbEntity
  8
241
100
AcDbVertex
100
AcDb3dPolylineVertex
 10
78.68
 20
6.60255
 30
0.0
 70
    32
  0
VERTEX
  5
123E
330
123A
100
AcDbEntity
  8
241
100
AcDbVertex
100
AcDb3dPolylineVertex
 10
78.6752
 20
6.5634
 30
0.0
 70
    32
  0
VERTEX
  5
123F
330
123A
100
AcDbEntity
  8
241
100
AcDbVertex
100
AcDb3dPolylineVertex
 10
78.6712
 20
6.52418
 30
0.0
 70
    32
  0
VERTEX
  5
1240
330
123A
100
AcDbEntity
  8
241
100
AcDbVertex
100
AcDb3dPolylineVertex
 10
78.6679
 20
6.48491
 30
0.0
 70
    32
  0
VERTEX
  5
1241
330
123A
100
AcDbEntity
  8
241
100
AcDbVertex
100
AcDb3dPolylineVertex
 10
78.6655
 20
6.44562
 30
0.0
 70
    32
  0
VERTEX
  5
1242
330
123A
100
AcDbEntity
  8
241
100
AcDbVertex
100
AcDb3dPolylineVertex
 10
78.664
 20
6.40633
 30
0.0
 70
    32
  0
VERTEX
  5
1243
330
123A
100
AcDbEntity
  8
241
100
AcDbVertex
100
AcDb3dPolylineVertex
 10
78.6632
 20
6.36706
 30
0.0
 70
    32
  0
VERTEX
  5
1244
330
123A
100
AcDbEntity
  8
241
100
AcDbVertex
100
AcDb3dPolylineVertex
 10
78.6632
 20
6.32784
 30
0.0
 70
    32
  0
VERTEX
  5
1245
330
123A
100
AcDbEntity
  8
241
100
AcDbVertex
100
AcDb3dPolylineVertex
 10
78.6641
 20
6.28869
 30
0.0
 70
    32
  0
VERTEX
  5
1246
330
123A
100
AcDbEntity
  8
241
100
AcDbVertex
100
AcDb3dPolylineVertex
 10
78.6658
 20
6.24964
 30
0.0
 70
    32
  0
VERTEX
  5
1247
330
123A
100
AcDbEntity
  8
241
100
AcDbVertex
100
AcDb3dPolylineVertex
 10
78.6683
 20
6.2107
 30
0.0
 70
    32
  0
VERTEX
  5
1248
330
123A
100
AcDbEntity
  8
241
100
AcDbVertex
100
AcDb3dPolylineVertex
 10
78.6716
 20
6.1719
 30
0.0
 70
    32
  0
VERTEX
  5
1249
330
123A
100
AcDbEntity
  8
241
100
AcDbVertex
100
AcDb3dPolylineVertex
 10
78.6758
 20
6.13328
 30
0.0
 70
    32
  0
VERTEX
  5
124A
330
123A
100
AcDbEntity
  8
241
100
AcDbVertex
100
AcDb3dPolylineVertex
 10
78.6807
 20
6.09484
 30
0.0
 70
    32
  0
VERTEX
  5
124B
330
123A
100
AcDbEntity
  8
241
100
AcDbVertex
100
AcDb3dPolylineVertex
 10
78.6865
 20
6.05661
 30
0.0
 70
    32
  0
VERTEX
  5
124C
330
123A
100
AcDbEntity
  8
241
100
AcDbVertex
100
AcDb3dPolylineVertex
 10
78.693
 20
6.01861
 30
0.0
 70
    32
  0
VERTEX
  5
124D
330
123A
100
AcDbEntity
  8
241
100
AcDbVertex
100
AcDb3dPolylineVertex
 10
78.7004
 20
5.98087
 30
0.0
 70
    32
  0
VERTEX
  5
124E
330
123A
100
AcDbEntity
  8
241
100
AcDbVertex
100
AcDb3dPolylineVertex
 10
78.7085
 20
5.94342
 30
0.0
 70
    32
  0
VERTEX
  5
124F
330
123A
100
AcDbEntity
  8
241
100
AcDbVertex
100
AcDb3dPolylineVertex
 10
78.7175
 20
5.90626
 30
0.0
 70
    32
  0
VERTEX
  5
1250
330
123A
100
AcDbEntity
  8
241
100
AcDbVertex
100
AcDb3dPolylineVertex
 10
78.7272
 20
5.86944
 30
0.0
 70
    32
  0
VERTEX
  5
1251
330
123A
100
AcDbEntity
  8
241
100
AcDbVertex
100
AcDb3dPolylineVertex
 10
78.7377
 20
5.83295
 30
0.0
 70
    32
  0
VERTEX
  5
1252
330
123A
100
AcDbEntity
  8
241
100
AcDbVertex
100
AcDb3dPolylineVertex
 10
78.749
 20
5.79684
 30
0.0
 70
    32
  0
VERTEX
  5
1253
330
123A
100
AcDbEntity
  8
241
100
AcDbVertex
100
AcDb3dPolylineVertex
 10
78.761
 20
5.76112
 30
0.0
 70
    32
  0
VERTEX
  5
1254
330
123A
100
AcDbEntity
  8
241
100
AcDbVertex
100
AcDb3dPolylineVertex
 10
78.7738
 20
5.72581
 30
0.0
 70
    32
  0
VERTEX
  5
1255
330
123A
100
AcDbEntity
  8
241
100
AcDbVertex
100
AcDb3dPolylineVertex
 10
78.7874
 20
5.69094
 30
0.0
 70
    32
  0
VERTEX
  5
1256
330
123A
100
AcDbEntity
  8
241
100
AcDbVertex
100
AcDb3dPolylineVertex
 10
78.8017
 20
5.65652
 30
0.0
 70
    32
  0
VERTEX
  5
1257
330
123A
100
AcDbEntity
  8
241
100
AcDbVertex
100
AcDb3dPolylineVertex
 10
78.8167
 20
5.62258
 30
0.0
 70
    32
  0
VERTEX
  5
1258
330
123A
100
AcDbEntity
  8
241
100
AcDbVertex
100
AcDb3dPolylineVertex
 10
78.8325
 20
5.58913
 30
0.0
 70
    32
  0
VERTEX
  5
1259
330
123A
100
AcDbEntity
  8
241
100
AcDbVertex
100
AcDb3dPolylineVertex
 10
78.849
 20
5.5562
 30
0.0
 70
    32
  0
VERTEX
  5
125A
330
123A
100
AcDbEntity
  8
241
100
AcDbVertex
100
AcDb3dPolylineVertex
 10
78.8662
 20
5.5238
 30
0.0
 70
    32
  0
VERTEX
  5
125B
330
123A
100
AcDbEntity
  8
241
100
AcDbVertex
100
AcDb3dPolylineVertex
 10
78.8841
 20
5.49196
 30
0.0
 70
    32
  0
VERTEX
  5
125C
330
123A
100
AcDbEntity
  8
241
100
AcDbVertex
100
AcDb3dPolylineVertex
 10
78.9026
 20
5.4607
 30
0.0
 70
    32
  0
VERTEX
  5
125D
330
123A
100
AcDbEntity
  8
241
100
AcDbVertex
100
AcDb3dPolylineVertex
 10
78.9219
 20
5.43003
 30
0.0
 70
    32
  0
VERTEX
  5
125E
330
123A
100
AcDbEntity
  8
241
100
AcDbVertex
100
AcDb3dPolylineVertex
 10
78.9418
 20
5.39997
 30
0.0
 70
    32
  0
VERTEX
  5
125F
330
123A
100
AcDbEntity
  8
241
100
AcDbVertex
100
AcDb3dPolylineVertex
 10
78.9623
 20
5.37054
 30
0.0
 70
    32
  0
VERTEX
  5
1260
330
123A
100
AcDbEntity
  8
241
100
AcDbVertex
100
AcDb3dPolylineVertex
 10
78.9835
 20
5.34176
 30
0.0
 70
    32
  0
VERTEX
  5
1261
330
123A
100
AcDbEntity
  8
241
100
AcDbVertex
100
AcDb3dPolylineVertex
 10
79.0053
 20
5.31364
 30
0.0
 70
    32
  0
VERTEX
  5
1262
330
123A
100
AcDbEntity
  8
241
100
AcDbVertex
100
AcDb3dPolylineVertex
 10
79.0278
 20
5.28621
 30
0.0
 70
    32
  0
VERTEX
  5
1263
330
123A
100
AcDbEntity
  8
241
100
AcDbVertex
100
AcDb3dPolylineVertex
 10
79.0508
 20
5.25947
 30
0.0
 70
    32
  0
VERTEX
  5
1264
330
123A
100
AcDbEntity
  8
241
100
AcDbVertex
100
AcDb3dPolylineVertex
 10
79.0744
 20
5.23345
 30
0.0
 70
    32
  0
VERTEX
  5
1265
330
123A
100
AcDbEntity
  8
241
100
AcDbVertex
100
AcDb3dPolylineVertex
 10
79.0986
 20
5.20816
 30
0.0
 70
    32
  0
VERTEX
  5
1266
330
123A
100
AcDbEntity
  8
241
100
AcDbVertex
100
AcDb3dPolylineVertex
 10
79.1233
 20
5.18362
 30
0.0
 70
    32
  0
VERTEX
  5
1267
330
123A
100
AcDbEntity
  8
241
100
AcDbVertex
100
AcDb3dPolylineVertex
 10
79.1486
 20
5.15983
 30
0.0
 70
    32
  0
VERTEX
  5
1268
330
123A
100
AcDbEntity
  8
241
100
AcDbVertex
100
AcDb3dPolylineVertex
 10
79.1744
 20
5.13682
 30
0.0
 70
    32
  0
VERTEX
  5
1269
330
123A
100
AcDbEntity
  8
241
100
AcDbVertex
100
AcDb3dPolylineVertex
 10
79.2007
 20
5.1146
 30
0.0
 70
    32
  0
VERTEX
  5
126A
330
123A
100
AcDbEntity
  8
241
100
AcDbVertex
100
AcDb3dPolylineVertex
 10
79.2275
 20
5.09318
 30
0.0
 70
    32
  0
VERTEX
  5
126B
330
123A
100
AcDbEntity
  8
241
100
AcDbVertex
100
AcDb3dPolylineVertex
 10
79.2548
 20
5.07258
 30
0.0
 70
    32
  0
VERTEX
  5
126C
330
123A
100
AcDbEntity
  8
241
100
AcDbVertex
100
AcDb3dPolylineVertex
 10
79.2826
 20
5.0528
 30
0.0
 70
    32
  0
VERTEX
  5
126D
330
123A
100
AcDbEntity
  8
241
100
AcDbVertex
100
AcDb3dPolylineVertex
 10
79.3108
 20
5.03387
 30
0.0
 70
    32
  0
VERTEX
  5
126E
330
123A
100
AcDbEntity
  8
241
100
AcDbVertex
100
AcDb3dPolylineVertex
 10
79.3394
 20
5.01578
 30
0.0
 70
    32
  0
VERTEX
  5
126F
330
123A
100
AcDbEntity
  8
241
100
AcDbVertex
100
AcDb3dPolylineVertex
 10
79.3684
 20
4.99856
 30
0.0
 70
    32
  0
VERTEX
  5
1270
330
123A
100
AcDbEntity
  8
241
100
AcDbVertex
100
AcDb3dPolylineVertex
 10
79.3979
 20
4.98221
 30
0.0
 70
    32
  0
VERTEX
  5
1271
330
123A
100
AcDbEntity
  8
241
100
AcDbVertex
100
AcDb3dPolylineVertex
 10
79.4277
 20
4.96673
 30
0.0
 70
    32
  0
VERTEX
  5
1272
330
123A
100
AcDbEntity
  8
241
100
AcDbVertex
100
AcDb3dPolylineVertex
 10
79.4578
 20
4.95216
 30
0.0
 70
    32
  0
VERTEX
  5
1273
330
123A
100
AcDbEntity
  8
241
100
AcDbVertex
100
AcDb3dPolylineVertex
 10
79.4883
 20
4.93848
 30
0.0
 70
    32
  0
VERTEX
  5
1274
330
123A
100
AcDbEntity
  8
241
100
AcDbVertex
100
AcDb3dPolylineVertex
 10
79.5192
 20
4.9257
 30
0.0
 70
    32
  0
VERTEX
  5
1275
330
123A
100
AcDbEntity
  8
241
100
AcDbVertex
100
AcDb3dPolylineVertex
 10
79.5503
 20
4.91385
 30
0.0
 70
    32
  0
VERTEX
  5
1276
330
123A
100
AcDbEntity
  8
241
100
AcDbVertex
100
AcDb3dPolylineVertex
 10
79.5817
 20
4.90292
 30
0.0
 70
    32
  0
VERTEX
  5
1277
330
123A
100
AcDbEntity
  8
241
100
AcDbVertex
100
AcDb3dPolylineVertex
 10
79.6134
 20
4.89291
 30
0.0
 70
    32
  0
VERTEX
  5
1278
330
123A
100
AcDbEntity
  8
241
100
AcDbVertex
100
AcDb3dPolylineVertex
 10
79.6453
 20
4.88385
 30
0.0
 70
    32
  0
VERTEX
  5
1279
330
123A
100
AcDbEntity
  8
241
100
AcDbVertex
100
AcDb3dPolylineVertex
 10
79.6775
 20
4.87572
 30
0.0
 70
    32
  0
VERTEX
  5
127A
330
123A
100
AcDbEntity
  8
241
100
AcDbVertex
100
AcDb3dPolylineVertex
 10
79.7098
 20
4.86854
 30
0.0
 70
    32
  0
VERTEX
  5
127B
330
123A
100
AcDbEntity
  8
241
100
AcDbVertex
100
AcDb3dPolylineVertex
 10
79.7423
 20
4.86231
 30
0.0
 70
    32
  0
VERTEX
  5
127C
330
123A
100
AcDbEntity
  8
241
100
AcDbVertex
100
AcDb3dPolylineVertex
 10
79.7751
 20
4.85703
 30
0.0
 70
    32
  0
VERTEX
  5
127D
330
123A
100
AcDbEntity
  8
241
100
AcDbVertex
100
AcDb3dPolylineVertex
 10
79.8079
 20
4.85271
 30
0.0
 70
    32
  0
VERTEX
  5
127E
330
123A
100
AcDbEntity
  8
241
100
AcDbVertex
100
AcDb3dPolylineVertex
 10
79.8409
 20
4.84935
 30
0.0
 70
    32
  0
VERTEX
  5
127F
330
123A
100
AcDbEntity
  8
241
100
AcDbVertex
100
AcDb3dPolylineVertex
 10
79.874
 20
4.84696
 30
0.0
 70
    32
  0
VERTEX
  5
1280
330
123A
100
AcDbEntity
  8
241
100
AcDbVertex
100
AcDb3dPolylineVertex
 10
79.9072
 20
4.84552
 30
0.0
 70
    32
  0
VERTEX
  5
1281
330
123A
100
AcDbEntity
  8
241
100
AcDbVertex
100
AcDb3dPolylineVertex
 10
79.9404
 20
4.84505
 30
0.0
 70
    32
  0
VERTEX
  5
1282
330
123A
100
AcDbEntity
  8
241
100
AcDbVertex
100
AcDb3dPolylineVertex
 10
79.9738
 20
4.84555
 30
0.0
 70
    32
  0
VERTEX
  5
1283
330
123A
100
AcDbEntity
  8
241
100
AcDbVertex
100
AcDb3dPolylineVertex
 10
80.0071
 20
4.84701
 30
0.0
 70
    32
  0
VERTEX
  5
1284
330
123A
100
AcDbEntity
  8
241
100
AcDbVertex
100
AcDb3dPolylineVertex
 10
80.0404
 20
4.84943
 30
0.0
 70
    32
  0
VERTEX
  5
1285
330
123A
100
AcDbEntity
  8
241
100
AcDbVertex
100
AcDb3dPolylineVertex
 10
80.0738
 20
4.85281
 30
0.0
 70
    32
  0
VERTEX
  5
1286
330
123A
100
AcDbEntity
  8
241
100
AcDbVertex
100
AcDb3dPolylineVertex
 10
80.1071
 20
4.85716
 30
0.0
 70
    32
  0
VERTEX
  5
1287
330
123A
100
AcDbEntity
  8
241
100
AcDbVertex
100
AcDb3dPolylineVertex
 10
80.1403
 20
4.86246
 30
0.0
 70
    32
  0
VERTEX
  5
1288
330
123A
100
AcDbEntity
  8
241
100
AcDbVertex
100
AcDb3dPolylineVertex
 10
80.1735
 20
4.86871
 30
0.0
 70
    32
  0
VERTEX
  5
1289
330
123A
100
AcDbEntity
  8
241
100
AcDbVertex
100
AcDb3dPolylineVertex
 10
80.2066
 20
4.87592
 30
0.0
 70
    32
  0
VERTEX
  5
128A
330
123A
100
AcDbEntity
  8
241
100
AcDbVertex
100
AcDb3dPolylineVertex
 10
80.2395
 20
4.88407
 30
0.0
 70
    32
  0
VERTEX
  5
128B
330
123A
100
AcDbEntity
  8
241
100
AcDbVertex
100
AcDb3dPolylineVertex
 10
80.2724
 20
4.89316
 30
0.0
 70
    32
  0
VERTEX
  5
128C
330
123A
100
AcDbEntity
  8
241
100
AcDbVertex
100
AcDb3dPolylineVertex
 10
80.3051
 20
4.90319
 30
0.0
 70
    32
  0
VERTEX
  5
128D
330
123A
100
AcDbEntity
  8
241
100
AcDbVertex
100
AcDb3dPolylineVertex
 10
80.3376
 20
4.91414
 30
0.0
 70
    32
  0
VERTEX
  5
128E
330
123A
100
AcDbEntity
  8
241
100
AcDbVertex
100
AcDb3dPolylineVertex
 10
80.3699
 20
4.92602
 30
0.0
 70
    32
  0
VERTEX
  5
128F
330
123A
100
AcDbEntity
  8
241
100
AcDbVertex
100
AcDb3dPolylineVertex
 10
80.402
 20
4.93882
 30
0.0
 70
    32
  0
VERTEX
  5
1290
330
123A
100
AcDbEntity
  8
241
100
AcDbVertex
100
AcDb3dPolylineVertex
 10
80.4339
 20
4.95252
 30
0.0
 70
    32
  0
VERTEX
  5
1291
330
123A
100
AcDbEntity
  8
241
100
AcDbVertex
100
AcDb3dPolylineVertex
 10
80.4656
 20
4.96712
 30
0.0
 70
    32
  0
VERTEX
  5
1292
330
123A
100
AcDbEntity
  8
241
100
AcDbVertex
100
AcDb3dPolylineVertex
 10
80.497
 20
4.98262
 30
0.0
 70
    32
  0
VERTEX
  5
1293
330
123A
100
AcDbEntity
  8
241
100
AcDbVertex
100
AcDb3dPolylineVertex
 10
80.528
 20
4.99899
 30
0.0
 70
    32
  0
VERTEX
  5
1294
330
123A
100
AcDbEntity
  8
241
100
AcDbVertex
100
AcDb3dPolylineVertex
 10
80.5588
 20
5.01624
 30
0.0
 70
    32
  0
VERTEX
  5
1295
330
123A
100
AcDbEntity
  8
241
100
AcDbVertex
100
AcDb3dPolylineVertex
 10
80.5893
 20
5.03435
 30
0.0
 70
    32
  0
VERTEX
  5
1296
330
123A
100
AcDbEntity
  8
241
100
AcDbVertex
100
AcDb3dPolylineVertex
 10
80.6194
 20
5.0533
 30
0.0
 70
    32
  0
VERTEX
  5
1297
330
123A
100
AcDbEntity
  8
241
100
AcDbVertex
100
AcDb3dPolylineVertex
 10
80.6492
 20
5.0731
 30
0.0
 70
    32
  0
VERTEX
  5
1298
330
123A
100
AcDbEntity
  8
241
100
AcDbVertex
100
AcDb3dPolylineVertex
 10
80.6785
 20
5.09373
 30
0.0
 70
    32
  0
VERTEX
  5
1299
330
123A
100
AcDbEntity
  8
241
100
AcDbVertex
100
AcDb3dPolylineVertex
 10
80.7075
 20
5.11516
 30
0.0
 70
    32
  0
VERTEX
  5
129A
330
123A
100
AcDbEntity
  8
241
100
AcDbVertex
100
AcDb3dPolylineVertex
 10
80.7361
 20
5.13741
 30
0.0
 70
    32
  0
VERTEX
  5
129B
330
123A
100
AcDbEntity
  8
241
100
AcDbVertex
100
AcDb3dPolylineVertex
 10
80.7642
 20
5.16043
 30
0.0
 70
    32
  0
VERTEX
  5
129C
330
123A
100
AcDbEntity
  8
241
100
AcDbVertex
100
AcDb3dPolylineVertex
 10
80.7919
 20
5.18424
 30
0.0
 70
    32
  0
VERTEX
  5
129D
330
123A
100
AcDbEntity
  8
241
100
AcDbVertex
100
AcDb3dPolylineVertex
 10
80.8192
 20
5.2088
 30
0.0
 70
    32
  0
VERTEX
  5
129E
330
123A
100
AcDbEntity
  8
241
100
AcDbVertex
100
AcDb3dPolylineVertex
 10
80.8459
 20
5.23411
 30
0.0
 70
    32
  0
VERTEX
  5
129F
330
123A
100
AcDbEntity
  8
241
100
AcDbVertex
100
AcDb3dPolylineVertex
 10
80.8722
 20
5.26015
 30
0.0
 70
    32
  0
VERTEX
  5
12A0
330
123A
100
AcDbEntity
  8
241
100
AcDbVertex
100
AcDb3dPolylineVertex
 10
80.8979
 20
5.2869
 30
0.0
 70
    32
  0
VERTEX
  5
12A1
330
123A
100
AcDbEntity
  8
241
100
AcDbVertex
100
AcDb3dPolylineVertex
 10
80.9231
 20
5.31436
 30
0.0
 70
    32
  0
VERTEX
  5
12A2
330
123A
100
AcDbEntity
  8
241
100
AcDbVertex
100
AcDb3dPolylineVertex
 10
80.9478
 20
5.34249
 30
0.0
 70
    32
  0
VERTEX
  5
12A3
330
123A
100
AcDbEntity
  8
241
100
AcDbVertex
100
AcDb3dPolylineVertex
 10
80.9719
 20
5.37129
 30
0.0
 70
    32
  0
VERTEX
  5
12A4
330
123A
100
AcDbEntity
  8
241
100
AcDbVertex
100
AcDb3dPolylineVertex
 10
80.9954
 20
5.40073
 30
0.0
 70
    32
  0
VERTEX
  5
12A5
330
123A
100
AcDbEntity
  8
241
100
AcDbVertex
100
AcDb3dPolylineVertex
 10
81.0184
 20
5.43081
 30
0.0
 70
    32
  0
VERTEX
  5
12A6
330
123A
100
AcDbEntity
  8
241
100
AcDbVertex
100
AcDb3dPolylineVertex
 10
81.0407
 20
5.4615
 30
0.0
 70
    32
  0
VERTEX
  5
12A7
330
123A
100
AcDbEntity
  8
241
100
AcDbVertex
100
AcDb3dPolylineVertex
 10
81.0625
 20
5.49278
 30
0.0
 70
    32
  0
VERTEX
  5
12A8
330
123A
100
AcDbEntity
  8
241
100
AcDbVertex
100
AcDb3dPolylineVertex
 10
81.0836
 20
5.52463
 30
0.0
 70
    32
  0
VERTEX
  5
12A9
330
123A
100
AcDbEntity
  8
241
100
AcDbVertex
100
AcDb3dPolylineVertex
 10
81.1041
 20
5.55704
 30
0.0
 70
    32
  0
VERTEX
  5
12AA
330
123A
100
AcDbEntity
  8
241
100
AcDbVertex
100
AcDb3dPolylineVertex
 10
81.1239
 20
5.58998
 30
0.0
 70
    32
  0
VERTEX
  5
12AB
330
123A
100
AcDbEntity
  8
241
100
AcDbVertex
100
AcDb3dPolylineVertex
 10
81.143
 20
5.62345
 30
0.0
 70
    32
  0
VERTEX
  5
12AC
330
123A
100
AcDbEntity
  8
241
100
AcDbVertex
100
AcDb3dPolylineVertex
 10
81.1615
 20
5.6574
 30
0.0
 70
    32
  0
VERTEX
  5
12AD
330
123A
100
AcDbEntity
  8
241
100
AcDbVertex
100
AcDb3dPolylineVertex
 10
81.1793
 20
5.69183
 30
0.0
 70
    32
  0
VERTEX
  5
12AE
330
123A
100
AcDbEntity
  8
241
100
AcDbVertex
100
AcDb3dPolylineVertex
 10
81.1964
 20
5.72672
 30
0.0
 70
    32
  0
VERTEX
  5
12AF
330
123A
100
AcDbEntity
  8
241
100
AcDbVertex
100
AcDb3dPolylineVertex
 10
81.2128
 20
5.76204
 30
0.0
 70
    32
  0
VERTEX
  5
12B0
330
123A
100
AcDbEntity
  8
241
100
AcDbVertex
100
AcDb3dPolylineVertex
 10
81.2285
 20
5.79777
 30
0.0
 70
    32
  0
VERTEX
  5
12B1
330
123A
100
AcDbEntity
  8
241
100
AcDbVertex
100
AcDb3dPolylineVertex
 10
81.2434
 20
5.83389
 30
0.0
 70
    32
  0
VERTEX
  5
12B2
330
123A
100
AcDbEntity
  8
241
100
AcDbVertex
100
AcDb3dPolylineVertex
 10
81.2576
 20
5.87038
 30
0.0
 70
    32
  0
VERTEX
  5
12B3
330
123A
100
AcDbEntity
  8
241
100
AcDbVertex
100
AcDb3dPolylineVertex
 10
81.2711
 20
5.90722
 30
0.0
 70
    32
  0
VERTEX
  5
12B4
330
123A
100
AcDbEntity
  8
241
100
AcDbVertex
100
AcDb3dPolylineVertex
 10
81.2838
 20
5.94438
 30
0.0
 70
    32
  0
VERTEX
  5
12B5
330
123A
100
AcDbEntity
  8
241
100
AcDbVertex
100
AcDb3dPolylineVertex
 10
81.2957
 20
5.98184
 30
0.0
 70
    32
  0
VERTEX
  5
12B6
330
123A
100
AcDbEntity
  8
241
100
AcDbVertex
100
AcDb3dPolylineVertex
 10
81.3069
 20
6.01959
 30
0.0
 70
    32
  0
VERTEX
  5
12B7
330
123A
100
AcDbEntity
  8
241
100
AcDbVertex
100
AcDb3dPolylineVertex
 10
81.3173
 20
6.05759
 30
0.0
 70
    32
  0
VERTEX
  5
12B8
330
123A
100
AcDbEntity
  8
241
100
AcDbVertex
100
AcDb3dPolylineVertex
 10
81.327
 20
6.09582
 30
0.0
 70
    32
  0
VERTEX
  5
12B9
330
123A
100
AcDbEntity
  8
241
100
AcDbVertex
100
AcDb3dPolylineVertex
 10
81.3358
 20
6.13427
 30
0.0
 70
    32
  0
VERTEX
  5
12BA
330
123A
100
AcDbEntity
  8
241
100
AcDbVertex
100
AcDb3dPolylineVertex
 10
81.3439
 20
6.1729
 30
0.0
 70
    32
  0
VERTEX
  5
12BB
330
123A
100
AcDbEntity
  8
241
100
AcDbVertex
100
AcDb3dPolylineVertex
 10
81.3511
 20
6.2117
 30
0.0
 70
    32
  0
SEQEND
  5
12BC
330
123A
100
AcDbEntity
  8
241
  0
POLYLINE
  5
12BD
330
D70
100
AcDbEntity
  8
241
100
AcDb3dPolyline
 66
     1
 10
0.0
 20
0.0
 30
0.0
 70
     8
  0
VERTEX
  5
12BE
330
12BD
100
AcDbEntity
  8
241
100
AcDbVertex
100
AcDb3dPolylineVertex
 10
81.3511
 20
6.2117
 30
0.0
 70
    32
  0
VERTEX
  5
12BF
330
12BD
100
AcDbEntity
  8
241
100
AcDbVertex
100
AcDb3dPolylineVertex
 10
81.3556
 20
6.23947
 30
0.0
 70
    32
  0
VERTEX
  5
12C0
330
12BD
100
AcDbEntity
  8
241
100
AcDbVertex
100
AcDb3dPolylineVertex
 10
81.3593
 20
6.26737
 30
0.0
 70
    32
  0
VERTEX
  5
12C1
330
12BD
100
AcDbEntity
  8
241
100
AcDbVertex
100
AcDb3dPolylineVertex
 10
81.3621
 20
6.29537
 30
0.0
 70
    32
  0
VERTEX
  5
12C2
330
12BD
100
AcDbEntity
  8
241
100
AcDbVertex
100
AcDb3dPolylineVertex
 10
81.3642
 20
6.32346
 30
0.0
 70
    32
  0
VERTEX
  5
12C3
330
12BD
100
AcDbEntity
  8
241
100
AcDbVertex
100
AcDb3dPolylineVertex
 10
81.3655
 20
6.35163
 30
0.0
 70
    32
  0
VERTEX
  5
12C4
330
12BD
100
AcDbEntity
  8
241
100
AcDbVertex
100
AcDb3dPolylineVertex
 10
81.3659
 20
6.37985
 30
0.0
 70
    32
  0
VERTEX
  5
12C5
330
12BD
100
AcDbEntity
  8
241
100
AcDbVertex
100
AcDb3dPolylineVertex
 10
81.3656
 20
6.40811
 30
0.0
 70
    32
  0
VERTEX
  5
12C6
330
12BD
100
AcDbEntity
  8
241
100
AcDbVertex
100
AcDb3dPolylineVertex
 10
81.3644
 20
6.4364
 30
0.0
 70
    32
  0
VERTEX
  5
12C7
330
12BD
100
AcDbEntity
  8
241
100
AcDbVertex
100
AcDb3dPolylineVertex
 10
81.3624
 20
6.46469
 30
0.0
 70
    32
  0
VERTEX
  5
12C8
330
12BD
100
AcDbEntity
  8
241
100
AcDbVertex
100
AcDb3dPolylineVertex
 10
81.3596
 20
6.49297
 30
0.0
 70
    32
  0
VERTEX
  5
12C9
330
12BD
100
AcDbEntity
  8
241
100
AcDbVertex
100
AcDb3dPolylineVertex
 10
81.356
 20
6.52123
 30
0.0
 70
    32
  0
VERTEX
  5
12CA
330
12BD
100
AcDbEntity
  8
241
100
AcDbVertex
100
AcDb3dPolylineVertex
 10
81.3516
 20
6.54944
 30
0.0
 70
    32
  0
VERTEX
  5
12CB
330
12BD
100
AcDbEntity
  8
241
100
AcDbVertex
100
AcDb3dPolylineVertex
 10
81.3464
 20
6.57758
 30
0.0
 70
    32
  0
VERTEX
  5
12CC
330
12BD
100
AcDbEntity
  8
241
100
AcDbVertex
100
AcDb3dPolylineVertex
 10
81.3404
 20
6.60565
 30
0.0
 70
    32
  0
VERTEX
  5
12CD
330
12BD
100
AcDbEntity
  8
241
100
AcDbVertex
100
AcDb3dPolylineVertex
 10
81.3337
 20
6.63362
 30
0.0
 70
    32
  0
VERTEX
  5
12CE
330
12BD
100
AcDbEntity
  8
241
100
AcDbVertex
100
AcDb3dPolylineVertex
 10
81.3261
 20
6.66147
 30
0.0
 70
    32
  0
VERTEX
  5
12CF
330
12BD
100
AcDbEntity
  8
241
100
AcDbVertex
100
AcDb3dPolylineVertex
 10
81.3177
 20
6.6892
 30
0.0
 70
    32
  0
VERTEX
  5
12D0
330
12BD
100
AcDbEntity
  8
241
100
AcDbVertex
100
AcDb3dPolylineVertex
 10
81.3086
 20
6.71678
 30
0.0
 70
    32
  0
VERTEX
  5
12D1
330
12BD
100
AcDbEntity
  8
241
100
AcDbVertex
100
AcDb3dPolylineVertex
 10
81.2986
 20
6.7442
 30
0.0
 70
    32
  0
VERTEX
  5
12D2
330
12BD
100
AcDbEntity
  8
241
100
AcDbVertex
100
AcDb3dPolylineVertex
 10
81.2879
 20
6.77144
 30
0.0
 70
    32
  0
VERTEX
  5
12D3
330
12BD
100
AcDbEntity
  8
241
100
AcDbVertex
100
AcDb3dPolylineVertex
 10
81.2765
 20
6.79848
 30
0.0
 70
    32
  0
VERTEX
  5
12D4
330
12BD
100
AcDbEntity
  8
241
100
AcDbVertex
100
AcDb3dPolylineVertex
 10
81.2643
 20
6.82531
 30
0.0
 70
    32
  0
VERTEX
  5
12D5
330
12BD
100
AcDbEntity
  8
241
100
AcDbVertex
100
AcDb3dPolylineVertex
 10
81.2513
 20
6.85191
 30
0.0
 70
    32
  0
VERTEX
  5
12D6
330
12BD
100
AcDbEntity
  8
241
100
AcDbVertex
100
AcDb3dPolylineVertex
 10
81.2376
 20
6.87827
 30
0.0
 70
    32
  0
VERTEX
  5
12D7
330
12BD
100
AcDbEntity
  8
241
100
AcDbVertex
100
AcDb3dPolylineVertex
 10
81.2232
 20
6.90437
 30
0.0
 70
    32
  0
VERTEX
  5
12D8
330
12BD
100
AcDbEntity
  8
241
100
AcDbVertex
100
AcDb3dPolylineVertex
 10
81.208
 20
6.93019
 30
0.0
 70
    32
  0
VERTEX
  5
12D9
330
12BD
100
AcDbEntity
  8
241
100
AcDbVertex
100
AcDb3dPolylineVertex
 10
81.1922
 20
6.95572
 30
0.0
 70
    32
  0
VERTEX
  5
12DA
330
12BD
100
AcDbEntity
  8
241
100
AcDbVertex
100
AcDb3dPolylineVertex
 10
81.1756
 20
6.98094
 30
0.0
 70
    32
  0
VERTEX
  5
12DB
330
12BD
100
AcDbEntity
  8
241
100
AcDbVertex
100
AcDb3dPolylineVertex
 10
81.1583
 20
7.00584
 30
0.0
 70
    32
  0
VERTEX
  5
12DC
330
12BD
100
AcDbEntity
  8
241
100
AcDbVertex
100
AcDb3dPolylineVertex
 10
81.1404
 20
7.03041
 30
0.0
 70
    32
  0
VERTEX
  5
12DD
330
12BD
100
AcDbEntity
  8
241
100
AcDbVertex
100
AcDb3dPolylineVertex
 10
81.1217
 20
7.05462
 30
0.0
 70
    32
  0
VERTEX
  5
12DE
330
12BD
100
AcDbEntity
  8
241
100
AcDbVertex
100
AcDb3dPolylineVertex
 10
81.1024
 20
7.07846
 30
0.0
 70
    32
  0
VERTEX
  5
12DF
330
12BD
100
AcDbEntity
  8
241
100
AcDbVertex
100
AcDb3dPolylineVertex
 10
81.0825
 20
7.10193
 30
0.0
 70
    32
  0
VERTEX
  5
12E0
330
12BD
100
AcDbEntity
  8
241
100
AcDbVertex
100
AcDb3dPolylineVertex
 10
81.0619
 20
7.125
 30
0.0
 70
    32
  0
VERTEX
  5
12E1
330
12BD
100
AcDbEntity
  8
241
100
AcDbVertex
100
AcDb3dPolylineVertex
 10
81.0407
 20
7.14766
 30
0.0
 70
    32
  0
VERTEX
  5
12E2
330
12BD
100
AcDbEntity
  8
241
100
AcDbVertex
100
AcDb3dPolylineVertex
 10
81.0189
 20
7.16989
 30
0.0
 70
    32
  0
VERTEX
  5
12E3
330
12BD
100
AcDbEntity
  8
241
100
AcDbVertex
100
AcDb3dPolylineVertex
 10
80.9965
 20
7.1917
 30
0.0
 70
    32
  0
VERTEX
  5
12E4
330
12BD
100
AcDbEntity
  8
241
100
AcDbVertex
100
AcDb3dPolylineVertex
 10
80.9734
 20
7.21305
 30
0.0
 70
    32
  0
VERTEX
  5
12E5
330
12BD
100
AcDbEntity
  8
241
100
AcDbVertex
100
AcDb3dPolylineVertex
 10
80.9499
 20
7.23394
 30
0.0
 70
    32
  0
VERTEX
  5
12E6
330
12BD
100
AcDbEntity
  8
241
100
AcDbVertex
100
AcDb3dPolylineVertex
 10
80.9257
 20
7.25435
 30
0.0
 70
    32
  0
VERTEX
  5
12E7
330
12BD
100
AcDbEntity
  8
241
100
AcDbVertex
100
AcDb3dPolylineVertex
 10
80.901
 20
7.27428
 30
0.0
 70
    32
  0
VERTEX
  5
12E8
330
12BD
100
AcDbEntity
  8
241
100
AcDbVertex
100
AcDb3dPolylineVertex
 10
80.8758
 20
7.29371
 30
0.0
 70
    32
  0
VERTEX
  5
12E9
330
12BD
100
AcDbEntity
  8
241
100
AcDbVertex
100
AcDb3dPolylineVertex
 10
80.8501
 20
7.31263
 30
0.0
 70
    32
  0
VERTEX
  5
12EA
330
12BD
100
AcDbEntity
  8
241
100
AcDbVertex
100
AcDb3dPolylineVertex
 10
80.8239
 20
7.33103
 30
0.0
 70
    32
  0
VERTEX
  5
12EB
330
12BD
100
AcDbEntity
  8
241
100
AcDbVertex
100
AcDb3dPolylineVertex
 10
80.7971
 20
7.34889
 30
0.0
 70
    32
  0
VERTEX
  5
12EC
330
12BD
100
AcDbEntity
  8
241
100
AcDbVertex
100
AcDb3dPolylineVertex
 10
80.77
 20
7.36622
 30
0.0
 70
    32
  0
VERTEX
  5
12ED
330
12BD
100
AcDbEntity
  8
241
100
AcDbVertex
100
AcDb3dPolylineVertex
 10
80.7423
 20
7.38298
 30
0.0
 70
    32
  0
VERTEX
  5
12EE
330
12BD
100
AcDbEntity
  8
241
100
AcDbVertex
100
AcDb3dPolylineVertex
 10
80.7143
 20
7.39918
 30
0.0
 70
    32
  0
VERTEX
  5
12EF
330
12BD
100
AcDbEntity
  8
241
100
AcDbVertex
100
AcDb3dPolylineVertex
 10
80.6858
 20
7.41481
 30
0.0
 70
    32
  0
VERTEX
  5
12F0
330
12BD
100
AcDbEntity
  8
241
100
AcDbVertex
100
AcDb3dPolylineVertex
 10
80.6569
 20
7.42986
 30
0.0
 70
    32
  0
VERTEX
  5
12F1
330
12BD
100
AcDbEntity
  8
241
100
AcDbVertex
100
AcDb3dPolylineVertex
 10
80.6276
 20
7.44431
 30
0.0
 70
    32
  0
VERTEX
  5
12F2
330
12BD
100
AcDbEntity
  8
241
100
AcDbVertex
100
AcDb3dPolylineVertex
 10
80.598
 20
7.45816
 30
0.0
 70
    32
  0
VERTEX
  5
12F3
330
12BD
100
AcDbEntity
  8
241
100
AcDbVertex
100
AcDb3dPolylineVertex
 10
80.568
 20
7.4714
 30
0.0
 70
    32
  0
VERTEX
  5
12F4
330
12BD
100
AcDbEntity
  8
241
100
AcDbVertex
100
AcDb3dPolylineVertex
 10
80.5377
 20
7.48402
 30
0.0
 70
    32
  0
VERTEX
  5
12F5
330
12BD
100
AcDbEntity
  8
241
100
AcDbVertex
100
AcDb3dPolylineVertex
 10
80.5071
 20
7.49602
 30
0.0
 70
    32
  0
VERTEX
  5
12F6
330
12BD
100
AcDbEntity
  8
241
100
AcDbVertex
100
AcDb3dPolylineVertex
 10
80.4762
 20
7.50739
 30
0.0
 70
    32
  0
VERTEX
  5
12F7
330
12BD
100
AcDbEntity
  8
241
100
AcDbVertex
100
AcDb3dPolylineVertex
 10
80.445
 20
7.51812
 30
0.0
 70
    32
  0
VERTEX
  5
12F8
330
12BD
100
AcDbEntity
  8
241
100
AcDbVertex
100
AcDb3dPolylineVertex
 10
80.4136
 20
7.5282
 30
0.0
 70
    32
  0
VERTEX
  5
12F9
330
12BD
100
AcDbEntity
  8
241
100
AcDbVertex
100
AcDb3dPolylineVertex
 10
80.3819
 20
7.53763
 30
0.0
 70
    32
  0
VERTEX
  5
12FA
330
12BD
100
AcDbEntity
  8
241
100
AcDbVertex
100
AcDb3dPolylineVertex
 10
80.35
 20
7.5464
 30
0.0
 70
    32
  0
VERTEX
  5
12FB
330
12BD
100
AcDbEntity
  8
241
100
AcDbVertex
100
AcDb3dPolylineVertex
 10
80.3179
 20
7.55451
 30
0.0
 70
    32
  0
VERTEX
  5
12FC
330
12BD
100
AcDbEntity
  8
241
100
AcDbVertex
100
AcDb3dPolylineVertex
 10
80.2856
 20
7.56195
 30
0.0
 70
    32
  0
VERTEX
  5
12FD
330
12BD
100
AcDbEntity
  8
241
100
AcDbVertex
100
AcDb3dPolylineVertex
 10
80.2532
 20
7.56872
 30
0.0
 70
    32
  0
VERTEX
  5
12FE
330
12BD
100
AcDbEntity
  8
241
100
AcDbVertex
100
AcDb3dPolylineVertex
 10
80.2206
 20
7.57481
 30
0.0
 70
    32
  0
VERTEX
  5
12FF
330
12BD
100
AcDbEntity
  8
241
100
AcDbVertex
100
AcDb3dPolylineVertex
 10
80.1879
 20
7.58022
 30
0.0
 70
    32
  0
VERTEX
  5
1300
330
12BD
100
AcDbEntity
  8
241
100
AcDbVertex
100
AcDb3dPolylineVertex
 10
80.1552
 20
7.58495
 30
0.0
 70
    32
  0
VERTEX
  5
1301
330
12BD
100
AcDbEntity
  8
241
100
AcDbVertex
100
AcDb3dPolylineVertex
 10
80.1223
 20
7.589
 30
0.0
 70
    32
  0
VERTEX
  5
1302
330
12BD
100
AcDbEntity
  8
241
100
AcDbVertex
100
AcDb3dPolylineVertex
 10
80.0894
 20
7.59235
 30
0.0
 70
    32
  0
VERTEX
  5
1303
330
12BD
100
AcDbEntity
  8
241
100
AcDbVertex
100
AcDb3dPolylineVertex
 10
80.0564
 20
7.59502
 30
0.0
 70
    32
  0
VERTEX
  5
1304
330
12BD
100
AcDbEntity
  8
241
100
AcDbVertex
100
AcDb3dPolylineVertex
 10
80.0234
 20
7.59699
 30
0.0
 70
    32
  0
VERTEX
  5
1305
330
12BD
100
AcDbEntity
  8
241
100
AcDbVertex
100
AcDb3dPolylineVertex
 10
79.9904
 20
7.59827
 30
0.0
 70
    32
  0
VERTEX
  5
1306
330
12BD
100
AcDbEntity
  8
241
100
AcDbVertex
100
AcDb3dPolylineVertex
 10
79.9574
 20
7.59886
 30
0.0
 70
    32
  0
VERTEX
  5
1307
330
12BD
100
AcDbEntity
  8
241
100
AcDbVertex
100
AcDb3dPolylineVertex
 10
79.9245
 20
7.59875
 30
0.0
 70
    32
  0
VERTEX
  5
1308
330
12BD
100
AcDbEntity
  8
241
100
AcDbVertex
100
AcDb3dPolylineVertex
 10
79.8916
 20
7.59795
 30
0.0
 70
    32
  0
VERTEX
  5
1309
330
12BD
100
AcDbEntity
  8
241
100
AcDbVertex
100
AcDb3dPolylineVertex
 10
79.8588
 20
7.59645
 30
0.0
 70
    32
  0
VERTEX
  5
130A
330
12BD
100
AcDbEntity
  8
241
100
AcDbVertex
100
AcDb3dPolylineVertex
 10
79.8261
 20
7.59426
 30
0.0
 70
    32
  0
VERTEX
  5
130B
330
12BD
100
AcDbEntity
  8
241
100
AcDbVertex
100
AcDb3dPolylineVertex
 10
79.7936
 20
7.59138
 30
0.0
 70
    32
  0
VERTEX
  5
130C
330
12BD
100
AcDbEntity
  8
241
100
AcDbVertex
100
AcDb3dPolylineVertex
 10
79.7611
 20
7.58781
 30
0.0
 70
    32
  0
VERTEX
  5
130D
330
12BD
100
AcDbEntity
  8
241
100
AcDbVertex
100
AcDb3dPolylineVertex
 10
79.7288
 20
7.58355
 30
0.0
 70
    32
  0
VERTEX
  5
130E
330
12BD
100
AcDbEntity
  8
241
100
AcDbVertex
100
AcDb3dPolylineVertex
 10
79.6967
 20
7.57861
 30
0.0
 70
    32
  0
VERTEX
  5
130F
330
12BD
100
AcDbEntity
  8
241
100
AcDbVertex
100
AcDb3dPolylineVertex
 10
79.6648
 20
7.57298
 30
0.0
 70
    32
  0
VERTEX
  5
1310
330
12BD
100
AcDbEntity
  8
241
100
AcDbVertex
100
AcDb3dPolylineVertex
 10
79.6331
 20
7.56667
 30
0.0
 70
    32
  0
VERTEX
  5
1311
330
12BD
100
AcDbEntity
  8
241
100
AcDbVertex
100
AcDb3dPolylineVertex
 10
79.6016
 20
7.55969
 30
0.0
 70
    32
  0
VERTEX
  5
1312
330
12BD
100
AcDbEntity
  8
241
100
AcDbVertex
100
AcDb3dPolylineVertex
 10
79.5704
 20
7.55204
 30
0.0
 70
    32
  0
VERTEX
  5
1313
330
12BD
100
AcDbEntity
  8
241
100
AcDbVertex
100
AcDb3dPolylineVertex
 10
79.5395
 20
7.54373
 30
0.0
 70
    32
  0
VERTEX
  5
1314
330
12BD
100
AcDbEntity
  8
241
100
AcDbVertex
100
AcDb3dPolylineVertex
 10
79.5088
 20
7.53475
 30
0.0
 70
    32
  0
VERTEX
  5
1315
330
12BD
100
AcDbEntity
  8
241
100
AcDbVertex
100
AcDb3dPolylineVertex
 10
79.4785
 20
7.52512
 30
0.0
 70
    32
  0
VERTEX
  5
1316
330
12BD
100
AcDbEntity
  8
241
100
AcDbVertex
100
AcDb3dPolylineVertex
 10
79.4485
 20
7.51483
 30
0.0
 70
    32
  0
VERTEX
  5
1317
330
12BD
100
AcDbEntity
  8
241
100
AcDbVertex
100
AcDb3dPolylineVertex
 10
79.4188
 20
7.50391
 30
0.0
 70
    32
  0
VERTEX
  5
1318
330
12BD
100
AcDbEntity
  8
241
100
AcDbVertex
100
AcDb3dPolylineVertex
 10
79.3895
 20
7.49234
 30
0.0
 70
    32
  0
VERTEX
  5
1319
330
12BD
100
AcDbEntity
  8
241
100
AcDbVertex
100
AcDb3dPolylineVertex
 10
79.3606
 20
7.48015
 30
0.0
 70
    32
  0
VERTEX
  5
131A
330
12BD
100
AcDbEntity
  8
241
100
AcDbVertex
100
AcDb3dPolylineVertex
 10
79.332
 20
7.46733
 30
0.0
 70
    32
  0
VERTEX
  5
131B
330
12BD
100
AcDbEntity
  8
241
100
AcDbVertex
100
AcDb3dPolylineVertex
 10
79.3039
 20
7.4539
 30
0.0
 70
    32
  0
VERTEX
  5
131C
330
12BD
100
AcDbEntity
  8
241
100
AcDbVertex
100
AcDb3dPolylineVertex
 10
79.2763
 20
7.43986
 30
0.0
 70
    32
  0
VERTEX
  5
131D
330
12BD
100
AcDbEntity
  8
241
100
AcDbVertex
100
AcDb3dPolylineVertex
 10
79.249
 20
7.42522
 30
0.0
 70
    32
  0
VERTEX
  5
131E
330
12BD
100
AcDbEntity
  8
241
100
AcDbVertex
100
AcDb3dPolylineVertex
 10
79.2223
 20
7.40999
 30
0.0
 70
    32
  0
VERTEX
  5
131F
330
12BD
100
AcDbEntity
  8
241
100
AcDbVertex
100
AcDb3dPolylineVertex
 10
79.196
 20
7.39418
 30
0.0
 70
    32
  0
VERTEX
  5
1320
330
12BD
100
AcDbEntity
  8
241
100
AcDbVertex
100
AcDb3dPolylineVertex
 10
79.1702
 20
7.3778
 30
0.0
 70
    32
  0
VERTEX
  5
1321
330
12BD
100
AcDbEntity
  8
241
100
AcDbVertex
100
AcDb3dPolylineVertex
 10
79.1449
 20
7.36086
 30
0.0
 70
    32
  0
VERTEX
  5
1322
330
12BD
100
AcDbEntity
  8
241
100
AcDbVertex
100
AcDb3dPolylineVertex
 10
79.1202
 20
7.34337
 30
0.0
 70
    32
  0
VERTEX
  5
1323
330
12BD
100
AcDbEntity
  8
241
100
AcDbVertex
100
AcDb3dPolylineVertex
 10
79.096
 20
7.32534
 30
0.0
 70
    32
  0
VERTEX
  5
1324
330
12BD
100
AcDbEntity
  8
241
100
AcDbVertex
100
AcDb3dPolylineVertex
 10
79.0723
 20
7.30677
 30
0.0
 70
    32
  0
VERTEX
  5
1325
330
12BD
100
AcDbEntity
  8
241
100
AcDbVertex
100
AcDb3dPolylineVertex
 10
79.0492
 20
7.28769
 30
0.0
 70
    32
  0
VERTEX
  5
1326
330
12BD
100
AcDbEntity
  8
241
100
AcDbVertex
100
AcDb3dPolylineVertex
 10
79.0268
 20
7.26811
 30
0.0
 70
    32
  0
VERTEX
  5
1327
330
12BD
100
AcDbEntity
  8
241
100
AcDbVertex
100
AcDb3dPolylineVertex
 10
79.0049
 20
7.24802
 30
0.0
 70
    32
  0
VERTEX
  5
1328
330
12BD
100
AcDbEntity
  8
241
100
AcDbVertex
100
AcDb3dPolylineVertex
 10
78.9836
 20
7.22746
 30
0.0
 70
    32
  0
VERTEX
  5
1329
330
12BD
100
AcDbEntity
  8
241
100
AcDbVertex
100
AcDb3dPolylineVertex
 10
78.9629
 20
7.20642
 30
0.0
 70
    32
  0
VERTEX
  5
132A
330
12BD
100
AcDbEntity
  8
241
100
AcDbVertex
100
AcDb3dPolylineVertex
 10
78.9429
 20
7.18493
 30
0.0
 70
    32
  0
VERTEX
  5
132B
330
12BD
100
AcDbEntity
  8
241
100
AcDbVertex
100
AcDb3dPolylineVertex
 10
78.9236
 20
7.16299
 30
0.0
 70
    32
  0
VERTEX
  5
132C
330
12BD
100
AcDbEntity
  8
241
100
AcDbVertex
100
AcDb3dPolylineVertex
 10
78.9049
 20
7.14062
 30
0.0
 70
    32
  0
VERTEX
  5
132D
330
12BD
100
AcDbEntity
  8
241
100
AcDbVertex
100
AcDb3dPolylineVertex
 10
78.8868
 20
7.11783
 30
0.0
 70
    32
  0
VERTEX
  5
132E
330
12BD
100
AcDbEntity
  8
241
100
AcDbVertex
100
AcDb3dPolylineVertex
 10
78.8695
 20
7.09464
 30
0.0
 70
    32
  0
VERTEX
  5
132F
330
12BD
100
AcDbEntity
  8
241
100
AcDbVertex
100
AcDb3dPolylineVertex
 10
78.8528
 20
7.07105
 30
0.0
 70
    32
  0
VERTEX
  5
1330
330
12BD
100
AcDbEntity
  8
241
100
AcDbVertex
100
AcDb3dPolylineVertex
 10
78.8369
 20
7.04709
 30
0.0
 70
    32
  0
VERTEX
  5
1331
330
12BD
100
AcDbEntity
  8
241
100
AcDbVertex
100
AcDb3dPolylineVertex
 10
78.8217
 20
7.02277
 30
0.0
 70
    32
  0
VERTEX
  5
1332
330
12BD
100
AcDbEntity
  8
241
100
AcDbVertex
100
AcDb3dPolylineVertex
 10
78.8071
 20
6.9981
 30
0.0
 70
    32
  0
VERTEX
  5
1333
330
12BD
100
AcDbEntity
  8
241
100
AcDbVertex
100
AcDb3dPolylineVertex
 10
78.7934
 20
6.97309
 30
0.0
 70
    32
  0
VERTEX
  5
1334
330
12BD
100
AcDbEntity
  8
241
100
AcDbVertex
100
AcDb3dPolylineVertex
 10
78.7803
 20
6.94777
 30
0.0
 70
    32
  0
VERTEX
  5
1335
330
12BD
100
AcDbEntity
  8
241
100
AcDbVertex
100
AcDb3dPolylineVertex
 10
78.768
 20
6.92215
 30
0.0
 70
    32
  0
VERTEX
  5
1336
330
12BD
100
AcDbEntity
  8
241
100
AcDbVertex
100
AcDb3dPolylineVertex
 10
78.7565
 20
6.89624
 30
0.0
 70
    32
  0
VERTEX
  5
1337
330
12BD
100
AcDbEntity
  8
241
100
AcDbVertex
100
AcDb3dPolylineVertex
 10
78.7457
 20
6.87006
 30
0.0
 70
    32
  0
VERTEX
  5
1338
330
12BD
100
AcDbEntity
  8
241
100
AcDbVertex
100
AcDb3dPolylineVertex
 10
78.7357
 20
6.84363
 30
0.0
 70
    32
  0
VERTEX
  5
1339
330
12BD
100
AcDbEntity
  8
241
100
AcDbVertex
100
AcDb3dPolylineVertex
 10
78.7265
 20
6.81695
 30
0.0
 70
    32
  0
VERTEX
  5
133A
330
12BD
100
AcDbEntity
  8
241
100
AcDbVertex
100
AcDb3dPolylineVertex
 10
78.718
 20
6.79005
 30
0.0
 70
    32
  0
VERTEX
  5
133B
330
12BD
100
AcDbEntity
  8
241
100
AcDbVertex
100
AcDb3dPolylineVertex
 10
78.7104
 20
6.76295
 30
0.0
 70
    32
  0
VERTEX
  5
133C
330
12BD
100
AcDbEntity
  8
241
100
AcDbVertex
100
AcDb3dPolylineVertex
 10
78.7035
 20
6.73565
 30
0.0
 70
    32
  0
VERTEX
  5
133D
330
12BD
100
AcDbEntity
  8
241
100
AcDbVertex
100
AcDb3dPolylineVertex
 10
78.6974
 20
6.70818
 30
0.0
 70
    32
  0
VERTEX
  5
133E
330
12BD
100
AcDbEntity
  8
241
100
AcDbVertex
100
AcDb3dPolylineVertex
 10
78.6921
 20
6.68055
 30
0.0
 70
    32
  0
SEQEND
  5
133F
330
12BD
100
AcDbEntity
  8
241
  0
LINE
  5
1340
330
D70
100
AcDbEntity
  8
241
100
AcDbLine
 10
75.18194298
 20
2.69629684
 30
0.0
 11
73.83712813
 21
0.36700921
 31
0.0
  0
ARC
  5
1341
330
D70
100
AcDbEntity
  8
241
100
AcDbCircle
 10
69.37893004
 20
-2.024089
 30
0.0
 40
3.128930035431663
100
AcDbArc
 50
79.9999824
 51
256.43374474
  0
LINE
  5
1342
330
D70
100
AcDbEntity
  8
241
100
AcDbLine
 10
51.0
 20
0.0
 30
0.0
 11
51.0
 21
9.25
 31
0.0
  0
LINE
  5
1343
330
D70
100
AcDbEntity
  8
240
100
AcDbLine
 10
73.87572518
 20
-9.25
 30
0.0
 11
55.24341632
 21
-9.25
 31
0.0
  0
ARC
  5
1344
330
D70
100
AcDbEntity
  8
240
100
AcDbCircle
 10
55.24341632
 20
-24.25
 30
0.0
 40
15.0
100
AcDbArc
 50
90.0
 51
121.59182453
  0
LINE
  5
1345
330
D70
100
AcDbEntity
  8
241
100
AcDbLine
 10
51.0
 20
0.0
 30
0.0
 11
51.0
 21
-9.25
 31
0.0
  0
LINE
  5
1346
330
D70
100
AcDbEntity
  8
241
100
AcDbLine
 10
73.83712813
 20
0.36700921
 30
0.0
 11
69.92226303
 21
1.05730555
 31
0.0
  0
LINE
  5
1347
330
D70
100
AcDbEntity
  8
240
100
AcDbLine
 10
73.87572518
 20
-9.25
 30
0.0
 11
75.18194299
 21
-9.6
 31
0.0
  0
LINE
  5
1348
330
D70
100
AcDbEntity
  8
240
100
AcDbLine
 10
73.87572518
 20
9.25
 30
0.0
 11
55.24341632
 21
9.25
 31
0.0
  0
ARC
  5
1349
330
D70
100
AcDbEntity
  8
240
100
AcDbCircle
 10
55.24341632
 20
24.25
 30
0.0
 40
15.0
100
AcDbArc
 50
238.40817547
 51
270.0
  0
LINE
  5
134A
330
D70
100
AcDbEntity
  8
240
100
AcDbLine
 10
73.87572518
 20
9.25
 30
0.0
 11
75.18194299
 21
9.6
 31
0.0
  0
LINE
  5
134B
330
D70
100
AcDbEntity
  8
240
100
AcDbLine
 10
84.25
 20
9.39776986
 30
0.0
 11
84.25
 21
1.09735373
 31
0.0
  0
LINE
  5
134C
330
D70
100
AcDbEntity
  8
246
100
AcDbLine
 10
85.0
 20
-10.0
 30
0.0
 11
85.0
 21
10.0
 31
0.0
  0
LINE
  5
134D
330
D70
100
AcDbEntity
  8
240
100
AcDbLine
 10
84.25
 20
-9.39776986
 30
0.0
 11
84.25
 21
-3.24502232
 31
0.0
  0
LINE
  5
134E
330
D70
100
AcDbEntity
  8
240
100
AcDbLine
 10
85.0
 20
-3.518
 30
0.0
 11
84.25
 21
-3.24502232
 31
0.0
  0
LINE
  5
134F
330
D70
100
AcDbEntity
  8
240
100
AcDbLine
 10
84.18414098
 20
1.10896645
 30
0.0
 11
85.0
 21
-3.518
 31
0.0
  0
LINE
  5
1350
330
D70
100
AcDbEntity
  8
240
100
AcDbLine
 10
84.25
 20
1.09735373
 30
0.0
 11
84.18414098
 21
1.10896645
 31
0.0
  0
ENDBLK
  5
D72
330
D70
100
AcDbEntity
  8
0
100
AcDbBlockEnd
  0
ENDSEC
  0
SECTION
  2
ENTITIES
  0
INSERT
  5
6E6
330
1A
100
AcDbEntity
  8
245
100
AcDbBlockReference
  2
矢印なし
 10
175.62382697
 20
90.55123572
 30
0.0
  0
TEXT
  5
A45
330
1A
100
AcDbEntity
  8
241
100
AcDbText
 10
-28.0
 20
63.0
 30
0.0
 40
5.0
  1
HSK-A63-FCR20083-85
  7
YOKO
 11
-28.0
 21
63.0
 31
0.0
100
AcDbText
 73
     1
1001
GRPNAME
1000
PASTMD0C
  0
DIMENSION
  5
CFC
330
1A
100
AcDbEntity
  8
250
  6
CONTINUOUS
100
AcDbDimension
  2
*D2
 10
98.0
 20
10.0
 30
0.0
 11
95.6
 21
0.0
 31
0.0
 70
    32
  1
{\H2.8;\U+2205}<>
  3
BIGT
100
AcDbAlignedDimension
 13
85.0
 23
-10.0
 33
0.0
 14
85.0
 24
10.0
 34
0.0
 50
90.0
100
AcDbRotatedDimension
  0
DIMENSION
  5
D0B
330
1A
100
AcDbEntity
  8
250
  6
CONTINUOUS
100
AcDbDimension
  2
*D3
 10
85.0
 20
28.0
 30
0.0
 11
81.0
 21
30.4
 31
0.0
 70
    32
  3
BIGT
100
AcDbAlignedDimension
 13
77.0
 23
10.0
 33
0.0
 14
85.0
 24
10.0
 34
0.0
100
AcDbRotatedDimension
  0
DIMENSION
  5
D1A
330
1A
100
AcDbEntity
  8
250
  6
CONTINUOUS
100
AcDbDimension
  2
*D4
 10
85.0
 20
35.0
 30
0.0
 11
69.0
 21
37.4
 31
0.0
 70
    32
  3
BIGT
100
AcDbAlignedDimension
 13
53.0
 23
9.41871269
 33
0.0
 14
85.0
 24
10.0
 34
0.0
100
AcDbRotatedDimension
  0
DIMENSION
  5
D29
330
1A
100
AcDbEntity
  8
250
  6
CONTINUOUS
100
AcDbDimension
  2
*D5
 10
85.0
 20
42.0
 30
0.0
 11
42.5
 21
44.4
 31
0.0
 70
    32
  3
BIGT
100
AcDbAlignedDimension
 13
0.0
 23
30.5
 33
0.0
 14
85.0
 24
10.0
 34
0.0
100
AcDbRotatedDimension
  0
LINE
  5
1156
330
1A
100
AcDbEntity
  8
250
  6
CONTINUOUS
100
AcDbLine
 10
-18.44991262
 20
-34.94501046
 30
0.0
 11
-42.71657929
 21
-34.94501046
 31
0.0
1001
ITEMNAME
1000
LNSP2
  0
MTEXT
  5
1157
330
1A
100
AcDbEntity
  8
251
  6
CONTINUOUS
100
AcDbMText
 10
-39.91657929
 20
-33.94501046
 30
0.0
 40
2.8
 41
0.0
 71
     7
 72
     1
  1
HSK-A63
  7
YOKO
1001
ITEMNAME
1000
LNSP3
1001
ACAD
1000
MTEXTBEGIN
1070
    73
1070
     1
1070
    44
1040
1.0
1070
    74
1070
     0
1000
MTEXTEND
1000
MTEXTBEGIN
1070
    73
1070
     1
1070
    44
1040
1.0
1070
    74
1070
     0
1000
MTEXTEND
1000
MTEXTBEGIN
1070
    73
1070
     1
1070
    44
1040
1.0
1070
    74
1070
     0
1000
MTEXTEND
  0
LEADER
  5
1167
330
1A
100
AcDbEntity
  8
250
  6
CONTINUOUS
100
AcDbLeader
  3
BIGT
 76
     2
 10
-11.96720963
 20
-23.71663952
 30
0.0
 10
-18.44991262
 20
-34.94501046
 30
0.0
1001
ACAD
1000
DSTYLE
1002
{
1070
     6
1000
OPEN
1070
   343
1005
594
1002
}
  0
INSERT
  5
1351
330
1A
100
AcDbEntity
  8
245
100
AcDbBlockReference
  2
1
 10
0.0
 20
0.0
 30
0.0
  0
VIEWPORT
  5
22
330
17
100
AcDbEntity
 67
     1
  8
0
100
AcDbViewport
 10
261.51769912
 20
148.5
 30
0.0
 40
523.03539823
 41
297.0
 68
     1
 69
     1
1001
ACAD
1000
MVIEW
1002
{
1070
    16
1010
0.0
1020
0.0
1030
0.0
1010
0.0
1020
0.0
1030
1.0
1040
0.0
1040
297.0
1040
261.51769912
1040
148.5
1040
50.0
1040
0.0
1040
0.0
1070
     0
1070
   100
1070
     1
1070
     1
1070
     0
1070
     0
1070
     0
1070
     0
1040
0.0
1040
0.0
1040
0.0
1040
1.0
1040
1.0
1040
10.0
1040
10.0
1070
     0
1002
{
1002
}
1002
}
  0
ENDSEC
  0
SECTION
  2
OBJECTS
  0
DICTIONARY
  5
C
330
0
100
AcDbDictionary
  3
ACAD_GROUP
350
D
  3
ACAD_LAYOUT
350
565
  3
ACAD_MLINESTYLE
350
E
  3
ACAD_PLOTSETTINGS
350
566
  3
ACAD_PLOTSTYLENAME
350
563
  3
ACDBHEADERROUNDTRIPXREC
350
1353
  3
GRADE_DWG
350
540
  0
DICTIONARY
  5
F4F
330
1A
100
AcDbDictionary
280
     1
  3
ACAD_LAYOUTSELFREF
360
1375
  0
DICTIONARY
  5
F4D
330
17
100
AcDbDictionary
280
     1
  3
ACAD_LAYOUTSELFREF
360
1374
  0
DICTIONARY
  5
D
102
{ACAD_REACTORS
330
C
102
}
330
C
100
AcDbDictionary
  3
*A1
350
6C7
  3
*A2
350
6C8
  3
*A3
350
6D4
  3
*A4
350
6D5
  3
DREC-1
350
5FC
  3
DREC-2
350
654
  3
DREC-3
350
673
  0
DICTIONARY
  5
565
102
{ACAD_REACTORS
330
C
102
}
330
C
100
AcDbDictionary
  0
DICTIONARY
  5
E
102
{ACAD_REACTORS
330
C
102
}
330
C
100
AcDbDictionary
  3
STANDARD
350
13
  0
DICTIONARY
  5
566
102
{ACAD_REACTORS
330
C
102
}
330
C
100
AcDbDictionary
  3
A3_0_5倍_
350
758
  3
A3_1倍_
350
757
  3
A3_1倍__2000_
350
707
  3
A3_2倍_
350
759
  3
A4_0_5倍_
350
755
  3
A4_1倍_
350
754
  3
A4_1倍__2000_
350
708
  3
A4_2倍_
350
756
  0
ACDBDICTIONARYWDFLT
  5
563
102
{ACAD_REACTORS
330
C
102
}
330
C
100
AcDbDictionary
281
     1
  3
Normal
350
564
100
AcDbDictionaryWithDefault
340
564
  0
DICTIONARY
  5
1353
102
{ACAD_REACTORS
330
C
102
}
330
C
100
AcDbDictionary
  3
CEPSNTYPE
350
135D
  3
DIMSTYLEDATA
350
1361
  3
FINGERPRINTGUID
350
135E
  3
HYPERLINKBASE
350
1356
  3
INSUNITS
350
135C
  3
LAYOUTDICT
350
1358
  3
LWETCUNION
350
135B
  3
PLOTSETDICT
350
1359
  3
PLOTSTYLNAMDICT
350
135A
  3
PSVPSCALE
350
1360
  3
PUCSBASE
350
1364
  3
PUCSORGBACK
350
136A
  3
PUCSORGBOTTOM
350
1366
  3
PUCSORGFRONT
350
1369
  3
PUCSORGLEFT
350
1367
  3
PUCSORGRIGHT
350
1368
  3
PUCSORGTOP
350
1365
  3
PUCSORTHOREF
350
1362
  3
PUCSORTHOVIEW
350
1363
  3
STYLESHEET
350
1357
  3
TSTACKALIGN
350
1354
  3
TSTACKSIZE
350
1355
  3
UCSBASE
350
136D
  3
UCSORGBACK
350
1373
  3
UCSORGBOTTOM
350
136F
  3
UCSORGFRONT
350
1372
  3
UCSORGLEFT
350
1370
  3
UCSORGRIGHT
350
1371
  3
UCSORGTOP
350
136E
  3
UCSORTHOREF
350
136B
  3
UCSORTHOVIEW
350
136C
  3
VERSIONGUID
350
135F
  0
DICTIONARY
  5
540
102
{ACAD_REACTORS
330
C
102
}
330
C
100
AcDbDictionary
  3
VERSION
350
560
  0
XRECORD
  5
1375
102
{ACAD_REACTORS
330
F4F
102
}
330
F4F
100
AcDbXrecord
340
1A
  0
XRECORD
  5
1374
102
{ACAD_REACTORS
330
F4D
102
}
330
F4D
100
AcDbXrecord
340
17
  0
GROUP
  5
6C7
102
{ACAD_REACTORS
330
D
102
}
330
D
100
AcDbGroup
300

 70
     0
 71
     1
1001
GRPNAME
1000
DMA00
  0
GROUP
  5
6C8
102
{ACAD_REACTORS
330
D
102
}
330
D
100
AcDbGroup
300

 70
     0
 71
     1
1001
GRPNAME
1000
DMA00
  0
GROUP
  5
6D4
102
{ACAD_REACTORS
330
D
102
}
330
D
100
AcDbGroup
300

 70
     0
 71
     1
1001
GRPNAME
1000
DMA00
  0
GROUP
  5
6D5
102
{ACAD_REACTORS
330
D
102
}
330
D
100
AcDbGroup
300

 70
     0
 71
     1
1001
GRPNAME
1000
DMA00
  0
GROUP
  5
5FC
102
{ACAD_REACTORS
330
D
102
}
330
D
100
AcDbGroup
300

 70
     0
 71
     1
1001
GRPNAME
1000
DREC-
1001
GPARA
1000
xsiz
1000
44.182
1000
ysiz
1000
40.677
1000
angl
1000
0
1000
ctyp
1000
0
1000
csiz
1000
5
1000
lfnt
1000
cont
1000
hcnt
1000
hoff
1000
vcnt
1000
voff
1000
opnt
1000
4
1000
dxpt
1000
0
1000
dypt
1000
0
  0
GROUP
  5
654
102
{ACAD_REACTORS
330
D
102
}
330
D
100
AcDbGroup
300

 70
     0
 71
     1
1001
GRPNAME
1000
DREC-
1001
GPARA
1000
xsiz
1000
54.592
1000
ysiz
1000
53.036
1000
angl
1000
0
1000
ctyp
1000
0
1000
csiz
1000
5
1000
lfnt
1000
cont
1000
hcnt
1000
hoff
1000
vcnt
1000
voff
1000
opnt
1000
4
1000
dxpt
1000
0
1000
dypt
1000
0
  0
GROUP
  5
673
102
{ACAD_REACTORS
330
D
102
}
330
D
100
AcDbGroup
300

 70
     0
 71
     1
1001
GRPNAME
1000
DREC-
1001
GPARA
1000
xsiz
1000
30.363
1000
ysiz
1000
36.175
1000
angl
1000
0
1000
ctyp
1000
0
1000
csiz
1000
5
1000
lfnt
1000
cont
1000
hcnt
1000
hoff
1000
vcnt
1000
voff
1000
opnt
1000
4
1000
dxpt
1000
0
1000
dypt
1000
0
  0
MLINESTYLE
  5
13
102
{ACAD_REACTORS
330
E
102
}
330
E
100
AcDbMlineStyle
  2
STANDARD
 70
     0
  3

 62
     0
 51
90.0
 52
90.0
 71
     2
 49
0.5
 62
   256
  6
BYLAYER
 49
-0.5
 62
   256
  6
BYLAYER
  0
PLOTSETTINGS
  5
758
102
{ACAD_REACTORS
330
566
102
}
330
566
100
AcDbPlotSettings
  1
A3(0.5倍)
  2
\\AWTECPC05\HP DeskJet 1120C
  4
A3
  6

 40
5.95841646
 41
13.49375153
 42
6.04309082
 43
3.67242432
 44
296.92599487
 45
419.94665527
 46
89.96
 47
127.14
 48
0.0
 49
0.0
140
0.0
141
0.0
142
1.0
143
2.0
 70
  1716
 72
     1
 73
     1
 74
     2
  7
big.ctb
 75
    17
147
0.5
148
0.0
149
0.0
  0
PLOTSETTINGS
  5
757
102
{ACAD_REACTORS
330
566
102
}
330
566
100
AcDbPlotSettings
  1
A3(1倍)
  2
\\AWTECPC05\HP DeskJet 1120C
  4
A3
  6

 40
5.95841646
 41
13.49375153
 42
6.04309082
 43
3.67242432
 44
296.92599487
 45
419.94665527
 46
37.46
 47
52.89
 48
0.0
 49
0.0
140
0.0
141
0.0
142
1.0
143
1.0
 70
  1716
 72
     1
 73
     1
 74
     2
  7
big.ctb
 75
    16
147
1.0
148
0.0
149
0.0
  0
PLOTSETTINGS
  5
707
102
{ACAD_REACTORS
330
566
102
}
330
566
100
AcDbPlotSettings
  1
A3(1倍)(2000)
  2
SII LS-1300 (D-SCAN)
  4
User258
  6

 40
3.17499995
 41
3.17499995
 42
3.17498779
 43
3.17498779
 44
419.98898315
 45
296.98950195
 46
58.32
 47
40.32
 48
0.0
 49
0.0
140
0.0
141
0.0
142
1.0
143
1.0
 70
  1716
 72
     1
 73
     0
 74
     2
  7
big.ctb
 75
    16
147
1.0
148
0.0
149
0.0
  0
PLOTSETTINGS
  5
759
102
{ACAD_REACTORS
330
566
102
}
330
566
100
AcDbPlotSettings
  1
A3(2倍)
  2
\\AWTECPC05\HP DeskJet 1120C
  4
A3
  6

 40
5.95841646
 41
13.49375153
 42
6.04309082
 43
3.67242432
 44
296.92599487
 45
419.94665527
 46
-67.54
 47
-95.61
 48
0.0
 49
0.0
140
0.0
141
0.0
142
1.0
143
0.5
 70
  1716
 72
     1
 73
     1
 74
     2
  7
big.ctb
 75
    27
147
2.0
148
0.0
149
0.0
  0
PLOTSETTINGS
  5
755
102
{ACAD_REACTORS
330
566
102
}
330
566
100
AcDbPlotSettings
  1
A4(0.5倍)
  2
\\AWTECPC05\HP DeskJet 1120C
  4
A4
  6

 40
4.18041658
 41
13.49374962
 42
4.18040466
 43
3.92642212
 44
209.97332764
 45
296.92599487
 46
48.31
 47
65.5
 48
0.0
 49
0.0
140
0.0
141
0.0
142
1.0
143
2.0
 70
  1716
 72
     1
 73
     1
 74
     2
  7
big.ctb
 75
    17
147
0.5
148
0.0
149
0.0
  0
PLOTSETTINGS
  5
754
102
{ACAD_REACTORS
330
566
102
}
330
566
100
AcDbPlotSettings
  1
A4(1倍)
  2
\\AWTECPC05\HP DeskJet 1120C
  4
A4
  6

 40
4.18041658
 41
13.49374962
 42
4.18040466
 43
3.92642212
 44
209.97332764
 45
296.92599487
 46
-4.19
 47
-8.75
 48
0.0
 49
0.0
140
0.0
141
0.0
142
1.0
143
1.0
 70
  1716
 72
     1
 73
     1
 74
     2
  7
big.ctb
 75
    16
147
1.0
148
0.0
149
0.0
  0
PLOTSETTINGS
  5
708
102
{ACAD_REACTORS
330
566
102
}
330
566
100
AcDbPlotSettings
  1
A4(1倍)(2000)
  2
SII LS-1300 (D-SCAN)
  4
User259
  6

 40
3.17499995
 41
3.17499995
 42
3.17498779
 43
3.17500305
 44
296.98950195
 45
209.99449158
 46
-3.18
 47
-3.18
 48
0.0
 49
0.0
140
0.0
141
0.0
142
1.0
143
1.0
 70
  1716
 72
     1
 73
     0
 74
     2
  7
big.ctb
 75
    16
147
1.0
148
0.0
149
0.0
  0
PLOTSETTINGS
  5
756
102
{ACAD_REACTORS
330
566
102
}
330
566
100
AcDbPlotSettings
  1
A4(2倍)
  2
\\AWTECPC05\HP DeskJet 1120C
  4
A4
  6

 40
4.18041658
 41
13.49374962
 42
4.18040466
 43
3.92642212
 44
209.97332764
 45
296.92599487
 46
-109.19
 47
-157.25
 48
0.0
 49
0.0
140
0.0
141
0.0
142
1.0
143
0.5
 70
  1716
 72
     1
 73
     1
 74
     2
  7
big.ctb
 75
    27
147
2.0
148
0.0
149
0.0
  0
ACDBPLACEHOLDER
  5
564
102
{ACAD_REACTORS
330
563
102
}
330
563
100
AcDbPlaceHolder
280
     0
  0
XRECORD
  5
135D
102
{ACAD_REACTORS
330
1353
102
}
330
1353
100
AcDbXrecord
 90
        0
  0
XRECORD
  5
1361
102
{ACAD_REACTORS
330
1353
102
}
330
1353
100
AcDbXrecord
1000
DSTYLE
1002
{
1070
    79
 70
     2
1070
   179
 70
     3
1070
   341
340
594
1070
   343
340
594
1070
   344
340
594
1070
   371
 70
    -1
1070
   372
 70
    -1
1002
}
  0
XRECORD
  5
135E
102
{ACAD_REACTORS
330
1353
102
}
330
1353
100
AcDbXrecord
  1
{51294030-9CB4-11D3-8E18-00A0C925D94D}
  0
XRECORD
  5
1356
102
{ACAD_REACTORS
330
1353
102
}
330
1353
100
AcDbXrecord
  1

  0
XRECORD
  5
135C
102
{ACAD_REACTORS
330
1353
102
}
330
1353
100
AcDbXrecord
 90
        0
  0
XRECORD
  5
1358
102
{ACAD_REACTORS
330
1353
102
}
330
1353
100
AcDbXrecord
340
565
  0
XRECORD
  5
135B
102
{ACAD_REACTORS
330
1353
102
}
330
1353
100
AcDbXrecord
 90
    10781
  0
XRECORD
  5
1359
102
{ACAD_REACTORS
330
1353
102
}
330
1353
100
AcDbXrecord
340
566
  0
XRECORD
  5
135A
102
{ACAD_REACTORS
330
1353
102
}
330
1353
100
AcDbXrecord
340
563
  0
XRECORD
  5
1360
102
{ACAD_REACTORS
330
1353
102
}
330
1353
100
AcDbXrecord
 40
0.0
  0
XRECORD
  5
1364
102
{ACAD_REACTORS
330
1353
102
}
330
1353
100
AcDbXrecord
340
0
  0
XRECORD
  5
136A
102
{ACAD_REACTORS
330
1353
102
}
330
1353
100
AcDbXrecord
 10
0.0
 20
0.0
 30
0.0
  0
XRECORD
  5
1366
102
{ACAD_REACTORS
330
1353
102
}
330
1353
100
AcDbXrecord
 10
0.0
 20
0.0
 30
0.0
  0
XRECORD
  5
1369
102
{ACAD_REACTORS
330
1353
102
}
330
1353
100
AcDbXrecord
 10
0.0
 20
0.0
 30
0.0
  0
XRECORD
  5
1367
102
{ACAD_REACTORS
330
1353
102
}
330
1353
100
AcDbXrecord
 10
0.0
 20
0.0
 30
0.0
  0
XRECORD
  5
1368
102
{ACAD_REACTORS
330
1353
102
}
330
1353
100
AcDbXrecord
 10
0.0
 20
0.0
 30
0.0
  0
XRECORD
  5
1365
102
{ACAD_REACTORS
330
1353
102
}
330
1353
100
AcDbXrecord
 10
0.0
 20
0.0
 30
0.0
  0
XRECORD
  5
1362
102
{ACAD_REACTORS
330
1353
102
}
330
1353
100
AcDbXrecord
340
0
  0
XRECORD
  5
1363
102
{ACAD_REACTORS
330
1353
102
}
330
1353
100
AcDbXrecord
 70
     0
  0
XRECORD
  5
1357
102
{ACAD_REACTORS
330
1353
102
}
330
1353
100
AcDbXrecord
  1
big.ctb
  0
XRECORD
  5
1354
102
{ACAD_REACTORS
330
1353
102
}
330
1353
100
AcDbXrecord
 90
        1
  0
XRECORD
  5
1355
102
{ACAD_REACTORS
330
1353
102
}
330
1353
100
AcDbXrecord
 90
       70
  0
XRECORD
  5
136D
102
{ACAD_REACTORS
330
1353
102
}
330
1353
100
AcDbXrecord
340
0
  0
XRECORD
  5
1373
102
{ACAD_REACTORS
330
1353
102
}
330
1353
100
AcDbXrecord
 10
0.0
 20
0.0
 30
0.0
  0
XRECORD
  5
136F
102
{ACAD_REACTORS
330
1353
102
}
330
1353
100
AcDbXrecord
 10
0.0
 20
0.0
 30
0.0
  0
XRECORD
  5
1372
102
{ACAD_REACTORS
330
1353
102
}
330
1353
100
AcDbXrecord
 10
0.0
 20
0.0
 30
0.0
  0
XRECORD
  5
1370
102
{ACAD_REACTORS
330
1353
102
}
330
1353
100
AcDbXrecord
 10
0.0
 20
0.0
 30
0.0
  0
XRECORD
  5
1371
102
{ACAD_REACTORS
330
1353
102
}
330
1353
100
AcDbXrecord
 10
0.0
 20
0.0
 30
0.0
  0
XRECORD
  5
136E
102
{ACAD_REACTORS
330
1353
102
}
330
1353
100
AcDbXrecord
 10
0.0
 20
0.0
 30
0.0
  0
XRECORD
  5
136B
102
{ACAD_REACTORS
330
1353
102
}
330
1353
100
AcDbXrecord
340
0
  0
XRECORD
  5
136C
102
{ACAD_REACTORS
330
1353
102
}
330
1353
100
AcDbXrecord
 70
     0
  0
XRECORD
  5
135F
102
{ACAD_REACTORS
330
1353
102
}
330
1353
100
AcDbXrecord
  1
{FDC53E74-DA28-4E49-BBBC-3F1438844FA8}
  0
XRECORD
  5
560
102
{ACAD_REACTORS
330
540
102
}
330
540
100
AcDbXrecord
  1
2.0.0
  0
ENDSEC
  0
EOF
