  0
SECTION
  2
HEADER
  9
$ACADVER
  1
AC1014
  9
$ACADMAINTVER
 70
     9
  9
$DWGCODEPAGE
  3
ANSI_932
  9
$INSBASE
 10
0.0
 20
0.0
 30
0.0
  9
$EXTMIN
 10
-42.72051933
 20
-34.95597664
 30
-0.00152582
  9
$EXTMAX
 10
148.00024238
 20
61.00554692
 30
0.00000003
  9
$LIMMIN
 10
0.0
 20
0.0
  9
$LIMMAX
 10
420.0
 20
297.0
  9
$ORTHOMODE
 70
     1
  9
$REGENMODE
 70
     1
  9
$FILLMODE
 70
     1
  9
$QTEXTMODE
 70
     0
  9
$MIRRTEXT
 70
     1
  9
$DRAGMODE
 70
     2
  9
$LTSCALE
 40
10.0
  9
$OSMODE
 70
   549
  9
$ATTMODE
 70
     1
  9
$TEXTSIZE
 40
3.0
  9
$TRACEWID
 40
1.0
  9
$TEXTSTYLE
  7
YOKO
  9
$CLAYER
  8
245
  9
$CELTYPE
  6
BYLAYER
  9
$CECOLOR
 62
   256
  9
$CELTSCALE
 40
1.0
  9
$DELOBJ
 70
     1
  9
$DISPSILH
 70
     0
  9
$DIMSCALE
 40
1.0
  9
$DIMASZ
 40
2.23
  9
$DIMEXO
 40
0.5
  9
$DIMDLI
 40
2.5
  9
$DIMRND
 40
0.0
  9
$DIMDLE
 40
0.0
  9
$DIMEXE
 40
1.0
  9
$DIMTP
 40
0.0
  9
$DIMTM
 40
0.0
  9
$DIMTXT
 40
2.8
  9
$DIMCEN
 40
0.0
  9
$DIMTSZ
 40
0.0
  9
$DIMTOL
 70
     0
  9
$DIMLIM
 70
     0
  9
$DIMTIH
 70
     0
  9
$DIMTOH
 70
     0
  9
$DIMSE1
 70
     0
  9
$DIMSE2
 70
     0
  9
$DIMTAD
 70
     3
  9
$DIMZIN
 70
     8
  9
$DIMBLK
  1

  9
$DIMASO
 70
     1
  9
$DIMSHO
 70
     1
  9
$DIMPOST
  1

  9
$DIMAPOST
  1

  9
$DIMALT
 70
     0
  9
$DIMALTD
 70
     2
  9
$DIMALTF
 40
25.4
  9
$DIMLFAC
 40
1.0
  9
$DIMTOFL
 70
     1
  9
$DIMTVP
 40
0.0
  9
$DIMTIX
 70
     1
  9
$DIMSOXD
 70
     0
  9
$DIMSAH
 70
     1
  9
$DIMBLK1
  1
OPEN
  9
$DIMBLK2
  1
OPEN
  9
$DIMSTYLE
  2
BIGT
  9
$DIMCLRD
 70
   256
  9
$DIMCLRE
 70
   256
  9
$DIMCLRT
 70
    40
  9
$DIMTFAC
 40
1.0
  9
$DIMGAP
 40
1.0
  9
$DIMJUST
 70
     0
  9
$DIMSD1
 70
     0
  9
$DIMSD2
 70
     0
  9
$DIMTOLJ
 70
     1
  9
$DIMTZIN
 70
     8
  9
$DIMALTZ
 70
     0
  9
$DIMALTTZ
 70
     0
  9
$DIMFIT
 70
     3
  9
$DIMUPT
 70
     0
  9
$DIMUNIT
 70
     2
  9
$DIMDEC
 70
     3
  9
$DIMTDEC
 70
     3
  9
$DIMALTU
 70
     2
  9
$DIMALTTD
 70
     2
  9
$DIMTXSTY
  7
STANDARD
  9
$DIMAUNIT
 70
     0
  9
$LUNITS
 70
     2
  9
$LUPREC
 70
     3
  9
$SKETCHINC
 40
1.0
  9
$FILLETRAD
 40
0.0
  9
$AUNITS
 70
     0
  9
$AUPREC
 70
     3
  9
$MENU
  1
.
  9
$ELEVATION
 40
0.0
  9
$PELEVATION
 40
0.0
  9
$THICKNESS
 40
0.0
  9
$LIMCHECK
 70
     0
  9
$BLIPMODE
 70
     0
  9
$CHAMFERA
 40
10.0
  9
$CHAMFERB
 40
10.0
  9
$CHAMFERC
 40
0.0
  9
$CHAMFERD
 40
0.0
  9
$SKPOLY
 70
     0
  9
$TDCREATE
 40
2455142.420015914
  9
$TDUPDATE
 40
2455383.582192916
  9
$TDINDWG
 40
0.0115630440
  9
$TDUSRTIMER
 40
0.0115630440
  9
$USRTIMER
 70
     1
  9
$ANGBASE
 50
0.0
  9
$ANGDIR
 70
     0
  9
$PDMODE
 70
     1
  9
$PDSIZE
 40
-5.0
  9
$PLINEWID
 40
0.0
  9
$COORDS
 70
     1
  9
$SPLFRAME
 70
     0
  9
$SPLINETYPE
 70
     6
  9
$SPLINESEGS
 70
     8
  9
$ATTDIA
 70
     0
  9
$ATTREQ
 70
     1
  9
$HANDLING
 70
-16383
  9
$HANDSEED
  5
1113
  9
$SURFTAB1
 70
     6
  9
$SURFTAB2
 70
     6
  9
$SURFTYPE
 70
     6
  9
$SURFU
 70
     6
  9
$SURFV
 70
     6
  9
$UCSNAME
  2

  9
$UCSORG
 10
0.0
 20
0.0
 30
0.0
  9
$UCSXDIR
 10
1.0
 20
0.0
 30
0.0
  9
$UCSYDIR
 10
0.0
 20
1.0
 30
0.0
  9
$PUCSNAME
  2

  9
$PUCSORG
 10
0.0
 20
0.0
 30
0.0
  9
$PUCSXDIR
 10
1.0
 20
0.0
 30
0.0
  9
$PUCSYDIR
 10
0.0
 20
1.0
 30
0.0
  9
$USERI1
 70
     1
  9
$USERI2
 70
     0
  9
$USERI3
 70
     0
  9
$USERI4
 70
     0
  9
$USERI5
 70
     0
  9
$USERR1
 40
0.0
  9
$USERR2
 40
0.0
  9
$USERR3
 40
0.0
  9
$USERR4
 40
0.0
  9
$USERR5
 40
0.0
  9
$WORLDVIEW
 70
     1
  9
$SHADEDGE
 70
     3
  9
$SHADEDIF
 70
    70
  9
$TILEMODE
 70
     1
  9
$MAXACTVP
 70
    16
  9
$PINSBASE
 10
0.0
 20
0.0
 30
0.0
  9
$PLIMCHECK
 70
     0
  9
$PEXTMIN
 10
1.00000000E+20
 20
1.00000000E+20
 30
1.00000000E+20
  9
$PEXTMAX
 10
-1.00000000E+20
 20
-1.00000000E+20
 30
-1.00000000E+20
  9
$PLIMMIN
 10
0.0
 20
0.0
  9
$PLIMMAX
 10
420.0
 20
297.0
  9
$UNITMODE
 70
     0
  9
$VISRETAIN
 70
     0
  9
$PLINEGEN
 70
     0
  9
$PSLTSCALE
 70
     1
  9
$TREEDEPTH
 70
  3020
  9
$PICKSTYLE
 70
     0
  9
$CMLSTYLE
  2
STANDARD
  9
$CMLJUST
 70
     0
  9
$CMLSCALE
 40
1.0
  9
$PROXYGRAPHICS
 70
     1
  9
$MEASUREMENT
 70
     1
  0
ENDSEC
  0
SECTION
  2
CLASSES
  0
CLASS
  1
XRECORD
  2
AcDbXrecord
  3
AutoCAD 2000
 90
        0
280
     0
281
     0
  0
CLASS
  1
ACDBDICTIONARYWDFLT
  2
AcDbDictionaryWithDefault
  3
AutoCAD 2000
 90
        0
280
     0
281
     0
  0
CLASS
  1
ACDBPLACEHOLDER
  2
AcDbPlaceHolder
  3
AutoCAD 2000
 90
        0
280
     0
281
     0
  0
CLASS
  1
LAYOUT
  2
AcDbLayout
  3
AutoCAD 2000
 90
        0
280
     0
281
     0
  0
CLASS
  1
PLOTSETTINGS
  2
AcDbPlotSettings
  3
AutoCAD 2000
 90
        0
280
     0
281
     0
  0
CLASS
  1
LONG_TRANSACTION
  2
AcDbLongTransaction
  3
AutoCAD 2000
 90
        0
280
     0
281
     0
  0
CLASS
  1
LWPOLYLINE
  2
AcDbPolyline
  3
AutoCAD 2000
 90
        0
280
     0
281
     1
  0
CLASS
  1
HATCH
  2
AcDbHatch
  3
AutoCAD 2000
 90
        0
280
     0
281
     1
  0
CLASS
  1
XRECORD
  2
AcDbXrecord
  3
AutoCAD 2000
 90
        0
280
     0
281
     0
  0
CLASS
  1
LONG_TRANSACTION
  2
AcDbLongTransaction
  3
AutoCAD 2000
 90
        0
280
     0
281
     0
  0
CLASS
  1
LWPOLYLINE
  2
AcDbPolyline
  3
AutoCAD 2000
 90
        0
280
     0
281
     1
  0
CLASS
  1
HATCH
  2
AcDbHatch
  3
AutoCAD 2000
 90
        0
280
     0
281
     1
  0
CLASS
  1
XRECORD
  2
AcDbXrecord
  3
AutoCAD 2000
 90
        0
280
     0
281
     0
  0
ENDSEC
  0
SECTION
  2
TABLES
  0
TABLE
  2
VPORT
  5
8
330
0
100
AcDbSymbolTable
 70
     2
  0
VPORT
  5
10EE
330
8
100
AcDbSymbolTableRecord
100
AcDbViewportTableRecord
  2
*ACTIVE
 70
     0
 10
0.0
 20
0.0
 11
1.0
 21
1.0
 12
52.63986152
 22
13.02478514
 13
0.0
 23
0.0
 14
7.0
 24
7.0
 15
7.0
 25
7.0
 16
0.0
 26
0.0
 36
1.0
 17
0.0
 27
0.0
 37
0.0
 40
131.69161108
 41
1.45595855
 42
50.0
 43
0.0
 44
0.0
 50
0.0
 51
0.0
 71
     0
 72
  2000
 73
     1
 74
     0
 75
     0
 76
     0
 77
     0
 78
     0
  0
ENDTAB
  0
TABLE
  2
LTYPE
  5
5
330
0
100
AcDbSymbolTable
 70
     4
  0
LTYPE
  5
14
330
5
100
AcDbSymbolTableRecord
100
AcDbLinetypeTableRecord
  2
BYBLOCK
 70
     0
  3

 72
    65
 73
     0
 40
0.0
  0
LTYPE
  5
15
330
5
100
AcDbSymbolTableRecord
100
AcDbLinetypeTableRecord
  2
BYLAYER
 70
     0
  3

 72
    65
 73
     0
 40
0.0
  0
LTYPE
  5
16
330
5
100
AcDbSymbolTableRecord
100
AcDbLinetypeTableRecord
  2
CONTINUOUS
 70
     0
  3
Solid line
 72
    65
 73
     0
 40
0.0
  0
LTYPE
  5
258
330
5
100
AcDbSymbolTableRecord
100
AcDbLinetypeTableRecord
  2
CENTER2
 70
     0
  3
___ _ ___ _ ___ _ ___ _ ___ _ ___ _ ___ _ ___ _
 72
    65
 73
     4
 40
1.125
 49
0.75
 74
     0
 49
-0.125
 74
     0
 49
0.125
 74
     0
 49
-0.125
 74
     0
  0
LTYPE
  5
25C
330
5
100
AcDbSymbolTableRecord
100
AcDbLinetypeTableRecord
  2
HIDDEN2
 70
     0
  3
_ _ _ _ _ _ _ _ _ _ _ _ _ _ _ _ _ _ _ _ _ _ _ _
 72
    65
 73
     2
 40
0.1875
 49
0.125
 74
     0
 49
-0.0625
 74
     0
  0
LTYPE
  5
25D
330
5
100
AcDbSymbolTableRecord
100
AcDbLinetypeTableRecord
  2
PHANTOM2
 70
     0
  3
___ _ _ ___ _ _ ___ _ _ ___ _ _ ___ _ _ ___ _ _
 72
    65
 73
     6
 40
1.25
 49
0.625
 74
     0
 49
-0.125
 74
     0
 49
0.125
 74
     0
 49
-0.125
 74
     0
 49
0.125
 74
     0
 49
-0.125
 74
     0
  0
ENDTAB
  0
TABLE
  2
LAYER
  5
2
330
0
100
AcDbSymbolTable
 70
    11
  0
LAYER
  5
F
330
2
100
AcDbSymbolTableRecord
100
AcDbLayerTableRecord
  2
0
 70
     0
 62
     7
  6
CONTINUOUS
  0
LAYER
  5
1AA
330
2
100
AcDbSymbolTableRecord
100
AcDbLayerTableRecord
  2
240
 70
     0
 62
     4
  6
CONTINUOUS
  0
LAYER
  5
1AB
330
2
100
AcDbSymbolTableRecord
100
AcDbLayerTableRecord
  2
241
 70
     0
 62
   211
  6
CONTINUOUS
  0
LAYER
  5
1AC
330
2
100
AcDbSymbolTableRecord
100
AcDbLayerTableRecord
  2
242
 70
     0
 62
     3
  6
CONTINUOUS
  0
LAYER
  5
1AF
330
2
100
AcDbSymbolTableRecord
100
AcDbLayerTableRecord
  2
245
 70
     0
 62
     2
  6
CENTER2
  0
LAYER
  5
21A
330
2
100
AcDbSymbolTableRecord
100
AcDbLayerTableRecord
  2
246
 70
     0
 62
     3
  6
PHANTOM2
  0
LAYER
  5
21E
330
2
100
AcDbSymbolTableRecord
100
AcDbLayerTableRecord
  2
250
 70
     0
 62
     3
  6
CONTINUOUS
  0
LAYER
  5
21F
330
2
100
AcDbSymbolTableRecord
100
AcDbLayerTableRecord
  2
251
 70
     0
 62
    40
  6
CONTINUOUS
  0
LAYER
  5
5C4
330
2
100
AcDbSymbolTableRecord
100
AcDbLayerTableRecord
  2
DEFPOINTS
 70
     0
 62
     7
  6
CONTINUOUS
  0
ENDTAB
  0
TABLE
  2
STYLE
  5
3
330
0
100
AcDbSymbolTable
 70
     2
  0
STYLE
  5
10
330
3
100
AcDbSymbolTableRecord
100
AcDbTextStyleTableRecord
  2
STANDARD
 70
     0
 40
0.0
 41
1.0
 50
0.0
 71
     0
 42
3.0
  3
romans.shx
  4
BIGFONT.SHX
  0
STYLE
  5
339
330
3
100
AcDbSymbolTableRecord
100
AcDbTextStyleTableRecord
  2
YOKO
 70
     0
 40
0.0
 41
1.0
 50
0.0
 71
     0
 42
3.0
  3
romans.shx
  4
extfont.shx
  0
ENDTAB
  0
TABLE
  2
VIEW
  5
6
330
0
100
AcDbSymbolTable
 70
     0
  0
ENDTAB
  0
TABLE
  2
UCS
  5
7
330
0
100
AcDbSymbolTable
 70
     0
  0
ENDTAB
  0
TABLE
  2
APPID
  5
9
330
0
100
AcDbSymbolTable
 70
     9
  0
APPID
  5
11
330
9
100
AcDbSymbolTableRecord
100
AcDbRegAppTableRecord
  2
ACAD
 70
     0
  0
APPID
  5
1B1
330
9
100
AcDbSymbolTableRecord
100
AcDbRegAppTableRecord
  2
GLOBAL
 70
     0
  0
APPID
  5
2A4
330
9
100
AcDbSymbolTableRecord
100
AcDbRegAppTableRecord
  2
DETAIL
 70
     0
  0
APPID
  5
5FD
330
9
100
AcDbSymbolTableRecord
100
AcDbRegAppTableRecord
  2
GRPNAME
 70
     0
  0
APPID
  5
5FE
330
9
100
AcDbSymbolTableRecord
100
AcDbRegAppTableRecord
  2
GPARA
 70
     0
  0
APPID
  5
6C4
330
9
100
AcDbSymbolTableRecord
100
AcDbRegAppTableRecord
  2
DCO15
 70
     0
  0
APPID
  5
6C5
330
9
100
AcDbSymbolTableRecord
100
AcDbRegAppTableRecord
  2
ITEMNAME
 70
     0
  0
APPID
  5
6C6
330
9
100
AcDbSymbolTableRecord
100
AcDbRegAppTableRecord
  2
GRADE_0
 70
     0
  0
APPID
  5
CE8
330
9
100
AcDbSymbolTableRecord
100
AcDbRegAppTableRecord
  2
CONTENTBLOCKICON
 70
     0
  0
ENDTAB
  0
TABLE
  2
DIMSTYLE
  5
A
330
0
100
AcDbSymbolTable
 70
     1
  0
DIMSTYLE
105
725
102
{ACAD_REACTORS
330
A8E
330
A9D
330
AAC
330
ABB
102
}
330
A
100
AcDbSymbolTableRecord
100
AcDbDimStyleTableRecord
  2
BIGT
 70
     0
  3

  4

  5

  6
OPEN
  7
OPEN
 40
1.0
 41
2.23
 42
0.5
 43
2.5
 44
1.0
 45
0.0
 46
0.0
 47
0.0
 48
0.0
140
2.8
141
0.0
142
0.0
143
25.4
144
1.0
145
0.0
146
1.0
147
1.0
 71
     0
 72
     0
 73
     0
 74
     0
 75
     0
 76
     0
 77
     3
 78
     8
170
     0
171
     2
172
     1
173
     1
174
     1
175
     0
176
   256
177
   256
178
    40
270
     2
271
     3
272
     3
273
     2
274
     2
340
10
275
     0
280
     0
281
     0
282
     0
283
     1
284
     8
285
     0
286
     0
287
     3
288
     0
  0
ENDTAB
  0
TABLE
  2
BLOCK_RECORD
  5
1
330
0
100
AcDbSymbolTable
 70
     8
  0
BLOCK_RECORD
  5
1A
102
{ACAD_XDICTIONARY
360
CE6
102
}
330
1
100
AcDbSymbolTableRecord
100
AcDbBlockTableRecord
  2
*MODEL_SPACE
  0
BLOCK_RECORD
  5
17
102
{ACAD_XDICTIONARY
360
CE4
102
}
330
1
100
AcDbSymbolTableRecord
100
AcDbBlockTableRecord
  2
*PAPER_SPACE
  0
BLOCK_RECORD
  5
594
330
1
100
AcDbSymbolTableRecord
100
AcDbBlockTableRecord
  2
_OPEN
  0
BLOCK_RECORD
  5
6E3
330
1
100
AcDbSymbolTableRecord
100
AcDbBlockTableRecord
  2
矢印なし
  0
BLOCK_RECORD
  5
A8F
330
1
100
AcDbSymbolTableRecord
100
AcDbBlockTableRecord
  2
*D2
  0
BLOCK_RECORD
  5
A9E
330
1
100
AcDbSymbolTableRecord
100
AcDbBlockTableRecord
  2
*D3
  0
BLOCK_RECORD
  5
AAD
330
1
100
AcDbSymbolTableRecord
100
AcDbBlockTableRecord
  2
*D4
  0
BLOCK_RECORD
  5
ABC
330
1
100
AcDbSymbolTableRecord
100
AcDbBlockTableRecord
  2
*D5
  0
BLOCK_RECORD
  5
B08
330
1
100
AcDbSymbolTableRecord
100
AcDbBlockTableRecord
  2
1
1001
CONTENTBLOCKICON
1071
        0
1004
2800000020000000200000000100080000000000000400000000000000000000000000000000000000000000000080000080000000808000800000008000800080800000C0C0C000C0DCC000F0CAA6000020400000206000002080000020A0000020C0000020E00000400000004020000040400000406000004080000040A0
1004
000040C0000040E00000600000006020000060400000606000006080000060A0000060C0000060E00000800000008020000080400000806000008080000080A0000080C0000080E00000A0000000A0200000A0400000A0600000A0800000A0A00000A0C00000A0E00000C0000000C0200000C0400000C0600000C0800000C0
1004
A00000C0C00000C0E00000E0000000E0200000E0400000E0600000E0800000E0A00000E0C00000E0E00040000000400020004000400040006000400080004000A0004000C0004000E00040200000402020004020400040206000402080004020A0004020C0004020E000404000004040200040404000404060004040800040
1004
40A0004040C0004040E00040600000406020004060400040606000406080004060A0004060C0004060E00040800000408020004080400040806000408080004080A0004080C0004080E00040A0000040A0200040A0400040A0600040A0800040A0A00040A0C00040A0E00040C0000040C0200040C0400040C0600040C08000
1004
40C0A00040C0C00040C0E00040E0000040E0200040E0400040E0600040E0800040E0A00040E0C00040E0E00080000000800020008000400080006000800080008000A0008000C0008000E00080200000802020008020400080206000802080008020A0008020C0008020E00080400000804020008040400080406000804080
1004
008040A0008040C0008040E00080600000806020008060400080606000806080008060A0008060C0008060E00080800000808020008080400080806000808080008080A0008080C0008080E00080A0000080A0200080A0400080A0600080A0800080A0A00080A0C00080A0E00080C0000080C0200080C0400080C0600080C0
1004
800080C0A00080C0C00080C0E00080E0000080E0200080E0400080E0600080E0800080E0A00080E0C00080E0E000C0000000C0002000C0004000C0006000C0008000C000A000C000C000C000E000C0200000C0202000C0204000C0206000C0208000C020A000C020C000C020E000C0400000C0402000C0404000C0406000C0
1004
408000C040A000C040C000C040E000C0600000C0602000C0604000C0606000C0608000C060A000C060C000C060E000C0800000C0802000C0804000C0806000C0808000C080A000C080C000C080E000C0A00000C0A02000C0A04000C0A06000C0A08000C0A0A000C0A0C000C0A0E000C0C00000C0C02000C0C04000C0C06000
1004
C0C08000C0C0A000F0FBFF00A4A0A000808080000000FF0000FF000000FFFF00FF000000FF00FF00FFFF0000FFFFFF0000000000000000000000000000000000000000000000000000000000000000000000000000000000000000000000000000000000000000000000000000000000000000000000000000000000000000
1004
00000000000000000000000000000000000000000000000000000000000000000000000000000000000000000000000000000000000000000000000000000000000000000000000000000000000000000000000000000000000000000000000000000000000000000000000000000000000000000000000000000000000000
1004
00000000000000000000000000000000000000000000000000000000000000000000000000000000000000000000000000000000000000000000000000000000000000000000000000000000000000000000000000000000000000000000000000000000000000000000000000000000000000000000000000FEFEFEFEFE00
1004
000000000000000000000000000000000000000000000000FEFEFEE7E7E7E7FE0000000000000000000000000000000000000000FEFEFEFE00E7E7E7E7E7E7FEFEE7FE0000000000000000000000000000000000FE00000000E7E700E7E7FAE7E7E700FEFEFEFEFEFE0000000000000000000000FEE7E70000E7E7E7E7E7E7
1004
E7E7E700000000000000FEFEE7FEFEFEFEFE00000000FEE700FBE7E7E700FBE7E7E7E7000000000000000000E700E7E7E7FE000000FBFEE7FBFBE7E7E7FBFBE7E7E7E7FBFBFBFBFBFBFBFBFBE7FBFBE7E7E7FB0000FEFEE70000E7E7E7E7E7E7E7E7E700000000000000FEFEFEFEFEFEE7E7000000FE00000000E7E700E7E7
1004
E7E7E7E700FEFEFEFEFEFE0000000000000000000000FEFEFE0000E7E700E7E7E7FEFEE7FE0000000000000000000000000000000000000000FEFEFEFE00FEFEFEFE0000000000000000000000000000000000000000000000000000FEFEFEFEFE000000000000000000000000000000000000000000000000000000000000
1004
00000000000000000000000000000000000000000000000000000000000000000000000000000000000000000000000000000000000000000000000000000000000000000000000000000000000000000000000000000000000000000000000000000000000000000000000000000000000000000000000000000000000000
1004
00000000000000000000000000000000000000000000000000000000000000000000000000000000000000000000000000000000000000000000000000000000000000000000000000000000000000000000000000000000000000000000000000000000000000000000000000000000000000000000000000000000000000
1004
0000000000000000000000000000000000000000000000000000000000000000000000000000000000000000000000000000000000000000
  0
ENDTAB
  0
ENDSEC
  0
SECTION
  2
BLOCKS
  0
BLOCK
  5
1B
330
1A
100
AcDbEntity
  8
0
100
AcDbBlockBegin
  2
*MODEL_SPACE
 70
     0
 10
0.0
 20
0.0
 30
0.0
  3
*MODEL_SPACE
  1

  0
ENDBLK
  5
1C
330
1A
100
AcDbEntity
  8
0
100
AcDbBlockEnd
  0
BLOCK
  5
18
330
17
100
AcDbEntity
 67
     1
  8
0
100
AcDbBlockBegin
  2
*PAPER_SPACE
 70
     0
 10
0.0
 20
0.0
 30
0.0
  3
*PAPER_SPACE
  1

  0
ENDBLK
  5
19
330
17
100
AcDbEntity
 67
     1
  8
0
100
AcDbBlockEnd
  0
BLOCK
  5
598
330
594
100
AcDbEntity
  8
0
100
AcDbBlockBegin
  2
_OPEN
 70
     0
 10
0.0
 20
0.0
 30
0.0
  3
_OPEN
  1

  0
LINE
  5
595
330
594
100
AcDbEntity
  8
0
  6
BYBLOCK
 62
     0
100
AcDbLine
 10
-1.0
 20
0.16666667
 30
0.0
 11
0.0
 21
0.0
 31
0.0
  0
LINE
  5
596
330
594
100
AcDbEntity
  8
0
  6
BYBLOCK
 62
     0
100
AcDbLine
 10
-1.0
 20
-0.16666667
 30
0.0
 11
0.0
 21
0.0
 31
0.0
  0
LINE
  5
597
330
594
100
AcDbEntity
  8
0
  6
BYBLOCK
 62
     0
100
AcDbLine
 10
0.0
 20
0.0
 30
0.0
 11
-1.0
 21
0.0
 31
0.0
  0
ENDBLK
  5
599
330
594
100
AcDbEntity
  8
0
100
AcDbBlockEnd
  0
BLOCK
  5
6E4
330
6E3
100
AcDbEntity
  8
0
100
AcDbBlockBegin
  2
矢印なし
 70
     0
 10
0.0
 20
0.0
 30
0.0
  3
矢印なし
  1

  0
ENDBLK
  5
6E5
330
6E3
100
AcDbEntity
  8
0
100
AcDbBlockEnd
  0
BLOCK
  5
A99
330
A8F
100
AcDbEntity
  8
0
100
AcDbBlockBegin
  2
*D2
 70
     1
 10
0.0
 20
0.0
 30
0.0
  3
*D2
  1

  0
LINE
  5
AE4
330
A8F
100
AcDbEntity
  8
250
  6
CONTINUOUS
100
AcDbLine
 10
135.5
 20
-10.0
 30
0.0
 11
148.0
 21
-10.0
 31
0.0
  0
LINE
  5
AE5
330
A8F
100
AcDbEntity
  8
250
  6
CONTINUOUS
100
AcDbLine
 10
135.5
 20
10.0
 30
0.0
 11
148.0
 21
10.0
 31
0.0
  0
LINE
  5
AE6
330
A8F
100
AcDbEntity
  8
250
  6
CONTINUOUS
100
AcDbLine
 10
147.0
 20
-7.77
 30
0.0
 11
147.0
 21
7.77
 31
0.0
  0
INSERT
  5
AE7
330
A8F
100
AcDbEntity
  8
250
  6
CONTINUOUS
100
AcDbBlockReference
  2
_OPEN
 10
147.0
 20
-10.0
 30
0.0
 41
2.23
 42
2.23
 43
2.23
 50
270.0
  0
INSERT
  5
AE8
330
A8F
100
AcDbEntity
  8
250
  6
CONTINUOUS
100
AcDbBlockReference
  2
_OPEN
 10
147.0
 20
10.0
 30
0.0
 41
2.23
 42
2.23
 43
2.23
 50
90.0
  0
MTEXT
  5
AE9
330
A8F
100
AcDbEntity
  8
250
  6
CONTINUOUS
 62
    40
100
AcDbMText
 10
144.6
 20
0.0
 30
0.0
 40
2.8
 41
0.0
 71
     5
 72
     1
  1
\A1;{\H2.8;\U+2205}20
 11
0.0
 21
1.0
 31
0.0
1001
ACAD
1000
MTEXTBEGIN
1070
    73
1070
     1
1070
    44
1040
1.0
1070
    74
1070
     0
1000
MTEXTEND
1000
MTEXTBEGIN
1070
    73
1070
     1
1070
    44
1040
1.0
1070
    74
1070
     0
1000
MTEXTEND
  0
POINT
  5
AEA
330
A8F
100
AcDbEntity
  8
DEFPOINTS
  6
CONTINUOUS
 62
     0
100
AcDbPoint
 10
135.0
 20
-10.0
 30
0.0
  0
POINT
  5
AEB
330
A8F
100
AcDbEntity
  8
DEFPOINTS
  6
CONTINUOUS
 62
     0
100
AcDbPoint
 10
135.0
 20
10.0
 30
0.0
  0
POINT
  5
AEC
330
A8F
100
AcDbEntity
  8
DEFPOINTS
  6
CONTINUOUS
 62
     0
100
AcDbPoint
 10
147.0
 20
10.0
 30
0.0
  0
ENDBLK
  5
A9A
330
A8F
100
AcDbEntity
  8
0
100
AcDbBlockEnd
  0
BLOCK
  5
AA8
330
A9E
100
AcDbEntity
  8
0
100
AcDbBlockBegin
  2
*D3
 70
     1
 10
0.0
 20
0.0
 30
0.0
  3
*D3
  1

  0
LINE
  5
AF6
330
A9E
100
AcDbEntity
  8
250
  6
CONTINUOUS
100
AcDbLine
 10
127.0
 20
10.5
 30
0.0
 11
127.0
 21
29.0
 31
0.0
  0
LINE
  5
AF7
330
A9E
100
AcDbEntity
  8
250
  6
CONTINUOUS
100
AcDbLine
 10
135.0
 20
10.5
 30
0.0
 11
135.0
 21
29.0
 31
0.0
  0
LINE
  5
AF8
330
A9E
100
AcDbEntity
  8
250
  6
CONTINUOUS
100
AcDbLine
 10
129.23
 20
28.0
 30
0.0
 11
132.77
 21
28.0
 31
0.0
  0
INSERT
  5
AF9
330
A9E
100
AcDbEntity
  8
250
  6
CONTINUOUS
100
AcDbBlockReference
  2
_OPEN
 10
127.0
 20
28.0
 30
0.0
 41
2.23
 42
2.23
 43
2.23
 50
180.0
  0
INSERT
  5
AFA
330
A9E
100
AcDbEntity
  8
250
  6
CONTINUOUS
100
AcDbBlockReference
  2
_OPEN
 10
135.0
 20
28.0
 30
0.0
 41
2.23
 42
2.23
 43
2.23
  0
MTEXT
  5
AFB
330
A9E
100
AcDbEntity
  8
250
  6
CONTINUOUS
 62
    40
100
AcDbMText
 10
131.0
 20
30.4
 30
0.0
 40
2.8
 41
0.0
 71
     5
 72
     1
  1
\A1;8
1001
ACAD
1000
MTEXTBEGIN
1070
    73
1070
     1
1070
    44
1040
1.0
1070
    74
1070
     0
1000
MTEXTEND
1000
MTEXTBEGIN
1070
    73
1070
     1
1070
    44
1040
1.0
1070
    74
1070
     0
1000
MTEXTEND
  0
POINT
  5
AFC
330
A9E
100
AcDbEntity
  8
DEFPOINTS
  6
CONTINUOUS
 62
     0
100
AcDbPoint
 10
127.0
 20
10.0
 30
0.0
  0
POINT
  5
AFD
330
A9E
100
AcDbEntity
  8
DEFPOINTS
  6
CONTINUOUS
 62
     0
100
AcDbPoint
 10
135.0
 20
10.0
 30
0.0
  0
POINT
  5
AFE
330
A9E
100
AcDbEntity
  8
DEFPOINTS
  6
CONTINUOUS
 62
     0
100
AcDbPoint
 10
135.0
 20
28.0
 30
0.0
  0
ENDBLK
  5
AA9
330
A9E
100
AcDbEntity
  8
0
100
AcDbBlockEnd
  0
BLOCK
  5
AB7
330
AAD
100
AcDbEntity
  8
0
100
AcDbBlockBegin
  2
*D4
 70
     1
 10
0.0
 20
0.0
 30
0.0
  3
*D4
  1

  0
LINE
  5
AFF
330
AAD
100
AcDbEntity
  8
250
  6
CONTINUOUS
100
AcDbLine
 10
105.0
 20
9.90074075
 30
0.0
 11
105.0
 21
36.0
 31
0.0
  0
LINE
  5
B00
330
AAD
100
AcDbEntity
  8
250
  6
CONTINUOUS
100
AcDbLine
 10
135.0
 20
10.5
 30
0.0
 11
135.0
 21
36.0
 31
0.0
  0
LINE
  5
B01
330
AAD
100
AcDbEntity
  8
250
  6
CONTINUOUS
100
AcDbLine
 10
107.23
 20
35.0
 30
0.0
 11
132.77
 21
35.0
 31
0.0
  0
INSERT
  5
B02
330
AAD
100
AcDbEntity
  8
250
  6
CONTINUOUS
100
AcDbBlockReference
  2
_OPEN
 10
105.0
 20
35.0
 30
0.0
 41
2.23
 42
2.23
 43
2.23
 50
180.0
  0
INSERT
  5
B03
330
AAD
100
AcDbEntity
  8
250
  6
CONTINUOUS
100
AcDbBlockReference
  2
_OPEN
 10
135.0
 20
35.0
 30
0.0
 41
2.23
 42
2.23
 43
2.23
  0
MTEXT
  5
B04
330
AAD
100
AcDbEntity
  8
250
  6
CONTINUOUS
 62
    40
100
AcDbMText
 10
120.0
 20
37.4
 30
0.0
 40
2.8
 41
0.0
 71
     5
 72
     1
  1
\A1;30
1001
ACAD
1000
MTEXTBEGIN
1070
    73
1070
     1
1070
    44
1040
1.0
1070
    74
1070
     0
1000
MTEXTEND
1000
MTEXTBEGIN
1070
    73
1070
     1
1070
    44
1040
1.0
1070
    74
1070
     0
1000
MTEXTEND
  0
POINT
  5
B05
330
AAD
100
AcDbEntity
  8
DEFPOINTS
  6
CONTINUOUS
 62
     0
100
AcDbPoint
 10
105.0
 20
9.40074075
 30
0.0
  0
POINT
  5
B06
330
AAD
100
AcDbEntity
  8
DEFPOINTS
  6
CONTINUOUS
 62
     0
100
AcDbPoint
 10
135.0
 20
10.0
 30
0.0
  0
POINT
  5
B07
330
AAD
100
AcDbEntity
  8
DEFPOINTS
  6
CONTINUOUS
 62
     0
100
AcDbPoint
 10
135.0
 20
35.0
 30
0.0
  0
ENDBLK
  5
AB8
330
AAD
100
AcDbEntity
  8
0
100
AcDbBlockEnd
  0
BLOCK
  5
AC6
330
ABC
100
AcDbEntity
  8
0
100
AcDbBlockBegin
  2
*D5
 70
     1
 10
0.0
 20
0.0
 30
0.0
  3
*D5
  1

  0
LINE
  5
AED
330
ABC
100
AcDbEntity
  8
250
  6
CONTINUOUS
100
AcDbLine
 10
0.0
 20
31.0
 30
0.0
 11
0.0
 21
43.0
 31
0.0
  0
LINE
  5
AEE
330
ABC
100
AcDbEntity
  8
250
  6
CONTINUOUS
100
AcDbLine
 10
135.0
 20
10.5
 30
0.0
 11
135.0
 21
43.0
 31
0.0
  0
LINE
  5
AEF
330
ABC
100
AcDbEntity
  8
250
  6
CONTINUOUS
100
AcDbLine
 10
2.23
 20
42.0
 30
0.0
 11
132.77
 21
42.0
 31
0.0
  0
INSERT
  5
AF0
330
ABC
100
AcDbEntity
  8
250
  6
CONTINUOUS
100
AcDbBlockReference
  2
_OPEN
 10
0.0
 20
42.0
 30
0.0
 41
2.23
 42
2.23
 43
2.23
 50
180.0
  0
INSERT
  5
AF1
330
ABC
100
AcDbEntity
  8
250
  6
CONTINUOUS
100
AcDbBlockReference
  2
_OPEN
 10
135.0
 20
42.0
 30
0.0
 41
2.23
 42
2.23
 43
2.23
  0
MTEXT
  5
AF2
330
ABC
100
AcDbEntity
  8
250
  6
CONTINUOUS
 62
    40
100
AcDbMText
 10
67.5
 20
44.4
 30
0.0
 40
2.8
 41
0.0
 71
     5
 72
     1
  1
\A1;135
1001
ACAD
1000
MTEXTBEGIN
1070
    73
1070
     1
1070
    44
1040
1.0
1070
    74
1070
     0
1000
MTEXTEND
1000
MTEXTBEGIN
1070
    73
1070
     1
1070
    44
1040
1.0
1070
    74
1070
     0
1000
MTEXTEND
  0
POINT
  5
AF3
330
ABC
100
AcDbEntity
  8
DEFPOINTS
  6
CONTINUOUS
 62
     0
100
AcDbPoint
 10
0.0
 20
30.5
 30
0.0
  0
POINT
  5
AF4
330
ABC
100
AcDbEntity
  8
DEFPOINTS
  6
CONTINUOUS
 62
     0
100
AcDbPoint
 10
135.0
 20
10.0
 30
0.0
  0
POINT
  5
AF5
330
ABC
100
AcDbEntity
  8
DEFPOINTS
  6
CONTINUOUS
 62
     0
100
AcDbPoint
 10
135.0
 20
42.0
 30
0.0
  0
ENDBLK
  5
AC7
330
ABC
100
AcDbEntity
  8
0
100
AcDbBlockEnd
  0
BLOCK
  5
B09
330
B08
100
AcDbEntity
  8
0
100
AcDbBlockBegin
  2
1
 70
     0
 10
0.0
 20
0.0
 30
0.0
  3
1
  1

  0
LINE
  5
F6B
330
B08
100
AcDbEntity
  8
240
100
AcDbLine
 10
101.58243796
 20
9.84733323
 30
0.0
 11
34.82782667
 21
21.51493333
 31
0.0
  0
LINE
  5
F6C
330
B08
100
AcDbEntity
  8
240
100
AcDbLine
 10
101.58243796
 20
-9.84733323
 30
0.0
 11
34.82782667
 21
-21.51493333
 31
0.0
  0
LINE
  5
F6D
330
B08
100
AcDbEntity
  8
245
100
AcDbLine
 10
-32.0
 20
0.0
 30
0.0
 11
136.0
 21
0.0
 31
0.0
1001
GRPNAME
1000
PASTMD4G
  0
LINE
  5
F6E
330
B08
100
AcDbEntity
  8
245
  6
CENTER2
100
AcDbLine
 10
18.0
 20
-31.5
 30
0.0
 11
18.0
 21
31.5
 31
0.0
  0
LINE
  5
F6F
330
B08
100
AcDbEntity
  8
240
  6
CONTINUOUS
100
AcDbLine
 10
0.0
 20
24.215
 30
0.0
 11
0.0
 21
30.5
 31
0.0
  0
LINE
  5
F70
330
B08
100
AcDbEntity
  8
241
  6
CONTINUOUS
100
AcDbLine
 10
16.125
 20
8.0
 30
0.0
 11
16.125
 21
27.5
 31
0.0
  0
LINE
  5
F71
330
B08
100
AcDbEntity
  8
241
  6
CONTINUOUS
100
AcDbLine
 10
14.62250093
 20
8.0
 30
0.0
 11
14.62250093
 21
31.5
 31
0.0
  0
LINE
  5
F72
330
B08
100
AcDbEntity
  8
241
  6
CONTINUOUS
100
AcDbLine
 10
21.37749907
 20
8.0
 30
0.0
 11
21.37749907
 21
31.5
 31
0.0
  0
LINE
  5
F73
330
B08
100
AcDbEntity
  8
241
  6
CONTINUOUS
100
AcDbLine
 10
19.875
 20
8.0
 30
0.0
 11
19.875
 21
27.5
 31
0.0
  0
LINE
  5
F74
330
B08
100
AcDbEntity
  8
240
  6
CONTINUOUS
100
AcDbLine
 10
26.0
 20
26.3
 30
0.0
 11
26.0
 21
30.5
 31
0.0
  0
LINE
  5
F75
330
B08
100
AcDbEntity
  8
240
  6
CONTINUOUS
100
AcDbLine
 10
-2.0
 20
-24.215
 30
0.0
 11
-30.85992514
 21
-22.77200374
 31
0.0
  0
LINE
  5
F76
330
B08
100
AcDbEntity
  8
240
  6
CONTINUOUS
100
AcDbLine
 10
-2.0
 20
24.215
 30
0.0
 11
-30.85992514
 21
22.77200374
 31
0.0
  0
LINE
  5
F77
330
B08
100
AcDbEntity
  8
240
  6
CONTINUOUS
100
AcDbLine
 10
-31.0
 20
-6.27
 30
0.0
 11
-27.5
 21
-6.27
 31
0.0
  0
LINE
  5
F78
330
B08
100
AcDbEntity
  8
240
  6
CONTINUOUS
100
AcDbLine
 10
-31.0
 20
6.27
 30
0.0
 11
-27.5
 21
6.27
 31
0.0
  0
LINE
  5
F79
330
B08
100
AcDbEntity
  8
240
  6
CONTINUOUS
100
AcDbLine
 10
-32.0
 20
-21.57350094
 30
0.0
 11
-32.0
 21
-7.27
 31
0.0
  0
ARC
  5
F7A
330
B08
100
AcDbEntity
  8
240
  6
CONTINUOUS
100
AcDbCircle
 10
-30.8
 20
-21.57350094
 30
0.0
 40
1.199999999999988
100
AcDbArc
 50
180.0
 51
267.13759477
  0
LINE
  5
F7B
330
B08
100
AcDbEntity
  8
240
  6
CONTINUOUS
100
AcDbLine
 10
-32.0
 20
-7.27
 30
0.0
 11
-31.0
 21
-6.27
 31
0.0
  0
LINE
  5
F7C
330
B08
100
AcDbEntity
  8
240
  6
CONTINUOUS
100
AcDbLine
 10
-32.0
 20
7.27
 30
0.0
 11
-32.0
 21
21.57350094
 31
0.0
  0
LINE
  5
F7D
330
B08
100
AcDbEntity
  8
240
  6
CONTINUOUS
100
AcDbLine
 10
-31.0
 20
6.27
 30
0.0
 11
-32.0
 21
7.27
 31
0.0
  0
ARC
  5
F7E
330
B08
100
AcDbEntity
  8
240
  6
CONTINUOUS
100
AcDbCircle
 10
-30.8
 20
21.57350094
 30
0.0
 40
1.199999999999994
100
AcDbArc
 50
92.86240523
 51
180.0
  0
LINE
  5
F7F
330
B08
100
AcDbEntity
  8
240
  6
CONTINUOUS
100
AcDbLine
 10
34.0
 20
-25.3
 30
0.0
 11
34.0
 21
-22.5
 31
0.0
  0
LINE
  5
F80
330
B08
100
AcDbEntity
  8
241
  6
CONTINUOUS
100
AcDbLine
 10
16.125
 20
-8.0
 30
0.0
 11
16.125
 21
-27.5
 31
0.0
  0
LINE
  5
F81
330
B08
100
AcDbEntity
  8
240
  6
CONTINUOUS
100
AcDbLine
 10
0.0
 20
-30.5
 30
0.0
 11
0.0
 21
-24.215
 31
0.0
  0
LINE
  5
F82
330
B08
100
AcDbEntity
  8
241
  6
CONTINUOUS
100
AcDbLine
 10
14.62250093
 20
-24.33618705
 30
0.0
 11
14.62250093
 21
-31.5
 31
0.0
  0
LINE
  5
F83
330
B08
100
AcDbEntity
  8
241
  6
CONTINUOUS
100
AcDbLine
 10
19.875
 20
-8.0
 30
0.0
 11
19.875
 21
-27.5
 31
0.0
  0
LINE
  5
F84
330
B08
100
AcDbEntity
  8
241
  6
CONTINUOUS
100
AcDbLine
 10
21.37749907
 20
-24.33618705
 30
0.0
 11
21.37749907
 21
-31.5
 31
0.0
  0
LINE
  5
F85
330
B08
100
AcDbEntity
  8
241
  6
CONTINUOUS
100
AcDbLine
 10
26.5
 20
-25.70500591
 30
0.0
 11
26.5
 21
-7.51828235
 31
0.0
  0
LINE
  5
F86
330
B08
100
AcDbEntity
  8
241
  6
CONTINUOUS
100
AcDbLine
 10
26.0
 20
0.0
 30
0.0
 11
26.0
 21
-26.3
 31
0.0
  0
LINE
  5
F87
330
B08
100
AcDbEntity
  8
242
  6
CONTINUOUS
100
AcDbLine
 10
26.5
 20
-7.51828235
 30
0.0
 11
33.95512754
 21
-25.59619484
 31
0.0
  0
LINE
  5
F88
330
B08
100
AcDbEntity
  8
242
  6
CONTINUOUS
100
AcDbLine
 10
26.5
 20
-25.70500591
 30
0.0
 11
34.0
 21
-7.51828235
 31
0.0
  0
LINE
  5
F89
330
B08
100
AcDbEntity
  8
240
  6
CONTINUOUS
100
AcDbLine
 10
1.0
 20
-31.5
 30
0.0
 11
14.62250093
 21
-31.5
 31
0.0
  0
ARC
  5
F8A
330
B08
100
AcDbEntity
  8
240
  6
CONTINUOUS
100
AcDbCircle
 10
1.0
 20
-30.5
 30
0.0
 40
1.0
100
AcDbArc
 50
180.0
 51
270.0
  0
ARC
  5
F8B
330
B08
100
AcDbEntity
  8
240
  6
CONTINUOUS
100
AcDbCircle
 10
25.0
 20
-30.5
 30
0.0
 40
1.0
100
AcDbArc
 50
270.0
 51
0.0
  0
LINE
  5
F8C
330
B08
100
AcDbEntity
  8
240
  6
CONTINUOUS
100
AcDbLine
 10
16.125
 20
-27.5
 30
0.0
 11
19.875
 21
-27.5
 31
0.0
  0
LINE
  5
F8D
330
B08
100
AcDbEntity
  8
240
  6
CONTINUOUS
100
AcDbLine
 10
16.125
 20
-28.89759526
 30
0.0
 11
14.62250093
 21
-31.5
 31
0.0
  0
LINE
  5
F8E
330
B08
100
AcDbEntity
  8
240
  6
CONTINUOUS
100
AcDbLine
 10
16.125
 20
-27.5
 30
0.0
 11
16.125
 21
-28.89759526
 31
0.0
  0
LINE
  5
F8F
330
B08
100
AcDbEntity
  8
240
  6
CONTINUOUS
100
AcDbLine
 10
19.875
 20
-28.89759526
 30
0.0
 11
21.37749907
 21
-31.5
 31
0.0
  0
LINE
  5
F90
330
B08
100
AcDbEntity
  8
240
  6
CONTINUOUS
100
AcDbLine
 10
21.37749907
 20
-31.5
 30
0.0
 11
25.0
 21
-31.5
 31
0.0
  0
LINE
  5
F91
330
B08
100
AcDbEntity
  8
240
  6
CONTINUOUS
100
AcDbLine
 10
19.875
 20
-27.5
 30
0.0
 11
19.875
 21
-28.89759526
 31
0.0
  0
LINE
  5
F92
330
B08
100
AcDbEntity
  8
240
  6
CONTINUOUS
100
AcDbLine
 10
26.0
 20
-26.3
 30
0.0
 11
33.0
 21
-26.3
 31
0.0
  0
LINE
  5
F93
330
B08
100
AcDbEntity
  8
241
  6
CONTINUOUS
100
AcDbLine
 10
26.5
 20
-25.70500591
 30
0.0
 11
33.91431406
 21
-25.70500591
 31
0.0
  0
LINE
  5
F94
330
B08
100
AcDbEntity
  8
240
  6
CONTINUOUS
100
AcDbLine
 10
26.0
 20
-30.5
 30
0.0
 11
26.0
 21
-26.3
 31
0.0
  0
ARC
  5
F95
330
B08
100
AcDbEntity
  8
240
  6
CONTINUOUS
100
AcDbCircle
 10
33.0
 20
-25.3
 30
0.0
 40
1.0
100
AcDbArc
 50
270.0
 51
0.0
  0
ARC
  5
F96
330
B08
100
AcDbEntity
  8
241
  6
CONTINUOUS
100
AcDbCircle
 10
12.1117139
 20
-28.0
 30
0.0
 40
8.0
100
AcDbArc
 50
90.0
 51
152.74338069
  0
LINE
  5
F97
330
B08
100
AcDbEntity
  8
241
  6
CONTINUOUS
100
AcDbLine
 10
5.0
 20
-24.33618705
 30
0.0
 11
14.62250093
 21
-24.33618705
 31
0.0
  0
ARC
  5
F98
330
B08
100
AcDbEntity
  8
241
  6
CONTINUOUS
100
AcDbCircle
 10
13.0
 20
0.0
 30
0.0
 40
8.0
100
AcDbArc
 50
90.0
 51
180.0
  0
ARC
  5
F99
330
B08
100
AcDbEntity
  8
241
  6
CONTINUOUS
100
AcDbCircle
 10
13.0
 20
0.0
 30
0.0
 40
8.0
100
AcDbArc
 50
180.0
 51
270.0
  0
LINE
  5
F9A
330
B08
100
AcDbEntity
  8
241
  6
CONTINUOUS
100
AcDbLine
 10
-2.0
 20
24.215
 30
0.0
 11
-2.0
 21
0.0
 31
0.0
  0
LINE
  5
F9B
330
B08
100
AcDbEntity
  8
241
100
AcDbLine
 10
0.0
 20
24.215
 30
0.0
 11
0.0
 21
0.0
 31
0.0
  0
LINE
  5
F9C
330
B08
100
AcDbEntity
  8
241
  6
HIDDEN2
100
AcDbLine
 10
-22.0
 20
4.77
 30
0.0
 11
-22.0
 21
0.0
 31
0.0
  0
LINE
  5
F9D
330
B08
100
AcDbEntity
  8
240
  6
CONTINUOUS
100
AcDbLine
 10
-26.0
 20
4.77
 30
0.0
 11
-26.0
 21
0.0
 31
0.0
  0
CIRCLE
  5
F9E
330
B08
100
AcDbEntity
  8
241
  6
CONTINUOUS
100
AcDbCircle
 10
-9.0
 20
0.0
 30
0.0
 40
3.75
  0
LINE
  5
F9F
330
B08
100
AcDbEntity
  8
245
  6
CENTER2
100
AcDbLine
 10
-9.0
 20
-4.75
 30
0.0
 11
-9.0
 21
4.75
 31
0.0
  0
ARC
  5
FA0
330
B08
100
AcDbEntity
  8
240
  6
CONTINUOUS
100
AcDbCircle
 10
-27.5
 20
-4.77
 30
0.0
 40
1.499999999999985
100
AcDbArc
 50
270.0
 51
0.0
  0
ARC
  5
FA1
330
B08
100
AcDbEntity
  8
241
  6
HIDDEN2
100
AcDbCircle
 10
-23.5
 20
-4.77
 30
0.0
 40
1.499999999999985
100
AcDbArc
 50
270.0
 51
0.0
  0
LINE
  5
FA2
330
B08
100
AcDbEntity
  8
241
  6
HIDDEN2
100
AcDbLine
 10
-27.5
 20
-6.27
 30
0.0
 11
-23.5
 21
-6.27
 31
0.0
  0
LINE
  5
FA3
330
B08
100
AcDbEntity
  8
240
  6
CONTINUOUS
100
AcDbLine
 10
-26.0
 20
-4.77
 30
0.0
 11
-26.0
 21
0.0
 31
0.0
  0
LINE
  5
FA4
330
B08
100
AcDbEntity
  8
241
  6
HIDDEN2
100
AcDbLine
 10
-22.0
 20
-4.77
 30
0.0
 11
-22.0
 21
0.0
 31
0.0
  0
LINE
  5
FA5
330
B08
100
AcDbEntity
  8
241
100
AcDbLine
 10
0.0
 20
-24.215
 30
0.0
 11
0.0
 21
0.0
 31
0.0
  0
LINE
  5
FA6
330
B08
100
AcDbEntity
  8
241
  6
CONTINUOUS
100
AcDbLine
 10
-2.0
 20
-24.215
 30
0.0
 11
-2.0
 21
0.0
 31
0.0
  0
LINE
  5
FA7
330
B08
100
AcDbEntity
  8
240
100
AcDbLine
 10
-2.0
 20
-24.215
 30
0.0
 11
0.0
 21
-24.215
 31
0.0
  0
LINE
  5
FA8
330
B08
100
AcDbEntity
  8
241
  6
HIDDEN2
100
AcDbLine
 10
-27.5
 20
6.27
 30
0.0
 11
-23.5
 21
6.27
 31
0.0
  0
ARC
  5
FA9
330
B08
100
AcDbEntity
  8
240
  6
CONTINUOUS
100
AcDbCircle
 10
-27.5
 20
4.77
 30
0.0
 40
1.5
100
AcDbArc
 50
0.0
 51
90.0
  0
ARC
  5
FAA
330
B08
100
AcDbEntity
  8
241
  6
HIDDEN2
100
AcDbCircle
 10
-23.5
 20
4.77
 30
0.0
 40
1.5
100
AcDbArc
 50
0.0
 51
90.0
  0
LINE
  5
FAB
330
B08
100
AcDbEntity
  8
240
100
AcDbLine
 10
-2.0
 20
24.215
 30
0.0
 11
0.0
 21
24.215
 31
0.0
  0
LINE
  5
FAC
330
B08
100
AcDbEntity
  8
241
  6
CONTINUOUS
100
AcDbLine
 10
38.27122133
 20
20.91308499
 30
0.0
 11
38.27122133
 21
0.0
 31
0.0
1001
GRPNAME
1000
PASTMD01
  0
LINE
  5
FAD
330
B08
100
AcDbEntity
  8
241
  6
CONTINUOUS
100
AcDbLine
 10
39.45330133
 20
20.70647699
 30
0.0
 11
39.45330133
 21
0.0
 31
0.0
1001
GRPNAME
1000
PASTMD01
  0
LINE
  5
FAE
330
B08
100
AcDbEntity
  8
241
  6
CONTINUOUS
100
AcDbLine
 10
42.27122133
 20
20.21395126
 30
0.0
 11
42.27122133
 21
0.0
 31
0.0
1001
GRPNAME
1000
PASTMD01
  0
LINE
  5
FAF
330
B08
100
AcDbEntity
  8
241
  6
CONTINUOUS
100
AcDbLine
 10
43.45330133
 20
20.00734326
 30
0.0
 11
43.45330133
 21
0.0
 31
0.0
1001
GRPNAME
1000
PASTMD01
  0
LINE
  5
FB0
330
B08
100
AcDbEntity
  8
241
100
AcDbLine
 10
34.0
 20
22.5
 30
0.0
 11
34.0
 21
0.0
 31
0.0
  0
LINE
  5
FB1
330
B08
100
AcDbEntity
  8
241
  6
CONTINUOUS
100
AcDbLine
 10
26.0
 20
0.0
 30
0.0
 11
26.0
 21
26.3
 31
0.0
  0
LINE
  5
FB2
330
B08
100
AcDbEntity
  8
241
  6
CONTINUOUS
100
AcDbLine
 10
13.0
 20
-8.0
 30
0.0
 11
26.0
 21
-8.0
 31
0.0
  0
LINE
  5
FB3
330
B08
100
AcDbEntity
  8
241
  6
CONTINUOUS
100
AcDbLine
 10
21.37749907
 20
-24.33618705
 30
0.0
 11
26.0
 21
-24.33618705
 31
0.0
  0
LINE
  5
FB4
330
B08
100
AcDbEntity
  8
241
  6
CONTINUOUS
100
AcDbLine
 10
19.875
 20
-20.0
 30
0.0
 11
26.0
 21
-20.0
 31
0.0
  0
LINE
  5
FB5
330
B08
100
AcDbEntity
  8
241
  6
CONTINUOUS
100
AcDbLine
 10
14.62250093
 20
-8.0
 30
0.0
 11
14.62250093
 21
-20.0
 31
0.0
  0
LINE
  5
FB6
330
B08
100
AcDbEntity
  8
241
  6
CONTINUOUS
100
AcDbLine
 10
21.37749907
 20
-8.0
 30
0.0
 11
21.37749907
 21
-20.0
 31
0.0
  0
LINE
  5
FB7
330
B08
100
AcDbEntity
  8
241
  6
CONTINUOUS
100
AcDbLine
 10
14.62250093
 20
-24.33618705
 30
0.0
 11
16.125
 21
-20.85835593
 31
0.0
  0
LINE
  5
FB8
330
B08
100
AcDbEntity
  8
241
  6
CONTINUOUS
100
AcDbLine
 10
12.1117139
 20
-20.0
 30
0.0
 11
16.125
 21
-20.0
 31
0.0
  0
LINE
  5
FB9
330
B08
100
AcDbEntity
  8
241
  6
CONTINUOUS
100
AcDbLine
 10
21.37749907
 20
-24.33618705
 30
0.0
 11
19.875
 21
-20.85835593
 31
0.0
  0
LINE
  5
FBA
330
B08
100
AcDbEntity
  8
241
  6
CONTINUOUS
100
AcDbLine
 10
43.45330133
 20
-20.00734326
 30
0.0
 11
43.45330133
 21
0.0
 31
0.0
1001
GRPNAME
1000
PASTMD01
  0
LINE
  5
FBB
330
B08
100
AcDbEntity
  8
241
  6
CONTINUOUS
100
AcDbLine
 10
42.27122133
 20
-20.21395126
 30
0.0
 11
42.27122133
 21
0.0
 31
0.0
1001
GRPNAME
1000
PASTMD01
  0
LINE
  5
FBC
330
B08
100
AcDbEntity
  8
241
  6
CONTINUOUS
100
AcDbLine
 10
39.45330133
 20
-20.70647699
 30
0.0
 11
39.45330133
 21
0.0
 31
0.0
1001
GRPNAME
1000
PASTMD01
  0
LINE
  5
FBD
330
B08
100
AcDbEntity
  8
241
  6
CONTINUOUS
100
AcDbLine
 10
38.27122133
 20
-20.91308499
 30
0.0
 11
38.27122133
 21
0.0
 31
0.0
1001
GRPNAME
1000
PASTMD01
  0
LINE
  5
FBE
330
B08
100
AcDbEntity
  8
241
100
AcDbLine
 10
34.0
 20
-22.5
 30
0.0
 11
34.0
 21
0.0
 31
0.0
  0
ARC
  5
FBF
330
B08
100
AcDbEntity
  8
240
100
AcDbCircle
 10
35.0
 20
-22.5
 30
0.0
 40
1.0
100
AcDbArc
 50
99.91420538
 51
180.0
  0
LINE
  5
FC0
330
B08
100
AcDbEntity
  8
241
  6
CONTINUOUS
100
AcDbLine
 10
26.5
 20
-7.51828235
 30
0.0
 11
34.0
 21
-7.51828235
 31
0.0
  0
LINE
  5
FC1
330
B08
100
AcDbEntity
  8
241
  6
CONTINUOUS
100
AcDbLine
 10
13.0
 20
8.0
 30
0.0
 11
26.0
 21
8.0
 31
0.0
  0
ARC
  5
FC2
330
B08
100
AcDbEntity
  8
240
100
AcDbCircle
 10
35.0
 20
22.5
 30
0.0
 40
1.0
100
AcDbArc
 50
180.0
 51
260.08577702
  0
LINE
  5
FC3
330
B08
100
AcDbEntity
  8
240
  6
CONTINUOUS
100
AcDbLine
 10
26.0
 20
26.3
 30
0.0
 11
33.0
 21
26.3
 31
0.0
  0
LINE
  5
FC4
330
B08
100
AcDbEntity
  8
240
  6
CONTINUOUS
100
AcDbLine
 10
34.0
 20
22.5
 30
0.0
 11
34.0
 21
25.3
 31
0.0
  0
ARC
  5
FC5
330
B08
100
AcDbEntity
  8
240
  6
CONTINUOUS
100
AcDbCircle
 10
33.0
 20
25.3
 30
0.0
 40
1.0
100
AcDbArc
 50
0.0
 51
90.0
  0
LINE
  5
FC6
330
B08
100
AcDbEntity
  8
240
  6
CONTINUOUS
100
AcDbLine
 10
1.0
 20
31.5
 30
0.0
 11
14.62250093
 21
31.5
 31
0.0
  0
ARC
  5
FC7
330
B08
100
AcDbEntity
  8
240
  6
CONTINUOUS
100
AcDbCircle
 10
1.0
 20
30.5
 30
0.0
 40
1.0
100
AcDbArc
 50
90.0
 51
180.0
  0
ARC
  5
FC8
330
B08
100
AcDbEntity
  8
240
  6
CONTINUOUS
100
AcDbCircle
 10
25.0
 20
30.5
 30
0.0
 40
1.0
100
AcDbArc
 50
0.0
 51
90.0
  0
LINE
  5
FC9
330
B08
100
AcDbEntity
  8
240
  6
CONTINUOUS
100
AcDbLine
 10
16.125
 20
27.5
 30
0.0
 11
19.875
 21
27.5
 31
0.0
  0
LINE
  5
FCA
330
B08
100
AcDbEntity
  8
240
  6
CONTINUOUS
100
AcDbLine
 10
16.125
 20
28.89759526
 30
0.0
 11
14.62250093
 21
31.5
 31
0.0
  0
LINE
  5
FCB
330
B08
100
AcDbEntity
  8
240
  6
CONTINUOUS
100
AcDbLine
 10
16.125
 20
27.5
 30
0.0
 11
16.125
 21
28.89759526
 31
0.0
  0
LINE
  5
FCC
330
B08
100
AcDbEntity
  8
240
  6
CONTINUOUS
100
AcDbLine
 10
19.875
 20
28.89759526
 30
0.0
 11
21.37749907
 21
31.5
 31
0.0
  0
LINE
  5
FCD
330
B08
100
AcDbEntity
  8
240
  6
CONTINUOUS
100
AcDbLine
 10
19.875
 20
27.5
 30
0.0
 11
19.875
 21
28.89759526
 31
0.0
  0
LINE
  5
FCE
330
B08
100
AcDbEntity
  8
240
  6
CONTINUOUS
100
AcDbLine
 10
21.37749907
 20
31.5
 30
0.0
 11
25.0
 21
31.5
 31
0.0
  0
LINE
  5
FCF
330
B08
100
AcDbEntity
  8
240
100
AcDbLine
 10
123.87572518
 20
9.25
 30
0.0
 11
108.46937131
 21
9.25
 31
0.0
  0
LINE
  5
FD0
330
B08
100
AcDbEntity
  8
240
100
AcDbLine
 10
123.87572518
 20
-9.25
 30
0.0
 11
108.46937131
 21
-9.25
 31
0.0
  0
ARC
  5
FD1
330
B08
100
AcDbEntity
  8
241
100
AcDbCircle
 10
119.37893004
 20
-2.024089
 30
0.0
 40
3.128930035431663
100
AcDbArc
 50
79.9999824
 51
256.43374474
  0
LINE
  5
FD2
330
B08
100
AcDbEntity
  8
241
100
AcDbLine
 10
105.0
 20
0.0
 30
0.0
 11
105.0
 21
9.25
 31
0.0
  0
ARC
  5
FD3
330
B08
100
AcDbEntity
  8
240
100
AcDbCircle
 10
108.46937131
 20
-49.25
 30
0.0
 40
40.0
100
AcDbArc
 50
90.0
 51
99.91420538
  0
LINE
  5
FD4
330
B08
100
AcDbEntity
  8
241
100
AcDbLine
 10
105.0
 20
0.0
 30
0.0
 11
105.0
 21
-9.25
 31
0.0
  0
ARC
  5
FD5
330
B08
100
AcDbEntity
  8
240
100
AcDbCircle
 10
108.46937131
 20
49.25
 30
0.0
 40
40.0
100
AcDbArc
 50
260.08579462
 51
270.0
  0
LINE
  5
FD6
330
B08
100
AcDbEntity
  8
240
100
AcDbLine
 10
134.25
 20
9.39776986
 30
0.0
 11
134.25
 21
1.09735373
 31
0.0
  0
LINE
  5
FD7
330
B08
100
AcDbEntity
  8
241
100
AcDbLine
 10
125.18194298
 20
2.69629684
 30
0.0
 11
134.18414098
 21
1.10896645
 31
0.0
  0
LINE
  5
FD8
330
B08
100
AcDbEntity
  8
241
100
AcDbLine
 10
123.83712813
 20
0.36700921
 30
0.0
 11
125.18194298
 21
2.69629684
 31
0.0
  0
LINE
  5
FD9
330
B08
100
AcDbEntity
  8
246
100
AcDbLine
 10
135.0
 20
-10.0
 30
0.0
 11
135.0
 21
10.0
 31
0.0
  0
LINE
  5
FDA
330
B08
100
AcDbEntity
  8
241
100
AcDbLine
 10
123.92202417
 20
0.51405346
 30
0.0
 11
134.25
 21
-3.24502232
 31
0.0
  0
LINE
  5
FDB
330
B08
100
AcDbEntity
  8
241
100
AcDbLine
 10
118.64497901
 20
-5.06571999
 30
0.0
 11
134.25
 21
-8.8312396
 31
0.0
  0
LINE
  5
FDC
330
B08
100
AcDbEntity
  8
240
100
AcDbLine
 10
134.25
 20
-9.39776986
 30
0.0
 11
125.18194299
 21
-9.6
 31
0.0
  0
LINE
  5
FDD
330
B08
100
AcDbEntity
  8
246
100
AcDbLine
 10
135.0
 20
-10.0
 30
0.0
 11
127.0
 21
-10.0
 31
0.0
1001
GRPNAME
1000
PASTMD4G
  0
LINE
  5
FDE
330
B08
100
AcDbEntity
  8
240
100
AcDbLine
 10
123.87572518
 20
-9.25
 30
0.0
 11
125.18194299
 21
-9.6
 31
0.0
  0
LINE
  5
FDF
330
B08
100
AcDbEntity
  8
241
100
AcDbLine
 10
123.83712813
 20
0.36700921
 30
0.0
 11
119.92226303
 21
1.05730555
 31
0.0
  0
LINE
  5
FE0
330
B08
100
AcDbEntity
  8
240
100
AcDbLine
 10
134.25
 20
-9.39776986
 30
0.0
 11
134.25
 21
-3.24502232
 31
0.0
  0
LINE
  5
FE1
330
B08
100
AcDbEntity
  8
240
100
AcDbLine
 10
135.0
 20
-3.518
 30
0.0
 11
134.25
 21
-3.24502232
 31
0.0
  0
LINE
  5
FE2
330
B08
100
AcDbEntity
  8
240
100
AcDbLine
 10
134.25
 20
1.09735373
 30
0.0
 11
134.18414098
 21
1.10896645
 31
0.0
  0
LINE
  5
FE3
330
B08
100
AcDbEntity
  8
240
100
AcDbLine
 10
134.18414098
 20
1.10896645
 30
0.0
 11
135.0
 21
-3.518
 31
0.0
  0
LINE
  5
FE4
330
B08
100
AcDbEntity
  8
240
100
AcDbLine
 10
134.25
 20
9.39776986
 30
0.0
 11
125.18194299
 21
9.6
 31
0.0
  0
LINE
  5
FE5
330
B08
100
AcDbEntity
  8
246
100
AcDbLine
 10
135.0
 20
10.0
 30
0.0
 11
127.0
 21
10.0
 31
0.0
1001
GRPNAME
1000
PASTMD4G
  0
LINE
  5
FE6
330
B08
100
AcDbEntity
  8
240
100
AcDbLine
 10
123.87572518
 20
9.25
 30
0.0
 11
125.18194299
 21
9.6
 31
0.0
  0
POLYLINE
  5
FE7
330
B08
100
AcDbEntity
  8
241
100
AcDb3dPolyline
 66
     1
 10
0.0
 20
0.0
 30
0.0
 70
     8
  0
VERTEX
  5
FE8
330
FE7
100
AcDbEntity
  8
241
100
AcDbVertex
100
AcDb3dPolylineVertex
 10
128.692
 20
6.68055
 30
0.0
 70
    32
  0
VERTEX
  5
FE9
330
FE7
100
AcDbEntity
  8
241
100
AcDbVertex
100
AcDb3dPolylineVertex
 10
128.686
 20
6.64161
 30
0.0
 70
    32
  0
VERTEX
  5
FEA
330
FE7
100
AcDbEntity
  8
241
100
AcDbVertex
100
AcDb3dPolylineVertex
 10
128.68
 20
6.60255
 30
0.0
 70
    32
  0
VERTEX
  5
FEB
330
FE7
100
AcDbEntity
  8
241
100
AcDbVertex
100
AcDb3dPolylineVertex
 10
128.675
 20
6.5634
 30
0.0
 70
    32
  0
VERTEX
  5
FEC
330
FE7
100
AcDbEntity
  8
241
100
AcDbVertex
100
AcDb3dPolylineVertex
 10
128.671
 20
6.52418
 30
0.0
 70
    32
  0
VERTEX
  5
FED
330
FE7
100
AcDbEntity
  8
241
100
AcDbVertex
100
AcDb3dPolylineVertex
 10
128.668
 20
6.48491
 30
0.0
 70
    32
  0
VERTEX
  5
FEE
330
FE7
100
AcDbEntity
  8
241
100
AcDbVertex
100
AcDb3dPolylineVertex
 10
128.666
 20
6.44562
 30
0.0
 70
    32
  0
VERTEX
  5
FEF
330
FE7
100
AcDbEntity
  8
241
100
AcDbVertex
100
AcDb3dPolylineVertex
 10
128.664
 20
6.40633
 30
0.0
 70
    32
  0
VERTEX
  5
FF0
330
FE7
100
AcDbEntity
  8
241
100
AcDbVertex
100
AcDb3dPolylineVertex
 10
128.663
 20
6.36706
 30
0.0
 70
    32
  0
VERTEX
  5
FF1
330
FE7
100
AcDbEntity
  8
241
100
AcDbVertex
100
AcDb3dPolylineVertex
 10
128.663
 20
6.32784
 30
0.0
 70
    32
  0
VERTEX
  5
FF2
330
FE7
100
AcDbEntity
  8
241
100
AcDbVertex
100
AcDb3dPolylineVertex
 10
128.664
 20
6.28869
 30
0.0
 70
    32
  0
VERTEX
  5
FF3
330
FE7
100
AcDbEntity
  8
241
100
AcDbVertex
100
AcDb3dPolylineVertex
 10
128.666
 20
6.24964
 30
0.0
 70
    32
  0
VERTEX
  5
FF4
330
FE7
100
AcDbEntity
  8
241
100
AcDbVertex
100
AcDb3dPolylineVertex
 10
128.668
 20
6.2107
 30
0.0
 70
    32
  0
VERTEX
  5
FF5
330
FE7
100
AcDbEntity
  8
241
100
AcDbVertex
100
AcDb3dPolylineVertex
 10
128.672
 20
6.1719
 30
0.0
 70
    32
  0
VERTEX
  5
FF6
330
FE7
100
AcDbEntity
  8
241
100
AcDbVertex
100
AcDb3dPolylineVertex
 10
128.676
 20
6.13328
 30
0.0
 70
    32
  0
VERTEX
  5
FF7
330
FE7
100
AcDbEntity
  8
241
100
AcDbVertex
100
AcDb3dPolylineVertex
 10
128.681
 20
6.09484
 30
0.0
 70
    32
  0
VERTEX
  5
FF8
330
FE7
100
AcDbEntity
  8
241
100
AcDbVertex
100
AcDb3dPolylineVertex
 10
128.686
 20
6.05661
 30
0.0
 70
    32
  0
VERTEX
  5
FF9
330
FE7
100
AcDbEntity
  8
241
100
AcDbVertex
100
AcDb3dPolylineVertex
 10
128.693
 20
6.01861
 30
0.0
 70
    32
  0
VERTEX
  5
FFA
330
FE7
100
AcDbEntity
  8
241
100
AcDbVertex
100
AcDb3dPolylineVertex
 10
128.7
 20
5.98087
 30
0.0
 70
    32
  0
VERTEX
  5
FFB
330
FE7
100
AcDbEntity
  8
241
100
AcDbVertex
100
AcDb3dPolylineVertex
 10
128.709
 20
5.94342
 30
0.0
 70
    32
  0
VERTEX
  5
FFC
330
FE7
100
AcDbEntity
  8
241
100
AcDbVertex
100
AcDb3dPolylineVertex
 10
128.717
 20
5.90626
 30
0.0
 70
    32
  0
VERTEX
  5
FFD
330
FE7
100
AcDbEntity
  8
241
100
AcDbVertex
100
AcDb3dPolylineVertex
 10
128.727
 20
5.86944
 30
0.0
 70
    32
  0
VERTEX
  5
FFE
330
FE7
100
AcDbEntity
  8
241
100
AcDbVertex
100
AcDb3dPolylineVertex
 10
128.738
 20
5.83295
 30
0.0
 70
    32
  0
VERTEX
  5
FFF
330
FE7
100
AcDbEntity
  8
241
100
AcDbVertex
100
AcDb3dPolylineVertex
 10
128.749
 20
5.79684
 30
0.0
 70
    32
  0
VERTEX
  5
1000
330
FE7
100
AcDbEntity
  8
241
100
AcDbVertex
100
AcDb3dPolylineVertex
 10
128.761
 20
5.76112
 30
0.0
 70
    32
  0
VERTEX
  5
1001
330
FE7
100
AcDbEntity
  8
241
100
AcDbVertex
100
AcDb3dPolylineVertex
 10
128.774
 20
5.72581
 30
0.0
 70
    32
  0
VERTEX
  5
1002
330
FE7
100
AcDbEntity
  8
241
100
AcDbVertex
100
AcDb3dPolylineVertex
 10
128.787
 20
5.69094
 30
0.0
 70
    32
  0
VERTEX
  5
1003
330
FE7
100
AcDbEntity
  8
241
100
AcDbVertex
100
AcDb3dPolylineVertex
 10
128.802
 20
5.65652
 30
0.0
 70
    32
  0
VERTEX
  5
1004
330
FE7
100
AcDbEntity
  8
241
100
AcDbVertex
100
AcDb3dPolylineVertex
 10
128.817
 20
5.62258
 30
0.0
 70
    32
  0
VERTEX
  5
1005
330
FE7
100
AcDbEntity
  8
241
100
AcDbVertex
100
AcDb3dPolylineVertex
 10
128.833
 20
5.58913
 30
0.0
 70
    32
  0
VERTEX
  5
1006
330
FE7
100
AcDbEntity
  8
241
100
AcDbVertex
100
AcDb3dPolylineVertex
 10
128.849
 20
5.5562
 30
0.0
 70
    32
  0
VERTEX
  5
1007
330
FE7
100
AcDbEntity
  8
241
100
AcDbVertex
100
AcDb3dPolylineVertex
 10
128.866
 20
5.5238
 30
0.0
 70
    32
  0
VERTEX
  5
1008
330
FE7
100
AcDbEntity
  8
241
100
AcDbVertex
100
AcDb3dPolylineVertex
 10
128.884
 20
5.49196
 30
0.0
 70
    32
  0
VERTEX
  5
1009
330
FE7
100
AcDbEntity
  8
241
100
AcDbVertex
100
AcDb3dPolylineVertex
 10
128.903
 20
5.4607
 30
0.0
 70
    32
  0
VERTEX
  5
100A
330
FE7
100
AcDbEntity
  8
241
100
AcDbVertex
100
AcDb3dPolylineVertex
 10
128.922
 20
5.43003
 30
0.0
 70
    32
  0
VERTEX
  5
100B
330
FE7
100
AcDbEntity
  8
241
100
AcDbVertex
100
AcDb3dPolylineVertex
 10
128.942
 20
5.39997
 30
0.0
 70
    32
  0
VERTEX
  5
100C
330
FE7
100
AcDbEntity
  8
241
100
AcDbVertex
100
AcDb3dPolylineVertex
 10
128.962
 20
5.37054
 30
0.0
 70
    32
  0
VERTEX
  5
100D
330
FE7
100
AcDbEntity
  8
241
100
AcDbVertex
100
AcDb3dPolylineVertex
 10
128.984
 20
5.34176
 30
0.0
 70
    32
  0
VERTEX
  5
100E
330
FE7
100
AcDbEntity
  8
241
100
AcDbVertex
100
AcDb3dPolylineVertex
 10
129.005
 20
5.31364
 30
0.0
 70
    32
  0
VERTEX
  5
100F
330
FE7
100
AcDbEntity
  8
241
100
AcDbVertex
100
AcDb3dPolylineVertex
 10
129.028
 20
5.28621
 30
0.0
 70
    32
  0
VERTEX
  5
1010
330
FE7
100
AcDbEntity
  8
241
100
AcDbVertex
100
AcDb3dPolylineVertex
 10
129.051
 20
5.25947
 30
0.0
 70
    32
  0
VERTEX
  5
1011
330
FE7
100
AcDbEntity
  8
241
100
AcDbVertex
100
AcDb3dPolylineVertex
 10
129.074
 20
5.23345
 30
0.0
 70
    32
  0
VERTEX
  5
1012
330
FE7
100
AcDbEntity
  8
241
100
AcDbVertex
100
AcDb3dPolylineVertex
 10
129.099
 20
5.20816
 30
0.0
 70
    32
  0
VERTEX
  5
1013
330
FE7
100
AcDbEntity
  8
241
100
AcDbVertex
100
AcDb3dPolylineVertex
 10
129.123
 20
5.18362
 30
0.0
 70
    32
  0
VERTEX
  5
1014
330
FE7
100
AcDbEntity
  8
241
100
AcDbVertex
100
AcDb3dPolylineVertex
 10
129.149
 20
5.15983
 30
0.0
 70
    32
  0
VERTEX
  5
1015
330
FE7
100
AcDbEntity
  8
241
100
AcDbVertex
100
AcDb3dPolylineVertex
 10
129.174
 20
5.13682
 30
0.0
 70
    32
  0
VERTEX
  5
1016
330
FE7
100
AcDbEntity
  8
241
100
AcDbVertex
100
AcDb3dPolylineVertex
 10
129.201
 20
5.1146
 30
0.0
 70
    32
  0
VERTEX
  5
1017
330
FE7
100
AcDbEntity
  8
241
100
AcDbVertex
100
AcDb3dPolylineVertex
 10
129.228
 20
5.09318
 30
0.0
 70
    32
  0
VERTEX
  5
1018
330
FE7
100
AcDbEntity
  8
241
100
AcDbVertex
100
AcDb3dPolylineVertex
 10
129.255
 20
5.07258
 30
0.0
 70
    32
  0
VERTEX
  5
1019
330
FE7
100
AcDbEntity
  8
241
100
AcDbVertex
100
AcDb3dPolylineVertex
 10
129.283
 20
5.0528
 30
0.0
 70
    32
  0
VERTEX
  5
101A
330
FE7
100
AcDbEntity
  8
241
100
AcDbVertex
100
AcDb3dPolylineVertex
 10
129.311
 20
5.03387
 30
0.0
 70
    32
  0
VERTEX
  5
101B
330
FE7
100
AcDbEntity
  8
241
100
AcDbVertex
100
AcDb3dPolylineVertex
 10
129.339
 20
5.01578
 30
0.0
 70
    32
  0
VERTEX
  5
101C
330
FE7
100
AcDbEntity
  8
241
100
AcDbVertex
100
AcDb3dPolylineVertex
 10
129.368
 20
4.99856
 30
0.0
 70
    32
  0
VERTEX
  5
101D
330
FE7
100
AcDbEntity
  8
241
100
AcDbVertex
100
AcDb3dPolylineVertex
 10
129.398
 20
4.98221
 30
0.0
 70
    32
  0
VERTEX
  5
101E
330
FE7
100
AcDbEntity
  8
241
100
AcDbVertex
100
AcDb3dPolylineVertex
 10
129.428
 20
4.96673
 30
0.0
 70
    32
  0
VERTEX
  5
101F
330
FE7
100
AcDbEntity
  8
241
100
AcDbVertex
100
AcDb3dPolylineVertex
 10
129.458
 20
4.95216
 30
0.0
 70
    32
  0
VERTEX
  5
1020
330
FE7
100
AcDbEntity
  8
241
100
AcDbVertex
100
AcDb3dPolylineVertex
 10
129.488
 20
4.93848
 30
0.0
 70
    32
  0
VERTEX
  5
1021
330
FE7
100
AcDbEntity
  8
241
100
AcDbVertex
100
AcDb3dPolylineVertex
 10
129.519
 20
4.9257
 30
0.0
 70
    32
  0
VERTEX
  5
1022
330
FE7
100
AcDbEntity
  8
241
100
AcDbVertex
100
AcDb3dPolylineVertex
 10
129.55
 20
4.91385
 30
0.0
 70
    32
  0
VERTEX
  5
1023
330
FE7
100
AcDbEntity
  8
241
100
AcDbVertex
100
AcDb3dPolylineVertex
 10
129.582
 20
4.90292
 30
0.0
 70
    32
  0
VERTEX
  5
1024
330
FE7
100
AcDbEntity
  8
241
100
AcDbVertex
100
AcDb3dPolylineVertex
 10
129.613
 20
4.89291
 30
0.0
 70
    32
  0
VERTEX
  5
1025
330
FE7
100
AcDbEntity
  8
241
100
AcDbVertex
100
AcDb3dPolylineVertex
 10
129.645
 20
4.88385
 30
0.0
 70
    32
  0
VERTEX
  5
1026
330
FE7
100
AcDbEntity
  8
241
100
AcDbVertex
100
AcDb3dPolylineVertex
 10
129.677
 20
4.87572
 30
0.0
 70
    32
  0
VERTEX
  5
1027
330
FE7
100
AcDbEntity
  8
241
100
AcDbVertex
100
AcDb3dPolylineVertex
 10
129.71
 20
4.86854
 30
0.0
 70
    32
  0
VERTEX
  5
1028
330
FE7
100
AcDbEntity
  8
241
100
AcDbVertex
100
AcDb3dPolylineVertex
 10
129.742
 20
4.86231
 30
0.0
 70
    32
  0
VERTEX
  5
1029
330
FE7
100
AcDbEntity
  8
241
100
AcDbVertex
100
AcDb3dPolylineVertex
 10
129.775
 20
4.85703
 30
0.0
 70
    32
  0
VERTEX
  5
102A
330
FE7
100
AcDbEntity
  8
241
100
AcDbVertex
100
AcDb3dPolylineVertex
 10
129.808
 20
4.85271
 30
0.0
 70
    32
  0
VERTEX
  5
102B
330
FE7
100
AcDbEntity
  8
241
100
AcDbVertex
100
AcDb3dPolylineVertex
 10
129.841
 20
4.84935
 30
0.0
 70
    32
  0
VERTEX
  5
102C
330
FE7
100
AcDbEntity
  8
241
100
AcDbVertex
100
AcDb3dPolylineVertex
 10
129.874
 20
4.84696
 30
0.0
 70
    32
  0
VERTEX
  5
102D
330
FE7
100
AcDbEntity
  8
241
100
AcDbVertex
100
AcDb3dPolylineVertex
 10
129.907
 20
4.84552
 30
0.0
 70
    32
  0
VERTEX
  5
102E
330
FE7
100
AcDbEntity
  8
241
100
AcDbVertex
100
AcDb3dPolylineVertex
 10
129.94
 20
4.84505
 30
0.0
 70
    32
  0
VERTEX
  5
102F
330
FE7
100
AcDbEntity
  8
241
100
AcDbVertex
100
AcDb3dPolylineVertex
 10
129.974
 20
4.84555
 30
0.0
 70
    32
  0
VERTEX
  5
1030
330
FE7
100
AcDbEntity
  8
241
100
AcDbVertex
100
AcDb3dPolylineVertex
 10
130.007
 20
4.84701
 30
0.0
 70
    32
  0
VERTEX
  5
1031
330
FE7
100
AcDbEntity
  8
241
100
AcDbVertex
100
AcDb3dPolylineVertex
 10
130.04
 20
4.84943
 30
0.0
 70
    32
  0
VERTEX
  5
1032
330
FE7
100
AcDbEntity
  8
241
100
AcDbVertex
100
AcDb3dPolylineVertex
 10
130.074
 20
4.85281
 30
0.0
 70
    32
  0
VERTEX
  5
1033
330
FE7
100
AcDbEntity
  8
241
100
AcDbVertex
100
AcDb3dPolylineVertex
 10
130.107
 20
4.85716
 30
0.0
 70
    32
  0
VERTEX
  5
1034
330
FE7
100
AcDbEntity
  8
241
100
AcDbVertex
100
AcDb3dPolylineVertex
 10
130.14
 20
4.86246
 30
0.0
 70
    32
  0
VERTEX
  5
1035
330
FE7
100
AcDbEntity
  8
241
100
AcDbVertex
100
AcDb3dPolylineVertex
 10
130.173
 20
4.86871
 30
0.0
 70
    32
  0
VERTEX
  5
1036
330
FE7
100
AcDbEntity
  8
241
100
AcDbVertex
100
AcDb3dPolylineVertex
 10
130.207
 20
4.87592
 30
0.0
 70
    32
  0
VERTEX
  5
1037
330
FE7
100
AcDbEntity
  8
241
100
AcDbVertex
100
AcDb3dPolylineVertex
 10
130.24
 20
4.88407
 30
0.0
 70
    32
  0
VERTEX
  5
1038
330
FE7
100
AcDbEntity
  8
241
100
AcDbVertex
100
AcDb3dPolylineVertex
 10
130.272
 20
4.89316
 30
0.0
 70
    32
  0
VERTEX
  5
1039
330
FE7
100
AcDbEntity
  8
241
100
AcDbVertex
100
AcDb3dPolylineVertex
 10
130.305
 20
4.90319
 30
0.0
 70
    32
  0
VERTEX
  5
103A
330
FE7
100
AcDbEntity
  8
241
100
AcDbVertex
100
AcDb3dPolylineVertex
 10
130.338
 20
4.91414
 30
0.0
 70
    32
  0
VERTEX
  5
103B
330
FE7
100
AcDbEntity
  8
241
100
AcDbVertex
100
AcDb3dPolylineVertex
 10
130.37
 20
4.92602
 30
0.0
 70
    32
  0
VERTEX
  5
103C
330
FE7
100
AcDbEntity
  8
241
100
AcDbVertex
100
AcDb3dPolylineVertex
 10
130.402
 20
4.93882
 30
0.0
 70
    32
  0
VERTEX
  5
103D
330
FE7
100
AcDbEntity
  8
241
100
AcDbVertex
100
AcDb3dPolylineVertex
 10
130.434
 20
4.95252
 30
0.0
 70
    32
  0
VERTEX
  5
103E
330
FE7
100
AcDbEntity
  8
241
100
AcDbVertex
100
AcDb3dPolylineVertex
 10
130.466
 20
4.96712
 30
0.0
 70
    32
  0
VERTEX
  5
103F
330
FE7
100
AcDbEntity
  8
241
100
AcDbVertex
100
AcDb3dPolylineVertex
 10
130.497
 20
4.98262
 30
0.0
 70
    32
  0
VERTEX
  5
1040
330
FE7
100
AcDbEntity
  8
241
100
AcDbVertex
100
AcDb3dPolylineVertex
 10
130.528
 20
4.99899
 30
0.0
 70
    32
  0
VERTEX
  5
1041
330
FE7
100
AcDbEntity
  8
241
100
AcDbVertex
100
AcDb3dPolylineVertex
 10
130.559
 20
5.01624
 30
0.0
 70
    32
  0
VERTEX
  5
1042
330
FE7
100
AcDbEntity
  8
241
100
AcDbVertex
100
AcDb3dPolylineVertex
 10
130.589
 20
5.03435
 30
0.0
 70
    32
  0
VERTEX
  5
1043
330
FE7
100
AcDbEntity
  8
241
100
AcDbVertex
100
AcDb3dPolylineVertex
 10
130.619
 20
5.0533
 30
0.0
 70
    32
  0
VERTEX
  5
1044
330
FE7
100
AcDbEntity
  8
241
100
AcDbVertex
100
AcDb3dPolylineVertex
 10
130.649
 20
5.0731
 30
0.0
 70
    32
  0
VERTEX
  5
1045
330
FE7
100
AcDbEntity
  8
241
100
AcDbVertex
100
AcDb3dPolylineVertex
 10
130.679
 20
5.09373
 30
0.0
 70
    32
  0
VERTEX
  5
1046
330
FE7
100
AcDbEntity
  8
241
100
AcDbVertex
100
AcDb3dPolylineVertex
 10
130.708
 20
5.11516
 30
0.0
 70
    32
  0
VERTEX
  5
1047
330
FE7
100
AcDbEntity
  8
241
100
AcDbVertex
100
AcDb3dPolylineVertex
 10
130.736
 20
5.13741
 30
0.0
 70
    32
  0
VERTEX
  5
1048
330
FE7
100
AcDbEntity
  8
241
100
AcDbVertex
100
AcDb3dPolylineVertex
 10
130.764
 20
5.16043
 30
0.0
 70
    32
  0
VERTEX
  5
1049
330
FE7
100
AcDbEntity
  8
241
100
AcDbVertex
100
AcDb3dPolylineVertex
 10
130.792
 20
5.18424
 30
0.0
 70
    32
  0
VERTEX
  5
104A
330
FE7
100
AcDbEntity
  8
241
100
AcDbVertex
100
AcDb3dPolylineVertex
 10
130.819
 20
5.2088
 30
0.0
 70
    32
  0
VERTEX
  5
104B
330
FE7
100
AcDbEntity
  8
241
100
AcDbVertex
100
AcDb3dPolylineVertex
 10
130.846
 20
5.23411
 30
0.0
 70
    32
  0
VERTEX
  5
104C
330
FE7
100
AcDbEntity
  8
241
100
AcDbVertex
100
AcDb3dPolylineVertex
 10
130.872
 20
5.26015
 30
0.0
 70
    32
  0
VERTEX
  5
104D
330
FE7
100
AcDbEntity
  8
241
100
AcDbVertex
100
AcDb3dPolylineVertex
 10
130.898
 20
5.2869
 30
0.0
 70
    32
  0
VERTEX
  5
104E
330
FE7
100
AcDbEntity
  8
241
100
AcDbVertex
100
AcDb3dPolylineVertex
 10
130.923
 20
5.31436
 30
0.0
 70
    32
  0
VERTEX
  5
104F
330
FE7
100
AcDbEntity
  8
241
100
AcDbVertex
100
AcDb3dPolylineVertex
 10
130.948
 20
5.34249
 30
0.0
 70
    32
  0
VERTEX
  5
1050
330
FE7
100
AcDbEntity
  8
241
100
AcDbVertex
100
AcDb3dPolylineVertex
 10
130.972
 20
5.37129
 30
0.0
 70
    32
  0
VERTEX
  5
1051
330
FE7
100
AcDbEntity
  8
241
100
AcDbVertex
100
AcDb3dPolylineVertex
 10
130.995
 20
5.40073
 30
0.0
 70
    32
  0
VERTEX
  5
1052
330
FE7
100
AcDbEntity
  8
241
100
AcDbVertex
100
AcDb3dPolylineVertex
 10
131.018
 20
5.43081
 30
0.0
 70
    32
  0
VERTEX
  5
1053
330
FE7
100
AcDbEntity
  8
241
100
AcDbVertex
100
AcDb3dPolylineVertex
 10
131.041
 20
5.4615
 30
0.0
 70
    32
  0
VERTEX
  5
1054
330
FE7
100
AcDbEntity
  8
241
100
AcDbVertex
100
AcDb3dPolylineVertex
 10
131.062
 20
5.49278
 30
0.0
 70
    32
  0
VERTEX
  5
1055
330
FE7
100
AcDbEntity
  8
241
100
AcDbVertex
100
AcDb3dPolylineVertex
 10
131.084
 20
5.52463
 30
0.0
 70
    32
  0
VERTEX
  5
1056
330
FE7
100
AcDbEntity
  8
241
100
AcDbVertex
100
AcDb3dPolylineVertex
 10
131.104
 20
5.55704
 30
0.0
 70
    32
  0
VERTEX
  5
1057
330
FE7
100
AcDbEntity
  8
241
100
AcDbVertex
100
AcDb3dPolylineVertex
 10
131.124
 20
5.58998
 30
0.0
 70
    32
  0
VERTEX
  5
1058
330
FE7
100
AcDbEntity
  8
241
100
AcDbVertex
100
AcDb3dPolylineVertex
 10
131.143
 20
5.62345
 30
0.0
 70
    32
  0
VERTEX
  5
1059
330
FE7
100
AcDbEntity
  8
241
100
AcDbVertex
100
AcDb3dPolylineVertex
 10
131.162
 20
5.6574
 30
0.0
 70
    32
  0
VERTEX
  5
105A
330
FE7
100
AcDbEntity
  8
241
100
AcDbVertex
100
AcDb3dPolylineVertex
 10
131.179
 20
5.69183
 30
0.0
 70
    32
  0
VERTEX
  5
105B
330
FE7
100
AcDbEntity
  8
241
100
AcDbVertex
100
AcDb3dPolylineVertex
 10
131.196
 20
5.72672
 30
0.0
 70
    32
  0
VERTEX
  5
105C
330
FE7
100
AcDbEntity
  8
241
100
AcDbVertex
100
AcDb3dPolylineVertex
 10
131.213
 20
5.76204
 30
0.0
 70
    32
  0
VERTEX
  5
105D
330
FE7
100
AcDbEntity
  8
241
100
AcDbVertex
100
AcDb3dPolylineVertex
 10
131.228
 20
5.79777
 30
0.0
 70
    32
  0
VERTEX
  5
105E
330
FE7
100
AcDbEntity
  8
241
100
AcDbVertex
100
AcDb3dPolylineVertex
 10
131.243
 20
5.83389
 30
0.0
 70
    32
  0
VERTEX
  5
105F
330
FE7
100
AcDbEntity
  8
241
100
AcDbVertex
100
AcDb3dPolylineVertex
 10
131.258
 20
5.87038
 30
0.0
 70
    32
  0
VERTEX
  5
1060
330
FE7
100
AcDbEntity
  8
241
100
AcDbVertex
100
AcDb3dPolylineVertex
 10
131.271
 20
5.90722
 30
0.0
 70
    32
  0
VERTEX
  5
1061
330
FE7
100
AcDbEntity
  8
241
100
AcDbVertex
100
AcDb3dPolylineVertex
 10
131.284
 20
5.94438
 30
0.0
 70
    32
  0
VERTEX
  5
1062
330
FE7
100
AcDbEntity
  8
241
100
AcDbVertex
100
AcDb3dPolylineVertex
 10
131.296
 20
5.98184
 30
0.0
 70
    32
  0
VERTEX
  5
1063
330
FE7
100
AcDbEntity
  8
241
100
AcDbVertex
100
AcDb3dPolylineVertex
 10
131.307
 20
6.01959
 30
0.0
 70
    32
  0
VERTEX
  5
1064
330
FE7
100
AcDbEntity
  8
241
100
AcDbVertex
100
AcDb3dPolylineVertex
 10
131.317
 20
6.05759
 30
0.0
 70
    32
  0
VERTEX
  5
1065
330
FE7
100
AcDbEntity
  8
241
100
AcDbVertex
100
AcDb3dPolylineVertex
 10
131.327
 20
6.09582
 30
0.0
 70
    32
  0
VERTEX
  5
1066
330
FE7
100
AcDbEntity
  8
241
100
AcDbVertex
100
AcDb3dPolylineVertex
 10
131.336
 20
6.13427
 30
0.0
 70
    32
  0
VERTEX
  5
1067
330
FE7
100
AcDbEntity
  8
241
100
AcDbVertex
100
AcDb3dPolylineVertex
 10
131.344
 20
6.1729
 30
0.0
 70
    32
  0
VERTEX
  5
1068
330
FE7
100
AcDbEntity
  8
241
100
AcDbVertex
100
AcDb3dPolylineVertex
 10
131.351
 20
6.2117
 30
0.0
 70
    32
  0
SEQEND
  5
1069
330
FE7
100
AcDbEntity
  8
241
  0
POLYLINE
  5
106A
330
B08
100
AcDbEntity
  8
241
100
AcDb3dPolyline
 66
     1
 10
0.0
 20
0.0
 30
0.0
 70
     8
  0
VERTEX
  5
106B
330
106A
100
AcDbEntity
  8
241
100
AcDbVertex
100
AcDb3dPolylineVertex
 10
131.351
 20
6.2117
 30
0.0
 70
    32
  0
VERTEX
  5
106C
330
106A
100
AcDbEntity
  8
241
100
AcDbVertex
100
AcDb3dPolylineVertex
 10
131.356
 20
6.23947
 30
0.0
 70
    32
  0
VERTEX
  5
106D
330
106A
100
AcDbEntity
  8
241
100
AcDbVertex
100
AcDb3dPolylineVertex
 10
131.359
 20
6.26737
 30
0.0
 70
    32
  0
VERTEX
  5
106E
330
106A
100
AcDbEntity
  8
241
100
AcDbVertex
100
AcDb3dPolylineVertex
 10
131.362
 20
6.29537
 30
0.0
 70
    32
  0
VERTEX
  5
106F
330
106A
100
AcDbEntity
  8
241
100
AcDbVertex
100
AcDb3dPolylineVertex
 10
131.364
 20
6.32346
 30
0.0
 70
    32
  0
VERTEX
  5
1070
330
106A
100
AcDbEntity
  8
241
100
AcDbVertex
100
AcDb3dPolylineVertex
 10
131.365
 20
6.35163
 30
0.0
 70
    32
  0
VERTEX
  5
1071
330
106A
100
AcDbEntity
  8
241
100
AcDbVertex
100
AcDb3dPolylineVertex
 10
131.366
 20
6.37985
 30
0.0
 70
    32
  0
VERTEX
  5
1072
330
106A
100
AcDbEntity
  8
241
100
AcDbVertex
100
AcDb3dPolylineVertex
 10
131.366
 20
6.40811
 30
0.0
 70
    32
  0
VERTEX
  5
1073
330
106A
100
AcDbEntity
  8
241
100
AcDbVertex
100
AcDb3dPolylineVertex
 10
131.364
 20
6.4364
 30
0.0
 70
    32
  0
VERTEX
  5
1074
330
106A
100
AcDbEntity
  8
241
100
AcDbVertex
100
AcDb3dPolylineVertex
 10
131.362
 20
6.46469
 30
0.0
 70
    32
  0
VERTEX
  5
1075
330
106A
100
AcDbEntity
  8
241
100
AcDbVertex
100
AcDb3dPolylineVertex
 10
131.36
 20
6.49297
 30
0.0
 70
    32
  0
VERTEX
  5
1076
330
106A
100
AcDbEntity
  8
241
100
AcDbVertex
100
AcDb3dPolylineVertex
 10
131.356
 20
6.52123
 30
0.0
 70
    32
  0
VERTEX
  5
1077
330
106A
100
AcDbEntity
  8
241
100
AcDbVertex
100
AcDb3dPolylineVertex
 10
131.352
 20
6.54944
 30
0.0
 70
    32
  0
VERTEX
  5
1078
330
106A
100
AcDbEntity
  8
241
100
AcDbVertex
100
AcDb3dPolylineVertex
 10
131.346
 20
6.57758
 30
0.0
 70
    32
  0
VERTEX
  5
1079
330
106A
100
AcDbEntity
  8
241
100
AcDbVertex
100
AcDb3dPolylineVertex
 10
131.34
 20
6.60565
 30
0.0
 70
    32
  0
VERTEX
  5
107A
330
106A
100
AcDbEntity
  8
241
100
AcDbVertex
100
AcDb3dPolylineVertex
 10
131.334
 20
6.63362
 30
0.0
 70
    32
  0
VERTEX
  5
107B
330
106A
100
AcDbEntity
  8
241
100
AcDbVertex
100
AcDb3dPolylineVertex
 10
131.326
 20
6.66147
 30
0.0
 70
    32
  0
VERTEX
  5
107C
330
106A
100
AcDbEntity
  8
241
100
AcDbVertex
100
AcDb3dPolylineVertex
 10
131.318
 20
6.6892
 30
0.0
 70
    32
  0
VERTEX
  5
107D
330
106A
100
AcDbEntity
  8
241
100
AcDbVertex
100
AcDb3dPolylineVertex
 10
131.309
 20
6.71678
 30
0.0
 70
    32
  0
VERTEX
  5
107E
330
106A
100
AcDbEntity
  8
241
100
AcDbVertex
100
AcDb3dPolylineVertex
 10
131.299
 20
6.7442
 30
0.0
 70
    32
  0
VERTEX
  5
107F
330
106A
100
AcDbEntity
  8
241
100
AcDbVertex
100
AcDb3dPolylineVertex
 10
131.288
 20
6.77144
 30
0.0
 70
    32
  0
VERTEX
  5
1080
330
106A
100
AcDbEntity
  8
241
100
AcDbVertex
100
AcDb3dPolylineVertex
 10
131.276
 20
6.79848
 30
0.0
 70
    32
  0
VERTEX
  5
1081
330
106A
100
AcDbEntity
  8
241
100
AcDbVertex
100
AcDb3dPolylineVertex
 10
131.264
 20
6.82531
 30
0.0
 70
    32
  0
VERTEX
  5
1082
330
106A
100
AcDbEntity
  8
241
100
AcDbVertex
100
AcDb3dPolylineVertex
 10
131.251
 20
6.85191
 30
0.0
 70
    32
  0
VERTEX
  5
1083
330
106A
100
AcDbEntity
  8
241
100
AcDbVertex
100
AcDb3dPolylineVertex
 10
131.238
 20
6.87827
 30
0.0
 70
    32
  0
VERTEX
  5
1084
330
106A
100
AcDbEntity
  8
241
100
AcDbVertex
100
AcDb3dPolylineVertex
 10
131.223
 20
6.90437
 30
0.0
 70
    32
  0
VERTEX
  5
1085
330
106A
100
AcDbEntity
  8
241
100
AcDbVertex
100
AcDb3dPolylineVertex
 10
131.208
 20
6.93019
 30
0.0
 70
    32
  0
VERTEX
  5
1086
330
106A
100
AcDbEntity
  8
241
100
AcDbVertex
100
AcDb3dPolylineVertex
 10
131.192
 20
6.95572
 30
0.0
 70
    32
  0
VERTEX
  5
1087
330
106A
100
AcDbEntity
  8
241
100
AcDbVertex
100
AcDb3dPolylineVertex
 10
131.176
 20
6.98094
 30
0.0
 70
    32
  0
VERTEX
  5
1088
330
106A
100
AcDbEntity
  8
241
100
AcDbVertex
100
AcDb3dPolylineVertex
 10
131.158
 20
7.00584
 30
0.0
 70
    32
  0
VERTEX
  5
1089
330
106A
100
AcDbEntity
  8
241
100
AcDbVertex
100
AcDb3dPolylineVertex
 10
131.14
 20
7.03041
 30
0.0
 70
    32
  0
VERTEX
  5
108A
330
106A
100
AcDbEntity
  8
241
100
AcDbVertex
100
AcDb3dPolylineVertex
 10
131.122
 20
7.05462
 30
0.0
 70
    32
  0
VERTEX
  5
108B
330
106A
100
AcDbEntity
  8
241
100
AcDbVertex
100
AcDb3dPolylineVertex
 10
131.102
 20
7.07846
 30
0.0
 70
    32
  0
VERTEX
  5
108C
330
106A
100
AcDbEntity
  8
241
100
AcDbVertex
100
AcDb3dPolylineVertex
 10
131.082
 20
7.10193
 30
0.0
 70
    32
  0
VERTEX
  5
108D
330
106A
100
AcDbEntity
  8
241
100
AcDbVertex
100
AcDb3dPolylineVertex
 10
131.062
 20
7.125
 30
0.0
 70
    32
  0
VERTEX
  5
108E
330
106A
100
AcDbEntity
  8
241
100
AcDbVertex
100
AcDb3dPolylineVertex
 10
131.041
 20
7.14766
 30
0.0
 70
    32
  0
VERTEX
  5
108F
330
106A
100
AcDbEntity
  8
241
100
AcDbVertex
100
AcDb3dPolylineVertex
 10
131.019
 20
7.16989
 30
0.0
 70
    32
  0
VERTEX
  5
1090
330
106A
100
AcDbEntity
  8
241
100
AcDbVertex
100
AcDb3dPolylineVertex
 10
130.996
 20
7.1917
 30
0.0
 70
    32
  0
VERTEX
  5
1091
330
106A
100
AcDbEntity
  8
241
100
AcDbVertex
100
AcDb3dPolylineVertex
 10
130.973
 20
7.21305
 30
0.0
 70
    32
  0
VERTEX
  5
1092
330
106A
100
AcDbEntity
  8
241
100
AcDbVertex
100
AcDb3dPolylineVertex
 10
130.95
 20
7.23394
 30
0.0
 70
    32
  0
VERTEX
  5
1093
330
106A
100
AcDbEntity
  8
241
100
AcDbVertex
100
AcDb3dPolylineVertex
 10
130.926
 20
7.25435
 30
0.0
 70
    32
  0
VERTEX
  5
1094
330
106A
100
AcDbEntity
  8
241
100
AcDbVertex
100
AcDb3dPolylineVertex
 10
130.901
 20
7.27428
 30
0.0
 70
    32
  0
VERTEX
  5
1095
330
106A
100
AcDbEntity
  8
241
100
AcDbVertex
100
AcDb3dPolylineVertex
 10
130.876
 20
7.29371
 30
0.0
 70
    32
  0
VERTEX
  5
1096
330
106A
100
AcDbEntity
  8
241
100
AcDbVertex
100
AcDb3dPolylineVertex
 10
130.85
 20
7.31263
 30
0.0
 70
    32
  0
VERTEX
  5
1097
330
106A
100
AcDbEntity
  8
241
100
AcDbVertex
100
AcDb3dPolylineVertex
 10
130.824
 20
7.33103
 30
0.0
 70
    32
  0
VERTEX
  5
1098
330
106A
100
AcDbEntity
  8
241
100
AcDbVertex
100
AcDb3dPolylineVertex
 10
130.797
 20
7.34889
 30
0.0
 70
    32
  0
VERTEX
  5
1099
330
106A
100
AcDbEntity
  8
241
100
AcDbVertex
100
AcDb3dPolylineVertex
 10
130.77
 20
7.36622
 30
0.0
 70
    32
  0
VERTEX
  5
109A
330
106A
100
AcDbEntity
  8
241
100
AcDbVertex
100
AcDb3dPolylineVertex
 10
130.742
 20
7.38298
 30
0.0
 70
    32
  0
VERTEX
  5
109B
330
106A
100
AcDbEntity
  8
241
100
AcDbVertex
100
AcDb3dPolylineVertex
 10
130.714
 20
7.39918
 30
0.0
 70
    32
  0
VERTEX
  5
109C
330
106A
100
AcDbEntity
  8
241
100
AcDbVertex
100
AcDb3dPolylineVertex
 10
130.686
 20
7.41481
 30
0.0
 70
    32
  0
VERTEX
  5
109D
330
106A
100
AcDbEntity
  8
241
100
AcDbVertex
100
AcDb3dPolylineVertex
 10
130.657
 20
7.42986
 30
0.0
 70
    32
  0
VERTEX
  5
109E
330
106A
100
AcDbEntity
  8
241
100
AcDbVertex
100
AcDb3dPolylineVertex
 10
130.628
 20
7.44431
 30
0.0
 70
    32
  0
VERTEX
  5
109F
330
106A
100
AcDbEntity
  8
241
100
AcDbVertex
100
AcDb3dPolylineVertex
 10
130.598
 20
7.45816
 30
0.0
 70
    32
  0
VERTEX
  5
10A0
330
106A
100
AcDbEntity
  8
241
100
AcDbVertex
100
AcDb3dPolylineVertex
 10
130.568
 20
7.4714
 30
0.0
 70
    32
  0
VERTEX
  5
10A1
330
106A
100
AcDbEntity
  8
241
100
AcDbVertex
100
AcDb3dPolylineVertex
 10
130.538
 20
7.48402
 30
0.0
 70
    32
  0
VERTEX
  5
10A2
330
106A
100
AcDbEntity
  8
241
100
AcDbVertex
100
AcDb3dPolylineVertex
 10
130.507
 20
7.49602
 30
0.0
 70
    32
  0
VERTEX
  5
10A3
330
106A
100
AcDbEntity
  8
241
100
AcDbVertex
100
AcDb3dPolylineVertex
 10
130.476
 20
7.50739
 30
0.0
 70
    32
  0
VERTEX
  5
10A4
330
106A
100
AcDbEntity
  8
241
100
AcDbVertex
100
AcDb3dPolylineVertex
 10
130.445
 20
7.51812
 30
0.0
 70
    32
  0
VERTEX
  5
10A5
330
106A
100
AcDbEntity
  8
241
100
AcDbVertex
100
AcDb3dPolylineVertex
 10
130.414
 20
7.5282
 30
0.0
 70
    32
  0
VERTEX
  5
10A6
330
106A
100
AcDbEntity
  8
241
100
AcDbVertex
100
AcDb3dPolylineVertex
 10
130.382
 20
7.53763
 30
0.0
 70
    32
  0
VERTEX
  5
10A7
330
106A
100
AcDbEntity
  8
241
100
AcDbVertex
100
AcDb3dPolylineVertex
 10
130.35
 20
7.5464
 30
0.0
 70
    32
  0
VERTEX
  5
10A8
330
106A
100
AcDbEntity
  8
241
100
AcDbVertex
100
AcDb3dPolylineVertex
 10
130.318
 20
7.55451
 30
0.0
 70
    32
  0
VERTEX
  5
10A9
330
106A
100
AcDbEntity
  8
241
100
AcDbVertex
100
AcDb3dPolylineVertex
 10
130.286
 20
7.56195
 30
0.0
 70
    32
  0
VERTEX
  5
10AA
330
106A
100
AcDbEntity
  8
241
100
AcDbVertex
100
AcDb3dPolylineVertex
 10
130.253
 20
7.56872
 30
0.0
 70
    32
  0
VERTEX
  5
10AB
330
106A
100
AcDbEntity
  8
241
100
AcDbVertex
100
AcDb3dPolylineVertex
 10
130.221
 20
7.57481
 30
0.0
 70
    32
  0
VERTEX
  5
10AC
330
106A
100
AcDbEntity
  8
241
100
AcDbVertex
100
AcDb3dPolylineVertex
 10
130.188
 20
7.58022
 30
0.0
 70
    32
  0
VERTEX
  5
10AD
330
106A
100
AcDbEntity
  8
241
100
AcDbVertex
100
AcDb3dPolylineVertex
 10
130.155
 20
7.58495
 30
0.0
 70
    32
  0
VERTEX
  5
10AE
330
106A
100
AcDbEntity
  8
241
100
AcDbVertex
100
AcDb3dPolylineVertex
 10
130.122
 20
7.589
 30
0.0
 70
    32
  0
VERTEX
  5
10AF
330
106A
100
AcDbEntity
  8
241
100
AcDbVertex
100
AcDb3dPolylineVertex
 10
130.089
 20
7.59235
 30
0.0
 70
    32
  0
VERTEX
  5
10B0
330
106A
100
AcDbEntity
  8
241
100
AcDbVertex
100
AcDb3dPolylineVertex
 10
130.056
 20
7.59502
 30
0.0
 70
    32
  0
VERTEX
  5
10B1
330
106A
100
AcDbEntity
  8
241
100
AcDbVertex
100
AcDb3dPolylineVertex
 10
130.023
 20
7.59699
 30
0.0
 70
    32
  0
VERTEX
  5
10B2
330
106A
100
AcDbEntity
  8
241
100
AcDbVertex
100
AcDb3dPolylineVertex
 10
129.99
 20
7.59827
 30
0.0
 70
    32
  0
VERTEX
  5
10B3
330
106A
100
AcDbEntity
  8
241
100
AcDbVertex
100
AcDb3dPolylineVertex
 10
129.957
 20
7.59886
 30
0.0
 70
    32
  0
VERTEX
  5
10B4
330
106A
100
AcDbEntity
  8
241
100
AcDbVertex
100
AcDb3dPolylineVertex
 10
129.925
 20
7.59875
 30
0.0
 70
    32
  0
VERTEX
  5
10B5
330
106A
100
AcDbEntity
  8
241
100
AcDbVertex
100
AcDb3dPolylineVertex
 10
129.892
 20
7.59795
 30
0.0
 70
    32
  0
VERTEX
  5
10B6
330
106A
100
AcDbEntity
  8
241
100
AcDbVertex
100
AcDb3dPolylineVertex
 10
129.859
 20
7.59645
 30
0.0
 70
    32
  0
VERTEX
  5
10B7
330
106A
100
AcDbEntity
  8
241
100
AcDbVertex
100
AcDb3dPolylineVertex
 10
129.826
 20
7.59426
 30
0.0
 70
    32
  0
VERTEX
  5
10B8
330
106A
100
AcDbEntity
  8
241
100
AcDbVertex
100
AcDb3dPolylineVertex
 10
129.794
 20
7.59138
 30
0.0
 70
    32
  0
VERTEX
  5
10B9
330
106A
100
AcDbEntity
  8
241
100
AcDbVertex
100
AcDb3dPolylineVertex
 10
129.761
 20
7.58781
 30
0.0
 70
    32
  0
VERTEX
  5
10BA
330
106A
100
AcDbEntity
  8
241
100
AcDbVertex
100
AcDb3dPolylineVertex
 10
129.729
 20
7.58355
 30
0.0
 70
    32
  0
VERTEX
  5
10BB
330
106A
100
AcDbEntity
  8
241
100
AcDbVertex
100
AcDb3dPolylineVertex
 10
129.697
 20
7.57861
 30
0.0
 70
    32
  0
VERTEX
  5
10BC
330
106A
100
AcDbEntity
  8
241
100
AcDbVertex
100
AcDb3dPolylineVertex
 10
129.665
 20
7.57298
 30
0.0
 70
    32
  0
VERTEX
  5
10BD
330
106A
100
AcDbEntity
  8
241
100
AcDbVertex
100
AcDb3dPolylineVertex
 10
129.633
 20
7.56667
 30
0.0
 70
    32
  0
VERTEX
  5
10BE
330
106A
100
AcDbEntity
  8
241
100
AcDbVertex
100
AcDb3dPolylineVertex
 10
129.602
 20
7.55969
 30
0.0
 70
    32
  0
VERTEX
  5
10BF
330
106A
100
AcDbEntity
  8
241
100
AcDbVertex
100
AcDb3dPolylineVertex
 10
129.57
 20
7.55204
 30
0.0
 70
    32
  0
VERTEX
  5
10C0
330
106A
100
AcDbEntity
  8
241
100
AcDbVertex
100
AcDb3dPolylineVertex
 10
129.539
 20
7.54373
 30
0.0
 70
    32
  0
VERTEX
  5
10C1
330
106A
100
AcDbEntity
  8
241
100
AcDbVertex
100
AcDb3dPolylineVertex
 10
129.509
 20
7.53475
 30
0.0
 70
    32
  0
VERTEX
  5
10C2
330
106A
100
AcDbEntity
  8
241
100
AcDbVertex
100
AcDb3dPolylineVertex
 10
129.478
 20
7.52512
 30
0.0
 70
    32
  0
VERTEX
  5
10C3
330
106A
100
AcDbEntity
  8
241
100
AcDbVertex
100
AcDb3dPolylineVertex
 10
129.448
 20
7.51483
 30
0.0
 70
    32
  0
VERTEX
  5
10C4
330
106A
100
AcDbEntity
  8
241
100
AcDbVertex
100
AcDb3dPolylineVertex
 10
129.419
 20
7.50391
 30
0.0
 70
    32
  0
VERTEX
  5
10C5
330
106A
100
AcDbEntity
  8
241
100
AcDbVertex
100
AcDb3dPolylineVertex
 10
129.389
 20
7.49234
 30
0.0
 70
    32
  0
VERTEX
  5
10C6
330
106A
100
AcDbEntity
  8
241
100
AcDbVertex
100
AcDb3dPolylineVertex
 10
129.361
 20
7.48015
 30
0.0
 70
    32
  0
VERTEX
  5
10C7
330
106A
100
AcDbEntity
  8
241
100
AcDbVertex
100
AcDb3dPolylineVertex
 10
129.332
 20
7.46733
 30
0.0
 70
    32
  0
VERTEX
  5
10C8
330
106A
100
AcDbEntity
  8
241
100
AcDbVertex
100
AcDb3dPolylineVertex
 10
129.304
 20
7.4539
 30
0.0
 70
    32
  0
VERTEX
  5
10C9
330
106A
100
AcDbEntity
  8
241
100
AcDbVertex
100
AcDb3dPolylineVertex
 10
129.276
 20
7.43986
 30
0.0
 70
    32
  0
VERTEX
  5
10CA
330
106A
100
AcDbEntity
  8
241
100
AcDbVertex
100
AcDb3dPolylineVertex
 10
129.249
 20
7.42522
 30
0.0
 70
    32
  0
VERTEX
  5
10CB
330
106A
100
AcDbEntity
  8
241
100
AcDbVertex
100
AcDb3dPolylineVertex
 10
129.222
 20
7.40999
 30
0.0
 70
    32
  0
VERTEX
  5
10CC
330
106A
100
AcDbEntity
  8
241
100
AcDbVertex
100
AcDb3dPolylineVertex
 10
129.196
 20
7.39418
 30
0.0
 70
    32
  0
VERTEX
  5
10CD
330
106A
100
AcDbEntity
  8
241
100
AcDbVertex
100
AcDb3dPolylineVertex
 10
129.17
 20
7.3778
 30
0.0
 70
    32
  0
VERTEX
  5
10CE
330
106A
100
AcDbEntity
  8
241
100
AcDbVertex
100
AcDb3dPolylineVertex
 10
129.145
 20
7.36086
 30
0.0
 70
    32
  0
VERTEX
  5
10CF
330
106A
100
AcDbEntity
  8
241
100
AcDbVertex
100
AcDb3dPolylineVertex
 10
129.12
 20
7.34337
 30
0.0
 70
    32
  0
VERTEX
  5
10D0
330
106A
100
AcDbEntity
  8
241
100
AcDbVertex
100
AcDb3dPolylineVertex
 10
129.096
 20
7.32534
 30
0.0
 70
    32
  0
VERTEX
  5
10D1
330
106A
100
AcDbEntity
  8
241
100
AcDbVertex
100
AcDb3dPolylineVertex
 10
129.072
 20
7.30677
 30
0.0
 70
    32
  0
VERTEX
  5
10D2
330
106A
100
AcDbEntity
  8
241
100
AcDbVertex
100
AcDb3dPolylineVertex
 10
129.049
 20
7.28769
 30
0.0
 70
    32
  0
VERTEX
  5
10D3
330
106A
100
AcDbEntity
  8
241
100
AcDbVertex
100
AcDb3dPolylineVertex
 10
129.027
 20
7.26811
 30
0.0
 70
    32
  0
VERTEX
  5
10D4
330
106A
100
AcDbEntity
  8
241
100
AcDbVertex
100
AcDb3dPolylineVertex
 10
129.005
 20
7.24802
 30
0.0
 70
    32
  0
VERTEX
  5
10D5
330
106A
100
AcDbEntity
  8
241
100
AcDbVertex
100
AcDb3dPolylineVertex
 10
128.984
 20
7.22746
 30
0.0
 70
    32
  0
VERTEX
  5
10D6
330
106A
100
AcDbEntity
  8
241
100
AcDbVertex
100
AcDb3dPolylineVertex
 10
128.963
 20
7.20642
 30
0.0
 70
    32
  0
VERTEX
  5
10D7
330
106A
100
AcDbEntity
  8
241
100
AcDbVertex
100
AcDb3dPolylineVertex
 10
128.943
 20
7.18493
 30
0.0
 70
    32
  0
VERTEX
  5
10D8
330
106A
100
AcDbEntity
  8
241
100
AcDbVertex
100
AcDb3dPolylineVertex
 10
128.924
 20
7.16299
 30
0.0
 70
    32
  0
VERTEX
  5
10D9
330
106A
100
AcDbEntity
  8
241
100
AcDbVertex
100
AcDb3dPolylineVertex
 10
128.905
 20
7.14062
 30
0.0
 70
    32
  0
VERTEX
  5
10DA
330
106A
100
AcDbEntity
  8
241
100
AcDbVertex
100
AcDb3dPolylineVertex
 10
128.887
 20
7.11783
 30
0.0
 70
    32
  0
VERTEX
  5
10DB
330
106A
100
AcDbEntity
  8
241
100
AcDbVertex
100
AcDb3dPolylineVertex
 10
128.869
 20
7.09464
 30
0.0
 70
    32
  0
VERTEX
  5
10DC
330
106A
100
AcDbEntity
  8
241
100
AcDbVertex
100
AcDb3dPolylineVertex
 10
128.853
 20
7.07105
 30
0.0
 70
    32
  0
VERTEX
  5
10DD
330
106A
100
AcDbEntity
  8
241
100
AcDbVertex
100
AcDb3dPolylineVertex
 10
128.837
 20
7.04709
 30
0.0
 70
    32
  0
VERTEX
  5
10DE
330
106A
100
AcDbEntity
  8
241
100
AcDbVertex
100
AcDb3dPolylineVertex
 10
128.822
 20
7.02277
 30
0.0
 70
    32
  0
VERTEX
  5
10DF
330
106A
100
AcDbEntity
  8
241
100
AcDbVertex
100
AcDb3dPolylineVertex
 10
128.807
 20
6.9981
 30
0.0
 70
    32
  0
VERTEX
  5
10E0
330
106A
100
AcDbEntity
  8
241
100
AcDbVertex
100
AcDb3dPolylineVertex
 10
128.793
 20
6.97309
 30
0.0
 70
    32
  0
VERTEX
  5
10E1
330
106A
100
AcDbEntity
  8
241
100
AcDbVertex
100
AcDb3dPolylineVertex
 10
128.78
 20
6.94777
 30
0.0
 70
    32
  0
VERTEX
  5
10E2
330
106A
100
AcDbEntity
  8
241
100
AcDbVertex
100
AcDb3dPolylineVertex
 10
128.768
 20
6.92215
 30
0.0
 70
    32
  0
VERTEX
  5
10E3
330
106A
100
AcDbEntity
  8
241
100
AcDbVertex
100
AcDb3dPolylineVertex
 10
128.757
 20
6.89624
 30
0.0
 70
    32
  0
VERTEX
  5
10E4
330
106A
100
AcDbEntity
  8
241
100
AcDbVertex
100
AcDb3dPolylineVertex
 10
128.746
 20
6.87006
 30
0.0
 70
    32
  0
VERTEX
  5
10E5
330
106A
100
AcDbEntity
  8
241
100
AcDbVertex
100
AcDb3dPolylineVertex
 10
128.736
 20
6.84363
 30
0.0
 70
    32
  0
VERTEX
  5
10E6
330
106A
100
AcDbEntity
  8
241
100
AcDbVertex
100
AcDb3dPolylineVertex
 10
128.726
 20
6.81695
 30
0.0
 70
    32
  0
VERTEX
  5
10E7
330
106A
100
AcDbEntity
  8
241
100
AcDbVertex
100
AcDb3dPolylineVertex
 10
128.718
 20
6.79005
 30
0.0
 70
    32
  0
VERTEX
  5
10E8
330
106A
100
AcDbEntity
  8
241
100
AcDbVertex
100
AcDb3dPolylineVertex
 10
128.71
 20
6.76295
 30
0.0
 70
    32
  0
VERTEX
  5
10E9
330
106A
100
AcDbEntity
  8
241
100
AcDbVertex
100
AcDb3dPolylineVertex
 10
128.703
 20
6.73565
 30
0.0
 70
    32
  0
VERTEX
  5
10EA
330
106A
100
AcDbEntity
  8
241
100
AcDbVertex
100
AcDb3dPolylineVertex
 10
128.697
 20
6.70818
 30
0.0
 70
    32
  0
VERTEX
  5
10EB
330
106A
100
AcDbEntity
  8
241
100
AcDbVertex
100
AcDb3dPolylineVertex
 10
128.692
 20
6.68055
 30
0.0
 70
    32
  0
SEQEND
  5
10EC
330
106A
100
AcDbEntity
  8
241
  0
ENDBLK
  5
B0A
330
B08
100
AcDbEntity
  8
0
100
AcDbBlockEnd
  0
ENDSEC
  0
SECTION
  2
ENTITIES
  0
INSERT
  5
6E6
330
1A
100
AcDbEntity
  8
245
100
AcDbBlockReference
  2
矢印なし
 10
175.62382697
 20
90.55123572
 30
0.0
  0
TEXT
  5
907
330
1A
100
AcDbEntity
  8
241
100
AcDbText
 10
-32.0
 20
56.0
 30
0.0
 40
5.0
  1
HSK-A63-FCR20083-135
  7
YOKO
 11
-32.0
 21
56.0
 31
0.0
100
AcDbText
 73
     1
1001
GRPNAME
1000
PASTMD0C
  0
DIMENSION
  5
A8E
330
1A
100
AcDbEntity
  8
250
  6
CONTINUOUS
100
AcDbDimension
  2
*D2
 10
147.0
 20
10.0
 30
0.0
 11
144.6
 21
0.0
 31
0.0
 70
    32
  1
{\H2.8;\U+2205}<>
  3
BIGT
100
AcDbAlignedDimension
 13
135.0
 23
-10.0
 33
0.0
 14
135.0
 24
10.0
 34
0.0
 50
90.0
100
AcDbRotatedDimension
  0
DIMENSION
  5
A9D
330
1A
100
AcDbEntity
  8
250
  6
CONTINUOUS
100
AcDbDimension
  2
*D3
 10
135.0
 20
28.0
 30
0.0
 11
131.0
 21
28.0
 31
0.0
 70
   160
  3
BIGT
100
AcDbAlignedDimension
 13
127.0
 23
10.0
 33
0.0
 14
135.0
 24
10.0
 34
0.0
100
AcDbRotatedDimension
  0
DIMENSION
  5
AAC
330
1A
100
AcDbEntity
  8
250
  6
CONTINUOUS
100
AcDbDimension
  2
*D4
 10
135.0
 20
35.0
 30
0.0
 11
120.0
 21
35.0
 31
0.0
 70
   160
  3
BIGT
100
AcDbAlignedDimension
 13
105.0
 23
9.40074075
 33
0.0
 14
135.0
 24
10.0
 34
0.0
100
AcDbRotatedDimension
  0
DIMENSION
  5
ABB
330
1A
100
AcDbEntity
  8
250
  6
CONTINUOUS
100
AcDbDimension
  2
*D5
 10
135.0
 20
42.0
 30
0.0
 11
67.5
 21
44.4
 31
0.0
 70
    32
  3
BIGT
100
AcDbAlignedDimension
 13
0.0
 23
30.5
 33
0.0
 14
135.0
 24
10.0
 34
0.0
100
AcDbRotatedDimension
  0
LINE
  5
EEC
330
1A
100
AcDbEntity
  8
250
  6
CONTINUOUS
100
AcDbLine
 10
-18.44991262
 20
-34.94501046
 30
0.0
 11
-42.71657929
 21
-34.94501046
 31
0.0
1001
ITEMNAME
1000
LNSP2
  0
MTEXT
  5
EED
330
1A
100
AcDbEntity
  8
251
  6
CONTINUOUS
100
AcDbMText
 10
-39.91657929
 20
-33.94501046
 30
0.0
 40
2.8
 41
0.0
 71
     7
 72
     1
  1
HSK-A63
  7
YOKO
1001
ITEMNAME
1000
LNSP3
1001
ACAD
1000
MTEXTBEGIN
1070
    73
1070
     1
1070
    44
1040
1.0
1070
    74
1070
     0
1000
MTEXTEND
1000
MTEXTBEGIN
1070
    73
1070
     1
1070
    44
1040
1.0
1070
    74
1070
     0
1000
MTEXTEND
1000
MTEXTBEGIN
1070
    73
1070
     1
1070
    44
1040
1.0
1070
    74
1070
     0
1000
MTEXTEND
  0
LEADER
  5
EFD
330
1A
100
AcDbEntity
  8
250
  6
CONTINUOUS
100
AcDbLeader
  3
BIGT
 76
     2
 10
-11.96720963
 20
-23.71663952
 30
0.0
 10
-18.44991262
 20
-34.94501046
 30
0.0
1001
ACAD
1000
DSTYLE
1002
{
1070
     6
1000
OPEN
1070
   343
1005
594
1002
}
  0
INSERT
  5
10ED
330
1A
100
AcDbEntity
  8
245
100
AcDbBlockReference
  2
1
 10
0.0
 20
0.0
 30
0.0
  0
VIEWPORT
  5
22
330
17
100
AcDbEntity
 67
     1
  8
0
100
AcDbViewport
 10
261.51769912
 20
148.5
 30
0.0
 40
523.03539823
 41
297.0
 68
     1
 69
     1
1001
ACAD
1000
MVIEW
1002
{
1070
    16
1010
0.0
1020
0.0
1030
0.0
1010
0.0
1020
0.0
1030
1.0
1040
0.0
1040
297.0
1040
261.51769912
1040
148.5
1040
50.0
1040
0.0
1040
0.0
1070
     0
1070
   100
1070
     1
1070
     1
1070
     0
1070
     0
1070
     0
1070
     0
1040
0.0
1040
0.0
1040
0.0
1040
1.0
1040
1.0
1040
10.0
1040
10.0
1070
     0
1002
{
1002
}
1002
}
  0
ENDSEC
  0
SECTION
  2
OBJECTS
  0
DICTIONARY
  5
C
330
0
100
AcDbDictionary
  3
ACAD_GROUP
350
D
  3
ACAD_LAYOUT
350
565
  3
ACAD_MLINESTYLE
350
E
  3
ACAD_PLOTSETTINGS
350
566
  3
ACAD_PLOTSTYLENAME
350
563
  3
ACDBHEADERROUNDTRIPXREC
350
10EF
  3
GRADE_DWG
350
540
  0
DICTIONARY
  5
CE6
330
1A
100
AcDbDictionary
280
     1
  3
ACAD_LAYOUTSELFREF
360
1111
  0
DICTIONARY
  5
CE4
330
17
100
AcDbDictionary
280
     1
  3
ACAD_LAYOUTSELFREF
360
1110
  0
DICTIONARY
  5
D
102
{ACAD_REACTORS
330
C
102
}
330
C
100
AcDbDictionary
  3
*A1
350
6C7
  3
*A2
350
6C8
  3
*A3
350
6D4
  3
*A4
350
6D5
  3
DREC-1
350
5FC
  3
DREC-2
350
654
  3
DREC-3
350
673
  0
DICTIONARY
  5
565
102
{ACAD_REACTORS
330
C
102
}
330
C
100
AcDbDictionary
  0
DICTIONARY
  5
E
102
{ACAD_REACTORS
330
C
102
}
330
C
100
AcDbDictionary
  3
STANDARD
350
13
  0
DICTIONARY
  5
566
102
{ACAD_REACTORS
330
C
102
}
330
C
100
AcDbDictionary
  3
A3_0_5倍_
350
758
  3
A3_1倍_
350
757
  3
A3_1倍__2000_
350
707
  3
A3_2倍_
350
759
  3
A4_0_5倍_
350
755
  3
A4_1倍_
350
754
  3
A4_1倍__2000_
350
708
  3
A4_2倍_
350
756
  0
ACDBDICTIONARYWDFLT
  5
563
102
{ACAD_REACTORS
330
C
102
}
330
C
100
AcDbDictionary
281
     1
  3
Normal
350
564
100
AcDbDictionaryWithDefault
340
564
  0
DICTIONARY
  5
10EF
102
{ACAD_REACTORS
330
C
102
}
330
C
100
AcDbDictionary
  3
CEPSNTYPE
350
10F9
  3
DIMSTYLEDATA
350
10FD
  3
FINGERPRINTGUID
350
10FA
  3
HYPERLINKBASE
350
10F2
  3
INSUNITS
350
10F8
  3
LAYOUTDICT
350
10F4
  3
LWETCUNION
350
10F7
  3
PLOTSETDICT
350
10F5
  3
PLOTSTYLNAMDICT
350
10F6
  3
PSVPSCALE
350
10FC
  3
PUCSBASE
350
1100
  3
PUCSORGBACK
350
1106
  3
PUCSORGBOTTOM
350
1102
  3
PUCSORGFRONT
350
1105
  3
PUCSORGLEFT
350
1103
  3
PUCSORGRIGHT
350
1104
  3
PUCSORGTOP
350
1101
  3
PUCSORTHOREF
350
10FE
  3
PUCSORTHOVIEW
350
10FF
  3
STYLESHEET
350
10F3
  3
TSTACKALIGN
350
10F0
  3
TSTACKSIZE
350
10F1
  3
UCSBASE
350
1109
  3
UCSORGBACK
350
110F
  3
UCSORGBOTTOM
350
110B
  3
UCSORGFRONT
350
110E
  3
UCSORGLEFT
350
110C
  3
UCSORGRIGHT
350
110D
  3
UCSORGTOP
350
110A
  3
UCSORTHOREF
350
1107
  3
UCSORTHOVIEW
350
1108
  3
VERSIONGUID
350
10FB
  0
DICTIONARY
  5
540
102
{ACAD_REACTORS
330
C
102
}
330
C
100
AcDbDictionary
  3
VERSION
350
560
  0
XRECORD
  5
1111
102
{ACAD_REACTORS
330
CE6
102
}
330
CE6
100
AcDbXrecord
340
1A
  0
XRECORD
  5
1110
102
{ACAD_REACTORS
330
CE4
102
}
330
CE4
100
AcDbXrecord
340
17
  0
GROUP
  5
6C7
102
{ACAD_REACTORS
330
D
102
}
330
D
100
AcDbGroup
300

 70
     0
 71
     1
1001
GRPNAME
1000
DMA00
  0
GROUP
  5
6C8
102
{ACAD_REACTORS
330
D
102
}
330
D
100
AcDbGroup
300

 70
     0
 71
     1
1001
GRPNAME
1000
DMA00
  0
GROUP
  5
6D4
102
{ACAD_REACTORS
330
D
102
}
330
D
100
AcDbGroup
300

 70
     0
 71
     1
1001
GRPNAME
1000
DMA00
  0
GROUP
  5
6D5
102
{ACAD_REACTORS
330
D
102
}
330
D
100
AcDbGroup
300

 70
     0
 71
     1
1001
GRPNAME
1000
DMA00
  0
GROUP
  5
5FC
102
{ACAD_REACTORS
330
D
102
}
330
D
100
AcDbGroup
300

 70
     0
 71
     1
1001
GRPNAME
1000
DREC-
1001
GPARA
1000
xsiz
1000
44.182
1000
ysiz
1000
40.677
1000
angl
1000
0
1000
ctyp
1000
0
1000
csiz
1000
5
1000
lfnt
1000
cont
1000
hcnt
1000
hoff
1000
vcnt
1000
voff
1000
opnt
1000
4
1000
dxpt
1000
0
1000
dypt
1000
0
  0
GROUP
  5
654
102
{ACAD_REACTORS
330
D
102
}
330
D
100
AcDbGroup
300

 70
     0
 71
     1
1001
GRPNAME
1000
DREC-
1001
GPARA
1000
xsiz
1000
54.592
1000
ysiz
1000
53.036
1000
angl
1000
0
1000
ctyp
1000
0
1000
csiz
1000
5
1000
lfnt
1000
cont
1000
hcnt
1000
hoff
1000
vcnt
1000
voff
1000
opnt
1000
4
1000
dxpt
1000
0
1000
dypt
1000
0
  0
GROUP
  5
673
102
{ACAD_REACTORS
330
D
102
}
330
D
100
AcDbGroup
300

 70
     0
 71
     1
1001
GRPNAME
1000
DREC-
1001
GPARA
1000
xsiz
1000
30.363
1000
ysiz
1000
36.175
1000
angl
1000
0
1000
ctyp
1000
0
1000
csiz
1000
5
1000
lfnt
1000
cont
1000
hcnt
1000
hoff
1000
vcnt
1000
voff
1000
opnt
1000
4
1000
dxpt
1000
0
1000
dypt
1000
0
  0
MLINESTYLE
  5
13
102
{ACAD_REACTORS
330
E
102
}
330
E
100
AcDbMlineStyle
  2
STANDARD
 70
     0
  3

 62
     0
 51
90.0
 52
90.0
 71
     2
 49
0.5
 62
   256
  6
BYLAYER
 49
-0.5
 62
   256
  6
BYLAYER
  0
PLOTSETTINGS
  5
758
102
{ACAD_REACTORS
330
566
102
}
330
566
100
AcDbPlotSettings
  1
A3(0.5倍)
  2
\\AWTECPC05\HP DeskJet 1120C
  4
A3
  6

 40
5.95841646
 41
13.49375153
 42
6.04309082
 43
3.67242432
 44
296.92599487
 45
419.94665527
 46
89.96
 47
127.14
 48
0.0
 49
0.0
140
0.0
141
0.0
142
1.0
143
2.0
 70
  1716
 72
     1
 73
     1
 74
     2
  7
big.ctb
 75
    17
147
0.5
148
0.0
149
0.0
  0
PLOTSETTINGS
  5
757
102
{ACAD_REACTORS
330
566
102
}
330
566
100
AcDbPlotSettings
  1
A3(1倍)
  2
\\AWTECPC05\HP DeskJet 1120C
  4
A3
  6

 40
5.95841646
 41
13.49375153
 42
6.04309082
 43
3.67242432
 44
296.92599487
 45
419.94665527
 46
37.46
 47
52.89
 48
0.0
 49
0.0
140
0.0
141
0.0
142
1.0
143
1.0
 70
  1716
 72
     1
 73
     1
 74
     2
  7
big.ctb
 75
    16
147
1.0
148
0.0
149
0.0
  0
PLOTSETTINGS
  5
707
102
{ACAD_REACTORS
330
566
102
}
330
566
100
AcDbPlotSettings
  1
A3(1倍)(2000)
  2
SII LS-1300 (D-SCAN)
  4
User258
  6

 40
3.17499995
 41
3.17499995
 42
3.17498779
 43
3.17498779
 44
419.98898315
 45
296.98950195
 46
58.32
 47
40.32
 48
0.0
 49
0.0
140
0.0
141
0.0
142
1.0
143
1.0
 70
  1716
 72
     1
 73
     0
 74
     2
  7
big.ctb
 75
    16
147
1.0
148
0.0
149
0.0
  0
PLOTSETTINGS
  5
759
102
{ACAD_REACTORS
330
566
102
}
330
566
100
AcDbPlotSettings
  1
A3(2倍)
  2
\\AWTECPC05\HP DeskJet 1120C
  4
A3
  6

 40
5.95841646
 41
13.49375153
 42
6.04309082
 43
3.67242432
 44
296.92599487
 45
419.94665527
 46
-67.54
 47
-95.61
 48
0.0
 49
0.0
140
0.0
141
0.0
142
1.0
143
0.5
 70
  1716
 72
     1
 73
     1
 74
     2
  7
big.ctb
 75
    27
147
2.0
148
0.0
149
0.0
  0
PLOTSETTINGS
  5
755
102
{ACAD_REACTORS
330
566
102
}
330
566
100
AcDbPlotSettings
  1
A4(0.5倍)
  2
\\AWTECPC05\HP DeskJet 1120C
  4
A4
  6

 40
4.18041658
 41
13.49374962
 42
4.18040466
 43
3.92642212
 44
209.97332764
 45
296.92599487
 46
48.31
 47
65.5
 48
0.0
 49
0.0
140
0.0
141
0.0
142
1.0
143
2.0
 70
  1716
 72
     1
 73
     1
 74
     2
  7
big.ctb
 75
    17
147
0.5
148
0.0
149
0.0
  0
PLOTSETTINGS
  5
754
102
{ACAD_REACTORS
330
566
102
}
330
566
100
AcDbPlotSettings
  1
A4(1倍)
  2
\\AWTECPC05\HP DeskJet 1120C
  4
A4
  6

 40
4.18041658
 41
13.49374962
 42
4.18040466
 43
3.92642212
 44
209.97332764
 45
296.92599487
 46
-4.19
 47
-8.75
 48
0.0
 49
0.0
140
0.0
141
0.0
142
1.0
143
1.0
 70
  1716
 72
     1
 73
     1
 74
     2
  7
big.ctb
 75
    16
147
1.0
148
0.0
149
0.0
  0
PLOTSETTINGS
  5
708
102
{ACAD_REACTORS
330
566
102
}
330
566
100
AcDbPlotSettings
  1
A4(1倍)(2000)
  2
SII LS-1300 (D-SCAN)
  4
User259
  6

 40
3.17499995
 41
3.17499995
 42
3.17498779
 43
3.17500305
 44
296.98950195
 45
209.99449158
 46
-3.18
 47
-3.18
 48
0.0
 49
0.0
140
0.0
141
0.0
142
1.0
143
1.0
 70
  1716
 72
     1
 73
     0
 74
     2
  7
big.ctb
 75
    16
147
1.0
148
0.0
149
0.0
  0
PLOTSETTINGS
  5
756
102
{ACAD_REACTORS
330
566
102
}
330
566
100
AcDbPlotSettings
  1
A4(2倍)
  2
\\AWTECPC05\HP DeskJet 1120C
  4
A4
  6

 40
4.18041658
 41
13.49374962
 42
4.18040466
 43
3.92642212
 44
209.97332764
 45
296.92599487
 46
-109.19
 47
-157.25
 48
0.0
 49
0.0
140
0.0
141
0.0
142
1.0
143
0.5
 70
  1716
 72
     1
 73
     1
 74
     2
  7
big.ctb
 75
    27
147
2.0
148
0.0
149
0.0
  0
ACDBPLACEHOLDER
  5
564
102
{ACAD_REACTORS
330
563
102
}
330
563
100
AcDbPlaceHolder
280
     0
  0
XRECORD
  5
10F9
102
{ACAD_REACTORS
330
10EF
102
}
330
10EF
100
AcDbXrecord
 90
        0
  0
XRECORD
  5
10FD
102
{ACAD_REACTORS
330
10EF
102
}
330
10EF
100
AcDbXrecord
1000
DSTYLE
1002
{
1070
    79
 70
     2
1070
   179
 70
     3
1070
   341
340
594
1070
   343
340
594
1070
   344
340
594
1070
   371
 70
    -1
1070
   372
 70
    -1
1002
}
  0
XRECORD
  5
10FA
102
{ACAD_REACTORS
330
10EF
102
}
330
10EF
100
AcDbXrecord
  1
{51294030-9CB4-11D3-8E18-00A0C925D94D}
  0
XRECORD
  5
10F2
102
{ACAD_REACTORS
330
10EF
102
}
330
10EF
100
AcDbXrecord
  1

  0
XRECORD
  5
10F8
102
{ACAD_REACTORS
330
10EF
102
}
330
10EF
100
AcDbXrecord
 90
        0
  0
XRECORD
  5
10F4
102
{ACAD_REACTORS
330
10EF
102
}
330
10EF
100
AcDbXrecord
340
565
  0
XRECORD
  5
10F7
102
{ACAD_REACTORS
330
10EF
102
}
330
10EF
100
AcDbXrecord
 90
    10781
  0
XRECORD
  5
10F5
102
{ACAD_REACTORS
330
10EF
102
}
330
10EF
100
AcDbXrecord
340
566
  0
XRECORD
  5
10F6
102
{ACAD_REACTORS
330
10EF
102
}
330
10EF
100
AcDbXrecord
340
563
  0
XRECORD
  5
10FC
102
{ACAD_REACTORS
330
10EF
102
}
330
10EF
100
AcDbXrecord
 40
0.0
  0
XRECORD
  5
1100
102
{ACAD_REACTORS
330
10EF
102
}
330
10EF
100
AcDbXrecord
340
0
  0
XRECORD
  5
1106
102
{ACAD_REACTORS
330
10EF
102
}
330
10EF
100
AcDbXrecord
 10
0.0
 20
0.0
 30
0.0
  0
XRECORD
  5
1102
102
{ACAD_REACTORS
330
10EF
102
}
330
10EF
100
AcDbXrecord
 10
0.0
 20
0.0
 30
0.0
  0
XRECORD
  5
1105
102
{ACAD_REACTORS
330
10EF
102
}
330
10EF
100
AcDbXrecord
 10
0.0
 20
0.0
 30
0.0
  0
XRECORD
  5
1103
102
{ACAD_REACTORS
330
10EF
102
}
330
10EF
100
AcDbXrecord
 10
0.0
 20
0.0
 30
0.0
  0
XRECORD
  5
1104
102
{ACAD_REACTORS
330
10EF
102
}
330
10EF
100
AcDbXrecord
 10
0.0
 20
0.0
 30
0.0
  0
XRECORD
  5
1101
102
{ACAD_REACTORS
330
10EF
102
}
330
10EF
100
AcDbXrecord
 10
0.0
 20
0.0
 30
0.0
  0
XRECORD
  5
10FE
102
{ACAD_REACTORS
330
10EF
102
}
330
10EF
100
AcDbXrecord
340
0
  0
XRECORD
  5
10FF
102
{ACAD_REACTORS
330
10EF
102
}
330
10EF
100
AcDbXrecord
 70
     0
  0
XRECORD
  5
10F3
102
{ACAD_REACTORS
330
10EF
102
}
330
10EF
100
AcDbXrecord
  1
big.ctb
  0
XRECORD
  5
10F0
102
{ACAD_REACTORS
330
10EF
102
}
330
10EF
100
AcDbXrecord
 90
        1
  0
XRECORD
  5
10F1
102
{ACAD_REACTORS
330
10EF
102
}
330
10EF
100
AcDbXrecord
 90
       70
  0
XRECORD
  5
1109
102
{ACAD_REACTORS
330
10EF
102
}
330
10EF
100
AcDbXrecord
340
0
  0
XRECORD
  5
110F
102
{ACAD_REACTORS
330
10EF
102
}
330
10EF
100
AcDbXrecord
 10
0.0
 20
0.0
 30
0.0
  0
XRECORD
  5
110B
102
{ACAD_REACTORS
330
10EF
102
}
330
10EF
100
AcDbXrecord
 10
0.0
 20
0.0
 30
0.0
  0
XRECORD
  5
110E
102
{ACAD_REACTORS
330
10EF
102
}
330
10EF
100
AcDbXrecord
 10
0.0
 20
0.0
 30
0.0
  0
XRECORD
  5
110C
102
{ACAD_REACTORS
330
10EF
102
}
330
10EF
100
AcDbXrecord
 10
0.0
 20
0.0
 30
0.0
  0
XRECORD
  5
110D
102
{ACAD_REACTORS
330
10EF
102
}
330
10EF
100
AcDbXrecord
 10
0.0
 20
0.0
 30
0.0
  0
XRECORD
  5
110A
102
{ACAD_REACTORS
330
10EF
102
}
330
10EF
100
AcDbXrecord
 10
0.0
 20
0.0
 30
0.0
  0
XRECORD
  5
1107
102
{ACAD_REACTORS
330
10EF
102
}
330
10EF
100
AcDbXrecord
340
0
  0
XRECORD
  5
1108
102
{ACAD_REACTORS
330
10EF
102
}
330
10EF
100
AcDbXrecord
 70
     0
  0
XRECORD
  5
10FB
102
{ACAD_REACTORS
330
10EF
102
}
330
10EF
100
AcDbXrecord
  1
{23902285-8894-45EC-A6EE-3055C155CC9D}
  0
XRECORD
  5
560
102
{ACAD_REACTORS
330
540
102
}
330
540
100
AcDbXrecord
  1
2.0.0
  0
ENDSEC
  0
EOF
