  0
SECTION
  2
HEADER
  9
$ACADVER
  1
AC1014
  9
$ACADMAINTVER
 70
     9
  9
$DWGCODEPAGE
  3
ANSI_932
  9
$INSBASE
 10
0.0
 20
0.0
 30
0.0
  9
$EXTMIN
 10
-42.7306992
 20
-34.95513984
 30
-0.00152582
  9
$EXTMAX
 10
134.02878476
 20
61.00277955
 30
0.00000003
  9
$LIMMIN
 10
0.0
 20
0.0
  9
$LIMMAX
 10
420.0
 20
297.0
  9
$ORTHOMODE
 70
     0
  9
$REGENMODE
 70
     1
  9
$FILLMODE
 70
     1
  9
$QTEXTMODE
 70
     0
  9
$MIRRTEXT
 70
     1
  9
$DRAGMODE
 70
     2
  9
$LTSCALE
 40
10.0
  9
$OSMODE
 70
   549
  9
$ATTMODE
 70
     1
  9
$TEXTSIZE
 40
3.0
  9
$TRACEWID
 40
1.0
  9
$TEXTSTYLE
  7
YOKO
  9
$CLAYER
  8
245
  9
$CELTYPE
  6
BYLAYER
  9
$CECOLOR
 62
   256
  9
$CELTSCALE
 40
1.0
  9
$DELOBJ
 70
     1
  9
$DISPSILH
 70
     0
  9
$DIMSCALE
 40
1.0
  9
$DIMASZ
 40
2.23
  9
$DIMEXO
 40
0.5
  9
$DIMDLI
 40
2.5
  9
$DIMRND
 40
0.0
  9
$DIMDLE
 40
0.0
  9
$DIMEXE
 40
1.0
  9
$DIMTP
 40
0.0
  9
$DIMTM
 40
0.0
  9
$DIMTXT
 40
2.8
  9
$DIMCEN
 40
0.0
  9
$DIMTSZ
 40
0.0
  9
$DIMTOL
 70
     0
  9
$DIMLIM
 70
     0
  9
$DIMTIH
 70
     0
  9
$DIMTOH
 70
     0
  9
$DIMSE1
 70
     0
  9
$DIMSE2
 70
     0
  9
$DIMTAD
 70
     3
  9
$DIMZIN
 70
     8
  9
$DIMBLK
  1

  9
$DIMASO
 70
     1
  9
$DIMSHO
 70
     1
  9
$DIMPOST
  1

  9
$DIMAPOST
  1

  9
$DIMALT
 70
     0
  9
$DIMALTD
 70
     2
  9
$DIMALTF
 40
25.4
  9
$DIMLFAC
 40
1.0
  9
$DIMTOFL
 70
     1
  9
$DIMTVP
 40
0.0
  9
$DIMTIX
 70
     1
  9
$DIMSOXD
 70
     0
  9
$DIMSAH
 70
     1
  9
$DIMBLK1
  1
OPEN
  9
$DIMBLK2
  1
OPEN
  9
$DIMSTYLE
  2
BIGT
  9
$DIMCLRD
 70
   256
  9
$DIMCLRE
 70
   256
  9
$DIMCLRT
 70
    40
  9
$DIMTFAC
 40
1.0
  9
$DIMGAP
 40
1.0
  9
$DIMJUST
 70
     0
  9
$DIMSD1
 70
     0
  9
$DIMSD2
 70
     0
  9
$DIMTOLJ
 70
     1
  9
$DIMTZIN
 70
     8
  9
$DIMALTZ
 70
     0
  9
$DIMALTTZ
 70
     0
  9
$DIMFIT
 70
     3
  9
$DIMUPT
 70
     0
  9
$DIMUNIT
 70
     2
  9
$DIMDEC
 70
     3
  9
$DIMTDEC
 70
     3
  9
$DIMALTU
 70
     2
  9
$DIMALTTD
 70
     2
  9
$DIMTXSTY
  7
STANDARD
  9
$DIMAUNIT
 70
     0
  9
$LUNITS
 70
     2
  9
$LUPREC
 70
     3
  9
$SKETCHINC
 40
1.0
  9
$FILLETRAD
 40
1.0
  9
$AUNITS
 70
     0
  9
$AUPREC
 70
     3
  9
$MENU
  1
.
  9
$ELEVATION
 40
0.0
  9
$PELEVATION
 40
0.0
  9
$THICKNESS
 40
0.0
  9
$LIMCHECK
 70
     0
  9
$BLIPMODE
 70
     0
  9
$CHAMFERA
 40
10.0
  9
$CHAMFERB
 40
10.0
  9
$CHAMFERC
 40
0.0
  9
$CHAMFERD
 40
0.0
  9
$SKPOLY
 70
     0
  9
$TDCREATE
 40
2455142.384450046
  9
$TDUPDATE
 40
2455378.498889062
  9
$TDINDWG
 40
0.0175669097
  9
$TDUSRTIMER
 40
0.0175669097
  9
$USRTIMER
 70
     1
  9
$ANGBASE
 50
0.0
  9
$ANGDIR
 70
     0
  9
$PDMODE
 70
     1
  9
$PDSIZE
 40
-5.0
  9
$PLINEWID
 40
0.0
  9
$COORDS
 70
     0
  9
$SPLFRAME
 70
     0
  9
$SPLINETYPE
 70
     6
  9
$SPLINESEGS
 70
     8
  9
$ATTDIA
 70
     0
  9
$ATTREQ
 70
     1
  9
$HANDLING
 70
-16383
  9
$HANDSEED
  5
EA2
  9
$SURFTAB1
 70
     6
  9
$SURFTAB2
 70
     6
  9
$SURFTYPE
 70
     6
  9
$SURFU
 70
     6
  9
$SURFV
 70
     6
  9
$UCSNAME
  2

  9
$UCSORG
 10
0.0
 20
0.0
 30
0.0
  9
$UCSXDIR
 10
1.0
 20
0.0
 30
0.0
  9
$UCSYDIR
 10
0.0
 20
1.0
 30
0.0
  9
$PUCSNAME
  2

  9
$PUCSORG
 10
0.0
 20
0.0
 30
0.0
  9
$PUCSXDIR
 10
1.0
 20
0.0
 30
0.0
  9
$PUCSYDIR
 10
0.0
 20
1.0
 30
0.0
  9
$USERI1
 70
     1
  9
$USERI2
 70
     0
  9
$USERI3
 70
     0
  9
$USERI4
 70
     0
  9
$USERI5
 70
     0
  9
$USERR1
 40
0.0
  9
$USERR2
 40
0.0
  9
$USERR3
 40
0.0
  9
$USERR4
 40
0.0
  9
$USERR5
 40
0.0
  9
$WORLDVIEW
 70
     1
  9
$SHADEDGE
 70
     3
  9
$SHADEDIF
 70
    70
  9
$TILEMODE
 70
     1
  9
$MAXACTVP
 70
    16
  9
$PINSBASE
 10
0.0
 20
0.0
 30
0.0
  9
$PLIMCHECK
 70
     0
  9
$PEXTMIN
 10
1.00000000E+20
 20
1.00000000E+20
 30
1.00000000E+20
  9
$PEXTMAX
 10
-1.00000000E+20
 20
-1.00000000E+20
 30
-1.00000000E+20
  9
$PLIMMIN
 10
0.0
 20
0.0
  9
$PLIMMAX
 10
420.0
 20
297.0
  9
$UNITMODE
 70
     0
  9
$VISRETAIN
 70
     0
  9
$PLINEGEN
 70
     0
  9
$PSLTSCALE
 70
     1
  9
$TREEDEPTH
 70
  3020
  9
$PICKSTYLE
 70
     0
  9
$CMLSTYLE
  2
STANDARD
  9
$CMLJUST
 70
     0
  9
$CMLSCALE
 40
1.0
  9
$PROXYGRAPHICS
 70
     1
  9
$MEASUREMENT
 70
     1
  0
ENDSEC
  0
SECTION
  2
CLASSES
  0
CLASS
  1
XRECORD
  2
AcDbXrecord
  3
AutoCAD 2000
 90
        0
280
     0
281
     0
  0
CLASS
  1
ACDBDICTIONARYWDFLT
  2
AcDbDictionaryWithDefault
  3
AutoCAD 2000
 90
        0
280
     0
281
     0
  0
CLASS
  1
ACDBPLACEHOLDER
  2
AcDbPlaceHolder
  3
AutoCAD 2000
 90
        0
280
     0
281
     0
  0
CLASS
  1
LAYOUT
  2
AcDbLayout
  3
AutoCAD 2000
 90
        0
280
     0
281
     0
  0
CLASS
  1
PLOTSETTINGS
  2
AcDbPlotSettings
  3
AutoCAD 2000
 90
        0
280
     0
281
     0
  0
CLASS
  1
LONG_TRANSACTION
  2
AcDbLongTransaction
  3
AutoCAD 2000
 90
        0
280
     0
281
     0
  0
CLASS
  1
LWPOLYLINE
  2
AcDbPolyline
  3
AutoCAD 2000
 90
        0
280
     0
281
     1
  0
CLASS
  1
HATCH
  2
AcDbHatch
  3
AutoCAD 2000
 90
        0
280
     0
281
     1
  0
CLASS
  1
XRECORD
  2
AcDbXrecord
  3
AutoCAD 2000
 90
        0
280
     0
281
     0
  0
CLASS
  1
LONG_TRANSACTION
  2
AcDbLongTransaction
  3
AutoCAD 2000
 90
        0
280
     0
281
     0
  0
CLASS
  1
LWPOLYLINE
  2
AcDbPolyline
  3
AutoCAD 2000
 90
        0
280
     0
281
     1
  0
CLASS
  1
HATCH
  2
AcDbHatch
  3
AutoCAD 2000
 90
        0
280
     0
281
     1
  0
CLASS
  1
XRECORD
  2
AcDbXrecord
  3
AutoCAD 2000
 90
        0
280
     0
281
     0
  0
CLASS
  1
LONG_TRANSACTION
  2
AcDbLongTransaction
  3
AutoCAD 2000
 90
        0
280
     0
281
     0
  0
CLASS
  1
LWPOLYLINE
  2
AcDbPolyline
  3
AutoCAD 2000
 90
        0
280
     0
281
     1
  0
CLASS
  1
HATCH
  2
AcDbHatch
  3
AutoCAD 2000
 90
        0
280
     0
281
     1
  0
CLASS
  1
XRECORD
  2
AcDbXrecord
  3
AutoCAD 2000
 90
        0
280
     0
281
     0
  0
ENDSEC
  0
SECTION
  2
TABLES
  0
TABLE
  2
VPORT
  5
8
330
0
100
AcDbSymbolTable
 70
     4
  0
VPORT
  5
E7D
330
8
100
AcDbSymbolTableRecord
100
AcDbViewportTableRecord
  2
*ACTIVE
 70
     0
 10
0.0
 20
0.0
 11
1.0
 21
1.0
 12
45.64904278
 22
13.02381985
 13
0.0
 23
0.0
 14
7.0
 24
7.0
 15
7.0
 25
7.0
 16
0.0
 26
0.0
 36
1.0
 17
0.0
 27
0.0
 37
0.0
 40
122.05142748
 41
1.45595855
 42
50.0
 43
0.0
 44
0.0
 50
0.0
 51
0.0
 71
     0
 72
  2000
 73
     1
 74
     0
 75
     0
 76
     0
 77
     0
 78
     0
  0
ENDTAB
  0
TABLE
  2
LTYPE
  5
5
330
0
100
AcDbSymbolTable
 70
     4
  0
LTYPE
  5
14
330
5
100
AcDbSymbolTableRecord
100
AcDbLinetypeTableRecord
  2
BYBLOCK
 70
     0
  3

 72
    65
 73
     0
 40
0.0
  0
LTYPE
  5
15
330
5
100
AcDbSymbolTableRecord
100
AcDbLinetypeTableRecord
  2
BYLAYER
 70
     0
  3

 72
    65
 73
     0
 40
0.0
  0
LTYPE
  5
16
330
5
100
AcDbSymbolTableRecord
100
AcDbLinetypeTableRecord
  2
CONTINUOUS
 70
     0
  3
Solid line
 72
    65
 73
     0
 40
0.0
  0
LTYPE
  5
258
330
5
100
AcDbSymbolTableRecord
100
AcDbLinetypeTableRecord
  2
CENTER2
 70
     0
  3
___ _ ___ _ ___ _ ___ _ ___ _ ___ _ ___ _ ___ _
 72
    65
 73
     4
 40
1.125
 49
0.75
 74
     0
 49
-0.125
 74
     0
 49
0.125
 74
     0
 49
-0.125
 74
     0
  0
LTYPE
  5
25C
330
5
100
AcDbSymbolTableRecord
100
AcDbLinetypeTableRecord
  2
HIDDEN2
 70
     0
  3
_ _ _ _ _ _ _ _ _ _ _ _ _ _ _ _ _ _ _ _ _ _ _ _
 72
    65
 73
     2
 40
0.1875
 49
0.125
 74
     0
 49
-0.0625
 74
     0
  0
LTYPE
  5
25D
330
5
100
AcDbSymbolTableRecord
100
AcDbLinetypeTableRecord
  2
PHANTOM2
 70
     0
  3
___ _ _ ___ _ _ ___ _ _ ___ _ _ ___ _ _ ___ _ _
 72
    65
 73
     6
 40
1.25
 49
0.625
 74
     0
 49
-0.125
 74
     0
 49
0.125
 74
     0
 49
-0.125
 74
     0
 49
0.125
 74
     0
 49
-0.125
 74
     0
  0
ENDTAB
  0
TABLE
  2
LAYER
  5
2
330
0
100
AcDbSymbolTable
 70
    10
  0
LAYER
  5
F
330
2
100
AcDbSymbolTableRecord
100
AcDbLayerTableRecord
  2
0
 70
     0
 62
     7
  6
CONTINUOUS
  0
LAYER
  5
1AA
330
2
100
AcDbSymbolTableRecord
100
AcDbLayerTableRecord
  2
240
 70
     0
 62
     4
  6
CONTINUOUS
  0
LAYER
  5
1AB
330
2
100
AcDbSymbolTableRecord
100
AcDbLayerTableRecord
  2
241
 70
     0
 62
   211
  6
CONTINUOUS
  0
LAYER
  5
1AC
330
2
100
AcDbSymbolTableRecord
100
AcDbLayerTableRecord
  2
242
 70
     0
 62
     3
  6
CONTINUOUS
  0
LAYER
  5
1AF
330
2
100
AcDbSymbolTableRecord
100
AcDbLayerTableRecord
  2
245
 70
     0
 62
     2
  6
CENTER2
  0
LAYER
  5
21A
330
2
100
AcDbSymbolTableRecord
100
AcDbLayerTableRecord
  2
246
 70
     0
 62
     3
  6
PHANTOM2
  0
LAYER
  5
21E
330
2
100
AcDbSymbolTableRecord
100
AcDbLayerTableRecord
  2
250
 70
     0
 62
     3
  6
CONTINUOUS
  0
LAYER
  5
21F
330
2
100
AcDbSymbolTableRecord
100
AcDbLayerTableRecord
  2
251
 70
     0
 62
    40
  6
CONTINUOUS
  0
LAYER
  5
5C4
330
2
100
AcDbSymbolTableRecord
100
AcDbLayerTableRecord
  2
DEFPOINTS
 70
     0
 62
     7
  6
CONTINUOUS
  0
ENDTAB
  0
TABLE
  2
STYLE
  5
3
330
0
100
AcDbSymbolTable
 70
     2
  0
STYLE
  5
10
330
3
100
AcDbSymbolTableRecord
100
AcDbTextStyleTableRecord
  2
STANDARD
 70
     0
 40
0.0
 41
1.0
 50
0.0
 71
     0
 42
3.0
  3
romans.shx
  4
BIGFONT.SHX
  0
STYLE
  5
339
330
3
100
AcDbSymbolTableRecord
100
AcDbTextStyleTableRecord
  2
YOKO
 70
     0
 40
0.0
 41
1.0
 50
0.0
 71
     0
 42
3.0
  3
romans.shx
  4
extfont.shx
  0
ENDTAB
  0
TABLE
  2
VIEW
  5
6
330
0
100
AcDbSymbolTable
 70
     1
  0
VIEW
  5
E7B
330
6
100
AcDbSymbolTableRecord
100
AcDbViewTableRecord
  2
OLE1
 70
     0
 40
122.05142748
 10
45.64904278
 20
13.02381985
 41
177.70181928
 11
0.0
 21
0.0
 31
1.0
 12
0.0
 22
0.0
 32
0.0
 42
50.0
 43
0.0
 44
0.0
 50
0.0
 71
     0
  0
ENDTAB
  0
TABLE
  2
UCS
  5
7
330
0
100
AcDbSymbolTable
 70
     0
  0
ENDTAB
  0
TABLE
  2
APPID
  5
9
330
0
100
AcDbSymbolTable
 70
    12
  0
APPID
  5
11
330
9
100
AcDbSymbolTableRecord
100
AcDbRegAppTableRecord
  2
ACAD
 70
     0
  0
APPID
  5
1B1
330
9
100
AcDbSymbolTableRecord
100
AcDbRegAppTableRecord
  2
GLOBAL
 70
     0
  0
APPID
  5
2A4
330
9
100
AcDbSymbolTableRecord
100
AcDbRegAppTableRecord
  2
DETAIL
 70
     0
  0
APPID
  5
5FD
330
9
100
AcDbSymbolTableRecord
100
AcDbRegAppTableRecord
  2
GRPNAME
 70
     0
  0
APPID
  5
5FE
330
9
100
AcDbSymbolTableRecord
100
AcDbRegAppTableRecord
  2
GPARA
 70
     0
  0
APPID
  5
6C4
330
9
100
AcDbSymbolTableRecord
100
AcDbRegAppTableRecord
  2
DCO15
 70
     0
  0
APPID
  5
6C5
330
9
100
AcDbSymbolTableRecord
100
AcDbRegAppTableRecord
  2
ITEMNAME
 70
     0
  0
APPID
  5
6C6
330
9
100
AcDbSymbolTableRecord
100
AcDbRegAppTableRecord
  2
GRADE_0
 70
     0
  0
APPID
  5
7BB
330
9
100
AcDbSymbolTableRecord
100
AcDbRegAppTableRecord
  2
HATCH_TYPE
 70
     0
  0
APPID
  5
7BC
330
9
100
AcDbSymbolTableRecord
100
AcDbRegAppTableRecord
  2
HATCH_DISPLAY
 70
     0
  0
APPID
  5
7BD
330
9
100
AcDbSymbolTableRecord
100
AcDbRegAppTableRecord
  2
HATCH_DISTANCE
 70
     0
  0
APPID
  5
AD2
330
9
100
AcDbSymbolTableRecord
100
AcDbRegAppTableRecord
  2
CONTENTBLOCKICON
 70
     0
  0
ENDTAB
  0
TABLE
  2
DIMSTYLE
  5
A
330
0
100
AcDbSymbolTable
 70
     1
  0
DIMSTYLE
105
725
102
{ACAD_REACTORS
330
99D
330
9AC
330
9BB
330
9CA
102
}
330
A
100
AcDbSymbolTableRecord
100
AcDbDimStyleTableRecord
  2
BIGT
 70
     0
  3

  4

  5

  6
OPEN
  7
OPEN
 40
1.0
 41
2.23
 42
0.5
 43
2.5
 44
1.0
 45
0.0
 46
0.0
 47
0.0
 48
0.0
140
2.8
141
0.0
142
0.0
143
25.4
144
1.0
145
0.0
146
1.0
147
1.0
 71
     0
 72
     0
 73
     0
 74
     0
 75
     0
 76
     0
 77
     3
 78
     8
170
     0
171
     2
172
     1
173
     1
174
     1
175
     0
176
   256
177
   256
178
    40
270
     2
271
     3
272
     3
273
     2
274
     2
340
10
275
     0
280
     0
281
     0
282
     0
283
     1
284
     8
285
     0
286
     0
287
     3
288
     0
  0
ENDTAB
  0
TABLE
  2
BLOCK_RECORD
  5
1
330
0
100
AcDbSymbolTable
 70
     7
  0
BLOCK_RECORD
  5
1A
102
{ACAD_XDICTIONARY
360
AD0
102
}
330
1
100
AcDbSymbolTableRecord
100
AcDbBlockTableRecord
  2
*MODEL_SPACE
  0
BLOCK_RECORD
  5
17
102
{ACAD_XDICTIONARY
360
ACE
102
}
330
1
100
AcDbSymbolTableRecord
100
AcDbBlockTableRecord
  2
*PAPER_SPACE
  0
BLOCK_RECORD
  5
594
330
1
100
AcDbSymbolTableRecord
100
AcDbBlockTableRecord
  2
_OPEN
  0
BLOCK_RECORD
  5
6E3
330
1
100
AcDbSymbolTableRecord
100
AcDbBlockTableRecord
  2
矢印なし
  0
BLOCK_RECORD
  5
99E
330
1
100
AcDbSymbolTableRecord
100
AcDbBlockTableRecord
  2
*D2
  0
BLOCK_RECORD
  5
9AD
330
1
100
AcDbSymbolTableRecord
100
AcDbBlockTableRecord
  2
*D3
  0
BLOCK_RECORD
  5
9BC
330
1
100
AcDbSymbolTableRecord
100
AcDbBlockTableRecord
  2
*D4
  0
BLOCK_RECORD
  5
9CB
330
1
100
AcDbSymbolTableRecord
100
AcDbBlockTableRecord
  2
*D5
  0
BLOCK_RECORD
  5
A05
330
1
100
AcDbSymbolTableRecord
100
AcDbBlockTableRecord
  2
1
1001
CONTENTBLOCKICON
1071
        0
1004
2800000020000000200000000100080000000000000400000000000000000000000000000000000000000000000080000080000000808000800000008000800080800000C0C0C000C0DCC000F0CAA6000020400000206000002080000020A0000020C0000020E00000400000004020000040400000406000004080000040A0
1004
000040C0000040E00000600000006020000060400000606000006080000060A0000060C0000060E00000800000008020000080400000806000008080000080A0000080C0000080E00000A0000000A0200000A0400000A0600000A0800000A0A00000A0C00000A0E00000C0000000C0200000C0400000C0600000C0800000C0
1004
A00000C0C00000C0E00000E0000000E0200000E0400000E0600000E0800000E0A00000E0C00000E0E00040000000400020004000400040006000400080004000A0004000C0004000E00040200000402020004020400040206000402080004020A0004020C0004020E000404000004040200040404000404060004040800040
1004
40A0004040C0004040E00040600000406020004060400040606000406080004060A0004060C0004060E00040800000408020004080400040806000408080004080A0004080C0004080E00040A0000040A0200040A0400040A0600040A0800040A0A00040A0C00040A0E00040C0000040C0200040C0400040C0600040C08000
1004
40C0A00040C0C00040C0E00040E0000040E0200040E0400040E0600040E0800040E0A00040E0C00040E0E00080000000800020008000400080006000800080008000A0008000C0008000E00080200000802020008020400080206000802080008020A0008020C0008020E00080400000804020008040400080406000804080
1004
008040A0008040C0008040E00080600000806020008060400080606000806080008060A0008060C0008060E00080800000808020008080400080806000808080008080A0008080C0008080E00080A0000080A0200080A0400080A0600080A0800080A0A00080A0C00080A0E00080C0000080C0200080C0400080C0600080C0
1004
800080C0A00080C0C00080C0E00080E0000080E0200080E0400080E0600080E0800080E0A00080E0C00080E0E000C0000000C0002000C0004000C0006000C0008000C000A000C000C000C000E000C0200000C0202000C0204000C0206000C0208000C020A000C020C000C020E000C0400000C0402000C0404000C0406000C0
1004
408000C040A000C040C000C040E000C0600000C0602000C0604000C0606000C0608000C060A000C060C000C060E000C0800000C0802000C0804000C0806000C0808000C080A000C080C000C080E000C0A00000C0A02000C0A04000C0A06000C0A08000C0A0A000C0A0C000C0A0E000C0C00000C0C02000C0C04000C0C06000
1004
C0C08000C0C0A000F0FBFF00A4A0A000808080000000FF0000FF000000FFFF00FF000000FF00FF00FFFF0000FFFFFF0000000000000000000000000000000000000000000000000000000000000000000000000000000000000000000000000000000000000000000000000000000000000000000000000000000000000000
1004
00000000000000000000000000000000000000000000000000000000000000000000000000000000000000000000000000000000000000000000000000000000000000000000000000000000000000000000000000000000000000000000000000000000000000000000000000000000000000000000000000000000000000
1004
00000000000000000000000000000000000000000000000000000000000000000000000000000000000000000000000000000000000000000000000000000000000000000000000000000000000000000000000000000000000000000000000000000000000000000000000000000000000000000000000000FEFEFEFEFEFE
1004
000000000000000000000000000000000000000000FEFEFEFEFEFEE7E7E7E7E7FEFE000000000000000000000000000000000000FE0000000000E700E7E7E7E7FAFEFE0000000000000000000000000000000000FE0000000000E70000E7E7E7FAE700E7FEFEFEFEFEFEFEFEFEFEFEFAFE000000FEE7E7000000E700E7E7E7
1004
E7E7E700E70000000000000000E7E7E700FE0000000000E700E7FBE7E70000FBE700E700E70000000000000000E7000000FE000000FBFBE7FBE7FBE7E7FBFBFBE7FBE7FBE7FBFBFBFBFBFBFBFBE7E7E7E7FEFB0000FEFEE7000000E700E7E7E7E700E700E70000000000000000000000E7FE000000FE0000000000E70000E7
1004
E7E700E700E7FEFEFEFEFEFEFEFEFEFEFEFEFE000000FE0000000000E70000E7E7E700FEFEFE0000000000000000000000000000000000FEFEFEFEFEFE0000E7E7FEFEFE000000000000000000000000000000000000000000000000FEFEFEFEFEFE0000000000000000000000000000000000000000000000000000000000
1004
00000000000000000000000000000000000000000000000000000000000000000000000000000000000000000000000000000000000000000000000000000000000000000000000000000000000000000000000000000000000000000000000000000000000000000000000000000000000000000000000000000000000000
1004
00000000000000000000000000000000000000000000000000000000000000000000000000000000000000000000000000000000000000000000000000000000000000000000000000000000000000000000000000000000000000000000000000000000000000000000000000000000000000000000000000000000000000
1004
0000000000000000000000000000000000000000000000000000000000000000000000000000000000000000000000000000000000000000
  0
ENDTAB
  0
ENDSEC
  0
SECTION
  2
BLOCKS
  0
BLOCK
  5
1B
330
1A
100
AcDbEntity
  8
0
100
AcDbBlockBegin
  2
*MODEL_SPACE
 70
     0
 10
0.0
 20
0.0
 30
0.0
  3
*MODEL_SPACE
  1

  0
ENDBLK
  5
1C
330
1A
100
AcDbEntity
  8
0
100
AcDbBlockEnd
  0
BLOCK
  5
18
330
17
100
AcDbEntity
 67
     1
  8
0
100
AcDbBlockBegin
  2
*PAPER_SPACE
 70
     0
 10
0.0
 20
0.0
 30
0.0
  3
*PAPER_SPACE
  1

  0
ENDBLK
  5
19
330
17
100
AcDbEntity
 67
     1
  8
0
100
AcDbBlockEnd
  0
BLOCK
  5
598
330
594
100
AcDbEntity
  8
0
100
AcDbBlockBegin
  2
_OPEN
 70
     0
 10
0.0
 20
0.0
 30
0.0
  3
_OPEN
  1

  0
LINE
  5
595
330
594
100
AcDbEntity
  8
0
  6
BYBLOCK
 62
     0
100
AcDbLine
 10
-1.0
 20
0.16666667
 30
0.0
 11
0.0
 21
0.0
 31
0.0
  0
LINE
  5
596
330
594
100
AcDbEntity
  8
0
  6
BYBLOCK
 62
     0
100
AcDbLine
 10
-1.0
 20
-0.16666667
 30
0.0
 11
0.0
 21
0.0
 31
0.0
  0
LINE
  5
597
330
594
100
AcDbEntity
  8
0
  6
BYBLOCK
 62
     0
100
AcDbLine
 10
0.0
 20
0.0
 30
0.0
 11
-1.0
 21
0.0
 31
0.0
  0
ENDBLK
  5
599
330
594
100
AcDbEntity
  8
0
100
AcDbBlockEnd
  0
BLOCK
  5
6E4
330
6E3
100
AcDbEntity
  8
0
100
AcDbBlockBegin
  2
矢印なし
 70
     0
 10
0.0
 20
0.0
 30
0.0
  3
矢印なし
  1

  0
ENDBLK
  5
6E5
330
6E3
100
AcDbEntity
  8
0
100
AcDbBlockEnd
  0
BLOCK
  5
9A8
330
99E
100
AcDbEntity
  8
0
100
AcDbBlockBegin
  2
*D2
 70
     1
 10
0.0
 20
0.0
 30
0.0
  3
*D2
  1

  0
LINE
  5
9FC
330
99E
100
AcDbEntity
  8
250
  6
CONTINUOUS
100
AcDbLine
 10
120.5
 20
-16.0
 30
0.0
 11
134.0
 21
-16.0
 31
0.0
  0
LINE
  5
9FD
330
99E
100
AcDbEntity
  8
250
  6
CONTINUOUS
100
AcDbLine
 10
120.5
 20
16.0
 30
0.0
 11
134.0
 21
16.0
 31
0.0
  0
LINE
  5
9FE
330
99E
100
AcDbEntity
  8
250
  6
CONTINUOUS
100
AcDbLine
 10
133.0
 20
-13.77
 30
0.0
 11
133.0
 21
13.77
 31
0.0
  0
INSERT
  5
9FF
330
99E
100
AcDbEntity
  8
250
  6
CONTINUOUS
100
AcDbBlockReference
  2
_OPEN
 10
133.0
 20
-16.0
 30
0.0
 41
2.23
 42
2.23
 43
2.23
 50
270.0
  0
INSERT
  5
A00
330
99E
100
AcDbEntity
  8
250
  6
CONTINUOUS
100
AcDbBlockReference
  2
_OPEN
 10
133.0
 20
16.0
 30
0.0
 41
2.23
 42
2.23
 43
2.23
 50
90.0
  0
MTEXT
  5
A01
330
99E
100
AcDbEntity
  8
250
  6
CONTINUOUS
 62
    40
100
AcDbMText
 10
130.6
 20
0.0
 30
0.0
 40
2.8
 41
0.0
 71
     5
 72
     1
  1
\A1;{\H2.8;\U+2205}32
 11
0.0
 21
1.0
 31
0.0
1001
ACAD
1000
MTEXTBEGIN
1070
    73
1070
     1
1070
    44
1040
1.0
1070
    74
1070
     0
1000
MTEXTEND
1000
MTEXTBEGIN
1070
    73
1070
     1
1070
    44
1040
1.0
1070
    74
1070
     0
1000
MTEXTEND
1000
MTEXTBEGIN
1070
    73
1070
     1
1070
    44
1040
1.0
1070
    74
1070
     0
1000
MTEXTEND
  0
POINT
  5
A02
330
99E
100
AcDbEntity
  8
DEFPOINTS
  6
CONTINUOUS
 62
     0
100
AcDbPoint
 10
120.0
 20
-16.0
 30
0.0
  0
POINT
  5
A03
330
99E
100
AcDbEntity
  8
DEFPOINTS
  6
CONTINUOUS
 62
     0
100
AcDbPoint
 10
120.0
 20
16.0
 30
0.0
  0
POINT
  5
A04
330
99E
100
AcDbEntity
  8
DEFPOINTS
  6
CONTINUOUS
 62
     0
100
AcDbPoint
 10
133.0
 20
16.0
 30
0.0
  0
ENDBLK
  5
9A9
330
99E
100
AcDbEntity
  8
0
100
AcDbBlockEnd
  0
BLOCK
  5
9B7
330
9AD
100
AcDbEntity
  8
0
100
AcDbBlockBegin
  2
*D3
 70
     1
 10
0.0
 20
0.0
 30
0.0
  3
*D3
  1

  0
LINE
  5
9F3
330
9AD
100
AcDbEntity
  8
250
  6
CONTINUOUS
100
AcDbLine
 10
109.0
 20
16.5
 30
0.0
 11
109.0
 21
29.0
 31
0.0
  0
LINE
  5
9F4
330
9AD
100
AcDbEntity
  8
250
  6
CONTINUOUS
100
AcDbLine
 10
120.0
 20
16.5
 30
0.0
 11
120.0
 21
29.0
 31
0.0
  0
LINE
  5
9F5
330
9AD
100
AcDbEntity
  8
250
  6
CONTINUOUS
100
AcDbLine
 10
111.23
 20
28.0
 30
0.0
 11
117.77
 21
28.0
 31
0.0
  0
INSERT
  5
9F6
330
9AD
100
AcDbEntity
  8
250
  6
CONTINUOUS
100
AcDbBlockReference
  2
_OPEN
 10
109.0
 20
28.0
 30
0.0
 41
2.23
 42
2.23
 43
2.23
 50
180.0
  0
INSERT
  5
9F7
330
9AD
100
AcDbEntity
  8
250
  6
CONTINUOUS
100
AcDbBlockReference
  2
_OPEN
 10
120.0
 20
28.0
 30
0.0
 41
2.23
 42
2.23
 43
2.23
  0
MTEXT
  5
9F8
330
9AD
100
AcDbEntity
  8
250
  6
CONTINUOUS
 62
    40
100
AcDbMText
 10
114.5
 20
30.4
 30
0.0
 40
2.8
 41
0.0
 71
     5
 72
     1
  1
\A1;11
1001
ACAD
1000
MTEXTBEGIN
1070
    73
1070
     1
1070
    44
1040
1.0
1070
    74
1070
     0
1000
MTEXTEND
1000
MTEXTBEGIN
1070
    73
1070
     1
1070
    44
1040
1.0
1070
    74
1070
     0
1000
MTEXTEND
1000
MTEXTBEGIN
1070
    73
1070
     1
1070
    44
1040
1.0
1070
    74
1070
     0
1000
MTEXTEND
  0
POINT
  5
9F9
330
9AD
100
AcDbEntity
  8
DEFPOINTS
  6
CONTINUOUS
 62
     0
100
AcDbPoint
 10
109.0
 20
16.0
 30
0.0
  0
POINT
  5
9FA
330
9AD
100
AcDbEntity
  8
DEFPOINTS
  6
CONTINUOUS
 62
     0
100
AcDbPoint
 10
120.0
 20
16.0
 30
0.0
  0
POINT
  5
9FB
330
9AD
100
AcDbEntity
  8
DEFPOINTS
  6
CONTINUOUS
 62
     0
100
AcDbPoint
 10
120.0
 20
28.0
 30
0.0
  0
ENDBLK
  5
9B8
330
9AD
100
AcDbEntity
  8
0
100
AcDbBlockEnd
  0
BLOCK
  5
9C6
330
9BC
100
AcDbEntity
  8
0
100
AcDbBlockBegin
  2
*D4
 70
     1
 10
0.0
 20
0.0
 30
0.0
  3
*D4
  1

  0
LINE
  5
9EA
330
9BC
100
AcDbEntity
  8
250
  6
CONTINUOUS
100
AcDbLine
 10
50.0
 20
15.98406541
 30
0.0
 11
50.0
 21
36.0
 31
0.0
  0
LINE
  5
9EB
330
9BC
100
AcDbEntity
  8
250
  6
CONTINUOUS
100
AcDbLine
 10
120.0
 20
16.5
 30
0.0
 11
120.0
 21
36.0
 31
0.0
  0
LINE
  5
9EC
330
9BC
100
AcDbEntity
  8
250
  6
CONTINUOUS
100
AcDbLine
 10
52.23
 20
35.0
 30
0.0
 11
117.77
 21
35.0
 31
0.0
  0
INSERT
  5
9ED
330
9BC
100
AcDbEntity
  8
250
  6
CONTINUOUS
100
AcDbBlockReference
  2
_OPEN
 10
50.0
 20
35.0
 30
0.0
 41
2.23
 42
2.23
 43
2.23
 50
180.0
  0
INSERT
  5
9EE
330
9BC
100
AcDbEntity
  8
250
  6
CONTINUOUS
100
AcDbBlockReference
  2
_OPEN
 10
120.0
 20
35.0
 30
0.0
 41
2.23
 42
2.23
 43
2.23
  0
MTEXT
  5
9EF
330
9BC
100
AcDbEntity
  8
250
  6
CONTINUOUS
 62
    40
100
AcDbMText
 10
85.0
 20
37.4
 30
0.0
 40
2.8
 41
0.0
 71
     5
 72
     1
  1
\A1;70
1001
ACAD
1000
MTEXTBEGIN
1070
    73
1070
     1
1070
    44
1040
1.0
1070
    74
1070
     0
1000
MTEXTEND
1000
MTEXTBEGIN
1070
    73
1070
     1
1070
    44
1040
1.0
1070
    74
1070
     0
1000
MTEXTEND
1000
MTEXTBEGIN
1070
    73
1070
     1
1070
    44
1040
1.0
1070
    74
1070
     0
1000
MTEXTEND
  0
POINT
  5
9F0
330
9BC
100
AcDbEntity
  8
DEFPOINTS
  6
CONTINUOUS
 62
     0
100
AcDbPoint
 10
50.0
 20
15.48406541
 30
0.0
  0
POINT
  5
9F1
330
9BC
100
AcDbEntity
  8
DEFPOINTS
  6
CONTINUOUS
 62
     0
100
AcDbPoint
 10
120.0
 20
16.0
 30
0.0
  0
POINT
  5
9F2
330
9BC
100
AcDbEntity
  8
DEFPOINTS
  6
CONTINUOUS
 62
     0
100
AcDbPoint
 10
120.0
 20
35.0
 30
0.0
  0
ENDBLK
  5
9C7
330
9BC
100
AcDbEntity
  8
0
100
AcDbBlockEnd
  0
BLOCK
  5
9D5
330
9CB
100
AcDbEntity
  8
0
100
AcDbBlockBegin
  2
*D5
 70
     1
 10
0.0
 20
0.0
 30
0.0
  3
*D5
  1

  0
LINE
  5
9E1
330
9CB
100
AcDbEntity
  8
250
  6
CONTINUOUS
100
AcDbLine
 10
0.0
 20
31.0
 30
0.0
 11
0.0
 21
43.0
 31
0.0
  0
LINE
  5
9E2
330
9CB
100
AcDbEntity
  8
250
  6
CONTINUOUS
100
AcDbLine
 10
120.0
 20
16.5
 30
0.0
 11
120.0
 21
43.0
 31
0.0
  0
LINE
  5
9E3
330
9CB
100
AcDbEntity
  8
250
  6
CONTINUOUS
100
AcDbLine
 10
2.23
 20
42.0
 30
0.0
 11
117.77
 21
42.0
 31
0.0
  0
INSERT
  5
9E4
330
9CB
100
AcDbEntity
  8
250
  6
CONTINUOUS
100
AcDbBlockReference
  2
_OPEN
 10
0.0
 20
42.0
 30
0.0
 41
2.23
 42
2.23
 43
2.23
 50
180.0
  0
INSERT
  5
9E5
330
9CB
100
AcDbEntity
  8
250
  6
CONTINUOUS
100
AcDbBlockReference
  2
_OPEN
 10
120.0
 20
42.0
 30
0.0
 41
2.23
 42
2.23
 43
2.23
  0
MTEXT
  5
9E6
330
9CB
100
AcDbEntity
  8
250
  6
CONTINUOUS
 62
    40
100
AcDbMText
 10
60.0
 20
44.4
 30
0.0
 40
2.8
 41
0.0
 71
     5
 72
     1
  1
\A1;120
1001
ACAD
1000
MTEXTBEGIN
1070
    73
1070
     1
1070
    44
1040
1.0
1070
    74
1070
     0
1000
MTEXTEND
1000
MTEXTBEGIN
1070
    73
1070
     1
1070
    44
1040
1.0
1070
    74
1070
     0
1000
MTEXTEND
1000
MTEXTBEGIN
1070
    73
1070
     1
1070
    44
1040
1.0
1070
    74
1070
     0
1000
MTEXTEND
  0
POINT
  5
9E7
330
9CB
100
AcDbEntity
  8
DEFPOINTS
  6
CONTINUOUS
 62
     0
100
AcDbPoint
 10
0.0
 20
30.5
 30
0.0
  0
POINT
  5
9E8
330
9CB
100
AcDbEntity
  8
DEFPOINTS
  6
CONTINUOUS
 62
     0
100
AcDbPoint
 10
120.0
 20
16.0
 30
0.0
  0
POINT
  5
9E9
330
9CB
100
AcDbEntity
  8
DEFPOINTS
  6
CONTINUOUS
 62
     0
100
AcDbPoint
 10
120.0
 20
42.0
 30
0.0
  0
ENDBLK
  5
9D6
330
9CB
100
AcDbEntity
  8
0
100
AcDbBlockEnd
  0
BLOCK
  5
A06
330
A05
100
AcDbEntity
  8
0
100
AcDbBlockBegin
  2
1
 70
     0
 10
0.0
 20
0.0
 30
0.0
  3
1
  1

  0
LINE
  5
DDF
330
A05
100
AcDbEntity
  8
245
100
AcDbLine
 10
-32.0
 20
0.0
 30
0.0
 11
121.0
 21
0.0
 31
0.0
1001
GRPNAME
1000
PASTMD4G
  0
ARC
  5
DE0
330
A05
100
AcDbEntity
  8
240
100
AcDbCircle
 10
52.24429441
 20
45.4
 30
0.0
 40
30.0
100
AcDbArc
 50
253.5205711
 51
270.0
1001
GRPNAME
1000
PASTMD08
  0
ARC
  5
DE1
330
A05
100
AcDbEntity
  8
240
100
AcDbCircle
 10
52.24429441
 20
-45.4
 30
0.0
 40
30.0
100
AcDbArc
 50
90.0
 51
106.4794289
1001
GRPNAME
1000
PASTMD08
  0
LINE
  5
DE2
330
A05
100
AcDbEntity
  8
245
  6
CENTER2
100
AcDbLine
 10
18.0
 20
-31.5
 30
0.0
 11
18.0
 21
31.5
 31
0.0
  0
LINE
  5
DE3
330
A05
100
AcDbEntity
  8
240
  6
CONTINUOUS
100
AcDbLine
 10
0.0
 20
24.215
 30
0.0
 11
0.0
 21
30.5
 31
0.0
  0
LINE
  5
DE4
330
A05
100
AcDbEntity
  8
241
  6
CONTINUOUS
100
AcDbLine
 10
16.125
 20
8.0
 30
0.0
 11
16.125
 21
27.5
 31
0.0
  0
LINE
  5
DE5
330
A05
100
AcDbEntity
  8
241
  6
CONTINUOUS
100
AcDbLine
 10
14.62250093
 20
8.0
 30
0.0
 11
14.62250093
 21
31.5
 31
0.0
  0
LINE
  5
DE6
330
A05
100
AcDbEntity
  8
241
  6
CONTINUOUS
100
AcDbLine
 10
21.37749907
 20
8.0
 30
0.0
 11
21.37749907
 21
31.5
 31
0.0
  0
LINE
  5
DE7
330
A05
100
AcDbEntity
  8
241
  6
CONTINUOUS
100
AcDbLine
 10
19.875
 20
8.0
 30
0.0
 11
19.875
 21
27.5
 31
0.0
  0
LINE
  5
DE8
330
A05
100
AcDbEntity
  8
240
  6
CONTINUOUS
100
AcDbLine
 10
26.0
 20
26.3
 30
0.0
 11
26.0
 21
30.5
 31
0.0
  0
LINE
  5
DE9
330
A05
100
AcDbEntity
  8
240
  6
CONTINUOUS
100
AcDbLine
 10
-2.0
 20
-24.215
 30
0.0
 11
-30.85992514
 21
-22.77200374
 31
0.0
  0
LINE
  5
DEA
330
A05
100
AcDbEntity
  8
240
  6
CONTINUOUS
100
AcDbLine
 10
-2.0
 20
24.215
 30
0.0
 11
-30.85992514
 21
22.77200374
 31
0.0
  0
LINE
  5
DEB
330
A05
100
AcDbEntity
  8
240
  6
CONTINUOUS
100
AcDbLine
 10
-31.0
 20
-6.27
 30
0.0
 11
-27.5
 21
-6.27
 31
0.0
  0
LINE
  5
DEC
330
A05
100
AcDbEntity
  8
240
  6
CONTINUOUS
100
AcDbLine
 10
-31.0
 20
6.27
 30
0.0
 11
-27.5
 21
6.27
 31
0.0
  0
LINE
  5
DED
330
A05
100
AcDbEntity
  8
240
  6
CONTINUOUS
100
AcDbLine
 10
-32.0
 20
-21.57350094
 30
0.0
 11
-32.0
 21
-7.27
 31
0.0
  0
ARC
  5
DEE
330
A05
100
AcDbEntity
  8
240
  6
CONTINUOUS
100
AcDbCircle
 10
-30.8
 20
-21.57350094
 30
0.0
 40
1.199999999999988
100
AcDbArc
 50
180.0
 51
267.13759477
  0
LINE
  5
DEF
330
A05
100
AcDbEntity
  8
240
  6
CONTINUOUS
100
AcDbLine
 10
-32.0
 20
-7.27
 30
0.0
 11
-31.0
 21
-6.27
 31
0.0
  0
LINE
  5
DF0
330
A05
100
AcDbEntity
  8
240
  6
CONTINUOUS
100
AcDbLine
 10
-32.0
 20
7.27
 30
0.0
 11
-32.0
 21
21.57350094
 31
0.0
  0
LINE
  5
DF1
330
A05
100
AcDbEntity
  8
240
  6
CONTINUOUS
100
AcDbLine
 10
-31.0
 20
6.27
 30
0.0
 11
-32.0
 21
7.27
 31
0.0
  0
ARC
  5
DF2
330
A05
100
AcDbEntity
  8
240
  6
CONTINUOUS
100
AcDbCircle
 10
-30.8
 20
21.57350094
 30
0.0
 40
1.199999999999994
100
AcDbArc
 50
92.86240523
 51
180.0
  0
LINE
  5
DF3
330
A05
100
AcDbEntity
  8
242
100
AcDbLine
 10
26.5
 20
-7.518
 30
0.0
 11
33.96213793
 21
-25.57256304
 31
0.0
1001
GRPNAME
1000
PASTMD17
  0
LINE
  5
DF4
330
A05
100
AcDbEntity
  8
242
100
AcDbLine
 10
26.5
 20
-25.705
 30
0.0
 11
34.0
 21
-7.518
 31
0.0
1001
GRPNAME
1000
PASTMD17
  0
LINE
  5
DF5
330
A05
100
AcDbEntity
  8
241
100
AcDbLine
 10
26.5
 20
-25.705
 30
0.0
 11
26.5
 21
-7.518
 31
0.0
1001
GRPNAME
1000
PASTMD17
  0
LINE
  5
DF6
330
A05
100
AcDbEntity
  8
240
100
AcDbLine
 10
34.0
 20
-25.3
 30
0.0
 11
34.0
 21
-22.49999846
 31
0.0
1001
GRPNAME
1000
PASTMD2E
  0
LINE
  5
DF7
330
A05
100
AcDbEntity
  8
241
  6
CONTINUOUS
100
AcDbLine
 10
16.125
 20
-8.0
 30
0.0
 11
16.125
 21
-27.5
 31
0.0
  0
LINE
  5
DF8
330
A05
100
AcDbEntity
  8
240
  6
CONTINUOUS
100
AcDbLine
 10
0.0
 20
-30.5
 30
0.0
 11
0.0
 21
-24.215
 31
0.0
  0
LINE
  5
DF9
330
A05
100
AcDbEntity
  8
241
  6
CONTINUOUS
100
AcDbLine
 10
14.62250093
 20
-24.33618705
 30
0.0
 11
14.62250093
 21
-31.5
 31
0.0
  0
LINE
  5
DFA
330
A05
100
AcDbEntity
  8
241
  6
CONTINUOUS
100
AcDbLine
 10
19.875
 20
-8.0
 30
0.0
 11
19.875
 21
-27.5
 31
0.0
  0
LINE
  5
DFB
330
A05
100
AcDbEntity
  8
241
  6
CONTINUOUS
100
AcDbLine
 10
21.37749907
 20
-24.33618705
 30
0.0
 11
21.37749907
 21
-31.5
 31
0.0
  0
LINE
  5
DFC
330
A05
100
AcDbEntity
  8
241
  6
CONTINUOUS
100
AcDbLine
 10
26.0
 20
-26.3
 30
0.0
 11
26.0
 21
0.0
 31
0.0
  0
LINE
  5
DFD
330
A05
100
AcDbEntity
  8
240
  6
CONTINUOUS
100
AcDbLine
 10
1.0
 20
-31.5
 30
0.0
 11
14.62250093
 21
-31.5
 31
0.0
  0
ARC
  5
DFE
330
A05
100
AcDbEntity
  8
240
  6
CONTINUOUS
100
AcDbCircle
 10
1.0
 20
-30.5
 30
0.0
 40
1.0
100
AcDbArc
 50
180.0
 51
270.0
  0
ARC
  5
DFF
330
A05
100
AcDbEntity
  8
240
  6
CONTINUOUS
100
AcDbCircle
 10
25.0
 20
-30.5
 30
0.0
 40
1.0
100
AcDbArc
 50
270.0
 51
0.0
  0
LINE
  5
E00
330
A05
100
AcDbEntity
  8
240
  6
CONTINUOUS
100
AcDbLine
 10
16.125
 20
-27.5
 30
0.0
 11
19.875
 21
-27.5
 31
0.0
  0
LINE
  5
E01
330
A05
100
AcDbEntity
  8
240
  6
CONTINUOUS
100
AcDbLine
 10
16.125
 20
-28.89759526
 30
0.0
 11
14.62250093
 21
-31.5
 31
0.0
  0
LINE
  5
E02
330
A05
100
AcDbEntity
  8
240
  6
CONTINUOUS
100
AcDbLine
 10
16.125
 20
-27.5
 30
0.0
 11
16.125
 21
-28.89759526
 31
0.0
  0
LINE
  5
E03
330
A05
100
AcDbEntity
  8
240
  6
CONTINUOUS
100
AcDbLine
 10
19.875
 20
-28.89759526
 30
0.0
 11
21.37749907
 21
-31.5
 31
0.0
  0
LINE
  5
E04
330
A05
100
AcDbEntity
  8
240
  6
CONTINUOUS
100
AcDbLine
 10
21.37749907
 20
-31.5
 30
0.0
 11
25.0
 21
-31.5
 31
0.0
  0
LINE
  5
E05
330
A05
100
AcDbEntity
  8
240
  6
CONTINUOUS
100
AcDbLine
 10
19.875
 20
-27.5
 30
0.0
 11
19.875
 21
-28.89759526
 31
0.0
  0
LINE
  5
E06
330
A05
100
AcDbEntity
  8
241
100
AcDbLine
 10
26.5
 20
-25.705
 30
0.0
 11
33.91431668
 21
-25.705
 31
0.0
1001
GRPNAME
1000
PASTMD17
  0
LINE
  5
E07
330
A05
100
AcDbEntity
  8
240
100
AcDbLine
 10
26.0
 20
-26.3
 30
0.0
 11
33.0
 21
-26.3
 31
0.0
1001
GRPNAME
1000
PASTMD4F
  0
LINE
  5
E08
330
A05
100
AcDbEntity
  8
240
  6
CONTINUOUS
100
AcDbLine
 10
26.0
 20
-30.5
 30
0.0
 11
26.0
 21
-26.3
 31
0.0
  0
ARC
  5
E09
330
A05
100
AcDbEntity
  8
240
100
AcDbCircle
 10
33.0
 20
-25.3
 30
0.0
 40
1.0
100
AcDbArc
 50
269.99999999
 51
359.99999999
1001
GRPNAME
1000
PASTMD2E
  0
ARC
  5
E0A
330
A05
100
AcDbEntity
  8
241
  6
CONTINUOUS
100
AcDbCircle
 10
12.1117139
 20
-28.0
 30
0.0
 40
8.0
100
AcDbArc
 50
90.0
 51
152.74338069
  0
LINE
  5
E0B
330
A05
100
AcDbEntity
  8
241
  6
CONTINUOUS
100
AcDbLine
 10
5.0
 20
-24.33618705
 30
0.0
 11
14.62250093
 21
-24.33618705
 31
0.0
  0
ARC
  5
E0C
330
A05
100
AcDbEntity
  8
241
  6
CONTINUOUS
100
AcDbCircle
 10
13.0
 20
0.0
 30
0.0
 40
8.0
100
AcDbArc
 50
90.0
 51
180.0
  0
ARC
  5
E0D
330
A05
100
AcDbEntity
  8
241
  6
CONTINUOUS
100
AcDbCircle
 10
13.0
 20
0.0
 30
0.0
 40
8.0
100
AcDbArc
 50
180.0
 51
270.0
  0
LINE
  5
E0E
330
A05
100
AcDbEntity
  8
241
  6
CONTINUOUS
100
AcDbLine
 10
-2.0
 20
24.215
 30
0.0
 11
-2.0
 21
0.0
 31
0.0
  0
LINE
  5
E0F
330
A05
100
AcDbEntity
  8
241
100
AcDbLine
 10
0.0
 20
24.215
 30
0.0
 11
0.0
 21
0.0
 31
0.0
  0
LINE
  5
E10
330
A05
100
AcDbEntity
  8
241
  6
HIDDEN2
100
AcDbLine
 10
-22.0
 20
4.77
 30
0.0
 11
-22.0
 21
0.0
 31
0.0
  0
LINE
  5
E11
330
A05
100
AcDbEntity
  8
240
  6
CONTINUOUS
100
AcDbLine
 10
-26.0
 20
4.77
 30
0.0
 11
-26.0
 21
0.0
 31
0.0
  0
CIRCLE
  5
E12
330
A05
100
AcDbEntity
  8
241
  6
CONTINUOUS
100
AcDbCircle
 10
-9.0
 20
0.0
 30
0.0
 40
3.75
  0
LINE
  5
E13
330
A05
100
AcDbEntity
  8
245
  6
CENTER2
100
AcDbLine
 10
-9.0
 20
-4.75
 30
0.0
 11
-9.0
 21
4.75
 31
0.0
  0
ARC
  5
E14
330
A05
100
AcDbEntity
  8
240
  6
CONTINUOUS
100
AcDbCircle
 10
-27.5
 20
-4.77
 30
0.0
 40
1.499999999999985
100
AcDbArc
 50
270.0
 51
0.0
  0
ARC
  5
E15
330
A05
100
AcDbEntity
  8
241
  6
HIDDEN2
100
AcDbCircle
 10
-23.5
 20
-4.77
 30
0.0
 40
1.499999999999985
100
AcDbArc
 50
270.0
 51
0.0
  0
LINE
  5
E16
330
A05
100
AcDbEntity
  8
241
  6
HIDDEN2
100
AcDbLine
 10
-27.5
 20
-6.27
 30
0.0
 11
-23.5
 21
-6.27
 31
0.0
  0
LINE
  5
E17
330
A05
100
AcDbEntity
  8
240
  6
CONTINUOUS
100
AcDbLine
 10
-26.0
 20
-4.77
 30
0.0
 11
-26.0
 21
0.0
 31
0.0
  0
LINE
  5
E18
330
A05
100
AcDbEntity
  8
241
  6
HIDDEN2
100
AcDbLine
 10
-22.0
 20
-4.77
 30
0.0
 11
-22.0
 21
0.0
 31
0.0
  0
LINE
  5
E19
330
A05
100
AcDbEntity
  8
241
100
AcDbLine
 10
0.0
 20
-24.215
 30
0.0
 11
0.0
 21
0.0
 31
0.0
  0
LINE
  5
E1A
330
A05
100
AcDbEntity
  8
241
  6
CONTINUOUS
100
AcDbLine
 10
-2.0
 20
-24.215
 30
0.0
 11
-2.0
 21
0.0
 31
0.0
  0
LINE
  5
E1B
330
A05
100
AcDbEntity
  8
240
100
AcDbLine
 10
-2.0
 20
-24.215
 30
0.0
 11
0.0
 21
-24.215
 31
0.0
  0
LINE
  5
E1C
330
A05
100
AcDbEntity
  8
241
  6
HIDDEN2
100
AcDbLine
 10
-27.5
 20
6.27
 30
0.0
 11
-23.5
 21
6.27
 31
0.0
  0
ARC
  5
E1D
330
A05
100
AcDbEntity
  8
240
  6
CONTINUOUS
100
AcDbCircle
 10
-27.5
 20
4.77
 30
0.0
 40
1.5
100
AcDbArc
 50
0.0
 51
90.0
  0
ARC
  5
E1E
330
A05
100
AcDbEntity
  8
241
  6
HIDDEN2
100
AcDbCircle
 10
-23.5
 20
4.77
 30
0.0
 40
1.5
100
AcDbArc
 50
0.0
 51
90.0
  0
LINE
  5
E1F
330
A05
100
AcDbEntity
  8
240
100
AcDbLine
 10
-2.0
 20
24.215
 30
0.0
 11
0.0
 21
24.215
 31
0.0
  0
LINE
  5
E20
330
A05
100
AcDbEntity
  8
241
  6
CONTINUOUS
100
AcDbLine
 10
26.0
 20
0.0
 30
0.0
 11
26.0
 21
26.3
 31
0.0
  0
LINE
  5
E21
330
A05
100
AcDbEntity
  8
241
100
AcDbLine
 10
34.0
 20
22.49999846
 30
0.0
 11
34.0
 21
0.0
 31
0.0
  0
LINE
  5
E22
330
A05
100
AcDbEntity
  8
241
  6
CONTINUOUS
100
AcDbLine
 10
13.0
 20
-8.0
 30
0.0
 11
26.0
 21
-8.0
 31
0.0
  0
LINE
  5
E23
330
A05
100
AcDbEntity
  8
241
  6
CONTINUOUS
100
AcDbLine
 10
21.37749907
 20
-24.33618705
 30
0.0
 11
26.0
 21
-24.33618705
 31
0.0
  0
LINE
  5
E24
330
A05
100
AcDbEntity
  8
241
  6
CONTINUOUS
100
AcDbLine
 10
19.875
 20
-20.0
 30
0.0
 11
26.0
 21
-20.0
 31
0.0
  0
LINE
  5
E25
330
A05
100
AcDbEntity
  8
241
  6
CONTINUOUS
100
AcDbLine
 10
14.62250093
 20
-8.0
 30
0.0
 11
14.62250093
 21
-20.0
 31
0.0
  0
LINE
  5
E26
330
A05
100
AcDbEntity
  8
241
  6
CONTINUOUS
100
AcDbLine
 10
21.37749907
 20
-8.0
 30
0.0
 11
21.37749907
 21
-20.0
 31
0.0
  0
LINE
  5
E27
330
A05
100
AcDbEntity
  8
241
  6
CONTINUOUS
100
AcDbLine
 10
12.1117139
 20
-20.0
 30
0.0
 11
16.125
 21
-20.0
 31
0.0
  0
LINE
  5
E28
330
A05
100
AcDbEntity
  8
241
  6
CONTINUOUS
100
AcDbLine
 10
14.62250093
 20
-24.33618705
 30
0.0
 11
16.125
 21
-20.85835593
 31
0.0
  0
LINE
  5
E29
330
A05
100
AcDbEntity
  8
241
  6
CONTINUOUS
100
AcDbLine
 10
21.37749907
 20
-24.33618705
 30
0.0
 11
19.875
 21
-20.85835593
 31
0.0
  0
LINE
  5
E2A
330
A05
100
AcDbEntity
  8
241
100
AcDbLine
 10
34.0
 20
-22.49999846
 30
0.0
 11
34.0
 21
0.0
 31
0.0
  0
ARC
  5
E2B
330
A05
100
AcDbEntity
  8
240
100
AcDbCircle
 10
38.0
 20
-22.5
 30
0.0
 40
4.0
100
AcDbArc
 50
106.4794465
 51
179.9999824
  0
LINE
  5
E2C
330
A05
100
AcDbEntity
  8
240
100
AcDbLine
 10
43.73416206
 20
-16.63235068
 30
0.0
 11
36.86531569
 21
-18.66431342
 31
0.0
  0
LINE
  5
E2D
330
A05
100
AcDbEntity
  8
241
100
AcDbLine
 10
26.5
 20
-7.518
 30
0.0
 11
34.0
 21
-7.518
 31
0.0
1001
GRPNAME
1000
PASTMD17
  0
LINE
  5
E2E
330
A05
100
AcDbEntity
  8
241
  6
CONTINUOUS
100
AcDbLine
 10
13.0
 20
8.0
 30
0.0
 11
26.0
 21
8.0
 31
0.0
  0
ARC
  5
E2F
330
A05
100
AcDbEntity
  8
240
100
AcDbCircle
 10
38.0
 20
22.5
 30
0.0
 40
4.0
100
AcDbArc
 50
180.0000176
 51
253.5205535
  0
LINE
  5
E30
330
A05
100
AcDbEntity
  8
240
100
AcDbLine
 10
26.0
 20
26.3
 30
0.0
 11
33.0
 21
26.3
 31
0.0
1001
GRPNAME
1000
PASTMD4F
  0
LINE
  5
E31
330
A05
100
AcDbEntity
  8
240
100
AcDbLine
 10
34.0
 20
22.49999846
 30
0.0
 11
34.0
 21
25.3
 31
0.0
1001
GRPNAME
1000
PASTMD2E
  0
ARC
  5
E32
330
A05
100
AcDbEntity
  8
240
100
AcDbCircle
 10
33.0
 20
25.3
 30
0.0
 40
1.0
100
AcDbArc
 50
0.0
 51
90.0
1001
GRPNAME
1000
PASTMD2E
  0
LINE
  5
E33
330
A05
100
AcDbEntity
  8
240
100
AcDbLine
 10
43.73416206
 20
16.63235068
 30
0.0
 11
36.86531569
 21
18.66431342
 31
0.0
  0
LINE
  5
E34
330
A05
100
AcDbEntity
  8
240
  6
CONTINUOUS
100
AcDbLine
 10
1.0
 20
31.5
 30
0.0
 11
14.62250093
 21
31.5
 31
0.0
  0
ARC
  5
E35
330
A05
100
AcDbEntity
  8
240
  6
CONTINUOUS
100
AcDbCircle
 10
1.0
 20
30.5
 30
0.0
 40
1.0
100
AcDbArc
 50
90.0
 51
180.0
  0
ARC
  5
E36
330
A05
100
AcDbEntity
  8
240
  6
CONTINUOUS
100
AcDbCircle
 10
25.0
 20
30.5
 30
0.0
 40
1.0
100
AcDbArc
 50
0.0
 51
90.0
  0
LINE
  5
E37
330
A05
100
AcDbEntity
  8
240
  6
CONTINUOUS
100
AcDbLine
 10
16.125
 20
27.5
 30
0.0
 11
19.875
 21
27.5
 31
0.0
  0
LINE
  5
E38
330
A05
100
AcDbEntity
  8
240
  6
CONTINUOUS
100
AcDbLine
 10
16.125
 20
28.89759526
 30
0.0
 11
14.62250093
 21
31.5
 31
0.0
  0
LINE
  5
E39
330
A05
100
AcDbEntity
  8
240
  6
CONTINUOUS
100
AcDbLine
 10
16.125
 20
27.5
 30
0.0
 11
16.125
 21
28.89759526
 31
0.0
  0
LINE
  5
E3A
330
A05
100
AcDbEntity
  8
240
  6
CONTINUOUS
100
AcDbLine
 10
21.37749907
 20
31.5
 30
0.0
 11
25.0
 21
31.5
 31
0.0
  0
LINE
  5
E3B
330
A05
100
AcDbEntity
  8
240
  6
CONTINUOUS
100
AcDbLine
 10
19.875
 20
27.5
 30
0.0
 11
19.875
 21
28.89759526
 31
0.0
  0
LINE
  5
E3C
330
A05
100
AcDbEntity
  8
240
  6
CONTINUOUS
100
AcDbLine
 10
19.875
 20
28.89759526
 30
0.0
 11
21.37749907
 21
31.5
 31
0.0
  0
LWPOLYLINE
  5
E3D
330
A05
100
AcDbEntity
  8
241
  6
CONTINUOUS
100
AcDbPolyline
 90
       70
 70
     0
 43
0.0
 10
116.67758769
 20
10.13541832
 10
116.68835342
 20
10.20691779
 10
116.69552481
 20
10.27889892
 10
116.69908698
 20
10.3512125
 10
116.69903255
 20
10.42370867
 10
116.69536164
 20
10.49623715
 10
116.68808185
 20
10.56864763
 10
116.67720827
 20
10.64079002
 10
116.66276344
 20
10.7125148
 10
116.6447773
 20
10.78367331
 10
116.62328712
 20
10.85411805
 10
116.59833746
 20
10.92370303
 10
116.56998001
 20
10.99228401
 10
116.53827356
 20
11.05971886
 10
116.50328382
 20
11.12586779
 10
116.46508331
 20
11.19059372
 10
116.42375122
 20
11.25376248
 10
116.3793732
 20
11.31524315
 10
116.33204124
 20
11.37490829
 10
116.28185343
 20
11.43263426
 10
116.22891381
 20
11.48830139
 10
116.1733321
 20
11.54179431
 10
116.1152235
 20
11.59300214
 10
116.05470844
 20
11.64181876
 10
115.99191236
 20
11.68814298
 10
115.92696541
 20
11.73187879
 10
115.8600022
 20
11.77293554
 10
115.79116152
 20
11.81122813
 10
115.72058606
 20
11.84667719
 10
115.64842209
 20
11.87920926
 10
115.57481919
 20
11.9087569
 10
115.49992991
 20
11.93525887
 10
115.42390946
 20
11.95866024
 10
115.34691542
 20
11.97891252
 10
115.26910736
 20
11.99597371
 10
115.19064655
 20
12.00980847
 10
115.11169561
 20
12.02038811
 10
115.03241819
 20
12.02769072
 10
114.9529786
 20
12.03170114
 10
114.87354148
 20
12.03241108
 10
114.79427149
 20
12.02981906
 10
114.71533292
 20
12.02393045
 10
114.63688939
 20
12.01475745
 10
114.55910347
 20
12.00231909
 10
114.48213641
 20
11.98664113
 10
114.40614771
 20
11.96775608
 10
114.33129488
 20
11.94570307
 10
114.25773306
 20
11.92052783
 10
114.18561472
 20
11.89228251
 10
114.11508934
 20
11.86102567
 10
114.04630309
 20
11.8268221
 10
113.97939854
 20
11.78974268
 10
113.91451436
 20
11.74986426
 10
113.85178504
 20
11.70726951
 10
113.79134059
 20
11.6620467
 10
113.73330628
 20
11.61428957
 10
113.67780241
 20
11.5640971
 10
113.62494402
 20
11.51157332
 10
113.57484066
 20
11.45682709
 10
113.52759618
 20
11.39997189
 10
113.4833085
 20
11.34112556
 10
113.44206941
 20
11.28041006
 10
113.40396439
 20
11.21795123
 10
113.36907241
 20
11.15387854
 10
113.33746581
 20
11.08832478
 10
113.30921007
 20
11.02142583
 10
113.28436378
 20
10.95332033
 10
113.26297842
 20
10.88414946
 10
113.24509833
 20
10.81405657
 10
113.23076055
 20
10.74318694
1001
GRPNAME
1000
PASTMD08
  0
LWPOLYLINE
  5
E3E
330
A05
100
AcDbEntity
  8
241
  6
CONTINUOUS
100
AcDbPolyline
 90
       70
 70
     0
 43
0.0
 10
113.23076055
 20
10.74318694
 10
113.21487884
 20
10.64267332
 10
113.20260208
 20
10.54173818
 10
113.19395572
 20
10.44059072
 10
113.18895768
 20
10.3394406
 10
113.18761832
 20
10.23849745
 10
113.18994042
 20
10.13797051
 10
113.19591916
 20
10.03806812
 10
113.20554215
 20
9.93899735
 10
113.21878946
 20
9.84096354
 10
113.23563361
 20
9.74416987
 10
113.2560397
 20
9.64881698
 10
113.27996543
 20
9.55510249
 10
113.30736121
 20
9.46322064
 10
113.33817027
 20
9.37336187
 10
113.37232874
 20
9.28571242
 10
113.40976582
 20
9.20045397
 10
113.45040393
 20
9.11776322
 10
113.49415883
 20
9.03781156
 10
113.54093984
 20
8.9607647
 10
113.59064999
 20
8.88678234
 10
113.64318625
 20
8.81601782
 10
113.69843974
 20
8.7486178
 10
113.75629593
 20
8.68472199
 10
113.8166349
 20
8.62446281
 10
113.87933159
 20
8.56796516
 10
113.94425606
 20
8.51534614
 10
114.01127374
 20
8.46671482
 10
114.08024573
 20
8.42217199
 10
114.15102907
 20
8.38180997
 10
114.22347704
 20
8.34571242
 10
114.2974395
 20
8.31395415
 10
114.37276314
 20
8.286601
 10
114.44929184
 20
8.26370964
 10
114.52686699
 20
8.24532754
 10
114.6053278
 20
8.23149278
 10
114.68451164
 20
8.22223405
 10
114.76425441
 20
8.21757052
 10
114.84439081
 20
8.21751188
 10
114.92475475
 20
8.22205824
 10
115.00517967
 20
8.23120018
 10
115.08549887
 20
8.24491874
 10
115.16554588
 20
8.2631855
 10
115.24515479
 20
8.2859626
 10
115.3241606
 20
8.31320282
 10
115.40239955
 20
8.34484971
 10
115.47970949
 20
8.38083767
 10
115.55593018
 20
8.42109212
 10
115.63090364
 20
8.46552961
 10
115.70447447
 20
8.51405806
 10
115.77649019
 20
8.56657686
 10
115.84680153
 20
8.62297717
 10
115.91526277
 20
8.6831421
 10
115.981732
 20
8.74694694
 10
116.04607146
 20
8.81425944
 10
116.1081478
 20
8.88494009
 10
116.16783235
 20
8.9588424
 10
116.22500142
 20
9.03581319
 10
116.27953649
 20
9.11569292
 10
116.33132455
 20
9.19831604
 10
116.38025826
 20
9.28351129
 10
116.42623619
 20
9.37110209
 10
116.46916304
 20
9.46090691
 10
116.50894985
 20
9.55273959
 10
116.54551415
 20
9.64640982
 10
116.57878016
 20
9.74172343
 10
116.60867892
 20
9.83848289
 10
116.63514846
 20
9.93648764
 10
116.65813393
 20
10.03553454
 10
116.67758769
 20
10.13541832
1001
GRPNAME
1000
PASTMD08
  0
LINE
  5
E3F
330
A05
100
AcDbEntity
  8
246
100
AcDbLine
 10
120.0
 20
16.0
 30
0.0
 11
109.0
 21
16.0
 31
0.0
1001
GRPNAME
1000
PASTMD4G
  0
LINE
  5
E40
330
A05
100
AcDbEntity
  8
241
  6
CONTINUOUS
100
AcDbLine
 10
96.56870816
 20
-6.42787019
 30
0.0
 11
119.4
 21
-14.07637208
 31
0.0
1001
GRPNAME
1000
PASTMD08
  0
LINE
  5
E41
330
A05
100
AcDbEntity
  8
240
  6
CONTINUOUS
100
AcDbLine
 10
119.4
 20
-15.3
 30
0.0
 11
108.10000003
 21
-15.6
 31
0.0
1001
GRPNAME
1000
PASTMD08
  0
LINE
  5
E42
330
A05
100
AcDbEntity
  8
240
  6
CONTINUOUS
100
AcDbLine
 10
119.4
 20
15.3
 30
0.0
 11
108.10000003
 21
15.6
 31
0.0
1001
GRPNAME
1000
PASTMD08
  0
LINE
  5
E43
330
A05
100
AcDbEntity
  8
241
100
AcDbLine
 10
119.39105095
 20
1.77376317
 30
0.0
 11
108.57370018
 21
3.68115397
 31
0.0
1001
GRPNAME
1000
PASTMD08
  0
LINE
  5
E44
330
A05
100
AcDbEntity
  8
241
100
AcDbLine
 10
107.10645958
 20
0.67286493
 30
0.0
 11
119.4
 21
-3.80161786
 31
0.0
1001
GRPNAME
1000
PASTMD08
  0
LINE
  5
E45
330
A05
100
AcDbEntity
  8
246
100
AcDbLine
 10
120.0
 20
-16.0
 30
0.0
 11
109.0
 21
-16.0
 31
0.0
1001
GRPNAME
1000
PASTMD4G
  0
LINE
  5
E46
330
A05
100
AcDbEntity
  8
240
  6
CONTINUOUS
100
AcDbLine
 10
107.35358982
 20
-15.4
 30
0.0
 11
52.24429441
 21
-15.4
 31
0.0
1001
GRPNAME
1000
PASTMD08
  0
LINE
  5
E47
330
A05
100
AcDbEntity
  8
240
  6
CONTINUOUS
100
AcDbLine
 10
107.35358982
 20
15.4
 30
0.0
 11
52.24429441
 21
15.4
 31
0.0
1001
GRPNAME
1000
PASTMD08
  0
LINE
  5
E48
330
A05
100
AcDbEntity
  8
241
100
AcDbLine
 10
47.90000001
 20
0.0
 30
0.0
 11
47.90000001
 21
15.4
 31
0.0
  0
LINE
  5
E49
330
A05
100
AcDbEntity
  8
241
100
AcDbLine
 10
47.90000001
 20
-15.4
 30
0.0
 11
47.90000001
 21
0.0
 31
0.0
  0
LINE
  5
E4A
330
A05
100
AcDbEntity
  8
241
  6
CONTINUOUS
100
AcDbLine
 10
98.85021022
 20
2.54870543
 30
0.0
 11
107.29510377
 21
1.05964284
 31
0.0
1001
GRPNAME
1000
PASTMD08
  0
ARC
  5
E4B
330
A05
100
AcDbEntity
  8
241
  6
CONTINUOUS
100
AcDbCircle
 10
98.04381944
 20
-2.02456396
 30
0.0
 40
4.643819440970391
100
AcDbArc
 50
79.99999999
 51
251.47908977
1001
GRPNAME
1000
PASTMD08
  0
LINE
  5
E4C
330
A05
100
AcDbEntity
  8
241
100
AcDbLine
 10
108.57370018
 20
3.68115397
 30
0.0
 11
107.10645958
 21
0.67286493
 31
0.0
1001
GRPNAME
1000
PASTMD08
  0
LINE
  5
E4D
330
A05
100
AcDbEntity
  8
240
  6
CONTINUOUS
100
AcDbLine
 10
107.35358982
 20
-15.4
 30
0.0
 11
108.10000003
 21
-15.6
 31
0.0
1001
GRPNAME
1000
PASTMD08
  0
LINE
  5
E4E
330
A05
100
AcDbEntity
  8
240
  6
CONTINUOUS
100
AcDbLine
 10
107.35358982
 20
15.4
 30
0.0
 11
108.10000003
 21
15.6
 31
0.0
1001
GRPNAME
1000
PASTMD08
  0
LINE
  5
E4F
330
A05
100
AcDbEntity
  8
246
100
AcDbLine
 10
120.0
 20
-16.0
 30
0.0
 11
120.0
 21
16.0
 31
0.0
  0
LINE
  5
E50
330
A05
100
AcDbEntity
  8
240
100
AcDbLine
 10
119.39105095
 20
1.77376317
 30
0.0
 11
120.0
 21
-4.02
 31
0.0
1001
GRPNAME
1000
PASTMD08
  0
LINE
  5
E51
330
A05
100
AcDbEntity
  8
240
  6
CONTINUOUS
100
AcDbLine
 10
119.4
 20
-3.80161786
 30
0.0
 11
119.4
 21
-15.3
 31
0.0
1001
GRPNAME
1000
PASTMD08
  0
LINE
  5
E52
330
A05
100
AcDbEntity
  8
240
100
AcDbLine
 10
120.0
 20
-4.02
 30
0.0
 11
119.4
 21
-3.80161786
 31
0.0
1001
GRPNAME
1000
PASTMD08
  0
LINE
  5
E53
330
A05
100
AcDbEntity
  8
240
  6
CONTINUOUS
100
AcDbLine
 10
119.4
 20
15.3
 30
0.0
 11
119.4
 21
1.77218521
 31
0.0
1001
GRPNAME
1000
PASTMD08
  0
LINE
  5
E54
330
A05
100
AcDbEntity
  8
240
100
AcDbLine
 10
119.4
 20
1.77218521
 30
0.0
 11
119.39105095
 21
1.77376317
 31
0.0
1001
GRPNAME
1000
PASTMD08
  0
ENDBLK
  5
A07
330
A05
100
AcDbEntity
  8
0
100
AcDbBlockEnd
  0
ENDSEC
  0
SECTION
  2
ENTITIES
  0
INSERT
  5
6E6
330
1A
100
AcDbEntity
  8
245
100
AcDbBlockReference
  2
矢印なし
 10
175.62382697
 20
90.55123572
 30
0.0
  0
TEXT
  5
8AE
330
1A
100
AcDbEntity
  8
241
100
AcDbText
 10
-32.0
 20
56.0
 30
0.0
 40
5.0
  1
HSK-A63-FCM32112L-120
  7
YOKO
 11
-32.0
 21
56.0
 31
0.0
100
AcDbText
 73
     1
1001
GRPNAME
1000
PASTMD0C
  0
DIMENSION
  5
99D
330
1A
100
AcDbEntity
  8
250
  6
CONTINUOUS
100
AcDbDimension
  2
*D2
 10
133.0
 20
16.0
 30
0.0
 11
130.6
 21
0.0
 31
0.0
 70
    32
  1
{\H2.8;\U+2205}<>
  3
BIGT
100
AcDbAlignedDimension
 13
120.0
 23
-16.0
 33
0.0
 14
120.0
 24
16.0
 34
0.0
 50
90.0
100
AcDbRotatedDimension
  0
DIMENSION
  5
9AC
330
1A
100
AcDbEntity
  8
250
  6
CONTINUOUS
100
AcDbDimension
  2
*D3
 10
120.0
 20
28.0
 30
0.0
 11
114.5
 21
30.4
 31
0.0
 70
    32
  3
BIGT
100
AcDbAlignedDimension
 13
109.0
 23
16.0
 33
0.0
 14
120.0
 24
16.0
 34
0.0
100
AcDbRotatedDimension
  0
DIMENSION
  5
9BB
330
1A
100
AcDbEntity
  8
250
  6
CONTINUOUS
100
AcDbDimension
  2
*D4
 10
120.0
 20
35.0
 30
0.0
 11
85.0
 21
37.4
 31
0.0
 70
    32
  3
BIGT
100
AcDbAlignedDimension
 13
50.0
 23
15.48406541
 33
0.0
 14
120.0
 24
16.0
 34
0.0
100
AcDbRotatedDimension
  0
DIMENSION
  5
9CA
330
1A
100
AcDbEntity
  8
250
  6
CONTINUOUS
100
AcDbDimension
  2
*D5
 10
120.0
 20
42.0
 30
0.0
 11
60.0
 21
44.4
 31
0.0
 70
    32
  3
BIGT
100
AcDbAlignedDimension
 13
0.0
 23
30.5
 33
0.0
 14
120.0
 24
16.0
 34
0.0
100
AcDbRotatedDimension
  0
MTEXT
  5
C5A
330
1A
100
AcDbEntity
  8
251
  6
CONTINUOUS
100
AcDbMText
 10
-39.91657929
 20
-33.94501046
 30
0.0
 40
2.8
 41
0.0
 71
     7
 72
     1
  1
HSK-A63
  7
YOKO
1001
ITEMNAME
1000
LNSP3
1001
ACAD
1000
MTEXTBEGIN
1070
    73
1070
     1
1070
    44
1040
1.0
1070
    74
1070
     0
1000
MTEXTEND
1000
MTEXTBEGIN
1070
    73
1070
     1
1070
    44
1040
1.0
1070
    74
1070
     0
1000
MTEXTEND
1000
MTEXTBEGIN
1070
    73
1070
     1
1070
    44
1040
1.0
1070
    74
1070
     0
1000
MTEXTEND
1000
MTEXTBEGIN
1070
    73
1070
     1
1070
    44
1040
1.0
1070
    74
1070
     0
1000
MTEXTEND
  0
LINE
  5
C5B
330
1A
100
AcDbEntity
  8
250
  6
CONTINUOUS
100
AcDbLine
 10
-18.44991262
 20
-34.94501046
 30
0.0
 11
-42.71657929
 21
-34.94501046
 31
0.0
1001
ITEMNAME
1000
LNSP2
  0
LEADER
  5
C5E
330
1A
100
AcDbEntity
  8
250
  6
CONTINUOUS
100
AcDbLeader
  3
BIGT
 76
     2
 10
-11.96720963
 20
-23.71663952
 30
0.0
 10
-18.44991262
 20
-34.94501046
 30
0.0
1001
ACAD
1000
DSTYLE
1002
{
1070
     6
1000
OPEN
1070
   343
1005
594
1002
}
  0
INSERT
  5
E55
330
1A
100
AcDbEntity
  8
245
100
AcDbBlockReference
  2
1
 10
0.0
 20
0.0
 30
0.0
  0
VIEWPORT
  5
22
330
17
100
AcDbEntity
 67
     1
  8
0
100
AcDbViewport
 10
261.51769912
 20
148.5
 30
0.0
 40
523.03539823
 41
297.0
 68
     1
 69
     1
1001
ACAD
1000
MVIEW
1002
{
1070
    16
1010
0.0
1020
0.0
1030
0.0
1010
0.0
1020
0.0
1030
1.0
1040
0.0
1040
297.0
1040
261.51769912
1040
148.5
1040
50.0
1040
0.0
1040
0.0
1070
     0
1070
   100
1070
     1
1070
     1
1070
     0
1070
     0
1070
     0
1070
     0
1040
0.0
1040
0.0
1040
0.0
1040
1.0
1040
1.0
1040
10.0
1040
10.0
1070
     0
1002
{
1002
}
1002
}
  0
ENDSEC
  0
SECTION
  2
OBJECTS
  0
DICTIONARY
  5
C
330
0
100
AcDbDictionary
  3
ACAD_GROUP
350
D
  3
ACAD_LAYOUT
350
565
  3
ACAD_MLINESTYLE
350
E
  3
ACAD_PLOTSETTINGS
350
566
  3
ACAD_PLOTSTYLENAME
350
563
  3
ACDBHEADERROUNDTRIPXREC
350
E7E
  3
GRADE_DWG
350
540
  0
DICTIONARY
  5
AD0
330
1A
100
AcDbDictionary
280
     1
  3
ACAD_LAYOUTSELFREF
360
EA0
  0
DICTIONARY
  5
ACE
330
17
100
AcDbDictionary
280
     1
  3
ACAD_LAYOUTSELFREF
360
E9F
  0
DICTIONARY
  5
D
102
{ACAD_REACTORS
330
C
102
}
330
C
100
AcDbDictionary
  3
*A1
350
6C7
  3
*A2
350
6C8
  3
*A3
350
6D4
  3
*A4
350
6D5
  3
DREC-1
350
5FC
  3
DREC-2
350
654
  3
DREC-3
350
673
  0
DICTIONARY
  5
565
102
{ACAD_REACTORS
330
C
102
}
330
C
100
AcDbDictionary
  0
DICTIONARY
  5
E
102
{ACAD_REACTORS
330
C
102
}
330
C
100
AcDbDictionary
  3
STANDARD
350
13
  0
DICTIONARY
  5
566
102
{ACAD_REACTORS
330
C
102
}
330
C
100
AcDbDictionary
  3
A3_0_5倍_
350
758
  3
A3_1倍_
350
757
  3
A3_1倍__2000_
350
707
  3
A3_2倍_
350
759
  3
A4_0_5倍_
350
755
  3
A4_1倍_
350
754
  3
A4_1倍__2000_
350
708
  3
A4_2倍_
350
756
  0
ACDBDICTIONARYWDFLT
  5
563
102
{ACAD_REACTORS
330
C
102
}
330
C
100
AcDbDictionary
281
     1
  3
Normal
350
564
100
AcDbDictionaryWithDefault
340
564
  0
DICTIONARY
  5
E7E
102
{ACAD_REACTORS
330
C
102
}
330
C
100
AcDbDictionary
  3
CEPSNTYPE
350
E88
  3
DIMSTYLEDATA
350
E8C
  3
FINGERPRINTGUID
350
E89
  3
HYPERLINKBASE
350
E81
  3
INSUNITS
350
E87
  3
LAYOUTDICT
350
E83
  3
LWETCUNION
350
E86
  3
PLOTSETDICT
350
E84
  3
PLOTSTYLNAMDICT
350
E85
  3
PSVPSCALE
350
E8B
  3
PUCSBASE
350
E8F
  3
PUCSORGBACK
350
E95
  3
PUCSORGBOTTOM
350
E91
  3
PUCSORGFRONT
350
E94
  3
PUCSORGLEFT
350
E92
  3
PUCSORGRIGHT
350
E93
  3
PUCSORGTOP
350
E90
  3
PUCSORTHOREF
350
E8D
  3
PUCSORTHOVIEW
350
E8E
  3
STYLESHEET
350
E82
  3
TSTACKALIGN
350
E7F
  3
TSTACKSIZE
350
E80
  3
UCSBASE
350
E98
  3
UCSORGBACK
350
E9E
  3
UCSORGBOTTOM
350
E9A
  3
UCSORGFRONT
350
E9D
  3
UCSORGLEFT
350
E9B
  3
UCSORGRIGHT
350
E9C
  3
UCSORGTOP
350
E99
  3
UCSORTHOREF
350
E96
  3
UCSORTHOVIEW
350
E97
  3
VERSIONGUID
350
E8A
  0
DICTIONARY
  5
540
102
{ACAD_REACTORS
330
C
102
}
330
C
100
AcDbDictionary
  3
VERSION
350
560
  0
XRECORD
  5
EA0
102
{ACAD_REACTORS
330
AD0
102
}
330
AD0
100
AcDbXrecord
340
1A
  0
XRECORD
  5
E9F
102
{ACAD_REACTORS
330
ACE
102
}
330
ACE
100
AcDbXrecord
340
17
  0
GROUP
  5
6C7
102
{ACAD_REACTORS
330
D
102
}
330
D
100
AcDbGroup
300

 70
     0
 71
     1
1001
GRPNAME
1000
DMA00
  0
GROUP
  5
6C8
102
{ACAD_REACTORS
330
D
102
}
330
D
100
AcDbGroup
300

 70
     0
 71
     1
1001
GRPNAME
1000
DMA00
  0
GROUP
  5
6D4
102
{ACAD_REACTORS
330
D
102
}
330
D
100
AcDbGroup
300

 70
     0
 71
     1
1001
GRPNAME
1000
DMA00
  0
GROUP
  5
6D5
102
{ACAD_REACTORS
330
D
102
}
330
D
100
AcDbGroup
300

 70
     0
 71
     1
1001
GRPNAME
1000
DMA00
  0
GROUP
  5
5FC
102
{ACAD_REACTORS
330
D
102
}
330
D
100
AcDbGroup
300

 70
     0
 71
     1
1001
GRPNAME
1000
DREC-
1001
GPARA
1000
xsiz
1000
44.182
1000
ysiz
1000
40.677
1000
angl
1000
0
1000
ctyp
1000
0
1000
csiz
1000
5
1000
lfnt
1000
cont
1000
hcnt
1000
hoff
1000
vcnt
1000
voff
1000
opnt
1000
4
1000
dxpt
1000
0
1000
dypt
1000
0
  0
GROUP
  5
654
102
{ACAD_REACTORS
330
D
102
}
330
D
100
AcDbGroup
300

 70
     0
 71
     1
1001
GRPNAME
1000
DREC-
1001
GPARA
1000
xsiz
1000
54.592
1000
ysiz
1000
53.036
1000
angl
1000
0
1000
ctyp
1000
0
1000
csiz
1000
5
1000
lfnt
1000
cont
1000
hcnt
1000
hoff
1000
vcnt
1000
voff
1000
opnt
1000
4
1000
dxpt
1000
0
1000
dypt
1000
0
  0
GROUP
  5
673
102
{ACAD_REACTORS
330
D
102
}
330
D
100
AcDbGroup
300

 70
     0
 71
     1
1001
GRPNAME
1000
DREC-
1001
GPARA
1000
xsiz
1000
30.363
1000
ysiz
1000
36.175
1000
angl
1000
0
1000
ctyp
1000
0
1000
csiz
1000
5
1000
lfnt
1000
cont
1000
hcnt
1000
hoff
1000
vcnt
1000
voff
1000
opnt
1000
4
1000
dxpt
1000
0
1000
dypt
1000
0
  0
MLINESTYLE
  5
13
102
{ACAD_REACTORS
330
E
102
}
330
E
100
AcDbMlineStyle
  2
STANDARD
 70
     0
  3

 62
     0
 51
90.0
 52
90.0
 71
     2
 49
0.5
 62
   256
  6
BYLAYER
 49
-0.5
 62
   256
  6
BYLAYER
  0
PLOTSETTINGS
  5
758
102
{ACAD_REACTORS
330
566
102
}
330
566
100
AcDbPlotSettings
  1
A3(0.5倍)
  2
\\AWTECPC05\HP DeskJet 1120C
  4
A3
  6

 40
5.95841646
 41
13.49375153
 42
6.04309082
 43
3.67242432
 44
296.92599487
 45
419.94665527
 46
89.96
 47
127.14
 48
0.0
 49
0.0
140
0.0
141
0.0
142
1.0
143
2.0
 70
  1716
 72
     1
 73
     1
 74
     2
  7
big.ctb
 75
    17
147
0.5
148
0.0
149
0.0
  0
PLOTSETTINGS
  5
757
102
{ACAD_REACTORS
330
566
102
}
330
566
100
AcDbPlotSettings
  1
A3(1倍)
  2
\\AWTECPC05\HP DeskJet 1120C
  4
A3
  6

 40
5.95841646
 41
13.49375153
 42
6.04309082
 43
3.67242432
 44
296.92599487
 45
419.94665527
 46
37.46
 47
52.89
 48
0.0
 49
0.0
140
0.0
141
0.0
142
1.0
143
1.0
 70
  1716
 72
     1
 73
     1
 74
     2
  7
big.ctb
 75
    16
147
1.0
148
0.0
149
0.0
  0
PLOTSETTINGS
  5
707
102
{ACAD_REACTORS
330
566
102
}
330
566
100
AcDbPlotSettings
  1
A3(1倍)(2000)
  2
SII LS-1300 (D-SCAN)
  4
User258
  6

 40
3.17499995
 41
3.17499995
 42
3.17498779
 43
3.17498779
 44
419.98898315
 45
296.98950195
 46
58.32
 47
40.32
 48
0.0
 49
0.0
140
0.0
141
0.0
142
1.0
143
1.0
 70
  1716
 72
     1
 73
     0
 74
     2
  7
big.ctb
 75
    16
147
1.0
148
0.0
149
0.0
  0
PLOTSETTINGS
  5
759
102
{ACAD_REACTORS
330
566
102
}
330
566
100
AcDbPlotSettings
  1
A3(2倍)
  2
\\AWTECPC05\HP DeskJet 1120C
  4
A3
  6

 40
5.95841646
 41
13.49375153
 42
6.04309082
 43
3.67242432
 44
296.92599487
 45
419.94665527
 46
-67.54
 47
-95.61
 48
0.0
 49
0.0
140
0.0
141
0.0
142
1.0
143
0.5
 70
  1716
 72
     1
 73
     1
 74
     2
  7
big.ctb
 75
    27
147
2.0
148
0.0
149
0.0
  0
PLOTSETTINGS
  5
755
102
{ACAD_REACTORS
330
566
102
}
330
566
100
AcDbPlotSettings
  1
A4(0.5倍)
  2
\\AWTECPC05\HP DeskJet 1120C
  4
A4
  6

 40
4.18041658
 41
13.49374962
 42
4.18040466
 43
3.92642212
 44
209.97332764
 45
296.92599487
 46
48.31
 47
65.5
 48
0.0
 49
0.0
140
0.0
141
0.0
142
1.0
143
2.0
 70
  1716
 72
     1
 73
     1
 74
     2
  7
big.ctb
 75
    17
147
0.5
148
0.0
149
0.0
  0
PLOTSETTINGS
  5
754
102
{ACAD_REACTORS
330
566
102
}
330
566
100
AcDbPlotSettings
  1
A4(1倍)
  2
\\AWTECPC05\HP DeskJet 1120C
  4
A4
  6

 40
4.18041658
 41
13.49374962
 42
4.18040466
 43
3.92642212
 44
209.97332764
 45
296.92599487
 46
-4.19
 47
-8.75
 48
0.0
 49
0.0
140
0.0
141
0.0
142
1.0
143
1.0
 70
  1716
 72
     1
 73
     1
 74
     2
  7
big.ctb
 75
    16
147
1.0
148
0.0
149
0.0
  0
PLOTSETTINGS
  5
708
102
{ACAD_REACTORS
330
566
102
}
330
566
100
AcDbPlotSettings
  1
A4(1倍)(2000)
  2
SII LS-1300 (D-SCAN)
  4
User259
  6

 40
3.17499995
 41
3.17499995
 42
3.17498779
 43
3.17500305
 44
296.98950195
 45
209.99449158
 46
-3.18
 47
-3.18
 48
0.0
 49
0.0
140
0.0
141
0.0
142
1.0
143
1.0
 70
  1716
 72
     1
 73
     0
 74
     2
  7
big.ctb
 75
    16
147
1.0
148
0.0
149
0.0
  0
PLOTSETTINGS
  5
756
102
{ACAD_REACTORS
330
566
102
}
330
566
100
AcDbPlotSettings
  1
A4(2倍)
  2
\\AWTECPC05\HP DeskJet 1120C
  4
A4
  6

 40
4.18041658
 41
13.49374962
 42
4.18040466
 43
3.92642212
 44
209.97332764
 45
296.92599487
 46
-109.19
 47
-157.25
 48
0.0
 49
0.0
140
0.0
141
0.0
142
1.0
143
0.5
 70
  1716
 72
     1
 73
     1
 74
     2
  7
big.ctb
 75
    27
147
2.0
148
0.0
149
0.0
  0
ACDBPLACEHOLDER
  5
564
102
{ACAD_REACTORS
330
563
102
}
330
563
100
AcDbPlaceHolder
280
     0
  0
XRECORD
  5
E88
102
{ACAD_REACTORS
330
E7E
102
}
330
E7E
100
AcDbXrecord
 90
        0
  0
XRECORD
  5
E8C
102
{ACAD_REACTORS
330
E7E
102
}
330
E7E
100
AcDbXrecord
1000
DSTYLE
1002
{
1070
    79
 70
     2
1070
   179
 70
     3
1070
   341
340
594
1070
   343
340
594
1070
   344
340
594
1070
   371
 70
    -1
1070
   372
 70
    -1
1002
}
  0
XRECORD
  5
E89
102
{ACAD_REACTORS
330
E7E
102
}
330
E7E
100
AcDbXrecord
  1
{51294030-9CB4-11D3-8E18-00A0C925D94D}
  0
XRECORD
  5
E81
102
{ACAD_REACTORS
330
E7E
102
}
330
E7E
100
AcDbXrecord
  1

  0
XRECORD
  5
E87
102
{ACAD_REACTORS
330
E7E
102
}
330
E7E
100
AcDbXrecord
 90
        0
  0
XRECORD
  5
E83
102
{ACAD_REACTORS
330
E7E
102
}
330
E7E
100
AcDbXrecord
340
565
  0
XRECORD
  5
E86
102
{ACAD_REACTORS
330
E7E
102
}
330
E7E
100
AcDbXrecord
 90
    10781
  0
XRECORD
  5
E84
102
{ACAD_REACTORS
330
E7E
102
}
330
E7E
100
AcDbXrecord
340
566
  0
XRECORD
  5
E85
102
{ACAD_REACTORS
330
E7E
102
}
330
E7E
100
AcDbXrecord
340
563
  0
XRECORD
  5
E8B
102
{ACAD_REACTORS
330
E7E
102
}
330
E7E
100
AcDbXrecord
 40
0.0
  0
XRECORD
  5
E8F
102
{ACAD_REACTORS
330
E7E
102
}
330
E7E
100
AcDbXrecord
340
0
  0
XRECORD
  5
E95
102
{ACAD_REACTORS
330
E7E
102
}
330
E7E
100
AcDbXrecord
 10
0.0
 20
0.0
 30
0.0
  0
XRECORD
  5
E91
102
{ACAD_REACTORS
330
E7E
102
}
330
E7E
100
AcDbXrecord
 10
0.0
 20
0.0
 30
0.0
  0
XRECORD
  5
E94
102
{ACAD_REACTORS
330
E7E
102
}
330
E7E
100
AcDbXrecord
 10
0.0
 20
0.0
 30
0.0
  0
XRECORD
  5
E92
102
{ACAD_REACTORS
330
E7E
102
}
330
E7E
100
AcDbXrecord
 10
0.0
 20
0.0
 30
0.0
  0
XRECORD
  5
E93
102
{ACAD_REACTORS
330
E7E
102
}
330
E7E
100
AcDbXrecord
 10
0.0
 20
0.0
 30
0.0
  0
XRECORD
  5
E90
102
{ACAD_REACTORS
330
E7E
102
}
330
E7E
100
AcDbXrecord
 10
0.0
 20
0.0
 30
0.0
  0
XRECORD
  5
E8D
102
{ACAD_REACTORS
330
E7E
102
}
330
E7E
100
AcDbXrecord
340
0
  0
XRECORD
  5
E8E
102
{ACAD_REACTORS
330
E7E
102
}
330
E7E
100
AcDbXrecord
 70
     0
  0
XRECORD
  5
E82
102
{ACAD_REACTORS
330
E7E
102
}
330
E7E
100
AcDbXrecord
  1
big.ctb
  0
XRECORD
  5
E7F
102
{ACAD_REACTORS
330
E7E
102
}
330
E7E
100
AcDbXrecord
 90
        1
  0
XRECORD
  5
E80
102
{ACAD_REACTORS
330
E7E
102
}
330
E7E
100
AcDbXrecord
 90
       70
  0
XRECORD
  5
E98
102
{ACAD_REACTORS
330
E7E
102
}
330
E7E
100
AcDbXrecord
340
0
  0
XRECORD
  5
E9E
102
{ACAD_REACTORS
330
E7E
102
}
330
E7E
100
AcDbXrecord
 10
0.0
 20
0.0
 30
0.0
  0
XRECORD
  5
E9A
102
{ACAD_REACTORS
330
E7E
102
}
330
E7E
100
AcDbXrecord
 10
0.0
 20
0.0
 30
0.0
  0
XRECORD
  5
E9D
102
{ACAD_REACTORS
330
E7E
102
}
330
E7E
100
AcDbXrecord
 10
0.0
 20
0.0
 30
0.0
  0
XRECORD
  5
E9B
102
{ACAD_REACTORS
330
E7E
102
}
330
E7E
100
AcDbXrecord
 10
0.0
 20
0.0
 30
0.0
  0
XRECORD
  5
E9C
102
{ACAD_REACTORS
330
E7E
102
}
330
E7E
100
AcDbXrecord
 10
0.0
 20
0.0
 30
0.0
  0
XRECORD
  5
E99
102
{ACAD_REACTORS
330
E7E
102
}
330
E7E
100
AcDbXrecord
 10
0.0
 20
0.0
 30
0.0
  0
XRECORD
  5
E96
102
{ACAD_REACTORS
330
E7E
102
}
330
E7E
100
AcDbXrecord
340
0
  0
XRECORD
  5
E97
102
{ACAD_REACTORS
330
E7E
102
}
330
E7E
100
AcDbXrecord
 70
     0
  0
XRECORD
  5
E8A
102
{ACAD_REACTORS
330
E7E
102
}
330
E7E
100
AcDbXrecord
  1
{B99A11D2-1121-4D8C-BFEA-DCDD3C446F75}
  0
XRECORD
  5
560
102
{ACAD_REACTORS
330
540
102
}
330
540
100
AcDbXrecord
  1
2.0.0
  0
ENDSEC
  0
EOF
