  0
SECTION
  2
HEADER
  9
$ACADVER
  1
AC1014
  9
$ACADMAINTVER
 70
     9
  9
$DWGCODEPAGE
  3
ANSI_932
  9
$INSBASE
 10
0.0
 20
0.0
 30
0.0
  9
$EXTMIN
 10
-40.32512091
 20
-28.03584022
 30
-0.00152582
  9
$EXTMAX
 10
182.0129382
 20
54.01911981
 30
0.00000003
  9
$LIMMIN
 10
0.0
 20
0.0
  9
$LIMMAX
 10
420.0
 20
297.0
  9
$ORTHOMODE
 70
     1
  9
$REGENMODE
 70
     1
  9
$FILLMODE
 70
     1
  9
$QTEXTMODE
 70
     0
  9
$MIRRTEXT
 70
     1
  9
$DRAGMODE
 70
     2
  9
$LTSCALE
 40
10.0
  9
$OSMODE
 70
   549
  9
$ATTMODE
 70
     1
  9
$TEXTSIZE
 40
3.0
  9
$TRACEWID
 40
1.0
  9
$TEXTSTYLE
  7
YOKO
  9
$CLAYER
  8
245
  9
$CELTYPE
  6
BYLAYER
  9
$CECOLOR
 62
   256
  9
$CELTSCALE
 40
1.0
  9
$DELOBJ
 70
     1
  9
$DISPSILH
 70
     0
  9
$DIMSCALE
 40
1.0
  9
$DIMASZ
 40
2.23
  9
$DIMEXO
 40
0.5
  9
$DIMDLI
 40
2.5
  9
$DIMRND
 40
0.0
  9
$DIMDLE
 40
0.0
  9
$DIMEXE
 40
1.0
  9
$DIMTP
 40
0.0
  9
$DIMTM
 40
0.0
  9
$DIMTXT
 40
2.8
  9
$DIMCEN
 40
0.0
  9
$DIMTSZ
 40
0.0
  9
$DIMTOL
 70
     0
  9
$DIMLIM
 70
     0
  9
$DIMTIH
 70
     0
  9
$DIMTOH
 70
     0
  9
$DIMSE1
 70
     0
  9
$DIMSE2
 70
     0
  9
$DIMTAD
 70
     3
  9
$DIMZIN
 70
     8
  9
$DIMBLK
  1

  9
$DIMASO
 70
     1
  9
$DIMSHO
 70
     1
  9
$DIMPOST
  1

  9
$DIMAPOST
  1

  9
$DIMALT
 70
     0
  9
$DIMALTD
 70
     2
  9
$DIMALTF
 40
25.4
  9
$DIMLFAC
 40
1.0
  9
$DIMTOFL
 70
     1
  9
$DIMTVP
 40
0.0
  9
$DIMTIX
 70
     1
  9
$DIMSOXD
 70
     0
  9
$DIMSAH
 70
     1
  9
$DIMBLK1
  1
OPEN
  9
$DIMBLK2
  1
OPEN
  9
$DIMSTYLE
  2
BIGT
  9
$DIMCLRD
 70
   256
  9
$DIMCLRE
 70
   256
  9
$DIMCLRT
 70
    40
  9
$DIMTFAC
 40
1.0
  9
$DIMGAP
 40
1.0
  9
$DIMJUST
 70
     0
  9
$DIMSD1
 70
     0
  9
$DIMSD2
 70
     0
  9
$DIMTOLJ
 70
     1
  9
$DIMTZIN
 70
     8
  9
$DIMALTZ
 70
     0
  9
$DIMALTTZ
 70
     0
  9
$DIMFIT
 70
     3
  9
$DIMUPT
 70
     0
  9
$DIMUNIT
 70
     2
  9
$DIMDEC
 70
     3
  9
$DIMTDEC
 70
     3
  9
$DIMALTU
 70
     2
  9
$DIMALTTD
 70
     2
  9
$DIMTXSTY
  7
STANDARD
  9
$DIMAUNIT
 70
     0
  9
$LUNITS
 70
     2
  9
$LUPREC
 70
     3
  9
$SKETCHINC
 40
1.0
  9
$FILLETRAD
 40
1.0
  9
$AUNITS
 70
     0
  9
$AUPREC
 70
     3
  9
$MENU
  1
.
  9
$ELEVATION
 40
0.0
  9
$PELEVATION
 40
0.0
  9
$THICKNESS
 40
0.0
  9
$LIMCHECK
 70
     0
  9
$BLIPMODE
 70
     0
  9
$CHAMFERA
 40
10.0
  9
$CHAMFERB
 40
10.0
  9
$CHAMFERC
 40
0.0
  9
$CHAMFERD
 40
0.0
  9
$SKPOLY
 70
     0
  9
$TDCREATE
 40
2455119.677893692
  9
$TDUPDATE
 40
2455216.610014641
  9
$TDINDWG
 40
0.0252425116
  9
$TDUSRTIMER
 40
0.0252425116
  9
$USRTIMER
 70
     1
  9
$ANGBASE
 50
0.0
  9
$ANGDIR
 70
     0
  9
$PDMODE
 70
     1
  9
$PDSIZE
 40
-5.0
  9
$PLINEWID
 40
0.0
  9
$COORDS
 70
     2
  9
$SPLFRAME
 70
     0
  9
$SPLINETYPE
 70
     6
  9
$SPLINESEGS
 70
     8
  9
$ATTDIA
 70
     0
  9
$ATTREQ
 70
     1
  9
$HANDLING
 70
-16383
  9
$HANDSEED
  5
1075
  9
$SURFTAB1
 70
     6
  9
$SURFTAB2
 70
     6
  9
$SURFTYPE
 70
     6
  9
$SURFU
 70
     6
  9
$SURFV
 70
     6
  9
$UCSNAME
  2

  9
$UCSORG
 10
0.0
 20
0.0
 30
0.0
  9
$UCSXDIR
 10
1.0
 20
0.0
 30
0.0
  9
$UCSYDIR
 10
0.0
 20
1.0
 30
0.0
  9
$PUCSNAME
  2

  9
$PUCSORG
 10
0.0
 20
0.0
 30
0.0
  9
$PUCSXDIR
 10
1.0
 20
0.0
 30
0.0
  9
$PUCSYDIR
 10
0.0
 20
1.0
 30
0.0
  9
$USERI1
 70
     1
  9
$USERI2
 70
     0
  9
$USERI3
 70
     0
  9
$USERI4
 70
     0
  9
$USERI5
 70
     0
  9
$USERR1
 40
0.0
  9
$USERR2
 40
0.0
  9
$USERR3
 40
0.0
  9
$USERR4
 40
0.0
  9
$USERR5
 40
0.0
  9
$WORLDVIEW
 70
     1
  9
$SHADEDGE
 70
     3
  9
$SHADEDIF
 70
    70
  9
$TILEMODE
 70
     1
  9
$MAXACTVP
 70
    16
  9
$PINSBASE
 10
0.0
 20
0.0
 30
0.0
  9
$PLIMCHECK
 70
     0
  9
$PEXTMIN
 10
1.00000000E+20
 20
1.00000000E+20
 30
1.00000000E+20
  9
$PEXTMAX
 10
-1.00000000E+20
 20
-1.00000000E+20
 30
-1.00000000E+20
  9
$PLIMMIN
 10
0.0
 20
0.0
  9
$PLIMMAX
 10
420.0
 20
297.0
  9
$UNITMODE
 70
     0
  9
$VISRETAIN
 70
     0
  9
$PLINEGEN
 70
     0
  9
$PSLTSCALE
 70
     1
  9
$TREEDEPTH
 70
  3020
  9
$PICKSTYLE
 70
     0
  9
$CMLSTYLE
  2
STANDARD
  9
$CMLJUST
 70
     0
  9
$CMLSCALE
 40
1.0
  9
$PROXYGRAPHICS
 70
     1
  9
$MEASUREMENT
 70
     1
  0
ENDSEC
  0
SECTION
  2
CLASSES
  0
CLASS
  1
XRECORD
  2
AcDbXrecord
  3
AutoCAD 2000
 90
        0
280
     0
281
     0
  0
CLASS
  1
ACDBDICTIONARYWDFLT
  2
AcDbDictionaryWithDefault
  3
AutoCAD 2000
 90
        0
280
     0
281
     0
  0
CLASS
  1
ACDBPLACEHOLDER
  2
AcDbPlaceHolder
  3
AutoCAD 2000
 90
        0
280
     0
281
     0
  0
CLASS
  1
LAYOUT
  2
AcDbLayout
  3
AutoCAD 2000
 90
        0
280
     0
281
     0
  0
CLASS
  1
PLOTSETTINGS
  2
AcDbPlotSettings
  3
AutoCAD 2000
 90
        0
280
     0
281
     0
  0
CLASS
  1
LONG_TRANSACTION
  2
AcDbLongTransaction
  3
AutoCAD 2000
 90
        0
280
     0
281
     0
  0
CLASS
  1
LWPOLYLINE
  2
AcDbPolyline
  3
AutoCAD 2000
 90
        0
280
     0
281
     1
  0
CLASS
  1
HATCH
  2
AcDbHatch
  3
AutoCAD 2000
 90
        0
280
     0
281
     1
  0
CLASS
  1
XRECORD
  2
AcDbXrecord
  3
AutoCAD 2000
 90
        0
280
     0
281
     0
  0
CLASS
  1
LONG_TRANSACTION
  2
AcDbLongTransaction
  3
AutoCAD 2000
 90
        0
280
     0
281
     0
  0
CLASS
  1
LWPOLYLINE
  2
AcDbPolyline
  3
AutoCAD 2000
 90
        0
280
     0
281
     1
  0
CLASS
  1
HATCH
  2
AcDbHatch
  3
AutoCAD 2000
 90
        0
280
     0
281
     1
  0
CLASS
  1
XRECORD
  2
AcDbXrecord
  3
AutoCAD 2000
 90
        0
280
     0
281
     0
  0
CLASS
  1
LONG_TRANSACTION
  2
AcDbLongTransaction
  3
AutoCAD 2000
 90
        0
280
     0
281
     0
  0
CLASS
  1
LWPOLYLINE
  2
AcDbPolyline
  3
AutoCAD 2000
 90
        0
280
     0
281
     1
  0
CLASS
  1
HATCH
  2
AcDbHatch
  3
AutoCAD 2000
 90
        0
280
     0
281
     1
  0
CLASS
  1
XRECORD
  2
AcDbXrecord
  3
AutoCAD 2000
 90
        0
280
     0
281
     0
  0
CLASS
  1
LONG_TRANSACTION
  2
AcDbLongTransaction
  3
AutoCAD 2000
 90
        0
280
     0
281
     0
  0
CLASS
  1
LWPOLYLINE
  2
AcDbPolyline
  3
AutoCAD 2000
 90
        0
280
     0
281
     1
  0
CLASS
  1
HATCH
  2
AcDbHatch
  3
AutoCAD 2000
 90
        0
280
     0
281
     1
  0
CLASS
  1
XRECORD
  2
AcDbXrecord
  3
AutoCAD 2000
 90
        0
280
     0
281
     0
  0
ENDSEC
  0
SECTION
  2
TABLES
  0
TABLE
  2
VPORT
  5
8
330
0
100
AcDbSymbolTable
 70
     2
  0
VPORT
  5
1050
330
8
100
AcDbSymbolTableRecord
100
AcDbViewportTableRecord
  2
*ACTIVE
 70
     0
 10
0.0
 20
0.0
 11
1.0
 21
1.0
 12
70.84390865
 22
12.9916398
 13
0.0
 23
0.0
 14
7.0
 24
7.0
 15
7.0
 25
7.0
 16
0.0
 26
0.0
 36
1.0
 17
0.0
 27
0.0
 37
0.0
 40
156.10842932
 41
1.43184713
 42
50.0
 43
0.0
 44
0.0
 50
0.0
 51
0.0
 71
     0
 72
  2000
 73
     1
 74
     0
 75
     0
 76
     0
 77
     0
 78
     0
  0
ENDTAB
  0
TABLE
  2
LTYPE
  5
5
330
0
100
AcDbSymbolTable
 70
     3
  0
LTYPE
  5
14
330
5
100
AcDbSymbolTableRecord
100
AcDbLinetypeTableRecord
  2
BYBLOCK
 70
     0
  3

 72
    65
 73
     0
 40
0.0
  0
LTYPE
  5
15
330
5
100
AcDbSymbolTableRecord
100
AcDbLinetypeTableRecord
  2
BYLAYER
 70
     0
  3

 72
    65
 73
     0
 40
0.0
  0
LTYPE
  5
16
330
5
100
AcDbSymbolTableRecord
100
AcDbLinetypeTableRecord
  2
CONTINUOUS
 70
     0
  3
Solid line
 72
    65
 73
     0
 40
0.0
  0
LTYPE
  5
258
330
5
100
AcDbSymbolTableRecord
100
AcDbLinetypeTableRecord
  2
CENTER2
 70
     0
  3
___ _ ___ _ ___ _ ___ _ ___ _ ___ _ ___ _ ___ _
 72
    65
 73
     4
 40
1.125
 49
0.75
 74
     0
 49
-0.125
 74
     0
 49
0.125
 74
     0
 49
-0.125
 74
     0
  0
LTYPE
  5
25C
330
5
100
AcDbSymbolTableRecord
100
AcDbLinetypeTableRecord
  2
HIDDEN2
 70
     0
  3
_ _ _ _ _ _ _ _ _ _ _ _ _ _ _ _ _ _ _ _ _ _ _ _
 72
    65
 73
     2
 40
0.1875
 49
0.125
 74
     0
 49
-0.0625
 74
     0
  0
ENDTAB
  0
TABLE
  2
LAYER
  5
2
330
0
100
AcDbSymbolTable
 70
     9
  0
LAYER
  5
F
330
2
100
AcDbSymbolTableRecord
100
AcDbLayerTableRecord
  2
0
 70
     0
 62
     7
  6
CONTINUOUS
  0
LAYER
  5
1AA
330
2
100
AcDbSymbolTableRecord
100
AcDbLayerTableRecord
  2
240
 70
     0
 62
     4
  6
CONTINUOUS
  0
LAYER
  5
1AB
330
2
100
AcDbSymbolTableRecord
100
AcDbLayerTableRecord
  2
241
 70
     0
 62
   211
  6
CONTINUOUS
  0
LAYER
  5
1AC
330
2
100
AcDbSymbolTableRecord
100
AcDbLayerTableRecord
  2
242
 70
     0
 62
     3
  6
CONTINUOUS
  0
LAYER
  5
1AF
330
2
100
AcDbSymbolTableRecord
100
AcDbLayerTableRecord
  2
245
 70
     0
 62
     2
  6
CENTER2
  0
LAYER
  5
21E
330
2
100
AcDbSymbolTableRecord
100
AcDbLayerTableRecord
  2
250
 70
     0
 62
     3
  6
CONTINUOUS
  0
LAYER
  5
21F
330
2
100
AcDbSymbolTableRecord
100
AcDbLayerTableRecord
  2
251
 70
     0
 62
    40
  6
CONTINUOUS
  0
LAYER
  5
5C4
330
2
100
AcDbSymbolTableRecord
100
AcDbLayerTableRecord
  2
DEFPOINTS
 70
     0
 62
     7
  6
CONTINUOUS
  0
ENDTAB
  0
TABLE
  2
STYLE
  5
3
330
0
100
AcDbSymbolTable
 70
     2
  0
STYLE
  5
10
330
3
100
AcDbSymbolTableRecord
100
AcDbTextStyleTableRecord
  2
STANDARD
 70
     0
 40
0.0
 41
1.0
 50
0.0
 71
     0
 42
3.0
  3
romans.shx
  4
BIGFONT.SHX
  0
STYLE
  5
339
330
3
100
AcDbSymbolTableRecord
100
AcDbTextStyleTableRecord
  2
YOKO
 70
     0
 40
0.0
 41
1.0
 50
0.0
 71
     0
 42
3.0
  3
romans.shx
  4
extfont.shx
  0
ENDTAB
  0
TABLE
  2
VIEW
  5
6
330
0
100
AcDbSymbolTable
 70
     0
  0
ENDTAB
  0
TABLE
  2
UCS
  5
7
330
0
100
AcDbSymbolTable
 70
     0
  0
ENDTAB
  0
TABLE
  2
APPID
  5
9
330
0
100
AcDbSymbolTable
 70
     9
  0
APPID
  5
11
330
9
100
AcDbSymbolTableRecord
100
AcDbRegAppTableRecord
  2
ACAD
 70
     0
  0
APPID
  5
1B1
330
9
100
AcDbSymbolTableRecord
100
AcDbRegAppTableRecord
  2
GLOBAL
 70
     0
  0
APPID
  5
2A4
330
9
100
AcDbSymbolTableRecord
100
AcDbRegAppTableRecord
  2
DETAIL
 70
     0
  0
APPID
  5
5FD
330
9
100
AcDbSymbolTableRecord
100
AcDbRegAppTableRecord
  2
GRPNAME
 70
     0
  0
APPID
  5
5FE
330
9
100
AcDbSymbolTableRecord
100
AcDbRegAppTableRecord
  2
GPARA
 70
     0
  0
APPID
  5
6C4
330
9
100
AcDbSymbolTableRecord
100
AcDbRegAppTableRecord
  2
DCO15
 70
     0
  0
APPID
  5
6C5
330
9
100
AcDbSymbolTableRecord
100
AcDbRegAppTableRecord
  2
ITEMNAME
 70
     0
  0
APPID
  5
6C6
330
9
100
AcDbSymbolTableRecord
100
AcDbRegAppTableRecord
  2
GRADE_0
 70
     0
  0
APPID
  5
AB3
330
9
100
AcDbSymbolTableRecord
100
AcDbRegAppTableRecord
  2
CONTENTBLOCKICON
 70
     0
  0
ENDTAB
  0
TABLE
  2
DIMSTYLE
  5
A
330
0
100
AcDbSymbolTable
 70
     2
  0
DIMSTYLE
105
725
102
{ACAD_REACTORS
330
821
102
}
330
A
100
AcDbSymbolTableRecord
100
AcDbDimStyleTableRecord
  2
BIGT
 70
     0
  3

  4

  5

  6
OPEN
  7
OPEN
 40
1.0
 41
2.23
 42
0.5
 43
2.5
 44
1.0
 45
0.0
 46
0.0
 47
0.0
 48
0.0
140
2.8
141
0.0
142
0.0
143
25.4
144
1.0
145
0.0
146
1.0
147
1.0
 71
     0
 72
     0
 73
     0
 74
     0
 75
     0
 76
     0
 77
     3
 78
     8
170
     0
171
     2
172
     1
173
     1
174
     1
175
     0
176
   256
177
   256
178
    40
270
     2
271
     3
272
     3
273
     2
274
     2
340
10
275
     0
280
     0
281
     0
282
     0
283
     1
284
     8
285
     0
286
     0
287
     3
288
     0
  0
DIMSTYLE
105
80A
102
{ACAD_REACTORS
330
822
330
DD4
330
DD5
330
E47
102
}
330
A
100
AcDbSymbolTableRecord
100
AcDbDimStyleTableRecord
  2
BIGT$0
 70
     0
  3

  4
"
  5
OPEN
  6

  7

 40
1.0
 41
2.23
 42
0.5
 43
7.0
 44
1.0
 45
0.0
 46
0.0
 47
0.1
 48
0.1
140
3.0
141
0.0
142
0.0
143
0.0393701
144
1.0
145
0.0
146
0.71
147
1.0
 71
     0
 72
     0
 73
     0
 74
     0
 75
     0
 76
     0
 77
     3
 78
     8
170
     0
171
     2
172
     1
173
     0
174
     0
175
     0
176
     3
177
     3
178
    40
270
     2
271
     3
272
     3
273
     2
274
     2
340
10
275
     0
280
     0
281
     0
282
     0
283
     1
284
     8
285
     0
286
     0
287
     3
288
     0
  0
ENDTAB
  0
TABLE
  2
BLOCK_RECORD
  5
1
330
0
100
AcDbSymbolTable
 70
     9
  0
BLOCK_RECORD
  5
1A
102
{ACAD_XDICTIONARY
360
AB1
102
}
330
1
100
AcDbSymbolTableRecord
100
AcDbBlockTableRecord
  2
*MODEL_SPACE
  0
BLOCK_RECORD
  5
17
102
{ACAD_XDICTIONARY
360
AAF
102
}
330
1
100
AcDbSymbolTableRecord
100
AcDbBlockTableRecord
  2
*PAPER_SPACE
  0
BLOCK_RECORD
  5
594
330
1
100
AcDbSymbolTableRecord
100
AcDbBlockTableRecord
  2
_OPEN
  0
BLOCK_RECORD
  5
6E3
330
1
100
AcDbSymbolTableRecord
100
AcDbBlockTableRecord
  2
矢印なし
  0
BLOCK_RECORD
  5
790
330
1
100
AcDbSymbolTableRecord
100
AcDbBlockTableRecord
  2
1
1001
CONTENTBLOCKICON
1071
        0
1004
2800000020000000200000000100080000000000000400000000000000000000000000000000000000000000000080000080000000808000800000008000800080800000C0C0C000C0DCC000F0CAA6000020400000206000002080000020A0000020C0000020E00000400000004020000040400000406000004080000040A0
1004
000040C0000040E00000600000006020000060400000606000006080000060A0000060C0000060E00000800000008020000080400000806000008080000080A0000080C0000080E00000A0000000A0200000A0400000A0600000A0800000A0A00000A0C00000A0E00000C0000000C0200000C0400000C0600000C0800000C0
1004
A00000C0C00000C0E00000E0000000E0200000E0400000E0600000E0800000E0A00000E0C00000E0E00040000000400020004000400040006000400080004000A0004000C0004000E00040200000402020004020400040206000402080004020A0004020C0004020E000404000004040200040404000404060004040800040
1004
40A0004040C0004040E00040600000406020004060400040606000406080004060A0004060C0004060E00040800000408020004080400040806000408080004080A0004080C0004080E00040A0000040A0200040A0400040A0600040A0800040A0A00040A0C00040A0E00040C0000040C0200040C0400040C0600040C08000
1004
40C0A00040C0C00040C0E00040E0000040E0200040E0400040E0600040E0800040E0A00040E0C00040E0E00080000000800020008000400080006000800080008000A0008000C0008000E00080200000802020008020400080206000802080008020A0008020C0008020E00080400000804020008040400080406000804080
1004
008040A0008040C0008040E00080600000806020008060400080606000806080008060A0008060C0008060E00080800000808020008080400080806000808080008080A0008080C0008080E00080A0000080A0200080A0400080A0600080A0800080A0A00080A0C00080A0E00080C0000080C0200080C0400080C0600080C0
1004
800080C0A00080C0C00080C0E00080E0000080E0200080E0400080E0600080E0800080E0A00080E0C00080E0E000C0000000C0002000C0004000C0006000C0008000C000A000C000C000C000E000C0200000C0202000C0204000C0206000C0208000C020A000C020C000C020E000C0400000C0402000C0404000C0406000C0
1004
408000C040A000C040C000C040E000C0600000C0602000C0604000C0606000C0608000C060A000C060C000C060E000C0800000C0802000C0804000C0806000C0808000C080A000C080C000C080E000C0A00000C0A02000C0A04000C0A06000C0A08000C0A0A000C0A0C000C0A0E000C0C00000C0C02000C0C04000C0C06000
1004
C0C08000C0C0A000F0FBFF00A4A0A000808080000000FF0000FF000000FFFF00FF000000FF00FF00FFFF0000FFFFFF0000000000000000000000000000000000000000000000000000000000000000000000000000000000000000000000000000000000000000000000000000000000000000000000000000000000000000
1004
00000000000000000000000000000000000000000000000000000000000000000000000000000000000000000000000000000000000000000000000000000000000000000000000000000000000000000000000000000000000000000000000000000000000000000000000000000000000000000000000000000000000000
1004
00000000000000000000000000000000000000000000000000000000000000000000000000000000000000000000000000000000000000000000000000000000000000000000000000000000000000000000000000000000000000000000000000000000000000000000000000000000000000000000000000000000000000
1004
0000000000000000000000000000000000000000000000000000000000000000000000000000000000000000000000000000000000000000FEFEFEFEFEFE00000000000000000000000000000000000000000000FEFEFEFEFEE7E7E7E7FE00000000000000000000000000000000000000000000FE000000E700E7E7E7E7FE
1004
FEFEFEFEFEFEFEFEFEFEFEFEFEFEFEE7FEFE000000FEFEE7FBE7E7E7E7E7E7000000000000000000000000000000E7E700FE000000FEE7E7FBE7E7E7E7E7E7FBFBFBFBFBFBFBE7E7E7FAE7E7E7E7E7E7E7E7FB0000FE000000E700E7E7E7E7FEFEFEFEFEFEFEFEFEFEFEFEFEFEFEFEFAE7FE000000FEFEFEFEFE00E7E7E7FE
1004
0000000000000000000000000000000000000000000000000000FEFEFEFEFEFE0000000000000000000000000000000000000000000000000000000000000000000000000000000000000000000000000000000000000000000000000000000000000000000000000000000000000000000000000000000000000000000000
1004
00000000000000000000000000000000000000000000000000000000000000000000000000000000000000000000000000000000000000000000000000000000000000000000000000000000000000000000000000000000000000000000000000000000000000000000000000000000000000000000000000000000000000
1004
00000000000000000000000000000000000000000000000000000000000000000000000000000000000000000000000000000000000000000000000000000000000000000000000000000000000000000000000000000000000000000000000000000000000000000000000000000000000000000000000000000000000000
1004
0000000000000000000000000000000000000000000000000000000000000000000000000000000000000000000000000000000000000000
  0
BLOCK_RECORD
  5
827
330
1
100
AcDbSymbolTableRecord
100
AcDbBlockTableRecord
  2
*D3
  0
BLOCK_RECORD
  5
833
330
1
100
AcDbSymbolTableRecord
100
AcDbBlockTableRecord
  2
*D4
  0
BLOCK_RECORD
  5
90E
330
1
100
AcDbSymbolTableRecord
100
AcDbBlockTableRecord
  2
_NONE
  0
BLOCK_RECORD
  5
DDB
330
1
100
AcDbSymbolTableRecord
100
AcDbBlockTableRecord
  2
*D6
  0
BLOCK_RECORD
  5
DE5
330
1
100
AcDbSymbolTableRecord
100
AcDbBlockTableRecord
  2
*D7
  0
BLOCK_RECORD
  5
E48
330
1
100
AcDbSymbolTableRecord
100
AcDbBlockTableRecord
  2
*D8
  0
ENDTAB
  0
ENDSEC
  0
SECTION
  2
BLOCKS
  0
BLOCK
  5
1B
330
1A
100
AcDbEntity
  8
0
100
AcDbBlockBegin
  2
*MODEL_SPACE
 70
     0
 10
0.0
 20
0.0
 30
0.0
  3
*MODEL_SPACE
  1

  0
ENDBLK
  5
1C
330
1A
100
AcDbEntity
  8
0
100
AcDbBlockEnd
  0
BLOCK
  5
18
330
17
100
AcDbEntity
 67
     1
  8
0
100
AcDbBlockBegin
  2
*PAPER_SPACE
 70
     0
 10
0.0
 20
0.0
 30
0.0
  3
*PAPER_SPACE
  1

  0
ENDBLK
  5
19
330
17
100
AcDbEntity
 67
     1
  8
0
100
AcDbBlockEnd
  0
BLOCK
  5
598
330
594
100
AcDbEntity
  8
0
100
AcDbBlockBegin
  2
_OPEN
 70
     0
 10
0.0
 20
0.0
 30
0.0
  3
_OPEN
  1

  0
LINE
  5
595
330
594
100
AcDbEntity
  8
0
  6
BYBLOCK
 62
     0
100
AcDbLine
 10
-1.0
 20
0.16666667
 30
0.0
 11
0.0
 21
0.0
 31
0.0
  0
LINE
  5
596
330
594
100
AcDbEntity
  8
0
  6
BYBLOCK
 62
     0
100
AcDbLine
 10
-1.0
 20
-0.16666667
 30
0.0
 11
0.0
 21
0.0
 31
0.0
  0
LINE
  5
597
330
594
100
AcDbEntity
  8
0
  6
BYBLOCK
 62
     0
100
AcDbLine
 10
0.0
 20
0.0
 30
0.0
 11
-1.0
 21
0.0
 31
0.0
  0
ENDBLK
  5
599
330
594
100
AcDbEntity
  8
0
100
AcDbBlockEnd
  0
BLOCK
  5
6E4
330
6E3
100
AcDbEntity
  8
0
100
AcDbBlockBegin
  2
矢印なし
 70
     0
 10
0.0
 20
0.0
 30
0.0
  3
矢印なし
  1

  0
ENDBLK
  5
6E5
330
6E3
100
AcDbEntity
  8
0
100
AcDbBlockEnd
  0
BLOCK
  5
808
330
790
100
AcDbEntity
  8
0
100
AcDbBlockBegin
  2
1
 70
     0
 10
0.0
 20
0.0
 30
0.0
  3
1
  1

  0
LINE
  5
FBB
330
790
100
AcDbEntity
  8
245
  6
CENTER2
100
AcDbLine
 10
-25.0
 20
0.0
 30
0.0
 11
166.0
 21
0.0
 31
0.0
  0
LINE
  5
FBC
330
790
100
AcDbEntity
  8
240
  6
CONTINUOUS
100
AcDbLine
 10
39.99354712
 20
12.25000347
 30
0.0
 11
138.29812341
 21
12.25000347
 31
0.0
1001
GRPNAME
1000
PASTMD0U
  0
LINE
  5
FBD
330
790
100
AcDbEntity
  8
240
  6
CONTINUOUS
100
AcDbLine
 10
39.99354712
 20
-12.25000347
 30
0.0
 11
138.29812341
 21
-12.25000347
 31
0.0
1001
GRPNAME
1000
PASTMD0U
  0
LINE
  5
FBE
330
790
100
AcDbEntity
  8
242
100
AcDbLine
 10
26.5
 20
-11.06103949
 30
0.0
 11
33.74067298
 21
-20.22288078
 31
0.0
  0
LINE
  5
FBF
330
790
100
AcDbEntity
  8
242
100
AcDbLine
 10
34.0
 20
-11.06103949
 30
0.0
 11
26.5
 21
-20.55101506
 31
0.0
  0
ARC
  5
FC0
330
790
100
AcDbEntity
  8
240
  6
CONTINUOUS
100
AcDbCircle
 10
40.0
 20
-18.25
 30
0.0
 40
6.0
100
AcDbArc
 50
90.0
 51
180.0
  0
LINE
  5
FC1
330
790
100
AcDbEntity
  8
241
  6
CONTINUOUS
100
AcDbLine
 10
21.37749907
 20
-19.61504525
 30
0.0
 11
19.875
 21
-16.16793968
 31
0.0
  0
LINE
  5
FC2
330
790
100
AcDbEntity
  8
241
  6
CONTINUOUS
100
AcDbLine
 10
26.5
 20
-11.06103949
 30
0.0
 11
26.5
 21
-20.55101506
 31
0.0
  0
LINE
  5
FC3
330
790
100
AcDbEntity
  8
241
  6
CONTINUOUS
100
AcDbLine
 10
16.125
 20
-16.16793968
 30
0.0
 11
14.62250093
 21
-19.61504525
 31
0.0
  0
ARC
  5
FC4
330
790
100
AcDbEntity
  8
240
  6
CONTINUOUS
100
AcDbCircle
 10
-24.0
 20
-17.04875078
 30
0.0
 40
1.0
100
AcDbArc
 50
180.0
 51
267.13759477
  0
ARC
  5
FC5
330
790
100
AcDbEntity
  8
241
  6
CONTINUOUS
100
AcDbCircle
 10
12.69622204
 20
-21.5
 30
0.0
 40
6.0
100
AcDbArc
 50
90.0
 51
161.68994155
  0
LINE
  5
FC6
330
790
100
AcDbEntity
  8
245
  6
CENTER2
100
AcDbLine
 10
18.0
 20
-25.0
 30
0.0
 11
18.0
 21
25.0
 31
0.0
  0
LINE
  5
FC7
330
790
100
AcDbEntity
  8
241
100
AcDbLine
 10
0.0
 20
-19.15
 30
0.0
 11
0.0
 21
0.0
 31
0.0
  0
LINE
  5
FC8
330
790
100
AcDbEntity
  8
241
  6
CONTINUOUS
100
AcDbLine
 10
-2.0
 20
-19.15
 30
0.0
 11
-2.0
 21
0.0
 31
0.0
  0
LINE
  5
FC9
330
790
100
AcDbEntity
  8
241
  6
CONTINUOUS
100
AcDbLine
 10
16.125
 20
-6.0
 30
0.0
 11
16.125
 21
-21.5
 31
0.0
  0
LINE
  5
FCA
330
790
100
AcDbEntity
  8
241
  6
CONTINUOUS
100
AcDbLine
 10
19.875
 20
-6.0
 30
0.0
 11
19.875
 21
-21.5
 31
0.0
  0
LINE
  5
FCB
330
790
100
AcDbEntity
  8
241
  6
CONTINUOUS
100
AcDbLine
 10
26.0
 20
0.0
 30
0.0
 11
26.0
 21
-20.55101506
 31
0.0
  0
LINE
  5
FCC
330
790
100
AcDbEntity
  8
241
100
AcDbLine
 10
34.0
 20
-18.25
 30
0.0
 11
34.0
 21
0.0
 31
0.0
  0
LINE
  5
FCD
330
790
100
AcDbEntity
  8
240
  6
CONTINUOUS
100
AcDbLine
 10
0.7
 20
-25.0
 30
0.0
 11
14.62250093
 21
-25.0
 31
0.0
  0
LINE
  5
FCE
330
790
100
AcDbEntity
  8
241
  6
CONTINUOUS
100
AcDbLine
 10
7.0
 20
-19.61504525
 30
0.0
 11
14.62250093
 21
-19.61504525
 31
0.0
  0
LINE
  5
FCF
330
790
100
AcDbEntity
  8
240
  6
CONTINUOUS
100
AcDbLine
 10
-2.0
 20
-19.15
 30
0.0
 11
-24.04993762
 21
-18.04750312
 31
0.0
  0
LINE
  5
FD0
330
790
100
AcDbEntity
  8
240
  6
CONTINUOUS
100
AcDbLine
 10
0.0
 20
-24.3
 30
0.0
 11
0.0
 21
-19.15
 31
0.0
  0
ARC
  5
FD1
330
790
100
AcDbEntity
  8
240
  6
CONTINUOUS
100
AcDbCircle
 10
0.7
 20
-24.3
 30
0.0
 40
0.6999999999999888
100
AcDbArc
 50
180.0
 51
270.0
  0
LINE
  5
FD2
330
790
100
AcDbEntity
  8
240
100
AcDbLine
 10
-2.0
 20
-19.15
 30
0.0
 11
0.0
 21
-19.15
 31
0.0
  0
LINE
  5
FD3
330
790
100
AcDbEntity
  8
240
100
AcDbLine
 10
33.0
 20
-20.55101506
 30
0.0
 11
26.0
 21
-20.55101506
 31
0.0
  0
LINE
  5
FD4
330
790
100
AcDbEntity
  8
240
  6
CONTINUOUS
100
AcDbLine
 10
16.125
 20
-21.5
 30
0.0
 11
19.875
 21
-21.5
 31
0.0
  0
LINE
  5
FD5
330
790
100
AcDbEntity
  8
241
  6
CONTINUOUS
100
AcDbLine
 10
14.62250093
 20
-19.61504525
 30
0.0
 11
14.62250093
 21
-25.0
 31
0.0
  0
LINE
  5
FD6
330
790
100
AcDbEntity
  8
240
  6
CONTINUOUS
100
AcDbLine
 10
14.62250093
 20
-25.0
 30
0.0
 11
16.125
 21
-22.39759526
 31
0.0
  0
LINE
  5
FD7
330
790
100
AcDbEntity
  8
240
  6
CONTINUOUS
100
AcDbLine
 10
16.125
 20
-22.39759526
 30
0.0
 11
16.125
 21
-21.5
 31
0.0
  0
LINE
  5
FD8
330
790
100
AcDbEntity
  8
240
  6
CONTINUOUS
100
AcDbLine
 10
26.0
 20
-24.3
 30
0.0
 11
26.0
 21
-20.55101506
 31
0.0
  0
LINE
  5
FD9
330
790
100
AcDbEntity
  8
240
  6
CONTINUOUS
100
AcDbLine
 10
21.37749907
 20
-25.0
 30
0.0
 11
19.875
 21
-22.39759526
 31
0.0
  0
LINE
  5
FDA
330
790
100
AcDbEntity
  8
241
  6
CONTINUOUS
100
AcDbLine
 10
21.37749907
 20
-19.61504525
 30
0.0
 11
21.37749907
 21
-25.0
 31
0.0
  0
LINE
  5
FDB
330
790
100
AcDbEntity
  8
240
  6
CONTINUOUS
100
AcDbLine
 10
21.37749907
 20
-25.0
 30
0.0
 11
25.3
 21
-25.0
 31
0.0
  0
ARC
  5
FDC
330
790
100
AcDbEntity
  8
240
  6
CONTINUOUS
100
AcDbCircle
 10
25.3
 20
-24.3
 30
0.0
 40
0.700000000000003
100
AcDbArc
 50
270.0
 51
0.0
  0
LINE
  5
FDD
330
790
100
AcDbEntity
  8
241
  6
CONTINUOUS
100
AcDbLine
 10
21.37749907
 20
-19.61504525
 30
0.0
 11
26.0
 21
-19.61504525
 31
0.0
  0
LINE
  5
FDE
330
790
100
AcDbEntity
  8
240
  6
CONTINUOUS
100
AcDbLine
 10
19.875
 20
-22.39759526
 30
0.0
 11
19.875
 21
-21.5
 31
0.0
  0
ARC
  5
FDF
330
790
100
AcDbEntity
  8
240
100
AcDbCircle
 10
33.0
 20
-19.55101506
 30
0.0
 40
1.0
100
AcDbArc
 50
270.0
 51
0.0
  0
LINE
  5
FE0
330
790
100
AcDbEntity
  8
240
100
AcDbLine
 10
34.0
 20
-19.55101506
 30
0.0
 11
34.0
 21
-18.25
 31
0.0
  0
ARC
  5
FE1
330
790
100
AcDbEntity
  8
241
  6
CONTINUOUS
100
AcDbCircle
 10
13.0
 20
0.0
 30
0.0
 40
6.0
100
AcDbArc
 50
90.0
 51
180.0
  0
LINE
  5
FE2
330
790
100
AcDbEntity
  8
240
  6
CONTINUOUS
100
AcDbLine
 10
0.7
 20
25.0
 30
0.0
 11
14.62250093
 21
25.0
 31
0.0
  0
ARC
  5
FE3
330
790
100
AcDbEntity
  8
241
  6
CONTINUOUS
100
AcDbCircle
 10
13.0
 20
0.0
 30
0.0
 40
6.0
100
AcDbArc
 50
180.0
 51
270.0
  0
LINE
  5
FE4
330
790
100
AcDbEntity
  8
240
  6
CONTINUOUS
100
AcDbLine
 10
-25.0
 20
6.27
 30
0.0
 11
-25.0
 21
17.04875078
 31
0.0
  0
LINE
  5
FE5
330
790
100
AcDbEntity
  8
241
100
AcDbLine
 10
0.0
 20
0.0
 30
0.0
 11
0.0
 21
19.15
 31
0.0
  0
LINE
  5
FE6
330
790
100
AcDbEntity
  8
241
  6
CONTINUOUS
100
AcDbLine
 10
-2.0
 20
19.15
 30
0.0
 11
-2.0
 21
0.0
 31
0.0
  0
CIRCLE
  5
FE7
330
790
100
AcDbEntity
  8
241
  6
CONTINUOUS
100
AcDbCircle
 10
-7.5
 20
0.0
 30
0.0
 40
3.0
  0
ARC
  5
FE8
330
790
100
AcDbEntity
  8
241
  6
HIDDEN2
100
AcDbCircle
 10
-19.0
 20
-3.77
 30
0.0
 40
1.5
100
AcDbArc
 50
270.0
 51
0.0
  0
ARC
  5
FE9
330
790
100
AcDbEntity
  8
240
  6
CONTINUOUS
100
AcDbCircle
 10
-22.0
 20
-3.77
 30
0.0
 40
1.500000000000014
100
AcDbArc
 50
270.0
 51
0.0
  0
LINE
  5
FEA
330
790
100
AcDbEntity
  8
240
  6
CONTINUOUS
100
AcDbLine
 10
-25.0
 20
-17.04875078
 30
0.0
 11
-25.0
 21
-6.27
 31
0.0
  0
LINE
  5
FEB
330
790
100
AcDbEntity
  8
241
  6
HIDDEN2
100
AcDbLine
 10
-22.0
 20
-5.27
 30
0.0
 11
-19.0
 21
-5.27
 31
0.0
  0
LINE
  5
FEC
330
790
100
AcDbEntity
  8
240
  6
CONTINUOUS
100
AcDbLine
 10
-25.0
 20
-6.27
 30
0.0
 11
-24.0
 21
-5.27
 31
0.0
  0
LINE
  5
FED
330
790
100
AcDbEntity
  8
240
  6
CONTINUOUS
100
AcDbLine
 10
-24.0
 20
-5.27
 30
0.0
 11
-22.0
 21
-5.27
 31
0.0
  0
LINE
  5
FEE
330
790
100
AcDbEntity
  8
240
  6
CONTINUOUS
100
AcDbLine
 10
-20.5
 20
3.77
 30
0.0
 11
-20.5
 21
0.0
 31
0.0
  0
LINE
  5
FEF
330
790
100
AcDbEntity
  8
241
  6
HIDDEN2
100
AcDbLine
 10
-17.5
 20
3.77
 30
0.0
 11
-17.5
 21
0.0
 31
0.0
  0
LINE
  5
FF0
330
790
100
AcDbEntity
  8
241
  6
HIDDEN2
100
AcDbLine
 10
-17.5
 20
-3.77
 30
0.0
 11
-17.5
 21
0.0
 31
0.0
  0
LINE
  5
FF1
330
790
100
AcDbEntity
  8
240
  6
CONTINUOUS
100
AcDbLine
 10
-20.5
 20
-3.77
 30
0.0
 11
-20.5
 21
0.0
 31
0.0
  0
ARC
  5
FF2
330
790
100
AcDbEntity
  8
240
  6
CONTINUOUS
100
AcDbCircle
 10
-22.0
 20
3.77
 30
0.0
 40
1.5
100
AcDbArc
 50
0.0
 51
90.0
  0
LINE
  5
FF3
330
790
100
AcDbEntity
  8
241
  6
HIDDEN2
100
AcDbLine
 10
-22.0
 20
5.27
 30
0.0
 11
-19.0
 21
5.27
 31
0.0
  0
LINE
  5
FF4
330
790
100
AcDbEntity
  8
240
  6
CONTINUOUS
100
AcDbLine
 10
-24.0
 20
5.27
 30
0.0
 11
-25.0
 21
6.27
 31
0.0
  0
LINE
  5
FF5
330
790
100
AcDbEntity
  8
240
  6
CONTINUOUS
100
AcDbLine
 10
-24.0
 20
5.27
 30
0.0
 11
-22.0
 21
5.27
 31
0.0
  0
ARC
  5
FF6
330
790
100
AcDbEntity
  8
241
  6
HIDDEN2
100
AcDbCircle
 10
-19.0
 20
3.77
 30
0.0
 40
1.5
100
AcDbArc
 50
0.0
 51
90.0
  0
LINE
  5
FF7
330
790
100
AcDbEntity
  8
245
  6
CENTER2
100
AcDbLine
 10
-7.5
 20
-4.0
 30
0.0
 11
-7.5
 21
4.0
 31
0.0
  0
LINE
  5
FF8
330
790
100
AcDbEntity
  8
240
  6
CONTINUOUS
100
AcDbLine
 10
-2.0
 20
19.15
 30
0.0
 11
-24.04993762
 21
18.04750312
 31
0.0
  0
ARC
  5
FF9
330
790
100
AcDbEntity
  8
240
  6
CONTINUOUS
100
AcDbCircle
 10
-24.0
 20
17.04875078
 30
0.0
 40
1.000000000000019
100
AcDbArc
 50
92.86240523
 51
180.0
  0
LINE
  5
FFA
330
790
100
AcDbEntity
  8
240
  6
CONTINUOUS
100
AcDbLine
 10
0.0
 20
19.15
 30
0.0
 11
0.0
 21
24.3
 31
0.0
  0
LINE
  5
FFB
330
790
100
AcDbEntity
  8
240
100
AcDbLine
 10
-2.0
 20
19.15
 30
0.0
 11
0.0
 21
19.15
 31
0.0
  0
ARC
  5
FFC
330
790
100
AcDbEntity
  8
240
  6
CONTINUOUS
100
AcDbCircle
 10
0.7
 20
24.3
 30
0.0
 40
0.6999999999999888
100
AcDbArc
 50
90.0
 51
180.0
  0
LINE
  5
FFD
330
790
100
AcDbEntity
  8
241
100
AcDbLine
 10
34.0
 20
18.25
 30
0.0
 11
34.0
 21
0.0
 31
0.0
  0
LINE
  5
FFE
330
790
100
AcDbEntity
  8
241
  6
CONTINUOUS
100
AcDbLine
 10
21.37749907
 20
6.0
 30
0.0
 11
21.37749907
 21
25.0
 31
0.0
  0
LINE
  5
FFF
330
790
100
AcDbEntity
  8
241
  6
CONTINUOUS
100
AcDbLine
 10
14.62250093
 20
6.0
 30
0.0
 11
14.62250093
 21
25.0
 31
0.0
  0
LINE
  5
1000
330
790
100
AcDbEntity
  8
241
  6
CONTINUOUS
100
AcDbLine
 10
19.875
 20
6.0
 30
0.0
 11
19.875
 21
21.5
 31
0.0
  0
LINE
  5
1001
330
790
100
AcDbEntity
  8
241
  6
CONTINUOUS
100
AcDbLine
 10
16.125
 20
6.0
 30
0.0
 11
16.125
 21
21.5
 31
0.0
  0
LINE
  5
1002
330
790
100
AcDbEntity
  8
241
  6
CONTINUOUS
100
AcDbLine
 10
26.0
 20
0.0
 30
0.0
 11
26.0
 21
20.8
 31
0.0
  0
LINE
  5
1003
330
790
100
AcDbEntity
  8
241
100
AcDbLine
 10
26.5
 20
-11.06103949
 30
0.0
 11
34.0
 21
-11.06103949
 31
0.0
  0
LINE
  5
1004
330
790
100
AcDbEntity
  8
241
  6
CONTINUOUS
100
AcDbLine
 10
13.0
 20
-6.0
 30
0.0
 11
26.0
 21
-6.0
 31
0.0
  0
LINE
  5
1005
330
790
100
AcDbEntity
  8
241
  6
CONTINUOUS
100
AcDbLine
 10
14.62250093
 20
-6.0
 30
0.0
 11
14.62250093
 21
-15.5
 31
0.0
  0
LINE
  5
1006
330
790
100
AcDbEntity
  8
241
  6
CONTINUOUS
100
AcDbLine
 10
12.69622204
 20
-15.5
 30
0.0
 11
16.125
 21
-15.5
 31
0.0
  0
LINE
  5
1007
330
790
100
AcDbEntity
  8
241
  6
CONTINUOUS
100
AcDbLine
 10
21.37749907
 20
-6.0
 30
0.0
 11
21.37749907
 21
-15.5
 31
0.0
  0
LINE
  5
1008
330
790
100
AcDbEntity
  8
241
  6
CONTINUOUS
100
AcDbLine
 10
19.875
 20
-15.5
 30
0.0
 11
26.0
 21
-15.5
 31
0.0
  0
LINE
  5
1009
330
790
100
AcDbEntity
  8
241
  6
CONTINUOUS
100
AcDbLine
 10
13.0
 20
6.0
 30
0.0
 11
26.0
 21
6.0
 31
0.0
  0
LINE
  5
100A
330
790
100
AcDbEntity
  8
240
  6
CONTINUOUS
100
AcDbLine
 10
33.0
 20
20.8
 30
0.0
 11
26.0
 21
20.8
 31
0.0
  0
LINE
  5
100B
330
790
100
AcDbEntity
  8
240
  6
CONTINUOUS
100
AcDbLine
 10
16.125
 20
21.5
 30
0.0
 11
19.875
 21
21.5
 31
0.0
  0
LINE
  5
100C
330
790
100
AcDbEntity
  8
240
  6
CONTINUOUS
100
AcDbLine
 10
16.125
 20
22.39759526
 30
0.0
 11
16.125
 21
21.5
 31
0.0
  0
LINE
  5
100D
330
790
100
AcDbEntity
  8
240
  6
CONTINUOUS
100
AcDbLine
 10
14.62250093
 20
25.0
 30
0.0
 11
16.125
 21
22.39759526
 31
0.0
  0
LINE
  5
100E
330
790
100
AcDbEntity
  8
240
  6
CONTINUOUS
100
AcDbLine
 10
21.37749907
 20
25.0
 30
0.0
 11
25.3
 21
25.0
 31
0.0
  0
LINE
  5
100F
330
790
100
AcDbEntity
  8
240
  6
CONTINUOUS
100
AcDbLine
 10
21.37749907
 20
25.0
 30
0.0
 11
19.875
 21
22.39759526
 31
0.0
  0
LINE
  5
1010
330
790
100
AcDbEntity
  8
240
  6
CONTINUOUS
100
AcDbLine
 10
19.875
 20
22.39759526
 30
0.0
 11
19.875
 21
21.5
 31
0.0
  0
ARC
  5
1011
330
790
100
AcDbEntity
  8
240
  6
CONTINUOUS
100
AcDbCircle
 10
25.3
 20
24.3
 30
0.0
 40
0.6999999999999888
100
AcDbArc
 50
0.0
 51
90.0
  0
LINE
  5
1012
330
790
100
AcDbEntity
  8
240
  6
CONTINUOUS
100
AcDbLine
 10
26.0
 20
24.3
 30
0.0
 11
26.0
 21
20.8
 31
0.0
  0
ARC
  5
1013
330
790
100
AcDbEntity
  8
240
100
AcDbCircle
 10
33.0
 20
19.8
 30
0.0
 40
1.0
100
AcDbArc
 50
0.0
 51
90.0
  0
ARC
  5
1014
330
790
100
AcDbEntity
  8
240
  6
CONTINUOUS
100
AcDbCircle
 10
40.0
 20
18.25
 30
0.0
 40
6.0
100
AcDbArc
 50
180.0
 51
269.9383619
  0
LINE
  5
1015
330
790
100
AcDbEntity
  8
240
100
AcDbLine
 10
34.0
 20
19.8
 30
0.0
 11
34.0
 21
18.25
 31
0.0
  0
LINE
  5
1016
330
790
100
AcDbEntity
  8
242
  6
HIDDEN2
100
AcDbLine
 10
109.99791818
 20
4.5
 30
0.0
 11
138.99791818
 21
4.5
 31
0.0
  0
LINE
  5
1017
330
790
100
AcDbEntity
  8
241
  6
HIDDEN2
100
AcDbLine
 10
86.99791818
 20
4.2
 30
0.0
 11
138.99791818
 21
4.2
 31
0.0
  0
LINE
  5
1018
330
790
100
AcDbEntity
  8
242
  6
HIDDEN2
100
AcDbLine
 10
109.99791818
 20
4.5
 30
0.0
 11
109.99791818
 21
0.0
 31
0.0
  0
LINE
  5
1019
330
790
100
AcDbEntity
  8
240
  6
CONTINUOUS
100
AcDbLine
 10
144.19992928
 20
12.5
 30
0.0
 11
164.3
 21
12.5
 31
0.0
1001
GRPNAME
1000
PASTMD0T
  0
LINE
  5
101A
330
790
100
AcDbEntity
  8
241
  6
HIDDEN2
100
AcDbLine
 10
143.99800248
 20
4.0
 30
0.0
 11
161.99800248
 21
4.0
 31
0.0
1001
GRPNAME
1000
PASTMD0T
  0
LINE
  5
101B
330
790
100
AcDbEntity
  8
241
  6
HIDDEN2
100
AcDbLine
 10
153.93396829
 20
8.99999584
 30
0.0
 11
144.5980845
 21
8.99999584
 31
0.0
1001
GRPNAME
1000
PASTMD0T
  0
LINE
  5
101C
330
790
100
AcDbEntity
  8
242
  6
HIDDEN2
100
AcDbLine
 10
154.33811612
 20
8.29999126
 30
0.0
 11
146.5980845
 21
8.29999126
 31
0.0
1001
GRPNAME
1000
PASTMD0T
  0
LINE
  5
101D
330
790
100
AcDbEntity
  8
241
  6
HIDDEN2
100
AcDbLine
 10
143.99800248
 20
4.73874918
 30
0.0
 11
158.39800248
 21
6.25225016
 31
0.0
1001
GRPNAME
1000
PASTMD0T
  0
LINE
  5
101E
330
790
100
AcDbEntity
  8
240
  6
CONTINUOUS
100
AcDbLine
 10
144.19992928
 20
-12.5
 30
0.0
 11
164.3
 21
-12.5
 31
0.0
1001
GRPNAME
1000
PASTMD0T
  0
LINE
  5
101F
330
790
100
AcDbEntity
  8
241
100
AcDbLine
 10
138.79812341
 20
10.5000137
 30
0.0
 11
138.79812341
 21
0.0
 31
0.0
  0
LINE
  5
1020
330
790
100
AcDbEntity
  8
241
100
AcDbLine
 10
142.1
 20
10.5000137
 30
0.0
 11
142.1
 21
0.0
 31
0.0
  0
LINE
  5
1021
330
790
100
AcDbEntity
  8
241
  6
CONTINUOUS
100
AcDbLine
 10
145.41414284
 20
12.5
 30
0.0
 11
145.41414284
 21
0.0
 31
0.0
1001
GRPNAME
1000
PASTMD0T
  0
LINE
  5
1022
330
790
100
AcDbEntity
  8
241
  6
CONTINUOUS
100
AcDbLine
 10
144.04992928
 20
12.65
 30
0.0
 11
144.04992928
 21
0.0
 31
0.0
1001
GRPNAME
1000
PASTMD0T
  0
LINE
  5
1023
330
790
100
AcDbEntity
  8
241
100
AcDbLine
 10
138.79812341
 20
-10.5000137
 30
0.0
 11
138.79812341
 21
0.0
 31
0.0
  0
LINE
  5
1024
330
790
100
AcDbEntity
  8
241
100
AcDbLine
 10
142.1
 20
-10.5000137
 30
0.0
 11
142.1
 21
0.0
 31
0.0
  0
LINE
  5
1025
330
790
100
AcDbEntity
  8
241
  6
CONTINUOUS
100
AcDbLine
 10
145.41414284
 20
-12.5
 30
0.0
 11
145.41414284
 21
0.0
 31
0.0
1001
GRPNAME
1000
PASTMD0T
  0
LINE
  5
1026
330
790
100
AcDbEntity
  8
241
  6
CONTINUOUS
100
AcDbLine
 10
144.04992928
 20
-12.65
 30
0.0
 11
144.04992928
 21
0.0
 31
0.0
1001
GRPNAME
1000
PASTMD0T
  0
LINE
  5
1027
330
790
100
AcDbEntity
  8
240
  6
CONTINUOUS
100
AcDbLine
 10
142.1
 20
-12.15
 30
0.0
 11
142.1
 21
-10.5000137
 31
0.0
1001
GRPNAME
1000
PASTMD0T
  0
LINE
  5
1028
330
790
100
AcDbEntity
  8
240
  6
CONTINUOUS
100
AcDbLine
 10
138.79812341
 20
-11.74999844
 30
0.0
 11
138.79812341
 21
-10.5000137
 31
0.0
1001
GRPNAME
1000
PASTMD0U
  0
ARC
  5
1029
330
790
100
AcDbEntity
  8
240
  6
CONTINUOUS
100
AcDbCircle
 10
138.29812341
 20
-11.74999844
 30
0.0
 40
0.5
100
AcDbArc
 50
269.99999997
 51
359.99999997
1001
GRPNAME
1000
PASTMD0S
  0
LINE
  5
102A
330
790
100
AcDbEntity
  8
240
  6
CONTINUOUS
100
AcDbLine
 10
142.6
 20
-12.65
 30
0.0
 11
144.04992928
 21
-12.65
 31
0.0
1001
GRPNAME
1000
PASTMD0T
  0
ARC
  5
102B
330
790
100
AcDbEntity
  8
240
  6
CONTINUOUS
100
AcDbCircle
 10
142.6
 20
-12.15
 30
0.0
 40
0.5
100
AcDbArc
 50
180.00000008
 51
270.00000008
1001
GRPNAME
1000
PASTMD0T
  0
LINE
  5
102C
330
790
100
AcDbEntity
  8
240
  6
CONTINUOUS
100
AcDbLine
 10
144.04992928
 20
-12.65
 30
0.0
 11
144.19992928
 21
-12.5
 31
0.0
1001
GRPNAME
1000
PASTMD0T
  0
LINE
  5
102D
330
790
100
AcDbEntity
  8
240
  6
CONTINUOUS
100
AcDbLine
 10
138.79812341
 20
-10.5000137
 30
0.0
 11
142.1
 21
-10.5000137
 31
0.0
1001
GRPNAME
1000
PASTMD0T
  0
LINE
  5
102E
330
790
100
AcDbEntity
  8
241
  6
HIDDEN2
100
AcDbLine
 10
143.99791055
 20
5.00000395
 30
0.0
 11
143.99791055
 21
0.0
 31
0.0
1001
GRPNAME
1000
PASTMD0T
  0
LINE
  5
102F
330
790
100
AcDbEntity
  8
241
  6
HIDDEN2
100
AcDbLine
 10
138.99791818
 20
0.0
 30
0.0
 11
138.99791818
 21
5.00000395
 31
0.0
1001
GRPNAME
1000
PASTMD0W
  0
LINE
  5
1030
330
790
100
AcDbEntity
  8
241
  6
HIDDEN2
100
AcDbLine
 10
138.99791818
 20
5.00000395
 30
0.0
 11
143.99791055
 21
5.00000395
 31
0.0
1001
GRPNAME
1000
PASTMD0T
  0
LINE
  5
1031
330
790
100
AcDbEntity
  8
240
  6
CONTINUOUS
100
AcDbLine
 10
138.79812341
 20
10.5000111
 30
0.0
 11
142.1
 21
10.5000111
 31
0.0
1001
GRPNAME
1000
PASTMD0T
  0
ARC
  5
1032
330
790
100
AcDbEntity
  8
240
  6
CONTINUOUS
100
AcDbCircle
 10
138.29812341
 20
11.75000347
 30
0.0
 40
0.5
100
AcDbArc
 50
0.0
 51
90.0
1001
GRPNAME
1000
PASTMD0S
  0
LINE
  5
1033
330
790
100
AcDbEntity
  8
240
  6
CONTINUOUS
100
AcDbLine
 10
138.79812341
 20
11.74999844
 30
0.0
 11
138.79812341
 21
10.5000111
 31
0.0
1001
GRPNAME
1000
PASTMD0U
  0
LINE
  5
1034
330
790
100
AcDbEntity
  8
240
  6
CONTINUOUS
100
AcDbLine
 10
142.6
 20
12.65
 30
0.0
 11
144.04992928
 21
12.65
 31
0.0
1001
GRPNAME
1000
PASTMD0T
  0
ARC
  5
1035
330
790
100
AcDbEntity
  8
240
  6
CONTINUOUS
100
AcDbCircle
 10
142.6
 20
12.15
 30
0.0
 40
0.5
100
AcDbArc
 50
89.99999999
 51
179.99999999
1001
GRPNAME
1000
PASTMD0T
  0
LINE
  5
1036
330
790
100
AcDbEntity
  8
240
  6
CONTINUOUS
100
AcDbLine
 10
144.04992928
 20
12.65
 30
0.0
 11
144.19992928
 21
12.5
 31
0.0
1001
GRPNAME
1000
PASTMD0T
  0
LINE
  5
1037
330
790
100
AcDbEntity
  8
241
  6
HIDDEN2
100
AcDbLine
 10
143.5980845
 20
10.5000111
 30
0.0
 11
144.5980845
 21
10.5000111
 31
0.0
1001
GRPNAME
1000
PASTMD0T
  0
LINE
  5
1038
330
790
100
AcDbEntity
  8
241
  6
HIDDEN2
100
AcDbLine
 10
142.1
 20
10.5000111
 30
0.0
 11
142.4980784
 21
10.5000111
 31
0.0
  0
LINE
  5
1039
330
790
100
AcDbEntity
  8
241
  6
HIDDEN2
100
AcDbLine
 10
143.5980845
 20
9.55001415
 30
0.0
 11
143.5980845
 21
10.5000111
 31
0.0
1001
GRPNAME
1000
PASTMD0T
  0
LINE
  5
103A
330
790
100
AcDbEntity
  8
241
  6
HIDDEN2
100
AcDbLine
 10
142.4980784
 20
9.55001415
 30
0.0
 11
143.5980845
 21
9.55001415
 31
0.0
1001
GRPNAME
1000
PASTMD0T
  0
LINE
  5
103B
330
790
100
AcDbEntity
  8
241
  6
HIDDEN2
100
AcDbLine
 10
142.4980784
 20
9.55001415
 30
0.0
 11
142.4980784
 21
10.5000111
 31
0.0
1001
GRPNAME
1000
PASTMD0T
  0
LINE
  5
103C
330
790
100
AcDbEntity
  8
241
  6
HIDDEN2
100
AcDbLine
 10
144.5980845
 20
8.99999584
 30
0.0
 11
144.5980845
 21
10.5000111
 31
0.0
1001
GRPNAME
1000
PASTMD0T
  0
LINE
  5
103D
330
790
100
AcDbEntity
  8
240
  6
CONTINUOUS
100
AcDbLine
 10
142.1
 20
12.15
 30
0.0
 11
142.1
 21
10.5000111
 31
0.0
1001
GRPNAME
1000
PASTMD0T
  0
LINE
  5
103E
330
790
100
AcDbEntity
  8
242
  6
HIDDEN2
100
AcDbLine
 10
145.38563638
 20
8.99999584
 30
0.0
 11
146.5980845
 21
8.29999126
 31
0.0
1001
GRPNAME
1000
PASTMD0T
  0
LINE
  5
103F
330
790
100
AcDbEntity
  8
241
  6
HIDDEN2
100
AcDbLine
 10
155.49791818
 20
7.8500009
 30
0.0
 11
155.99791818
 21
7.3500009
 31
0.0
1001
GRPNAME
1000
PASTMD0T
  0
LINE
  5
1040
330
790
100
AcDbEntity
  8
240
  6
CONTINUOUS
100
AcDbLine
 10
165.0
 20
11.8
 30
0.0
 11
165.0
 21
0.0
 31
0.0
1001
GRPNAME
1000
PASTMD0T
  0
LINE
  5
1041
330
790
100
AcDbEntity
  8
240
  6
CONTINUOUS
100
AcDbLine
 10
165.0
 20
-11.8
 30
0.0
 11
165.0
 21
0.0
 31
0.0
1001
GRPNAME
1000
PASTMD0T
  0
ARC
  5
1042
330
790
100
AcDbEntity
  8
240
  6
CONTINUOUS
100
AcDbCircle
 10
164.3
 20
-11.8
 30
0.0
 40
0.6999999999999888
100
AcDbArc
 50
269.99999997
 51
359.99999997
1001
GRPNAME
1000
PASTMD0T
  0
LINE
  5
1043
330
790
100
AcDbEntity
  8
241
  6
HIDDEN2
100
AcDbLine
 10
163.00000452
 20
5.32501244
 30
0.0
 11
162.00000457
 21
5.32501244
 31
0.0
1001
GRPNAME
1000
PASTMD0T
  0
LINE
  5
1044
330
790
100
AcDbEntity
  8
241
  6
HIDDEN2
100
AcDbLine
 10
161.99800248
 20
5.32623957
 30
0.0
 11
161.99800248
 21
0.0
 31
0.0
1001
GRPNAME
1000
PASTMD0T
  0
LINE
  5
1045
330
790
100
AcDbEntity
  8
241
  6
HIDDEN2
100
AcDbLine
 10
155.99791818
 20
7.3500009
 30
0.0
 11
155.99791818
 21
5.99999114
 31
0.0
1001
GRPNAME
1000
PASTMD0T
  0
LINE
  5
1046
330
790
100
AcDbEntity
  8
241
  6
HIDDEN2
100
AcDbLine
 10
161.99800248
 20
5.32623957
 30
0.0
 11
160.39800248
 21
6.25
 31
0.0
1001
GRPNAME
1000
PASTMD0T
  0
LINE
  5
1047
330
790
100
AcDbEntity
  8
241
  6
HIDDEN2
100
AcDbLine
 10
160.29800248
 20
5.25
 30
0.0
 11
160.29800248
 21
6.25
 31
0.0
1001
GRPNAME
1000
PASTMD0T
  0
LINE
  5
1048
330
790
100
AcDbEntity
  8
241
  6
HIDDEN2
100
AcDbLine
 10
160.29800248
 20
6.25
 30
0.0
 11
160.39800248
 21
6.25
 31
0.0
1001
GRPNAME
1000
PASTMD0T
  0
LINE
  5
1049
330
790
100
AcDbEntity
  8
241
  6
HIDDEN2
100
AcDbLine
 10
158.39800248
 20
5.25
 30
0.0
 11
158.39800248
 21
6.25225016
 31
0.0
1001
GRPNAME
1000
PASTMD0T
  0
LINE
  5
104A
330
790
100
AcDbEntity
  8
241
  6
HIDDEN2
100
AcDbLine
 10
158.39800248
 20
5.25
 30
0.0
 11
160.29800248
 21
5.25
 31
0.0
1001
GRPNAME
1000
PASTMD0T
  0
LINE
  5
104B
330
790
100
AcDbEntity
  8
241
  6
HIDDEN2
100
AcDbLine
 10
163.00000452
 20
5.32501244
 30
0.0
 11
165.0
 21
6.47970226
 31
0.0
1001
GRPNAME
1000
PASTMD0T
  0
LINE
  5
104C
330
790
100
AcDbEntity
  8
241
  6
HIDDEN2
100
AcDbLine
 10
154.59791818
 20
7.8500009
 30
0.0
 11
153.93396829
 21
8.99999584
 31
0.0
  0
LINE
  5
104D
330
790
100
AcDbEntity
  8
241
  6
HIDDEN2
100
AcDbLine
 10
154.59791818
 20
7.8500009
 30
0.0
 11
155.49791818
 21
7.8500009
 31
0.0
1001
GRPNAME
1000
PASTMD0T
  0
ARC
  5
104E
330
790
100
AcDbEntity
  8
240
  6
CONTINUOUS
100
AcDbCircle
 10
164.3
 20
11.8
 30
0.0
 40
0.7000000000000455
100
AcDbArc
 50
0.00000009
 51
90.00000009
1001
GRPNAME
1000
PASTMD0T
  0
ENDBLK
  5
809
330
790
100
AcDbEntity
  8
0
100
AcDbBlockEnd
  0
BLOCK
  5
831
330
827
100
AcDbEntity
  8
0
100
AcDbBlockBegin
  2
*D3
 70
     1
 10
0.0
 20
0.0
 30
0.0
  3
*D3
  1

  0
LINE
  5
9E0
330
827
100
AcDbEntity
  8
250
  6
CONTINUOUS
100
AcDbLine
 10
0.0
 20
24.8
 30
0.0
 11
0.0
 21
36.0
 31
0.0
  0
LINE
  5
9E1
330
827
100
AcDbEntity
  8
250
  6
CONTINUOUS
100
AcDbLine
 10
165.0
 20
12.3
 30
0.0
 11
165.0
 21
36.0
 31
0.0
  0
LINE
  5
9E2
330
827
100
AcDbEntity
  8
250
  6
CONTINUOUS
100
AcDbLine
 10
2.23
 20
35.0
 30
0.0
 11
162.77
 21
35.0
 31
0.0
  0
INSERT
  5
9E3
330
827
100
AcDbEntity
  8
250
  6
CONTINUOUS
100
AcDbBlockReference
  2
_OPEN
 10
0.0
 20
35.0
 30
0.0
 41
2.23
 42
2.23
 43
2.23
 50
180.0
  0
INSERT
  5
9E4
330
827
100
AcDbEntity
  8
250
  6
CONTINUOUS
100
AcDbBlockReference
  2
_OPEN
 10
165.0
 20
35.0
 30
0.0
 41
2.23
 42
2.23
 43
2.23
  0
MTEXT
  5
9E5
330
827
100
AcDbEntity
  8
250
  6
CONTINUOUS
 62
    40
100
AcDbMText
 10
82.5
 20
37.4
 30
0.0
 40
2.8
 41
0.0
 71
     5
 72
     1
  1
\A1;165
1001
ACAD
1000
MTEXTBEGIN
1070
    73
1070
     1
1070
    44
1040
1.0
1070
    74
1070
     0
1000
MTEXTEND
1000
MTEXTBEGIN
1070
    73
1070
     1
1070
    44
1040
1.0
1070
    74
1070
     0
1000
MTEXTEND
1000
MTEXTBEGIN
1070
    73
1070
     1
1070
    44
1040
1.0
1070
    74
1070
     0
1000
MTEXTEND
1000
MTEXTBEGIN
1070
    73
1070
     1
1070
    44
1040
1.0
1070
    74
1070
     0
1000
MTEXTEND
  0
POINT
  5
9E6
330
827
100
AcDbEntity
  8
DEFPOINTS
  6
CONTINUOUS
 62
     0
100
AcDbPoint
 10
0.0
 20
24.3
 30
0.0
  0
POINT
  5
9E7
330
827
100
AcDbEntity
  8
DEFPOINTS
  6
CONTINUOUS
 62
     0
100
AcDbPoint
 10
165.0
 20
11.8
 30
0.0
  0
POINT
  5
9E8
330
827
100
AcDbEntity
  8
DEFPOINTS
  6
CONTINUOUS
 62
     0
100
AcDbPoint
 10
165.0
 20
35.0
 30
0.0
  0
ENDBLK
  5
832
330
827
100
AcDbEntity
  8
0
100
AcDbBlockEnd
  0
BLOCK
  5
83D
330
833
100
AcDbEntity
  8
0
100
AcDbBlockBegin
  2
*D4
 70
     1
 10
0.0
 20
0.0
 30
0.0
  3
*D4
  1

  0
LINE
  5
E3C
330
833
100
AcDbEntity
  8
250
  6
CONTINUOUS
 62
     3
100
AcDbLine
 10
87.0
 20
4.7
 30
0.0
 11
87.0
 21
22.0
 31
0.0
  0
LINE
  5
E3D
330
833
100
AcDbEntity
  8
250
  6
CONTINUOUS
 62
     3
100
AcDbLine
 10
165.0
 20
12.3
 30
0.0
 11
165.0
 21
22.0
 31
0.0
  0
LINE
  5
E3E
330
833
100
AcDbEntity
  8
250
  6
CONTINUOUS
 62
     3
100
AcDbLine
 10
89.23
 20
21.0
 30
0.0
 11
162.77
 21
21.0
 31
0.0
  0
INSERT
  5
E3F
330
833
100
AcDbEntity
  8
250
  6
CONTINUOUS
 62
     3
100
AcDbBlockReference
  2
_OPEN
 10
87.0
 20
21.0
 30
0.0
 41
2.23
 42
2.23
 43
2.23
 50
180.0
  0
INSERT
  5
E40
330
833
100
AcDbEntity
  8
250
  6
CONTINUOUS
 62
     3
100
AcDbBlockReference
  2
_OPEN
 10
165.0
 20
21.0
 30
0.0
 41
2.23
 42
2.23
 43
2.23
  0
MTEXT
  5
E41
330
833
100
AcDbEntity
  8
250
  6
CONTINUOUS
 62
    40
100
AcDbMText
 10
126.0
 20
23.5
 30
0.0
 40
3.0
 41
0.0
 71
     5
 72
     1
  1
\A1;（max.78）
1001
ACAD
1000
MTEXTBEGIN
1070
    73
1070
     1
1070
    44
1040
1.0
1070
    74
1070
     0
1000
MTEXTEND
1000
MTEXTBEGIN
1070
    73
1070
     1
1070
    44
1040
1.0
1070
    74
1070
     0
1000
MTEXTEND
  0
POINT
  5
E42
330
833
100
AcDbEntity
  8
DEFPOINTS
  6
CONTINUOUS
 62
     0
100
AcDbPoint
 10
87.0
 20
4.2
 30
0.0
  0
POINT
  5
E43
330
833
100
AcDbEntity
  8
DEFPOINTS
  6
CONTINUOUS
 62
     0
100
AcDbPoint
 10
165.0
 20
11.8
 30
0.0
  0
POINT
  5
E44
330
833
100
AcDbEntity
  8
DEFPOINTS
  6
CONTINUOUS
 62
     0
100
AcDbPoint
 10
165.0
 20
21.0
 30
0.0
  0
ENDBLK
  5
83E
330
833
100
AcDbEntity
  8
0
100
AcDbBlockEnd
  0
BLOCK
  5
90F
330
90E
100
AcDbEntity
  8
0
100
AcDbBlockBegin
  2
_NONE
 70
     0
 10
0.0
 20
0.0
 30
0.0
  3
_NONE
  1

  0
ENDBLK
  5
910
330
90E
100
AcDbEntity
  8
0
100
AcDbBlockEnd
  0
BLOCK
  5
DE3
330
DDB
100
AcDbEntity
  8
0
100
AcDbBlockBegin
  2
*D6
 70
     1
 10
0.0
 20
0.0
 30
0.0
  3
*D6
  1

  0
LINE
  5
DF1
330
DDB
100
AcDbEntity
  8
250
  6
CONTINUOUS
 62
     3
100
AcDbLine
 10
162.49800248
 20
4.0
 30
0.0
 11
175.00513705
 21
4.0
 31
0.0
  0
LINE
  5
DF2
330
DDB
100
AcDbEntity
  8
250
  6
CONTINUOUS
 62
     3
100
AcDbLine
 10
174.00513705
 20
-4.0
 30
0.0
 11
174.00513705
 21
1.77
 31
0.0
  0
INSERT
  5
DF3
330
DDB
100
AcDbEntity
  8
250
  6
CONTINUOUS
 62
     3
100
AcDbBlockReference
  2
_OPEN
 10
174.00513705
 20
4.0
 30
0.0
 41
2.23
 42
2.23
 43
2.23
 50
90.0
  0
MTEXT
  5
DF4
330
DDB
100
AcDbEntity
  8
250
  6
CONTINUOUS
 62
    40
100
AcDbMText
 10
171.50513705
 20
-1.115
 30
0.0
 40
3.0
 41
0.0
 71
     5
 72
     1
  1
\A1;max.{\H3;\U+2205}8
 11
0.0
 21
1.0
 31
0.0
1001
ACAD
1000
MTEXTBEGIN
1070
    73
1070
     1
1070
    44
1040
1.0
1070
    74
1070
     0
1000
MTEXTEND
1000
MTEXTBEGIN
1070
    73
1070
     1
1070
    44
1040
1.0
1070
    74
1070
     0
1000
MTEXTEND
  0
POINT
  5
DF5
330
DDB
100
AcDbEntity
  8
DEFPOINTS
  6
CONTINUOUS
 62
     0
100
AcDbPoint
 10
161.69800248
 20
-4.0
 30
0.0
  0
POINT
  5
DF6
330
DDB
100
AcDbEntity
  8
DEFPOINTS
  6
CONTINUOUS
 62
     0
100
AcDbPoint
 10
161.99800248
 20
4.0
 30
0.0
  0
POINT
  5
DF7
330
DDB
100
AcDbEntity
  8
DEFPOINTS
  6
CONTINUOUS
 62
     0
100
AcDbPoint
 10
174.00513705
 20
4.0
 30
0.0
  0
ENDBLK
  5
DE4
330
DDB
100
AcDbEntity
  8
0
100
AcDbBlockEnd
  0
BLOCK
  5
DEF
330
DE5
100
AcDbEntity
  8
0
100
AcDbBlockBegin
  2
*D7
 70
     1
 10
0.0
 20
0.0
 30
0.0
  3
*D7
  1

  0
LINE
  5
DF8
330
DE5
100
AcDbEntity
  8
250
  6
CONTINUOUS
 62
     3
100
AcDbLine
 10
164.8
 20
-12.5
 30
0.0
 11
182.0
 21
-12.5
 31
0.0
  0
LINE
  5
DF9
330
DE5
100
AcDbEntity
  8
250
  6
CONTINUOUS
 62
     3
100
AcDbLine
 10
164.8
 20
12.5
 30
0.0
 11
182.0
 21
12.5
 31
0.0
  0
LINE
  5
DFA
330
DE5
100
AcDbEntity
  8
250
  6
CONTINUOUS
 62
     3
100
AcDbLine
 10
181.0
 20
-10.27
 30
0.0
 11
181.0
 21
10.27
 31
0.0
  0
INSERT
  5
DFB
330
DE5
100
AcDbEntity
  8
250
  6
CONTINUOUS
 62
     3
100
AcDbBlockReference
  2
_OPEN
 10
181.0
 20
-12.5
 30
0.0
 41
2.23
 42
2.23
 43
2.23
 50
270.0
  0
INSERT
  5
DFC
330
DE5
100
AcDbEntity
  8
250
  6
CONTINUOUS
 62
     3
100
AcDbBlockReference
  2
_OPEN
 10
181.0
 20
12.5
 30
0.0
 41
2.23
 42
2.23
 43
2.23
 50
90.0
  0
MTEXT
  5
DFD
330
DE5
100
AcDbEntity
  8
250
  6
CONTINUOUS
 62
    40
100
AcDbMText
 10
178.5
 20
0.0
 30
0.0
 40
3.0
 41
0.0
 71
     5
 72
     1
  1
\A1;{\H3;\U+2205}25
 11
0.0
 21
1.0
 31
0.0
1001
ACAD
1000
MTEXTBEGIN
1070
    73
1070
     1
1070
    44
1040
1.0
1070
    74
1070
     0
1000
MTEXTEND
1000
MTEXTBEGIN
1070
    73
1070
     1
1070
    44
1040
1.0
1070
    74
1070
     0
1000
MTEXTEND
  0
POINT
  5
DFE
330
DE5
100
AcDbEntity
  8
DEFPOINTS
  6
CONTINUOUS
 62
     0
100
AcDbPoint
 10
164.3
 20
-12.5
 30
0.0
  0
POINT
  5
DFF
330
DE5
100
AcDbEntity
  8
DEFPOINTS
  6
CONTINUOUS
 62
     0
100
AcDbPoint
 10
164.3
 20
12.5
 30
0.0
  0
POINT
  5
E00
330
DE5
100
AcDbEntity
  8
DEFPOINTS
  6
CONTINUOUS
 62
     0
100
AcDbPoint
 10
181.0
 20
12.5
 30
0.0
  0
ENDBLK
  5
DF0
330
DE5
100
AcDbEntity
  8
0
100
AcDbBlockEnd
  0
BLOCK
  5
E52
330
E48
100
AcDbEntity
  8
0
100
AcDbBlockBegin
  2
*D8
 70
     1
 10
0.0
 20
0.0
 30
0.0
  3
*D8
  1

  0
LINE
  5
E49
330
E48
100
AcDbEntity
  8
250
  6
CONTINUOUS
 62
     3
100
AcDbLine
 10
34.0
 20
20.3
 30
0.0
 11
34.0
 21
29.0
 31
0.0
  0
LINE
  5
E4A
330
E48
100
AcDbEntity
  8
250
  6
CONTINUOUS
 62
     3
100
AcDbLine
 10
165.0
 20
12.3
 30
0.0
 11
165.0
 21
29.0
 31
0.0
  0
LINE
  5
E4B
330
E48
100
AcDbEntity
  8
250
  6
CONTINUOUS
 62
     3
100
AcDbLine
 10
36.23
 20
28.0
 30
0.0
 11
162.77
 21
28.0
 31
0.0
  0
INSERT
  5
E4C
330
E48
100
AcDbEntity
  8
250
  6
CONTINUOUS
 62
     3
100
AcDbBlockReference
  2
_OPEN
 10
34.0
 20
28.0
 30
0.0
 41
2.23
 42
2.23
 43
2.23
 50
180.0
  0
INSERT
  5
E4D
330
E48
100
AcDbEntity
  8
250
  6
CONTINUOUS
 62
     3
100
AcDbBlockReference
  2
_OPEN
 10
165.0
 20
28.0
 30
0.0
 41
2.23
 42
2.23
 43
2.23
  0
MTEXT
  5
E4E
330
E48
100
AcDbEntity
  8
250
  6
CONTINUOUS
 62
    40
100
AcDbMText
 10
99.5
 20
30.5
 30
0.0
 40
3.0
 41
0.0
 71
     5
 72
     1
  1
\A1;131
1001
ACAD
1000
MTEXTBEGIN
1070
    73
1070
     1
1070
    44
1040
1.0
1070
    74
1070
     0
1000
MTEXTEND
1000
MTEXTBEGIN
1070
    73
1070
     1
1070
    44
1040
1.0
1070
    74
1070
     0
1000
MTEXTEND
  0
POINT
  5
E4F
330
E48
100
AcDbEntity
  8
DEFPOINTS
  6
CONTINUOUS
 62
     0
100
AcDbPoint
 10
34.0
 20
19.8
 30
0.0
  0
POINT
  5
E50
330
E48
100
AcDbEntity
  8
DEFPOINTS
  6
CONTINUOUS
 62
     0
100
AcDbPoint
 10
165.0
 20
11.8
 30
0.0
  0
POINT
  5
E51
330
E48
100
AcDbEntity
  8
DEFPOINTS
  6
CONTINUOUS
 62
     0
100
AcDbPoint
 10
165.0
 20
28.0
 30
0.0
  0
ENDBLK
  5
E53
330
E48
100
AcDbEntity
  8
0
100
AcDbBlockEnd
  0
ENDSEC
  0
SECTION
  2
ENTITIES
  0
INSERT
  5
6E6
330
1A
100
AcDbEntity
  8
245
100
AcDbBlockReference
  2
矢印なし
 10
175.62382697
 20
90.55123572
 30
0.0
  0
TEXT
  5
820
330
1A
100
AcDbEntity
  8
241
100
AcDbText
 10
-25.0
 20
49.0
 30
0.0
 40
5.0
  1
HSK-A50-MEGA8N-165
  7
YOKO
 11
-25.0
 21
49.0
 31
0.0
100
AcDbText
 73
     1
  0
DIMENSION
  5
821
330
1A
100
AcDbEntity
  8
250
  6
CONTINUOUS
100
AcDbDimension
  2
*D3
 10
165.0
 20
35.0
 30
0.0
 11
82.5
 21
37.4
 31
0.0
 70
    32
  3
BIGT
100
AcDbAlignedDimension
 13
0.0
 23
24.3
 33
0.0
 14
165.0
 24
11.8
 34
0.0
100
AcDbRotatedDimension
  0
DIMENSION
  5
822
330
1A
100
AcDbEntity
  8
250
  6
CONTINUOUS
100
AcDbDimension
  2
*D4
 10
165.0
 20
21.0
 30
0.0
 11
126.0
 21
21.0
 31
0.0
 70
   160
  1
（max.<>）
  3
BIGT$0
100
AcDbAlignedDimension
 13
87.0
 23
4.2
 33
0.0
 14
165.0
 24
11.8
 34
0.0
100
AcDbRotatedDimension
  0
LEADER
  5
CFD
330
1A
100
AcDbEntity
  8
250
  6
CONTINUOUS
100
AcDbLeader
  3
BIGT
 76
     2
 10
-10.66962138
 20
-18.71651893
 30
0.0
 10
-16.04440773
 20
-28.02592197
 30
0.0
1001
ACAD
1000
DSTYLE
1002
{
1070
     6
1000
OPEN
1070
   343
1005
594
1002
}
  0
MTEXT
  5
CFE
330
1A
100
AcDbEntity
  8
251
  6
CONTINUOUS
100
AcDbMText
 10
-37.5110744
 20
-27.02592197
 30
0.0
 40
2.8
 41
0.0
 71
     7
 72
     1
  1
HSK-A50
  7
YOKO
1001
ITEMNAME
1000
LNSP3
1001
ACAD
1000
MTEXTBEGIN
1070
    73
1070
     1
1070
    44
1040
1.0
1070
    74
1070
     0
1000
MTEXTEND
1000
MTEXTBEGIN
1070
    73
1070
     1
1070
    44
1040
1.0
1070
    74
1070
     0
1000
MTEXTEND
1000
MTEXTBEGIN
1070
    73
1070
     1
1070
    44
1040
1.0
1070
    74
1070
     0
1000
MTEXTEND
1000
MTEXTBEGIN
1070
    73
1070
     1
1070
    44
1040
1.0
1070
    74
1070
     0
1000
MTEXTEND
  0
LINE
  5
CFF
330
1A
100
AcDbEntity
  8
250
  6
CONTINUOUS
100
AcDbLine
 10
-16.04440773
 20
-28.02592197
 30
0.0
 11
-40.3110744
 21
-28.02592197
 31
0.0
1001
ITEMNAME
1000
LNSP2
  0
DIMENSION
  5
DD4
330
1A
100
AcDbEntity
  8
250
  6
CONTINUOUS
100
AcDbDimension
  2
*D6
 10
174.00513705
 20
4.0
 30
0.0
 11
174.00513705
 21
-1.115
 31
0.0
 70
   160
  1
max.{\H3;\U+2205}<>
  3
BIGT$0
100
AcDbAlignedDimension
 13
161.69800248
 23
-4.0
 33
0.0
 14
161.99800248
 24
4.0
 34
0.0
 50
90.0
100
AcDbRotatedDimension
1001
ACAD
1000
DSTYLE
1002
{
1070
     5
1000

1070
   173
1070
     1
1070
     7
1000
OPEN
1070
    75
1070
     1
1070
     6
1000
NONE
1002
}
  0
DIMENSION
  5
DD5
330
1A
100
AcDbEntity
  8
250
  6
CONTINUOUS
100
AcDbDimension
  2
*D7
 10
181.0
 20
12.5
 30
0.0
 11
178.5
 21
0.0
 31
0.0
 70
    32
  1
{\H3;\U+2205}<>
  3
BIGT$0
100
AcDbAlignedDimension
 13
164.3
 23
-12.5
 33
0.0
 14
164.3
 24
12.5
 34
0.0
 50
90.0
100
AcDbRotatedDimension
  0
DIMENSION
  5
E47
330
1A
100
AcDbEntity
  8
250
  6
CONTINUOUS
100
AcDbDimension
  2
*D8
 10
165.0
 20
28.0
 30
0.0
 11
99.5
 21
30.5
 31
0.0
 70
    32
  3
BIGT$0
100
AcDbAlignedDimension
 13
34.0
 23
19.8
 33
0.0
 14
165.0
 24
11.8
 34
0.0
100
AcDbRotatedDimension
  0
INSERT
  5
104F
330
1A
100
AcDbEntity
  8
245
100
AcDbBlockReference
  2
1
 10
0.0
 20
0.0
 30
0.0
  0
VIEWPORT
  5
22
330
17
100
AcDbEntity
 67
     1
  8
0
100
AcDbViewport
 10
261.51769912
 20
148.5
 30
0.0
 40
523.03539823
 41
297.0
 68
     1
 69
     1
1001
ACAD
1000
MVIEW
1002
{
1070
    16
1010
0.0
1020
0.0
1030
0.0
1010
0.0
1020
0.0
1030
1.0
1040
0.0
1040
297.0
1040
261.51769912
1040
148.5
1040
50.0
1040
0.0
1040
0.0
1070
     0
1070
   100
1070
     1
1070
     1
1070
     0
1070
     0
1070
     0
1070
     0
1040
0.0
1040
0.0
1040
0.0
1040
1.0
1040
1.0
1040
10.0
1040
10.0
1070
     0
1002
{
1002
}
1002
}
  0
ENDSEC
  0
SECTION
  2
OBJECTS
  0
DICTIONARY
  5
C
330
0
100
AcDbDictionary
  3
ACAD_GROUP
350
D
  3
ACAD_LAYOUT
350
565
  3
ACAD_MLINESTYLE
350
E
  3
ACAD_PLOTSETTINGS
350
566
  3
ACAD_PLOTSTYLENAME
350
563
  3
ACDBHEADERROUNDTRIPXREC
350
1051
  3
GRADE_DWG
350
540
  0
DICTIONARY
  5
AB1
330
1A
100
AcDbDictionary
280
     1
  3
ACAD_LAYOUTSELFREF
360
1073
  0
DICTIONARY
  5
AAF
330
17
100
AcDbDictionary
280
     1
  3
ACAD_LAYOUTSELFREF
360
1072
  0
DICTIONARY
  5
D
102
{ACAD_REACTORS
330
C
102
}
330
C
100
AcDbDictionary
  3
*A1
350
6C7
  3
*A2
350
6C8
  3
*A3
350
6D4
  3
*A4
350
6D5
  3
DREC-1
350
5FC
  3
DREC-2
350
654
  3
DREC-3
350
673
  0
DICTIONARY
  5
565
102
{ACAD_REACTORS
330
C
102
}
330
C
100
AcDbDictionary
  0
DICTIONARY
  5
E
102
{ACAD_REACTORS
330
C
102
}
330
C
100
AcDbDictionary
  3
STANDARD
350
13
  0
DICTIONARY
  5
566
102
{ACAD_REACTORS
330
C
102
}
330
C
100
AcDbDictionary
  3
A3_0_5倍_
350
758
  3
A3_1倍_
350
757
  3
A3_1倍__2000_
350
707
  3
A3_2倍_
350
759
  3
A4_0_5倍_
350
755
  3
A4_1倍_
350
754
  3
A4_1倍__2000_
350
708
  3
A4_2倍_
350
756
  0
ACDBDICTIONARYWDFLT
  5
563
102
{ACAD_REACTORS
330
C
102
}
330
C
100
AcDbDictionary
281
     1
  3
Normal
350
564
100
AcDbDictionaryWithDefault
340
564
  0
DICTIONARY
  5
1051
102
{ACAD_REACTORS
330
C
102
}
330
C
100
AcDbDictionary
  3
CEPSNTYPE
350
105B
  3
DIMSTYLEDATA
350
105F
  3
FINGERPRINTGUID
350
105C
  3
HYPERLINKBASE
350
1054
  3
INSUNITS
350
105A
  3
LAYOUTDICT
350
1056
  3
LWETCUNION
350
1059
  3
PLOTSETDICT
350
1057
  3
PLOTSTYLNAMDICT
350
1058
  3
PSVPSCALE
350
105E
  3
PUCSBASE
350
1062
  3
PUCSORGBACK
350
1068
  3
PUCSORGBOTTOM
350
1064
  3
PUCSORGFRONT
350
1067
  3
PUCSORGLEFT
350
1065
  3
PUCSORGRIGHT
350
1066
  3
PUCSORGTOP
350
1063
  3
PUCSORTHOREF
350
1060
  3
PUCSORTHOVIEW
350
1061
  3
STYLESHEET
350
1055
  3
TSTACKALIGN
350
1052
  3
TSTACKSIZE
350
1053
  3
UCSBASE
350
106B
  3
UCSORGBACK
350
1071
  3
UCSORGBOTTOM
350
106D
  3
UCSORGFRONT
350
1070
  3
UCSORGLEFT
350
106E
  3
UCSORGRIGHT
350
106F
  3
UCSORGTOP
350
106C
  3
UCSORTHOREF
350
1069
  3
UCSORTHOVIEW
350
106A
  3
VERSIONGUID
350
105D
  0
DICTIONARY
  5
540
102
{ACAD_REACTORS
330
C
102
}
330
C
100
AcDbDictionary
  3
VERSION
350
560
  0
XRECORD
  5
1073
102
{ACAD_REACTORS
330
AB1
102
}
330
AB1
100
AcDbXrecord
340
1A
  0
XRECORD
  5
1072
102
{ACAD_REACTORS
330
AAF
102
}
330
AAF
100
AcDbXrecord
340
17
  0
GROUP
  5
6C7
102
{ACAD_REACTORS
330
D
102
}
330
D
100
AcDbGroup
300

 70
     0
 71
     1
1001
GRPNAME
1000
DMA00
  0
GROUP
  5
6C8
102
{ACAD_REACTORS
330
D
102
}
330
D
100
AcDbGroup
300

 70
     0
 71
     1
1001
GRPNAME
1000
DMA00
  0
GROUP
  5
6D4
102
{ACAD_REACTORS
330
D
102
}
330
D
100
AcDbGroup
300

 70
     0
 71
     1
1001
GRPNAME
1000
DMA00
  0
GROUP
  5
6D5
102
{ACAD_REACTORS
330
D
102
}
330
D
100
AcDbGroup
300

 70
     0
 71
     1
1001
GRPNAME
1000
DMA00
  0
GROUP
  5
5FC
102
{ACAD_REACTORS
330
D
102
}
330
D
100
AcDbGroup
300

 70
     0
 71
     1
1001
GRPNAME
1000
DREC-
1001
GPARA
1000
xsiz
1000
44.182
1000
ysiz
1000
40.677
1000
angl
1000
0
1000
ctyp
1000
0
1000
csiz
1000
5
1000
lfnt
1000
cont
1000
hcnt
1000
hoff
1000
vcnt
1000
voff
1000
opnt
1000
4
1000
dxpt
1000
0
1000
dypt
1000
0
  0
GROUP
  5
654
102
{ACAD_REACTORS
330
D
102
}
330
D
100
AcDbGroup
300

 70
     0
 71
     1
1001
GRPNAME
1000
DREC-
1001
GPARA
1000
xsiz
1000
54.592
1000
ysiz
1000
53.036
1000
angl
1000
0
1000
ctyp
1000
0
1000
csiz
1000
5
1000
lfnt
1000
cont
1000
hcnt
1000
hoff
1000
vcnt
1000
voff
1000
opnt
1000
4
1000
dxpt
1000
0
1000
dypt
1000
0
  0
GROUP
  5
673
102
{ACAD_REACTORS
330
D
102
}
330
D
100
AcDbGroup
300

 70
     0
 71
     1
1001
GRPNAME
1000
DREC-
1001
GPARA
1000
xsiz
1000
30.363
1000
ysiz
1000
36.175
1000
angl
1000
0
1000
ctyp
1000
0
1000
csiz
1000
5
1000
lfnt
1000
cont
1000
hcnt
1000
hoff
1000
vcnt
1000
voff
1000
opnt
1000
4
1000
dxpt
1000
0
1000
dypt
1000
0
  0
MLINESTYLE
  5
13
102
{ACAD_REACTORS
330
E
102
}
330
E
100
AcDbMlineStyle
  2
STANDARD
 70
     0
  3

 62
     0
 51
90.0
 52
90.0
 71
     2
 49
0.5
 62
   256
  6
BYLAYER
 49
-0.5
 62
   256
  6
BYLAYER
  0
PLOTSETTINGS
  5
758
102
{ACAD_REACTORS
330
566
102
}
330
566
100
AcDbPlotSettings
  1
A3(0.5倍)
  2
\\AWTECPC05\HP DeskJet 1120C
  4
A3
  6

 40
5.95841646
 41
13.49375153
 42
6.04309082
 43
3.67242432
 44
296.92599487
 45
419.94665527
 46
89.96
 47
127.14
 48
0.0
 49
0.0
140
0.0
141
0.0
142
1.0
143
2.0
 70
  1716
 72
     1
 73
     1
 74
     2
  7
big.ctb
 75
    17
147
0.5
148
0.0
149
0.0
  0
PLOTSETTINGS
  5
757
102
{ACAD_REACTORS
330
566
102
}
330
566
100
AcDbPlotSettings
  1
A3(1倍)
  2
\\AWTECPC05\HP DeskJet 1120C
  4
A3
  6

 40
5.95841646
 41
13.49375153
 42
6.04309082
 43
3.67242432
 44
296.92599487
 45
419.94665527
 46
37.46
 47
52.89
 48
0.0
 49
0.0
140
0.0
141
0.0
142
1.0
143
1.0
 70
  1716
 72
     1
 73
     1
 74
     2
  7
big.ctb
 75
    16
147
1.0
148
0.0
149
0.0
  0
PLOTSETTINGS
  5
707
102
{ACAD_REACTORS
330
566
102
}
330
566
100
AcDbPlotSettings
  1
A3(1倍)(2000)
  2
SII LS-1300 (D-SCAN)
  4
User258
  6

 40
3.17499995
 41
3.17499995
 42
3.17498779
 43
3.17498779
 44
419.98898315
 45
296.98950195
 46
58.32
 47
40.32
 48
0.0
 49
0.0
140
0.0
141
0.0
142
1.0
143
1.0
 70
  1716
 72
     1
 73
     0
 74
     2
  7
big.ctb
 75
    16
147
1.0
148
0.0
149
0.0
  0
PLOTSETTINGS
  5
759
102
{ACAD_REACTORS
330
566
102
}
330
566
100
AcDbPlotSettings
  1
A3(2倍)
  2
\\AWTECPC05\HP DeskJet 1120C
  4
A3
  6

 40
5.95841646
 41
13.49375153
 42
6.04309082
 43
3.67242432
 44
296.92599487
 45
419.94665527
 46
-67.54
 47
-95.61
 48
0.0
 49
0.0
140
0.0
141
0.0
142
1.0
143
0.5
 70
  1716
 72
     1
 73
     1
 74
     2
  7
big.ctb
 75
    27
147
2.0
148
0.0
149
0.0
  0
PLOTSETTINGS
  5
755
102
{ACAD_REACTORS
330
566
102
}
330
566
100
AcDbPlotSettings
  1
A4(0.5倍)
  2
\\AWTECPC05\HP DeskJet 1120C
  4
A4
  6

 40
4.18041658
 41
13.49374962
 42
4.18040466
 43
3.92642212
 44
209.97332764
 45
296.92599487
 46
48.31
 47
65.5
 48
0.0
 49
0.0
140
0.0
141
0.0
142
1.0
143
2.0
 70
  1716
 72
     1
 73
     1
 74
     2
  7
big.ctb
 75
    17
147
0.5
148
0.0
149
0.0
  0
PLOTSETTINGS
  5
754
102
{ACAD_REACTORS
330
566
102
}
330
566
100
AcDbPlotSettings
  1
A4(1倍)
  2
\\AWTECPC05\HP DeskJet 1120C
  4
A4
  6

 40
4.18041658
 41
13.49374962
 42
4.18040466
 43
3.92642212
 44
209.97332764
 45
296.92599487
 46
-4.19
 47
-8.75
 48
0.0
 49
0.0
140
0.0
141
0.0
142
1.0
143
1.0
 70
  1716
 72
     1
 73
     1
 74
     2
  7
big.ctb
 75
    16
147
1.0
148
0.0
149
0.0
  0
PLOTSETTINGS
  5
708
102
{ACAD_REACTORS
330
566
102
}
330
566
100
AcDbPlotSettings
  1
A4(1倍)(2000)
  2
SII LS-1300 (D-SCAN)
  4
User259
  6

 40
3.17499995
 41
3.17499995
 42
3.17498779
 43
3.17500305
 44
296.98950195
 45
209.99449158
 46
-3.18
 47
-3.18
 48
0.0
 49
0.0
140
0.0
141
0.0
142
1.0
143
1.0
 70
  1716
 72
     1
 73
     0
 74
     2
  7
big.ctb
 75
    16
147
1.0
148
0.0
149
0.0
  0
PLOTSETTINGS
  5
756
102
{ACAD_REACTORS
330
566
102
}
330
566
100
AcDbPlotSettings
  1
A4(2倍)
  2
\\AWTECPC05\HP DeskJet 1120C
  4
A4
  6

 40
4.18041658
 41
13.49374962
 42
4.18040466
 43
3.92642212
 44
209.97332764
 45
296.92599487
 46
-109.19
 47
-157.25
 48
0.0
 49
0.0
140
0.0
141
0.0
142
1.0
143
0.5
 70
  1716
 72
     1
 73
     1
 74
     2
  7
big.ctb
 75
    27
147
2.0
148
0.0
149
0.0
  0
ACDBPLACEHOLDER
  5
564
102
{ACAD_REACTORS
330
563
102
}
330
563
100
AcDbPlaceHolder
280
     0
  0
XRECORD
  5
105B
102
{ACAD_REACTORS
330
1051
102
}
330
1051
100
AcDbXrecord
 90
        0
  0
XRECORD
  5
105F
102
{ACAD_REACTORS
330
1051
102
}
330
1051
100
AcDbXrecord
1000
DSTYLE
1002
{
1070
   341
340
594
1070
   343
340
594
1070
   344
340
594
1002
}
  0
XRECORD
  5
105C
102
{ACAD_REACTORS
330
1051
102
}
330
1051
100
AcDbXrecord
  1
{51294030-9CB4-11D3-8E18-00A0C925D94D}
  0
XRECORD
  5
1054
102
{ACAD_REACTORS
330
1051
102
}
330
1051
100
AcDbXrecord
  1

  0
XRECORD
  5
105A
102
{ACAD_REACTORS
330
1051
102
}
330
1051
100
AcDbXrecord
 90
        0
  0
XRECORD
  5
1056
102
{ACAD_REACTORS
330
1051
102
}
330
1051
100
AcDbXrecord
340
565
  0
XRECORD
  5
1059
102
{ACAD_REACTORS
330
1051
102
}
330
1051
100
AcDbXrecord
 90
    10781
  0
XRECORD
  5
1057
102
{ACAD_REACTORS
330
1051
102
}
330
1051
100
AcDbXrecord
340
566
  0
XRECORD
  5
1058
102
{ACAD_REACTORS
330
1051
102
}
330
1051
100
AcDbXrecord
340
563
  0
XRECORD
  5
105E
102
{ACAD_REACTORS
330
1051
102
}
330
1051
100
AcDbXrecord
 40
0.0
  0
XRECORD
  5
1062
102
{ACAD_REACTORS
330
1051
102
}
330
1051
100
AcDbXrecord
340
0
  0
XRECORD
  5
1068
102
{ACAD_REACTORS
330
1051
102
}
330
1051
100
AcDbXrecord
 10
0.0
 20
0.0
 30
0.0
  0
XRECORD
  5
1064
102
{ACAD_REACTORS
330
1051
102
}
330
1051
100
AcDbXrecord
 10
0.0
 20
0.0
 30
0.0
  0
XRECORD
  5
1067
102
{ACAD_REACTORS
330
1051
102
}
330
1051
100
AcDbXrecord
 10
0.0
 20
0.0
 30
0.0
  0
XRECORD
  5
1065
102
{ACAD_REACTORS
330
1051
102
}
330
1051
100
AcDbXrecord
 10
0.0
 20
0.0
 30
0.0
  0
XRECORD
  5
1066
102
{ACAD_REACTORS
330
1051
102
}
330
1051
100
AcDbXrecord
 10
0.0
 20
0.0
 30
0.0
  0
XRECORD
  5
1063
102
{ACAD_REACTORS
330
1051
102
}
330
1051
100
AcDbXrecord
 10
0.0
 20
0.0
 30
0.0
  0
XRECORD
  5
1060
102
{ACAD_REACTORS
330
1051
102
}
330
1051
100
AcDbXrecord
340
0
  0
XRECORD
  5
1061
102
{ACAD_REACTORS
330
1051
102
}
330
1051
100
AcDbXrecord
 70
     0
  0
XRECORD
  5
1055
102
{ACAD_REACTORS
330
1051
102
}
330
1051
100
AcDbXrecord
  1
big.ctb
  0
XRECORD
  5
1052
102
{ACAD_REACTORS
330
1051
102
}
330
1051
100
AcDbXrecord
 90
        1
  0
XRECORD
  5
1053
102
{ACAD_REACTORS
330
1051
102
}
330
1051
100
AcDbXrecord
 90
       70
  0
XRECORD
  5
106B
102
{ACAD_REACTORS
330
1051
102
}
330
1051
100
AcDbXrecord
340
0
  0
XRECORD
  5
1071
102
{ACAD_REACTORS
330
1051
102
}
330
1051
100
AcDbXrecord
 10
0.0
 20
0.0
 30
0.0
  0
XRECORD
  5
106D
102
{ACAD_REACTORS
330
1051
102
}
330
1051
100
AcDbXrecord
 10
0.0
 20
0.0
 30
0.0
  0
XRECORD
  5
1070
102
{ACAD_REACTORS
330
1051
102
}
330
1051
100
AcDbXrecord
 10
0.0
 20
0.0
 30
0.0
  0
XRECORD
  5
106E
102
{ACAD_REACTORS
330
1051
102
}
330
1051
100
AcDbXrecord
 10
0.0
 20
0.0
 30
0.0
  0
XRECORD
  5
106F
102
{ACAD_REACTORS
330
1051
102
}
330
1051
100
AcDbXrecord
 10
0.0
 20
0.0
 30
0.0
  0
XRECORD
  5
106C
102
{ACAD_REACTORS
330
1051
102
}
330
1051
100
AcDbXrecord
 10
0.0
 20
0.0
 30
0.0
  0
XRECORD
  5
1069
102
{ACAD_REACTORS
330
1051
102
}
330
1051
100
AcDbXrecord
340
0
  0
XRECORD
  5
106A
102
{ACAD_REACTORS
330
1051
102
}
330
1051
100
AcDbXrecord
 70
     0
  0
XRECORD
  5
105D
102
{ACAD_REACTORS
330
1051
102
}
330
1051
100
AcDbXrecord
  1
{CB3732C4-81B5-4137-A714-4A96EF158275}
  0
XRECORD
  5
560
102
{ACAD_REACTORS
330
540
102
}
330
540
100
AcDbXrecord
  1
2.0.0
  0
ENDSEC
  0
EOF
