  0
SECTION
  2
HEADER
  9
$ACADVER
  1
AC1014
  9
$ACADMAINTVER
 70
     9
  9
$DWGCODEPAGE
  3
ANSI_932
  9
$INSBASE
 10
0.0
 20
0.0
 30
0.0
  9
$EXTMIN
 10
-40.3239731
 20
-28.03773424
 30
-0.00152582
  9
$EXTMAX
 10
88.03242904
 20
57.01288841
 30
0.00000003
  9
$LIMMIN
 10
0.0
 20
0.0
  9
$LIMMAX
 10
420.0
 20
297.0
  9
$ORTHOMODE
 70
     0
  9
$REGENMODE
 70
     1
  9
$FILLMODE
 70
     1
  9
$QTEXTMODE
 70
     0
  9
$MIRRTEXT
 70
     1
  9
$DRAGMODE
 70
     2
  9
$LTSCALE
 40
10.0
  9
$OSMODE
 70
   549
  9
$ATTMODE
 70
     1
  9
$TEXTSIZE
 40
3.0
  9
$TRACEWID
 40
1.0
  9
$TEXTSTYLE
  7
YOKO
  9
$CLAYER
  8
245
  9
$CELTYPE
  6
BYLAYER
  9
$CECOLOR
 62
   256
  9
$CELTSCALE
 40
1.0
  9
$DELOBJ
 70
     1
  9
$DISPSILH
 70
     0
  9
$DIMSCALE
 40
1.0
  9
$DIMASZ
 40
2.23
  9
$DIMEXO
 40
0.5
  9
$DIMDLI
 40
2.5
  9
$DIMRND
 40
0.0
  9
$DIMDLE
 40
0.0
  9
$DIMEXE
 40
1.0
  9
$DIMTP
 40
0.0
  9
$DIMTM
 40
0.0
  9
$DIMTXT
 40
2.8
  9
$DIMCEN
 40
0.0
  9
$DIMTSZ
 40
0.0
  9
$DIMTOL
 70
     0
  9
$DIMLIM
 70
     0
  9
$DIMTIH
 70
     0
  9
$DIMTOH
 70
     0
  9
$DIMSE1
 70
     0
  9
$DIMSE2
 70
     0
  9
$DIMTAD
 70
     3
  9
$DIMZIN
 70
     8
  9
$DIMBLK
  1

  9
$DIMASO
 70
     1
  9
$DIMSHO
 70
     1
  9
$DIMPOST
  1

  9
$DIMAPOST
  1

  9
$DIMALT
 70
     0
  9
$DIMALTD
 70
     2
  9
$DIMALTF
 40
25.4
  9
$DIMLFAC
 40
1.0
  9
$DIMTOFL
 70
     1
  9
$DIMTVP
 40
0.0
  9
$DIMTIX
 70
     1
  9
$DIMSOXD
 70
     0
  9
$DIMSAH
 70
     1
  9
$DIMBLK1
  1
OPEN
  9
$DIMBLK2
  1
OPEN
  9
$DIMSTYLE
  2
BIGT
  9
$DIMCLRD
 70
   256
  9
$DIMCLRE
 70
   256
  9
$DIMCLRT
 70
    40
  9
$DIMTFAC
 40
1.0
  9
$DIMGAP
 40
1.0
  9
$DIMJUST
 70
     0
  9
$DIMSD1
 70
     0
  9
$DIMSD2
 70
     0
  9
$DIMTOLJ
 70
     1
  9
$DIMTZIN
 70
     8
  9
$DIMALTZ
 70
     0
  9
$DIMALTTZ
 70
     0
  9
$DIMFIT
 70
     3
  9
$DIMUPT
 70
     0
  9
$DIMUNIT
 70
     2
  9
$DIMDEC
 70
     3
  9
$DIMTDEC
 70
     3
  9
$DIMALTU
 70
     2
  9
$DIMALTTD
 70
     2
  9
$DIMTXSTY
  7
STANDARD
  9
$DIMAUNIT
 70
     0
  9
$LUNITS
 70
     2
  9
$LUPREC
 70
     3
  9
$SKETCHINC
 40
1.0
  9
$FILLETRAD
 40
0.0
  9
$AUNITS
 70
     0
  9
$AUPREC
 70
     3
  9
$MENU
  1
.
  9
$ELEVATION
 40
0.0
  9
$PELEVATION
 40
0.0
  9
$THICKNESS
 40
0.0
  9
$LIMCHECK
 70
     0
  9
$BLIPMODE
 70
     0
  9
$CHAMFERA
 40
10.0
  9
$CHAMFERB
 40
10.0
  9
$CHAMFERC
 40
0.0
  9
$CHAMFERD
 40
0.0
  9
$SKPOLY
 70
     0
  9
$TDCREATE
 40
2455141.612485347
  9
$TDUPDATE
 40
2455383.558983287
  9
$TDINDWG
 40
0.0099896759
  9
$TDUSRTIMER
 40
0.0099896759
  9
$USRTIMER
 70
     1
  9
$ANGBASE
 50
0.0
  9
$ANGDIR
 70
     0
  9
$PDMODE
 70
     1
  9
$PDSIZE
 40
-5.0
  9
$PLINEWID
 40
0.0
  9
$COORDS
 70
     1
  9
$SPLFRAME
 70
     0
  9
$SPLINETYPE
 70
     6
  9
$SPLINESEGS
 70
     8
  9
$ATTDIA
 70
     0
  9
$ATTREQ
 70
     1
  9
$HANDLING
 70
-16383
  9
$HANDSEED
  5
14FB
  9
$SURFTAB1
 70
     6
  9
$SURFTAB2
 70
     6
  9
$SURFTYPE
 70
     6
  9
$SURFU
 70
     6
  9
$SURFV
 70
     6
  9
$UCSNAME
  2

  9
$UCSORG
 10
0.0
 20
0.0
 30
0.0
  9
$UCSXDIR
 10
1.0
 20
0.0
 30
0.0
  9
$UCSYDIR
 10
0.0
 20
1.0
 30
0.0
  9
$PUCSNAME
  2

  9
$PUCSORG
 10
0.0
 20
0.0
 30
0.0
  9
$PUCSXDIR
 10
1.0
 20
0.0
 30
0.0
  9
$PUCSYDIR
 10
0.0
 20
1.0
 30
0.0
  9
$USERI1
 70
     1
  9
$USERI2
 70
     0
  9
$USERI3
 70
     0
  9
$USERI4
 70
     0
  9
$USERI5
 70
     0
  9
$USERR1
 40
0.0
  9
$USERR2
 40
0.0
  9
$USERR3
 40
0.0
  9
$USERR4
 40
0.0
  9
$USERR5
 40
0.0
  9
$WORLDVIEW
 70
     1
  9
$SHADEDGE
 70
     3
  9
$SHADEDIF
 70
    70
  9
$TILEMODE
 70
     1
  9
$MAXACTVP
 70
    16
  9
$PINSBASE
 10
0.0
 20
0.0
 30
0.0
  9
$PLIMCHECK
 70
     0
  9
$PEXTMIN
 10
1.00000000E+20
 20
1.00000000E+20
 30
1.00000000E+20
  9
$PEXTMAX
 10
-1.00000000E+20
 20
-1.00000000E+20
 30
-1.00000000E+20
  9
$PLIMMIN
 10
0.0
 20
0.0
  9
$PLIMMAX
 10
420.0
 20
297.0
  9
$UNITMODE
 70
     0
  9
$VISRETAIN
 70
     0
  9
$PLINEGEN
 70
     0
  9
$PSLTSCALE
 70
     1
  9
$TREEDEPTH
 70
  3020
  9
$PICKSTYLE
 70
     0
  9
$CMLSTYLE
  2
STANDARD
  9
$CMLJUST
 70
     0
  9
$CMLSCALE
 40
1.0
  9
$PROXYGRAPHICS
 70
     1
  9
$MEASUREMENT
 70
     1
  0
ENDSEC
  0
SECTION
  2
CLASSES
  0
CLASS
  1
XRECORD
  2
AcDbXrecord
  3
AutoCAD 2000
 90
        0
280
     0
281
     0
  0
CLASS
  1
ACDBDICTIONARYWDFLT
  2
AcDbDictionaryWithDefault
  3
AutoCAD 2000
 90
        0
280
     0
281
     0
  0
CLASS
  1
ACDBPLACEHOLDER
  2
AcDbPlaceHolder
  3
AutoCAD 2000
 90
        0
280
     0
281
     0
  0
CLASS
  1
LAYOUT
  2
AcDbLayout
  3
AutoCAD 2000
 90
        0
280
     0
281
     0
  0
CLASS
  1
PLOTSETTINGS
  2
AcDbPlotSettings
  3
AutoCAD 2000
 90
        0
280
     0
281
     0
  0
CLASS
  1
LONG_TRANSACTION
  2
AcDbLongTransaction
  3
AutoCAD 2000
 90
        0
280
     0
281
     0
  0
CLASS
  1
LWPOLYLINE
  2
AcDbPolyline
  3
AutoCAD 2000
 90
        0
280
     0
281
     1
  0
CLASS
  1
HATCH
  2
AcDbHatch
  3
AutoCAD 2000
 90
        0
280
     0
281
     1
  0
CLASS
  1
XRECORD
  2
AcDbXrecord
  3
AutoCAD 2000
 90
        0
280
     0
281
     0
  0
CLASS
  1
LONG_TRANSACTION
  2
AcDbLongTransaction
  3
AutoCAD 2000
 90
        0
280
     0
281
     0
  0
CLASS
  1
LWPOLYLINE
  2
AcDbPolyline
  3
AutoCAD 2000
 90
        0
280
     0
281
     1
  0
CLASS
  1
HATCH
  2
AcDbHatch
  3
AutoCAD 2000
 90
        0
280
     0
281
     1
  0
CLASS
  1
XRECORD
  2
AcDbXrecord
  3
AutoCAD 2000
 90
        0
280
     0
281
     0
  0
ENDSEC
  0
SECTION
  2
TABLES
  0
TABLE
  2
VPORT
  5
8
330
0
100
AcDbSymbolTable
 70
     2
  0
VPORT
  5
14D6
330
8
100
AcDbSymbolTableRecord
100
AcDbViewportTableRecord
  2
*ACTIVE
 70
     0
 10
0.0
 20
0.0
 11
1.0
 21
1.0
 12
23.85422797
 22
14.48757709
 13
0.0
 23
0.0
 14
7.0
 24
7.0
 15
7.0
 25
7.0
 16
0.0
 26
0.0
 36
1.0
 17
0.0
 27
0.0
 37
0.0
 40
88.62937227
 41
1.45595855
 42
50.0
 43
0.0
 44
0.0
 50
0.0
 51
0.0
 71
     0
 72
  2000
 73
     1
 74
     0
 75
     0
 76
     0
 77
     0
 78
     0
  0
ENDTAB
  0
TABLE
  2
LTYPE
  5
5
330
0
100
AcDbSymbolTable
 70
     4
  0
LTYPE
  5
14
330
5
100
AcDbSymbolTableRecord
100
AcDbLinetypeTableRecord
  2
BYBLOCK
 70
     0
  3

 72
    65
 73
     0
 40
0.0
  0
LTYPE
  5
15
330
5
100
AcDbSymbolTableRecord
100
AcDbLinetypeTableRecord
  2
BYLAYER
 70
     0
  3

 72
    65
 73
     0
 40
0.0
  0
LTYPE
  5
16
330
5
100
AcDbSymbolTableRecord
100
AcDbLinetypeTableRecord
  2
CONTINUOUS
 70
     0
  3
Solid line
 72
    65
 73
     0
 40
0.0
  0
LTYPE
  5
258
330
5
100
AcDbSymbolTableRecord
100
AcDbLinetypeTableRecord
  2
CENTER2
 70
     0
  3
___ _ ___ _ ___ _ ___ _ ___ _ ___ _ ___ _ ___ _
 72
    65
 73
     4
 40
1.125
 49
0.75
 74
     0
 49
-0.125
 74
     0
 49
0.125
 74
     0
 49
-0.125
 74
     0
  0
LTYPE
  5
25C
330
5
100
AcDbSymbolTableRecord
100
AcDbLinetypeTableRecord
  2
HIDDEN2
 70
     0
  3
_ _ _ _ _ _ _ _ _ _ _ _ _ _ _ _ _ _ _ _ _ _ _ _
 72
    65
 73
     2
 40
0.1875
 49
0.125
 74
     0
 49
-0.0625
 74
     0
  0
LTYPE
  5
25D
330
5
100
AcDbSymbolTableRecord
100
AcDbLinetypeTableRecord
  2
PHANTOM2
 70
     0
  3
___ _ _ ___ _ _ ___ _ _ ___ _ _ ___ _ _ ___ _ _
 72
    65
 73
     6
 40
1.25
 49
0.625
 74
     0
 49
-0.125
 74
     0
 49
0.125
 74
     0
 49
-0.125
 74
     0
 49
0.125
 74
     0
 49
-0.125
 74
     0
  0
ENDTAB
  0
TABLE
  2
LAYER
  5
2
330
0
100
AcDbSymbolTable
 70
    12
  0
LAYER
  5
F
330
2
100
AcDbSymbolTableRecord
100
AcDbLayerTableRecord
  2
0
 70
     0
 62
     7
  6
CONTINUOUS
  0
LAYER
  5
1AA
330
2
100
AcDbSymbolTableRecord
100
AcDbLayerTableRecord
  2
240
 70
     0
 62
     4
  6
CONTINUOUS
  0
LAYER
  5
1AB
330
2
100
AcDbSymbolTableRecord
100
AcDbLayerTableRecord
  2
241
 70
     0
 62
   211
  6
CONTINUOUS
  0
LAYER
  5
1AF
330
2
100
AcDbSymbolTableRecord
100
AcDbLayerTableRecord
  2
245
 70
     0
 62
     2
  6
CENTER2
  0
LAYER
  5
21A
330
2
100
AcDbSymbolTableRecord
100
AcDbLayerTableRecord
  2
246
 70
     0
 62
     3
  6
PHANTOM2
  0
LAYER
  5
21E
330
2
100
AcDbSymbolTableRecord
100
AcDbLayerTableRecord
  2
250
 70
     0
 62
     3
  6
CONTINUOUS
  0
LAYER
  5
21F
330
2
100
AcDbSymbolTableRecord
100
AcDbLayerTableRecord
  2
251
 70
     0
 62
    40
  6
CONTINUOUS
  0
LAYER
  5
5C4
330
2
100
AcDbSymbolTableRecord
100
AcDbLayerTableRecord
  2
DEFPOINTS
 70
     0
 62
     7
  6
CONTINUOUS
  0
LAYER
  5
122B
330
2
100
AcDbSymbolTableRecord
100
AcDbLayerTableRecord
  2
242
 70
     0
 62
     3
  6
CONTINUOUS
  0
ENDTAB
  0
TABLE
  2
STYLE
  5
3
330
0
100
AcDbSymbolTable
 70
     2
  0
STYLE
  5
10
330
3
100
AcDbSymbolTableRecord
100
AcDbTextStyleTableRecord
  2
STANDARD
 70
     0
 40
0.0
 41
1.0
 50
0.0
 71
     0
 42
3.0
  3
romans.shx
  4
BIGFONT.SHX
  0
STYLE
  5
339
330
3
100
AcDbSymbolTableRecord
100
AcDbTextStyleTableRecord
  2
YOKO
 70
     0
 40
0.0
 41
1.0
 50
0.0
 71
     0
 42
3.0
  3
romans.shx
  4
extfont.shx
  0
ENDTAB
  0
TABLE
  2
VIEW
  5
6
330
0
100
AcDbSymbolTable
 70
     0
  0
ENDTAB
  0
TABLE
  2
UCS
  5
7
330
0
100
AcDbSymbolTable
 70
     0
  0
ENDTAB
  0
TABLE
  2
APPID
  5
9
330
0
100
AcDbSymbolTable
 70
    14
  0
APPID
  5
11
330
9
100
AcDbSymbolTableRecord
100
AcDbRegAppTableRecord
  2
ACAD
 70
     0
  0
APPID
  5
1B1
330
9
100
AcDbSymbolTableRecord
100
AcDbRegAppTableRecord
  2
GLOBAL
 70
     0
  0
APPID
  5
2A4
330
9
100
AcDbSymbolTableRecord
100
AcDbRegAppTableRecord
  2
DETAIL
 70
     0
  0
APPID
  5
5FD
330
9
100
AcDbSymbolTableRecord
100
AcDbRegAppTableRecord
  2
GRPNAME
 70
     0
  0
APPID
  5
5FE
330
9
100
AcDbSymbolTableRecord
100
AcDbRegAppTableRecord
  2
GPARA
 70
     0
  0
APPID
  5
6C4
330
9
100
AcDbSymbolTableRecord
100
AcDbRegAppTableRecord
  2
DCO15
 70
     0
  0
APPID
  5
6C5
330
9
100
AcDbSymbolTableRecord
100
AcDbRegAppTableRecord
  2
ITEMNAME
 70
     0
  0
APPID
  5
6C6
330
9
100
AcDbSymbolTableRecord
100
AcDbRegAppTableRecord
  2
GRADE_0
 70
     0
  0
APPID
  5
A9F
330
9
100
AcDbSymbolTableRecord
100
AcDbRegAppTableRecord
  2
GENIUS_GENODEF_13
 70
     0
  0
APPID
  5
AA0
330
9
100
AcDbSymbolTableRecord
100
AcDbRegAppTableRecord
  2
GENIUS_GENOBJ-N-FIL_13
 70
     0
  0
APPID
  5
AA1
330
9
100
AcDbSymbolTableRecord
100
AcDbRegAppTableRecord
  2
HATCH_TYPE
 70
     0
  0
APPID
  5
AA2
330
9
100
AcDbSymbolTableRecord
100
AcDbRegAppTableRecord
  2
HATCH_DISPLAY
 70
     0
  0
APPID
  5
AA3
330
9
100
AcDbSymbolTableRecord
100
AcDbRegAppTableRecord
  2
HATCH_DISTANCE
 70
     0
  0
APPID
  5
109B
330
9
100
AcDbSymbolTableRecord
100
AcDbRegAppTableRecord
  2
CONTENTBLOCKICON
 70
     0
  0
ENDTAB
  0
TABLE
  2
DIMSTYLE
  5
A
330
0
100
AcDbSymbolTable
 70
     1
  0
DIMSTYLE
105
725
102
{ACAD_REACTORS
330
E3F
330
E4E
330
E5D
330
E6C
102
}
330
A
100
AcDbSymbolTableRecord
100
AcDbDimStyleTableRecord
  2
BIGT
 70
     0
  3

  4

  5

  6
OPEN
  7
OPEN
 40
1.0
 41
2.23
 42
0.5
 43
2.5
 44
1.0
 45
0.0
 46
0.0
 47
0.0
 48
0.0
140
2.8
141
0.0
142
0.0
143
25.4
144
1.0
145
0.0
146
1.0
147
1.0
 71
     0
 72
     0
 73
     0
 74
     0
 75
     0
 76
     0
 77
     3
 78
     8
170
     0
171
     2
172
     1
173
     1
174
     1
175
     0
176
   256
177
   256
178
    40
270
     2
271
     3
272
     3
273
     2
274
     2
340
10
275
     0
280
     0
281
     0
282
     0
283
     1
284
     8
285
     0
286
     0
287
     3
288
     0
  0
ENDTAB
  0
TABLE
  2
BLOCK_RECORD
  5
1
330
0
100
AcDbSymbolTable
 70
     8
  0
BLOCK_RECORD
  5
1A
102
{ACAD_XDICTIONARY
360
1099
102
}
330
1
100
AcDbSymbolTableRecord
100
AcDbBlockTableRecord
  2
*MODEL_SPACE
  0
BLOCK_RECORD
  5
17
102
{ACAD_XDICTIONARY
360
1097
102
}
330
1
100
AcDbSymbolTableRecord
100
AcDbBlockTableRecord
  2
*PAPER_SPACE
  0
BLOCK_RECORD
  5
594
330
1
100
AcDbSymbolTableRecord
100
AcDbBlockTableRecord
  2
_OPEN
  0
BLOCK_RECORD
  5
6E3
330
1
100
AcDbSymbolTableRecord
100
AcDbBlockTableRecord
  2
矢印なし
  0
BLOCK_RECORD
  5
E40
330
1
100
AcDbSymbolTableRecord
100
AcDbBlockTableRecord
  2
*D2
  0
BLOCK_RECORD
  5
E4F
330
1
100
AcDbSymbolTableRecord
100
AcDbBlockTableRecord
  2
*D3
  0
BLOCK_RECORD
  5
E5E
330
1
100
AcDbSymbolTableRecord
100
AcDbBlockTableRecord
  2
*D4
  0
BLOCK_RECORD
  5
E6D
330
1
100
AcDbSymbolTableRecord
100
AcDbBlockTableRecord
  2
*D5
  0
BLOCK_RECORD
  5
EC6
330
1
100
AcDbSymbolTableRecord
100
AcDbBlockTableRecord
  2
1
1001
CONTENTBLOCKICON
1071
        0
1004
2800000020000000200000000100080000000000000400000000000000000000000000000000000000000000000080000080000000808000800000008000800080800000C0C0C000C0DCC000F0CAA6000020400000206000002080000020A0000020C0000020E00000400000004020000040400000406000004080000040A0
1004
000040C0000040E00000600000006020000060400000606000006080000060A0000060C0000060E00000800000008020000080400000806000008080000080A0000080C0000080E00000A0000000A0200000A0400000A0600000A0800000A0A00000A0C00000A0E00000C0000000C0200000C0400000C0600000C0800000C0
1004
A00000C0C00000C0E00000E0000000E0200000E0400000E0600000E0800000E0A00000E0C00000E0E00040000000400020004000400040006000400080004000A0004000C0004000E00040200000402020004020400040206000402080004020A0004020C0004020E000404000004040200040404000404060004040800040
1004
40A0004040C0004040E00040600000406020004060400040606000406080004060A0004060C0004060E00040800000408020004080400040806000408080004080A0004080C0004080E00040A0000040A0200040A0400040A0600040A0800040A0A00040A0C00040A0E00040C0000040C0200040C0400040C0600040C08000
1004
40C0A00040C0C00040C0E00040E0000040E0200040E0400040E0600040E0800040E0A00040E0C00040E0E00080000000800020008000400080006000800080008000A0008000C0008000E00080200000802020008020400080206000802080008020A0008020C0008020E00080400000804020008040400080406000804080
1004
008040A0008040C0008040E00080600000806020008060400080606000806080008060A0008060C0008060E00080800000808020008080400080806000808080008080A0008080C0008080E00080A0000080A0200080A0400080A0600080A0800080A0A00080A0C00080A0E00080C0000080C0200080C0400080C0600080C0
1004
800080C0A00080C0C00080C0E00080E0000080E0200080E0400080E0600080E0800080E0A00080E0C00080E0E000C0000000C0002000C0004000C0006000C0008000C000A000C000C000C000E000C0200000C0202000C0204000C0206000C0208000C020A000C020C000C020E000C0400000C0402000C0404000C0406000C0
1004
408000C040A000C040C000C040E000C0600000C0602000C0604000C0606000C0608000C060A000C060C000C060E000C0800000C0802000C0804000C0806000C0808000C080A000C080C000C080E000C0A00000C0A02000C0A04000C0A06000C0A08000C0A0A000C0A0C000C0A0E000C0C00000C0C02000C0C04000C0C06000
1004
C0C08000C0C0A000F0FBFF00A4A0A000808080000000FF0000FF000000FFFF00FF000000FF00FF00FFFF0000FFFFFF0000000000000000000000000000000000000000000000000000000000000000000000000000000000000000000000000000000000000000000000000000000000000000000000000000000000000000
1004
00000000000000000000000000000000000000000000000000000000000000000000000000000000000000000000000000000000000000000000000000000000000000000000000000000000000000000000000000000000000000000000000000000000000000000000000000000000000000000000000000000000000000
1004
000000000000000000000000000000000000000000000000000000000000000000000000000000000000000000000000000000000000000000000000000000000000000000000000000000000000000000000000000000000000FEFEFEFEE7FEFEFEFE0000000000000000000000000000000000FEFEFEFEFEFEFE00E7E7E7
1004
FEE7E7E7FEFE0000000000000000000000000000FE000000000000E70000E7E7E7E7E7E7FAFE0000000000000000000000000000FE000000000000E7000000E7FBE700E7E7FEFEFEFEFEFEFEFEFEFAFAFA000000FE000000000000E7000000E7FBE700E700E7E7E7000000000000E7E7FE000000FEFEFEE700FB00E70000E7
1004
E7E7E7E7E700E7E7E7000000E7E7E70000FE0000000000FEE7E7FBE7E70000E700FB0000E700E7E7E7000000E7000000E7FE000000FBFBFEE7E7FBE7E7FBE7E7FBFBFBFBE7FBE7E7E7FBFBFBE7E7E7E7E7FEFB0000FEFEE7E700FB00E70000E7E7E7E7E7E700E7E7E700000000000000E7FA000000FE000000000000E70000
1004
00E7E7E700E700E7E7E700000000000000E7FA000000FE000000000000E7000000E7E7E700E700FEFEFEFEFEFEFEFEFEFAFAFA000000FE000000000000E7000000E7E7E700E700FE000000000000000000000000000000FEFEFEFEFEFEFE000000E7FEFE00FEFEFE000000000000000000000000000000000000000000FEFE
1004
FEFEFEFEFEFEFE000000000000000000000000000000000000000000000000000000000000000000000000000000000000000000000000000000000000000000000000000000000000000000000000000000000000000000000000000000000000000000000000000000000000000000000000000000000000000000000000
1004
00000000000000000000000000000000000000000000000000000000000000000000000000000000000000000000000000000000000000000000000000000000000000000000000000000000000000000000000000000000000000000000000000000000000000000000000000000000000000000000000000000000000000
1004
0000000000000000000000000000000000000000000000000000000000000000000000000000000000000000000000000000000000000000
  0
ENDTAB
  0
ENDSEC
  0
SECTION
  2
BLOCKS
  0
BLOCK
  5
1B
330
1A
100
AcDbEntity
  8
0
100
AcDbBlockBegin
  2
*MODEL_SPACE
 70
     0
 10
0.0
 20
0.0
 30
0.0
  3
*MODEL_SPACE
  1

  0
ENDBLK
  5
1C
330
1A
100
AcDbEntity
  8
0
100
AcDbBlockEnd
  0
BLOCK
  5
18
330
17
100
AcDbEntity
 67
     1
  8
0
100
AcDbBlockBegin
  2
*PAPER_SPACE
 70
     0
 10
0.0
 20
0.0
 30
0.0
  3
*PAPER_SPACE
  1

  0
ENDBLK
  5
19
330
17
100
AcDbEntity
 67
     1
  8
0
100
AcDbBlockEnd
  0
BLOCK
  5
598
330
594
100
AcDbEntity
  8
0
100
AcDbBlockBegin
  2
_OPEN
 70
     0
 10
0.0
 20
0.0
 30
0.0
  3
_OPEN
  1

  0
LINE
  5
595
330
594
100
AcDbEntity
  8
0
  6
BYBLOCK
 62
     0
100
AcDbLine
 10
-1.0
 20
0.16666667
 30
0.0
 11
0.0
 21
0.0
 31
0.0
  0
LINE
  5
596
330
594
100
AcDbEntity
  8
0
  6
BYBLOCK
 62
     0
100
AcDbLine
 10
-1.0
 20
-0.16666667
 30
0.0
 11
0.0
 21
0.0
 31
0.0
  0
LINE
  5
597
330
594
100
AcDbEntity
  8
0
  6
BYBLOCK
 62
     0
100
AcDbLine
 10
0.0
 20
0.0
 30
0.0
 11
-1.0
 21
0.0
 31
0.0
  0
ENDBLK
  5
599
330
594
100
AcDbEntity
  8
0
100
AcDbBlockEnd
  0
BLOCK
  5
6E4
330
6E3
100
AcDbEntity
  8
0
100
AcDbBlockBegin
  2
矢印なし
 70
     0
 10
0.0
 20
0.0
 30
0.0
  3
矢印なし
  1

  0
ENDBLK
  5
6E5
330
6E3
100
AcDbEntity
  8
0
100
AcDbBlockEnd
  0
BLOCK
  5
E4A
330
E40
100
AcDbEntity
  8
0
100
AcDbBlockBegin
  2
*D2
 70
     1
 10
0.0
 20
0.0
 30
0.0
  3
*D2
  1

  0
LINE
  5
1322
330
E40
100
AcDbEntity
  8
250
  6
CONTINUOUS
100
AcDbLine
 10
75.5
 20
-12.5
 30
0.0
 11
88.0
 21
-12.5
 31
0.0
  0
LINE
  5
1323
330
E40
100
AcDbEntity
  8
250
  6
CONTINUOUS
100
AcDbLine
 10
75.5
 20
12.5
 30
0.0
 11
88.0
 21
12.5
 31
0.0
  0
LINE
  5
1324
330
E40
100
AcDbEntity
  8
250
  6
CONTINUOUS
100
AcDbLine
 10
87.0
 20
-10.27
 30
0.0
 11
87.0
 21
10.27
 31
0.0
  0
INSERT
  5
1325
330
E40
100
AcDbEntity
  8
250
  6
CONTINUOUS
100
AcDbBlockReference
  2
_OPEN
 10
87.0
 20
-12.5
 30
0.0
 41
2.23
 42
2.23
 43
2.23
 50
270.0
  0
INSERT
  5
1326
330
E40
100
AcDbEntity
  8
250
  6
CONTINUOUS
100
AcDbBlockReference
  2
_OPEN
 10
87.0
 20
12.5
 30
0.0
 41
2.23
 42
2.23
 43
2.23
 50
90.0
  0
MTEXT
  5
1327
330
E40
100
AcDbEntity
  8
250
  6
CONTINUOUS
 62
    40
100
AcDbMText
 10
84.6
 20
0.0
 30
0.0
 40
2.8
 41
0.0
 71
     5
 72
     1
  1
\A1;{\H2.8;\U+2205}25
 11
0.0
 21
1.0
 31
0.0
1001
ACAD
1000
MTEXTBEGIN
1070
    73
1070
     1
1070
    44
1040
1.0
1070
    74
1070
     0
1000
MTEXTEND
  0
POINT
  5
1328
330
E40
100
AcDbEntity
  8
DEFPOINTS
  6
CONTINUOUS
 62
     0
100
AcDbPoint
 10
75.0
 20
-12.5
 30
0.0
  0
POINT
  5
1329
330
E40
100
AcDbEntity
  8
DEFPOINTS
  6
CONTINUOUS
 62
     0
100
AcDbPoint
 10
75.0
 20
12.5
 30
0.0
  0
POINT
  5
132A
330
E40
100
AcDbEntity
  8
DEFPOINTS
  6
CONTINUOUS
 62
     0
100
AcDbPoint
 10
87.0
 20
12.5
 30
0.0
  0
ENDBLK
  5
E4B
330
E40
100
AcDbEntity
  8
0
100
AcDbBlockEnd
  0
BLOCK
  5
E59
330
E4F
100
AcDbEntity
  8
0
100
AcDbBlockBegin
  2
*D3
 70
     1
 10
0.0
 20
0.0
 30
0.0
  3
*D3
  1

  0
LINE
  5
1346
330
E4F
100
AcDbEntity
  8
250
  6
CONTINUOUS
100
AcDbLine
 10
67.0
 20
13.0
 30
0.0
 11
67.0
 21
25.0
 31
0.0
  0
LINE
  5
1347
330
E4F
100
AcDbEntity
  8
250
  6
CONTINUOUS
100
AcDbLine
 10
75.0
 20
13.0
 30
0.0
 11
75.0
 21
25.0
 31
0.0
  0
LINE
  5
1348
330
E4F
100
AcDbEntity
  8
250
  6
CONTINUOUS
100
AcDbLine
 10
69.23
 20
24.0
 30
0.0
 11
72.77
 21
24.0
 31
0.0
  0
INSERT
  5
1349
330
E4F
100
AcDbEntity
  8
250
  6
CONTINUOUS
100
AcDbBlockReference
  2
_OPEN
 10
67.0
 20
24.0
 30
0.0
 41
2.23
 42
2.23
 43
2.23
 50
180.0
  0
INSERT
  5
134A
330
E4F
100
AcDbEntity
  8
250
  6
CONTINUOUS
100
AcDbBlockReference
  2
_OPEN
 10
75.0
 20
24.0
 30
0.0
 41
2.23
 42
2.23
 43
2.23
  0
MTEXT
  5
134B
330
E4F
100
AcDbEntity
  8
250
  6
CONTINUOUS
 62
    40
100
AcDbMText
 10
71.0
 20
26.4
 30
0.0
 40
2.8
 41
0.0
 71
     5
 72
     1
  1
\A1;8
1001
ACAD
1000
MTEXTBEGIN
1070
    73
1070
     1
1070
    44
1040
1.0
1070
    74
1070
     0
1000
MTEXTEND
  0
POINT
  5
134C
330
E4F
100
AcDbEntity
  8
DEFPOINTS
  6
CONTINUOUS
 62
     0
100
AcDbPoint
 10
67.0
 20
12.5
 30
0.0
  0
POINT
  5
134D
330
E4F
100
AcDbEntity
  8
DEFPOINTS
  6
CONTINUOUS
 62
     0
100
AcDbPoint
 10
75.0
 20
12.5
 30
0.0
  0
POINT
  5
134E
330
E4F
100
AcDbEntity
  8
DEFPOINTS
  6
CONTINUOUS
 62
     0
100
AcDbPoint
 10
75.0
 20
24.0
 30
0.0
  0
ENDBLK
  5
E5A
330
E4F
100
AcDbEntity
  8
0
100
AcDbBlockEnd
  0
BLOCK
  5
E68
330
E5E
100
AcDbEntity
  8
0
100
AcDbBlockBegin
  2
*D4
 70
     1
 10
0.0
 20
0.0
 30
0.0
  3
*D4
  1

  0
LINE
  5
133D
330
E5E
100
AcDbEntity
  8
250
  6
CONTINUOUS
100
AcDbLine
 10
42.0
 20
12.35013145
 30
0.0
 11
42.0
 21
32.0
 31
0.0
  0
LINE
  5
133E
330
E5E
100
AcDbEntity
  8
250
  6
CONTINUOUS
100
AcDbLine
 10
75.0
 20
13.0
 30
0.0
 11
75.0
 21
32.0
 31
0.0
  0
LINE
  5
133F
330
E5E
100
AcDbEntity
  8
250
  6
CONTINUOUS
100
AcDbLine
 10
44.23
 20
31.0
 30
0.0
 11
72.77
 21
31.0
 31
0.0
  0
INSERT
  5
1340
330
E5E
100
AcDbEntity
  8
250
  6
CONTINUOUS
100
AcDbBlockReference
  2
_OPEN
 10
42.0
 20
31.0
 30
0.0
 41
2.23
 42
2.23
 43
2.23
 50
180.0
  0
INSERT
  5
1341
330
E5E
100
AcDbEntity
  8
250
  6
CONTINUOUS
100
AcDbBlockReference
  2
_OPEN
 10
75.0
 20
31.0
 30
0.0
 41
2.23
 42
2.23
 43
2.23
  0
MTEXT
  5
1342
330
E5E
100
AcDbEntity
  8
250
  6
CONTINUOUS
 62
    40
100
AcDbMText
 10
58.5
 20
33.4
 30
0.0
 40
2.8
 41
0.0
 71
     5
 72
     1
  1
\A1;33
1001
ACAD
1000
MTEXTBEGIN
1070
    73
1070
     1
1070
    44
1040
1.0
1070
    74
1070
     0
1000
MTEXTEND
  0
POINT
  5
1343
330
E5E
100
AcDbEntity
  8
DEFPOINTS
  6
CONTINUOUS
 62
     0
100
AcDbPoint
 10
42.0
 20
11.85013145
 30
0.0
  0
POINT
  5
1344
330
E5E
100
AcDbEntity
  8
DEFPOINTS
  6
CONTINUOUS
 62
     0
100
AcDbPoint
 10
75.0
 20
12.5
 30
0.0
  0
POINT
  5
1345
330
E5E
100
AcDbEntity
  8
DEFPOINTS
  6
CONTINUOUS
 62
     0
100
AcDbPoint
 10
75.0
 20
31.0
 30
0.0
  0
ENDBLK
  5
E69
330
E5E
100
AcDbEntity
  8
0
100
AcDbBlockEnd
  0
BLOCK
  5
E77
330
E6D
100
AcDbEntity
  8
0
100
AcDbBlockBegin
  2
*D5
 70
     1
 10
0.0
 20
0.0
 30
0.0
  3
*D5
  1

  0
LINE
  5
1334
330
E6D
100
AcDbEntity
  8
250
  6
CONTINUOUS
100
AcDbLine
 10
0.0
 20
25.5
 30
0.0
 11
0.0
 21
39.0
 31
0.0
  0
LINE
  5
1335
330
E6D
100
AcDbEntity
  8
250
  6
CONTINUOUS
100
AcDbLine
 10
75.0
 20
13.0
 30
0.0
 11
75.0
 21
39.0
 31
0.0
  0
LINE
  5
1336
330
E6D
100
AcDbEntity
  8
250
  6
CONTINUOUS
100
AcDbLine
 10
2.23
 20
38.0
 30
0.0
 11
72.77
 21
38.0
 31
0.0
  0
INSERT
  5
1337
330
E6D
100
AcDbEntity
  8
250
  6
CONTINUOUS
100
AcDbBlockReference
  2
_OPEN
 10
0.0
 20
38.0
 30
0.0
 41
2.23
 42
2.23
 43
2.23
 50
180.0
  0
INSERT
  5
1338
330
E6D
100
AcDbEntity
  8
250
  6
CONTINUOUS
100
AcDbBlockReference
  2
_OPEN
 10
75.0
 20
38.0
 30
0.0
 41
2.23
 42
2.23
 43
2.23
  0
MTEXT
  5
1339
330
E6D
100
AcDbEntity
  8
250
  6
CONTINUOUS
 62
    40
100
AcDbMText
 10
37.5
 20
40.4
 30
0.0
 40
2.8
 41
0.0
 71
     5
 72
     1
  1
\A1;75
1001
ACAD
1000
MTEXTBEGIN
1070
    73
1070
     1
1070
    44
1040
1.0
1070
    74
1070
     0
1000
MTEXTEND
  0
POINT
  5
133A
330
E6D
100
AcDbEntity
  8
DEFPOINTS
  6
CONTINUOUS
 62
     0
100
AcDbPoint
 10
0.0
 20
25.0
 30
0.0
  0
POINT
  5
133B
330
E6D
100
AcDbEntity
  8
DEFPOINTS
  6
CONTINUOUS
 62
     0
100
AcDbPoint
 10
75.0
 20
12.5
 30
0.0
  0
POINT
  5
133C
330
E6D
100
AcDbEntity
  8
DEFPOINTS
  6
CONTINUOUS
 62
     0
100
AcDbPoint
 10
75.0
 20
38.0
 30
0.0
  0
ENDBLK
  5
E78
330
E6D
100
AcDbEntity
  8
0
100
AcDbBlockEnd
  0
BLOCK
  5
EC7
330
EC6
100
AcDbEntity
  8
0
100
AcDbBlockBegin
  2
1
 70
     0
 10
0.0
 20
0.0
 30
0.0
  3
1
  1

  0
LINE
  5
1358
330
EC6
100
AcDbEntity
  8
240
100
AcDbLine
 10
63.87806342
 20
11.75
 30
0.0
 11
43.730294
 21
11.75
 31
0.0
  0
LINE
  5
1359
330
EC6
100
AcDbEntity
  8
240
100
AcDbLine
 10
63.87806342
 20
-11.75
 30
0.0
 11
43.730294
 21
-11.75
 31
0.0
  0
LINE
  5
135A
330
EC6
100
AcDbEntity
  8
245
100
AcDbLine
 10
-25.0
 20
0.0
 30
0.0
 11
76.0
 21
0.0
 31
0.0
  0
ARC
  5
135B
330
EC6
100
AcDbEntity
  8
240
  6
CONTINUOUS
100
AcDbCircle
 10
-24.0
 20
17.04875078
 30
0.0
 40
1.000000000000019
100
AcDbArc
 50
92.86240523
 51
180.0
  0
LINE
  5
135C
330
EC6
100
AcDbEntity
  8
240
  6
CONTINUOUS
100
AcDbLine
 10
-24.0
 20
5.27
 30
0.0
 11
-25.0
 21
6.27
 31
0.0
  0
LINE
  5
135D
330
EC6
100
AcDbEntity
  8
240
  6
CONTINUOUS
100
AcDbLine
 10
-25.0
 20
-6.27
 30
0.0
 11
-24.0
 21
-5.27
 31
0.0
  0
ARC
  5
135E
330
EC6
100
AcDbEntity
  8
240
  6
CONTINUOUS
100
AcDbCircle
 10
-24.0
 20
-17.04875078
 30
0.0
 40
1.0
100
AcDbArc
 50
180.0
 51
267.13759477
  0
LINE
  5
135F
330
EC6
100
AcDbEntity
  8
240
  6
CONTINUOUS
100
AcDbLine
 10
-25.0
 20
6.27
 30
0.0
 11
-25.0
 21
17.04875078
 31
0.0
  0
LINE
  5
1360
330
EC6
100
AcDbEntity
  8
240
  6
CONTINUOUS
100
AcDbLine
 10
-25.0
 20
-17.04875078
 30
0.0
 11
-25.0
 21
-6.27
 31
0.0
  0
LINE
  5
1361
330
EC6
100
AcDbEntity
  8
240
100
AcDbLine
 10
34.0
 20
-19.55101506
 30
0.0
 11
34.0
 21
-16.0
 31
0.0
  0
LINE
  5
1362
330
EC6
100
AcDbEntity
  8
242
  6
CONTINUOUS
100
AcDbLine
 10
34.0
 20
-13.25700469
 30
0.0
 11
26.5
 21
-20.55101506
 31
0.0
  0
LINE
  5
1363
330
EC6
100
AcDbEntity
  8
241
  6
CONTINUOUS
100
AcDbLine
 10
26.5
 20
-13.25700469
 30
0.0
 11
26.5
 21
-20.55101506
 31
0.0
  0
LINE
  5
1364
330
EC6
100
AcDbEntity
  8
242
  6
CONTINUOUS
100
AcDbLine
 10
26.5
 20
-13.25700469
 30
0.0
 11
33.70301665
 21
-20.26218844
 31
0.0
  0
LINE
  5
1365
330
EC6
100
AcDbEntity
  8
241
  6
CONTINUOUS
100
AcDbLine
 10
26.0
 20
0.0
 30
0.0
 11
26.0
 21
-20.55101506
 31
0.0
  0
LINE
  5
1366
330
EC6
100
AcDbEntity
  8
241
  6
CONTINUOUS
100
AcDbLine
 10
21.37749907
 20
-19.61504525
 30
0.0
 11
19.875
 21
-16.16793968
 31
0.0
  0
LINE
  5
1367
330
EC6
100
AcDbEntity
  8
241
  6
CONTINUOUS
100
AcDbLine
 10
19.875
 20
-6.0
 30
0.0
 11
19.875
 21
-21.5
 31
0.0
  0
LINE
  5
1368
330
EC6
100
AcDbEntity
  8
241
  6
CONTINUOUS
100
AcDbLine
 10
16.125
 20
-16.16793968
 30
0.0
 11
14.62250093
 21
-19.61504525
 31
0.0
  0
ARC
  5
1369
330
EC6
100
AcDbEntity
  8
241
  6
CONTINUOUS
100
AcDbCircle
 10
12.69622204
 20
-21.5
 30
0.0
 40
6.0
100
AcDbArc
 50
90.0
 51
161.68994155
  0
LINE
  5
136A
330
EC6
100
AcDbEntity
  8
241
  6
CONTINUOUS
100
AcDbLine
 10
16.125
 20
-6.0
 30
0.0
 11
16.125
 21
-21.5
 31
0.0
  0
LINE
  5
136B
330
EC6
100
AcDbEntity
  8
241
  6
CONTINUOUS
100
AcDbLine
 10
-2.0
 20
-19.15
 30
0.0
 11
-2.0
 21
0.0
 31
0.0
  0
LINE
  5
136C
330
EC6
100
AcDbEntity
  8
241
100
AcDbLine
 10
0.0
 20
-19.15
 30
0.0
 11
0.0
 21
0.0
 31
0.0
  0
LINE
  5
136D
330
EC6
100
AcDbEntity
  8
245
  6
CENTER2
100
AcDbLine
 10
18.0
 20
-25.0
 30
0.0
 11
18.0
 21
25.0
 31
0.0
  0
LINE
  5
136E
330
EC6
100
AcDbEntity
  8
241
  6
CONTINUOUS
100
AcDbLine
 10
7.0
 20
-19.61504525
 30
0.0
 11
14.62250093
 21
-19.61504525
 31
0.0
  0
LINE
  5
136F
330
EC6
100
AcDbEntity
  8
240
  6
CONTINUOUS
100
AcDbLine
 10
0.0
 20
-25.0
 30
0.0
 11
14.62250093
 21
-25.0
 31
0.0
  0
LINE
  5
1370
330
EC6
100
AcDbEntity
  8
240
  6
CONTINUOUS
100
AcDbLine
 10
-2.0
 20
-19.15
 30
0.0
 11
-24.04993762
 21
-18.04750312
 31
0.0
  0
LINE
  5
1371
330
EC6
100
AcDbEntity
  8
240
  6
CONTINUOUS
100
AcDbLine
 10
0.0
 20
-25.0
 30
0.0
 11
0.0
 21
-19.15
 31
0.0
  0
LINE
  5
1372
330
EC6
100
AcDbEntity
  8
240
100
AcDbLine
 10
-2.0
 20
-19.15
 30
0.0
 11
0.0
 21
-19.15
 31
0.0
  0
LINE
  5
1373
330
EC6
100
AcDbEntity
  8
240
  6
CONTINUOUS
100
AcDbLine
 10
26.0
 20
-20.55101506
 30
0.0
 11
33.0
 21
-20.55101506
 31
0.0
  0
LINE
  5
1374
330
EC6
100
AcDbEntity
  8
240
  6
CONTINUOUS
100
AcDbLine
 10
21.37749907
 20
-25.0
 30
0.0
 11
19.875
 21
-22.39759526
 31
0.0
  0
LINE
  5
1375
330
EC6
100
AcDbEntity
  8
240
  6
CONTINUOUS
100
AcDbLine
 10
14.62250093
 20
-25.0
 30
0.0
 11
16.125
 21
-22.39759526
 31
0.0
  0
LINE
  5
1376
330
EC6
100
AcDbEntity
  8
241
  6
CONTINUOUS
100
AcDbLine
 10
14.62250093
 20
-19.61504525
 30
0.0
 11
14.62250093
 21
-25.0
 31
0.0
  0
LINE
  5
1377
330
EC6
100
AcDbEntity
  8
240
  6
CONTINUOUS
100
AcDbLine
 10
19.875
 20
-22.39759526
 30
0.0
 11
19.875
 21
-21.5
 31
0.0
  0
LINE
  5
1378
330
EC6
100
AcDbEntity
  8
240
  6
CONTINUOUS
100
AcDbLine
 10
16.125
 20
-22.39759526
 30
0.0
 11
16.125
 21
-21.5
 31
0.0
  0
LINE
  5
1379
330
EC6
100
AcDbEntity
  8
240
  6
CONTINUOUS
100
AcDbLine
 10
16.125
 20
-21.5
 30
0.0
 11
19.875
 21
-21.5
 31
0.0
  0
LINE
  5
137A
330
EC6
100
AcDbEntity
  8
240
  6
CONTINUOUS
100
AcDbLine
 10
26.0
 20
-25.0
 30
0.0
 11
26.0
 21
-20.55101506
 31
0.0
  0
LINE
  5
137B
330
EC6
100
AcDbEntity
  8
241
  6
CONTINUOUS
100
AcDbLine
 10
21.37749907
 20
-19.61504525
 30
0.0
 11
21.37749907
 21
-25.0
 31
0.0
  0
LINE
  5
137C
330
EC6
100
AcDbEntity
  8
240
  6
CONTINUOUS
100
AcDbLine
 10
21.37749907
 20
-25.0
 30
0.0
 11
26.0
 21
-25.0
 31
0.0
  0
LINE
  5
137D
330
EC6
100
AcDbEntity
  8
241
  6
CONTINUOUS
100
AcDbLine
 10
21.37749907
 20
-19.61504525
 30
0.0
 11
26.0
 21
-19.61504525
 31
0.0
  0
ARC
  5
137E
330
EC6
100
AcDbEntity
  8
240
100
AcDbCircle
 10
33.0
 20
-19.55101506
 30
0.0
 40
1.0
100
AcDbArc
 50
270.0
 51
0.0
  0
LINE
  5
137F
330
EC6
100
AcDbEntity
  8
240
  6
CONTINUOUS
100
AcDbLine
 10
0.0
 20
25.0
 30
0.0
 11
14.62250093
 21
25.0
 31
0.0
  0
ARC
  5
1380
330
EC6
100
AcDbEntity
  8
241
  6
CONTINUOUS
100
AcDbCircle
 10
13.0
 20
0.0
 30
0.0
 40
6.0
100
AcDbArc
 50
90.0
 51
180.0
  0
ARC
  5
1381
330
EC6
100
AcDbEntity
  8
241
  6
CONTINUOUS
100
AcDbCircle
 10
13.0
 20
0.0
 30
0.0
 40
6.0
100
AcDbArc
 50
180.0
 51
270.0
  0
LINE
  5
1382
330
EC6
100
AcDbEntity
  8
241
  6
CONTINUOUS
100
AcDbLine
 10
-2.0
 20
19.15
 30
0.0
 11
-2.0
 21
0.0
 31
0.0
  0
LINE
  5
1383
330
EC6
100
AcDbEntity
  8
241
100
AcDbLine
 10
0.0
 20
0.0
 30
0.0
 11
0.0
 21
19.15
 31
0.0
  0
CIRCLE
  5
1384
330
EC6
100
AcDbEntity
  8
241
  6
CONTINUOUS
100
AcDbCircle
 10
-7.5
 20
0.0
 30
0.0
 40
3.0
  0
ARC
  5
1385
330
EC6
100
AcDbEntity
  8
241
  6
HIDDEN2
100
AcDbCircle
 10
-19.0
 20
-3.77
 30
0.0
 40
1.5
100
AcDbArc
 50
270.0
 51
0.0
  0
ARC
  5
1386
330
EC6
100
AcDbEntity
  8
240
  6
CONTINUOUS
100
AcDbCircle
 10
-22.0
 20
-3.77
 30
0.0
 40
1.500000000000014
100
AcDbArc
 50
270.0
 51
0.0
  0
LINE
  5
1387
330
EC6
100
AcDbEntity
  8
241
  6
HIDDEN2
100
AcDbLine
 10
-22.0
 20
-5.27
 30
0.0
 11
-19.0
 21
-5.27
 31
0.0
  0
LINE
  5
1388
330
EC6
100
AcDbEntity
  8
240
  6
CONTINUOUS
100
AcDbLine
 10
-24.0
 20
-5.27
 30
0.0
 11
-22.0
 21
-5.27
 31
0.0
  0
LINE
  5
1389
330
EC6
100
AcDbEntity
  8
240
  6
CONTINUOUS
100
AcDbLine
 10
-20.5
 20
3.77
 30
0.0
 11
-20.5
 21
0.0
 31
0.0
  0
LINE
  5
138A
330
EC6
100
AcDbEntity
  8
241
  6
HIDDEN2
100
AcDbLine
 10
-17.5
 20
3.77
 30
0.0
 11
-17.5
 21
0.0
 31
0.0
  0
LINE
  5
138B
330
EC6
100
AcDbEntity
  8
240
  6
CONTINUOUS
100
AcDbLine
 10
-20.5
 20
-3.77
 30
0.0
 11
-20.5
 21
0.0
 31
0.0
  0
LINE
  5
138C
330
EC6
100
AcDbEntity
  8
241
  6
HIDDEN2
100
AcDbLine
 10
-17.5
 20
-3.77
 30
0.0
 11
-17.5
 21
0.0
 31
0.0
  0
LINE
  5
138D
330
EC6
100
AcDbEntity
  8
241
  6
HIDDEN2
100
AcDbLine
 10
-22.0
 20
5.27
 30
0.0
 11
-19.0
 21
5.27
 31
0.0
  0
ARC
  5
138E
330
EC6
100
AcDbEntity
  8
240
  6
CONTINUOUS
100
AcDbCircle
 10
-22.0
 20
3.77
 30
0.0
 40
1.5
100
AcDbArc
 50
0.0
 51
90.0
  0
LINE
  5
138F
330
EC6
100
AcDbEntity
  8
240
  6
CONTINUOUS
100
AcDbLine
 10
-24.0
 20
5.27
 30
0.0
 11
-22.0
 21
5.27
 31
0.0
  0
ARC
  5
1390
330
EC6
100
AcDbEntity
  8
241
  6
HIDDEN2
100
AcDbCircle
 10
-19.0
 20
3.77
 30
0.0
 40
1.5
100
AcDbArc
 50
0.0
 51
90.0
  0
LINE
  5
1391
330
EC6
100
AcDbEntity
  8
245
  6
CENTER2
100
AcDbLine
 10
-7.5
 20
-4.0
 30
0.0
 11
-7.5
 21
4.0
 31
0.0
  0
LINE
  5
1392
330
EC6
100
AcDbEntity
  8
240
  6
CONTINUOUS
100
AcDbLine
 10
-2.0
 20
19.15
 30
0.0
 11
-24.04993762
 21
18.04750312
 31
0.0
  0
LINE
  5
1393
330
EC6
100
AcDbEntity
  8
240
  6
CONTINUOUS
100
AcDbLine
 10
0.0
 20
19.15
 30
0.0
 11
0.0
 21
25.0
 31
0.0
  0
LINE
  5
1394
330
EC6
100
AcDbEntity
  8
240
100
AcDbLine
 10
-2.0
 20
19.15
 30
0.0
 11
0.0
 21
19.15
 31
0.0
  0
LINE
  5
1395
330
EC6
100
AcDbEntity
  8
241
100
AcDbLine
 10
36.23226045
 20
13.09859617
 30
0.0
 11
36.23226045
 21
0.0
 31
0.0
  0
LINE
  5
1396
330
EC6
100
AcDbEntity
  8
241
100
AcDbLine
 10
37.40210105
 20
12.82506743
 30
0.0
 11
37.40210105
 21
0.0
 31
0.0
  0
LINE
  5
1397
330
EC6
100
AcDbEntity
  8
241
100
AcDbLine
 10
39.23361681
 20
12.39682771
 30
0.0
 11
39.23361681
 21
0.0
 31
0.0
  0
LINE
  5
1398
330
EC6
100
AcDbEntity
  8
241
100
AcDbLine
 10
40.40250975
 20
12.12352055
 30
0.0
 11
40.40250975
 21
0.0
 31
0.0
  0
LINE
  5
1399
330
EC6
100
AcDbEntity
  8
241
100
AcDbLine
 10
42.0
 20
11.75
 30
0.0
 11
42.0
 21
0.0
 31
0.0
  0
LINE
  5
139A
330
EC6
100
AcDbEntity
  8
241
100
AcDbLine
 10
34.0
 20
16.0
 30
0.0
 11
34.0
 21
0.0
 31
0.0
  0
LINE
  5
139B
330
EC6
100
AcDbEntity
  8
241
  6
CONTINUOUS
100
AcDbLine
 10
26.0
 20
0.0
 30
0.0
 11
26.0
 21
20.8
 31
0.0
  0
LINE
  5
139C
330
EC6
100
AcDbEntity
  8
241
  6
CONTINUOUS
100
AcDbLine
 10
19.875
 20
6.0
 30
0.0
 11
19.875
 21
21.5
 31
0.0
  0
LINE
  5
139D
330
EC6
100
AcDbEntity
  8
241
  6
CONTINUOUS
100
AcDbLine
 10
21.37749907
 20
6.0
 30
0.0
 11
21.37749907
 21
25.0
 31
0.0
  0
LINE
  5
139E
330
EC6
100
AcDbEntity
  8
241
  6
CONTINUOUS
100
AcDbLine
 10
16.125
 20
6.0
 30
0.0
 11
16.125
 21
21.5
 31
0.0
  0
LINE
  5
139F
330
EC6
100
AcDbEntity
  8
241
  6
CONTINUOUS
100
AcDbLine
 10
14.62250093
 20
6.0
 30
0.0
 11
14.62250093
 21
25.0
 31
0.0
  0
LINE
  5
13A0
330
EC6
100
AcDbEntity
  8
241
100
AcDbLine
 10
26.5
 20
-13.25700469
 30
0.0
 11
34.0
 21
-13.25700469
 31
0.0
  0
LINE
  5
13A1
330
EC6
100
AcDbEntity
  8
241
  6
CONTINUOUS
100
AcDbLine
 10
19.875
 20
-15.5
 30
0.0
 11
26.0
 21
-15.5
 31
0.0
  0
LINE
  5
13A2
330
EC6
100
AcDbEntity
  8
241
  6
CONTINUOUS
100
AcDbLine
 10
13.0
 20
-6.0
 30
0.0
 11
26.0
 21
-6.0
 31
0.0
  0
LINE
  5
13A3
330
EC6
100
AcDbEntity
  8
241
  6
CONTINUOUS
100
AcDbLine
 10
14.62250093
 20
-6.0
 30
0.0
 11
14.62250093
 21
-15.5
 31
0.0
  0
LINE
  5
13A4
330
EC6
100
AcDbEntity
  8
241
  6
CONTINUOUS
100
AcDbLine
 10
12.69622204
 20
-15.5
 30
0.0
 11
16.125
 21
-15.5
 31
0.0
  0
LINE
  5
13A5
330
EC6
100
AcDbEntity
  8
241
  6
CONTINUOUS
100
AcDbLine
 10
21.37749907
 20
-6.0
 30
0.0
 11
21.37749907
 21
-15.5
 31
0.0
  0
LINE
  5
13A6
330
EC6
100
AcDbEntity
  8
241
  6
CONTINUOUS
100
AcDbLine
 10
13.0
 20
6.0
 30
0.0
 11
26.0
 21
6.0
 31
0.0
  0
LINE
  5
13A7
330
EC6
100
AcDbEntity
  8
241
100
AcDbLine
 10
42.0
 20
-11.75
 30
0.0
 11
42.0
 21
0.0
 31
0.0
  0
LINE
  5
13A8
330
EC6
100
AcDbEntity
  8
241
100
AcDbLine
 10
40.40250975
 20
-12.12352055
 30
0.0
 11
40.40250975
 21
0.0
 31
0.0
  0
LINE
  5
13A9
330
EC6
100
AcDbEntity
  8
241
100
AcDbLine
 10
39.23361681
 20
-12.39682771
 30
0.0
 11
39.23361681
 21
0.0
 31
0.0
  0
LINE
  5
13AA
330
EC6
100
AcDbEntity
  8
241
100
AcDbLine
 10
37.40210105
 20
-12.82506743
 30
0.0
 11
37.40210105
 21
0.0
 31
0.0
  0
LINE
  5
13AB
330
EC6
100
AcDbEntity
  8
241
100
AcDbLine
 10
36.23226045
 20
-13.09859617
 30
0.0
 11
36.23226045
 21
0.0
 31
0.0
  0
LINE
  5
13AC
330
EC6
100
AcDbEntity
  8
241
100
AcDbLine
 10
34.0
 20
-16.0
 30
0.0
 11
34.0
 21
0.0
 31
0.0
  0
LINE
  5
13AD
330
EC6
100
AcDbEntity
  8
240
100
AcDbLine
 10
36.31697098
 20
-13.0787894
 30
0.0
 11
40.40250975
 21
-12.12352054
 31
0.0
  0
ARC
  5
13AE
330
EC6
100
AcDbEntity
  8
240
100
AcDbCircle
 10
37.0
 20
-16.0
 30
0.0
 40
3.0
100
AcDbArc
 50
103.1603066
 51
180.0
  0
ARC
  5
13AF
330
EC6
100
AcDbEntity
  8
240
100
AcDbCircle
 10
43.730294
 20
-26.75
 30
0.0
 40
15.0
100
AcDbArc
 50
90.0
 51
102.81784981
  0
LINE
  5
13B0
330
EC6
100
AcDbEntity
  8
240
  6
CONTINUOUS
100
AcDbLine
 10
26.0
 20
20.8
 30
0.0
 11
33.0
 21
20.8
 31
0.0
  0
LINE
  5
13B1
330
EC6
100
AcDbEntity
  8
240
  6
CONTINUOUS
100
AcDbLine
 10
21.37749907
 20
25.0
 30
0.0
 11
19.875
 21
22.39759526
 31
0.0
  0
LINE
  5
13B2
330
EC6
100
AcDbEntity
  8
240
  6
CONTINUOUS
100
AcDbLine
 10
14.62250093
 20
25.0
 30
0.0
 11
16.125
 21
22.39759526
 31
0.0
  0
LINE
  5
13B3
330
EC6
100
AcDbEntity
  8
240
  6
CONTINUOUS
100
AcDbLine
 10
19.875
 20
22.39759526
 30
0.0
 11
19.875
 21
21.5
 31
0.0
  0
LINE
  5
13B4
330
EC6
100
AcDbEntity
  8
240
  6
CONTINUOUS
100
AcDbLine
 10
16.125
 20
22.39759526
 30
0.0
 11
16.125
 21
21.5
 31
0.0
  0
LINE
  5
13B5
330
EC6
100
AcDbEntity
  8
240
  6
CONTINUOUS
100
AcDbLine
 10
16.125
 20
21.5
 30
0.0
 11
19.875
 21
21.5
 31
0.0
  0
LINE
  5
13B6
330
EC6
100
AcDbEntity
  8
240
  6
CONTINUOUS
100
AcDbLine
 10
21.37749907
 20
25.0
 30
0.0
 11
26.0
 21
25.0
 31
0.0
  0
LINE
  5
13B7
330
EC6
100
AcDbEntity
  8
240
  6
CONTINUOUS
100
AcDbLine
 10
26.0
 20
25.0
 30
0.0
 11
26.0
 21
20.8
 31
0.0
  0
ARC
  5
13B8
330
EC6
100
AcDbEntity
  8
240
  6
PHANTOM2
100
AcDbCircle
 10
33.0
 20
19.8
 30
0.0
 40
1.0
100
AcDbArc
 50
0.0
 51
90.0
  0
LINE
  5
13B9
330
EC6
100
AcDbEntity
  8
240
100
AcDbLine
 10
36.31697098
 20
13.0787894
 30
0.0
 11
40.40250975
 21
12.12352054
 31
0.0
  0
ARC
  5
13BA
330
EC6
100
AcDbEntity
  8
240
100
AcDbCircle
 10
37.0
 20
16.0
 30
0.0
 40
3.0
100
AcDbArc
 50
180.0
 51
256.8396758
  0
LINE
  5
13BB
330
EC6
100
AcDbEntity
  8
240
  6
PHANTOM2
100
AcDbLine
 10
34.0
 20
16.0
 30
0.0
 11
34.0
 21
19.8
 31
0.0
  0
ARC
  5
13BC
330
EC6
100
AcDbEntity
  8
240
100
AcDbCircle
 10
43.730294
 20
26.75
 30
0.0
 40
15.0
100
AcDbArc
 50
257.18215019
 51
270.0
  0
LINE
  5
13BD
330
EC6
100
AcDbEntity
  8
240
100
AcDbLine
 10
74.25
 20
11.89776928
 30
0.0
 11
74.25
 21
1.10421762
 31
0.0
  0
POLYLINE
  5
13BE
330
EC6
100
AcDbEntity
  8
241
100
AcDb3dPolyline
 66
     1
 10
0.0
 20
0.0
 30
0.0
 70
     8
  0
VERTEX
  5
13BF
330
13BE
100
AcDbEntity
  8
241
100
AcDbVertex
100
AcDb3dPolylineVertex
 10
71.5127
 20
7.1272
 30
0.0
 70
    32
  0
VERTEX
  5
13C0
330
13BE
100
AcDbEntity
  8
241
100
AcDbVertex
100
AcDb3dPolylineVertex
 10
71.5184
 20
7.16156
 30
0.0
 70
    32
  0
VERTEX
  5
13C1
330
13BE
100
AcDbEntity
  8
241
100
AcDbVertex
100
AcDb3dPolylineVertex
 10
71.5232
 20
7.19605
 30
0.0
 70
    32
  0
VERTEX
  5
13C2
330
13BE
100
AcDbEntity
  8
241
100
AcDbVertex
100
AcDb3dPolylineVertex
 10
71.5272
 20
7.23063
 30
0.0
 70
    32
  0
VERTEX
  5
13C3
330
13BE
100
AcDbEntity
  8
241
100
AcDbVertex
100
AcDb3dPolylineVertex
 10
71.5305
 20
7.26529
 30
0.0
 70
    32
  0
VERTEX
  5
13C4
330
13BE
100
AcDbEntity
  8
241
100
AcDbVertex
100
AcDb3dPolylineVertex
 10
71.5329
 20
7.30001
 30
0.0
 70
    32
  0
VERTEX
  5
13C5
330
13BE
100
AcDbEntity
  8
241
100
AcDbVertex
100
AcDb3dPolylineVertex
 10
71.5345
 20
7.33477
 30
0.0
 70
    32
  0
VERTEX
  5
13C6
330
13BE
100
AcDbEntity
  8
241
100
AcDbVertex
100
AcDb3dPolylineVertex
 10
71.5353
 20
7.36954
 30
0.0
 70
    32
  0
VERTEX
  5
13C7
330
13BE
100
AcDbEntity
  8
241
100
AcDbVertex
100
AcDb3dPolylineVertex
 10
71.5352
 20
7.40431
 30
0.0
 70
    32
  0
VERTEX
  5
13C8
330
13BE
100
AcDbEntity
  8
241
100
AcDbVertex
100
AcDb3dPolylineVertex
 10
71.5344
 20
7.43906
 30
0.0
 70
    32
  0
VERTEX
  5
13C9
330
13BE
100
AcDbEntity
  8
241
100
AcDbVertex
100
AcDb3dPolylineVertex
 10
71.5327
 20
7.47375
 30
0.0
 70
    32
  0
VERTEX
  5
13CA
330
13BE
100
AcDbEntity
  8
241
100
AcDbVertex
100
AcDb3dPolylineVertex
 10
71.5303
 20
7.50838
 30
0.0
 70
    32
  0
VERTEX
  5
13CB
330
13BE
100
AcDbEntity
  8
241
100
AcDbVertex
100
AcDb3dPolylineVertex
 10
71.527
 20
7.54292
 30
0.0
 70
    32
  0
VERTEX
  5
13CC
330
13BE
100
AcDbEntity
  8
241
100
AcDbVertex
100
AcDb3dPolylineVertex
 10
71.5229
 20
7.57735
 30
0.0
 70
    32
  0
VERTEX
  5
13CD
330
13BE
100
AcDbEntity
  8
241
100
AcDbVertex
100
AcDb3dPolylineVertex
 10
71.518
 20
7.61166
 30
0.0
 70
    32
  0
VERTEX
  5
13CE
330
13BE
100
AcDbEntity
  8
241
100
AcDbVertex
100
AcDb3dPolylineVertex
 10
71.5123
 20
7.64581
 30
0.0
 70
    32
  0
VERTEX
  5
13CF
330
13BE
100
AcDbEntity
  8
241
100
AcDbVertex
100
AcDb3dPolylineVertex
 10
71.5058
 20
7.67979
 30
0.0
 70
    32
  0
VERTEX
  5
13D0
330
13BE
100
AcDbEntity
  8
241
100
AcDbVertex
100
AcDb3dPolylineVertex
 10
71.4985
 20
7.71357
 30
0.0
 70
    32
  0
VERTEX
  5
13D1
330
13BE
100
AcDbEntity
  8
241
100
AcDbVertex
100
AcDb3dPolylineVertex
 10
71.4904
 20
7.74715
 30
0.0
 70
    32
  0
VERTEX
  5
13D2
330
13BE
100
AcDbEntity
  8
241
100
AcDbVertex
100
AcDb3dPolylineVertex
 10
71.4815
 20
7.78049
 30
0.0
 70
    32
  0
VERTEX
  5
13D3
330
13BE
100
AcDbEntity
  8
241
100
AcDbVertex
100
AcDb3dPolylineVertex
 10
71.4719
 20
7.81358
 30
0.0
 70
    32
  0
VERTEX
  5
13D4
330
13BE
100
AcDbEntity
  8
241
100
AcDbVertex
100
AcDb3dPolylineVertex
 10
71.4614
 20
7.8464
 30
0.0
 70
    32
  0
VERTEX
  5
13D5
330
13BE
100
AcDbEntity
  8
241
100
AcDbVertex
100
AcDb3dPolylineVertex
 10
71.4502
 20
7.87893
 30
0.0
 70
    32
  0
VERTEX
  5
13D6
330
13BE
100
AcDbEntity
  8
241
100
AcDbVertex
100
AcDb3dPolylineVertex
 10
71.4383
 20
7.91115
 30
0.0
 70
    32
  0
VERTEX
  5
13D7
330
13BE
100
AcDbEntity
  8
241
100
AcDbVertex
100
AcDb3dPolylineVertex
 10
71.4255
 20
7.94303
 30
0.0
 70
    32
  0
VERTEX
  5
13D8
330
13BE
100
AcDbEntity
  8
241
100
AcDbVertex
100
AcDb3dPolylineVertex
 10
71.4121
 20
7.97457
 30
0.0
 70
    32
  0
VERTEX
  5
13D9
330
13BE
100
AcDbEntity
  8
241
100
AcDbVertex
100
AcDb3dPolylineVertex
 10
71.3979
 20
8.00573
 30
0.0
 70
    32
  0
VERTEX
  5
13DA
330
13BE
100
AcDbEntity
  8
241
100
AcDbVertex
100
AcDb3dPolylineVertex
 10
71.3829
 20
8.03651
 30
0.0
 70
    32
  0
VERTEX
  5
13DB
330
13BE
100
AcDbEntity
  8
241
100
AcDbVertex
100
AcDb3dPolylineVertex
 10
71.3672
 20
8.06688
 30
0.0
 70
    32
  0
VERTEX
  5
13DC
330
13BE
100
AcDbEntity
  8
241
100
AcDbVertex
100
AcDb3dPolylineVertex
 10
71.3509
 20
8.09682
 30
0.0
 70
    32
  0
VERTEX
  5
13DD
330
13BE
100
AcDbEntity
  8
241
100
AcDbVertex
100
AcDb3dPolylineVertex
 10
71.3338
 20
8.12633
 30
0.0
 70
    32
  0
VERTEX
  5
13DE
330
13BE
100
AcDbEntity
  8
241
100
AcDbVertex
100
AcDb3dPolylineVertex
 10
71.316
 20
8.15537
 30
0.0
 70
    32
  0
VERTEX
  5
13DF
330
13BE
100
AcDbEntity
  8
241
100
AcDbVertex
100
AcDb3dPolylineVertex
 10
71.2975
 20
8.18393
 30
0.0
 70
    32
  0
VERTEX
  5
13E0
330
13BE
100
AcDbEntity
  8
241
100
AcDbVertex
100
AcDb3dPolylineVertex
 10
71.2784
 20
8.212
 30
0.0
 70
    32
  0
VERTEX
  5
13E1
330
13BE
100
AcDbEntity
  8
241
100
AcDbVertex
100
AcDb3dPolylineVertex
 10
71.2586
 20
8.23956
 30
0.0
 70
    32
  0
VERTEX
  5
13E2
330
13BE
100
AcDbEntity
  8
241
100
AcDbVertex
100
AcDb3dPolylineVertex
 10
71.2382
 20
8.26659
 30
0.0
 70
    32
  0
VERTEX
  5
13E3
330
13BE
100
AcDbEntity
  8
241
100
AcDbVertex
100
AcDb3dPolylineVertex
 10
71.2171
 20
8.29307
 30
0.0
 70
    32
  0
VERTEX
  5
13E4
330
13BE
100
AcDbEntity
  8
241
100
AcDbVertex
100
AcDb3dPolylineVertex
 10
71.1954
 20
8.31899
 30
0.0
 70
    32
  0
VERTEX
  5
13E5
330
13BE
100
AcDbEntity
  8
241
100
AcDbVertex
100
AcDb3dPolylineVertex
 10
71.1731
 20
8.34434
 30
0.0
 70
    32
  0
VERTEX
  5
13E6
330
13BE
100
AcDbEntity
  8
241
100
AcDbVertex
100
AcDb3dPolylineVertex
 10
71.1502
 20
8.36909
 30
0.0
 70
    32
  0
VERTEX
  5
13E7
330
13BE
100
AcDbEntity
  8
241
100
AcDbVertex
100
AcDb3dPolylineVertex
 10
71.1267
 20
8.39324
 30
0.0
 70
    32
  0
VERTEX
  5
13E8
330
13BE
100
AcDbEntity
  8
241
100
AcDbVertex
100
AcDb3dPolylineVertex
 10
71.1027
 20
8.41676
 30
0.0
 70
    32
  0
VERTEX
  5
13E9
330
13BE
100
AcDbEntity
  8
241
100
AcDbVertex
100
AcDb3dPolylineVertex
 10
71.0781
 20
8.43965
 30
0.0
 70
    32
  0
VERTEX
  5
13EA
330
13BE
100
AcDbEntity
  8
241
100
AcDbVertex
100
AcDb3dPolylineVertex
 10
71.0529
 20
8.46189
 30
0.0
 70
    32
  0
VERTEX
  5
13EB
330
13BE
100
AcDbEntity
  8
241
100
AcDbVertex
100
AcDb3dPolylineVertex
 10
71.0272
 20
8.48347
 30
0.0
 70
    32
  0
VERTEX
  5
13EC
330
13BE
100
AcDbEntity
  8
241
100
AcDbVertex
100
AcDb3dPolylineVertex
 10
71.0011
 20
8.50437
 30
0.0
 70
    32
  0
VERTEX
  5
13ED
330
13BE
100
AcDbEntity
  8
241
100
AcDbVertex
100
AcDb3dPolylineVertex
 10
70.9744
 20
8.52458
 30
0.0
 70
    32
  0
VERTEX
  5
13EE
330
13BE
100
AcDbEntity
  8
241
100
AcDbVertex
100
AcDb3dPolylineVertex
 10
70.9472
 20
8.54409
 30
0.0
 70
    32
  0
VERTEX
  5
13EF
330
13BE
100
AcDbEntity
  8
241
100
AcDbVertex
100
AcDb3dPolylineVertex
 10
70.9196
 20
8.56289
 30
0.0
 70
    32
  0
VERTEX
  5
13F0
330
13BE
100
AcDbEntity
  8
241
100
AcDbVertex
100
AcDb3dPolylineVertex
 10
70.8916
 20
8.58097
 30
0.0
 70
    32
  0
VERTEX
  5
13F1
330
13BE
100
AcDbEntity
  8
241
100
AcDbVertex
100
AcDb3dPolylineVertex
 10
70.8631
 20
8.59831
 30
0.0
 70
    32
  0
VERTEX
  5
13F2
330
13BE
100
AcDbEntity
  8
241
100
AcDbVertex
100
AcDb3dPolylineVertex
 10
70.8342
 20
8.61491
 30
0.0
 70
    32
  0
VERTEX
  5
13F3
330
13BE
100
AcDbEntity
  8
241
100
AcDbVertex
100
AcDb3dPolylineVertex
 10
70.8049
 20
8.63075
 30
0.0
 70
    32
  0
VERTEX
  5
13F4
330
13BE
100
AcDbEntity
  8
241
100
AcDbVertex
100
AcDb3dPolylineVertex
 10
70.7753
 20
8.64583
 30
0.0
 70
    32
  0
VERTEX
  5
13F5
330
13BE
100
AcDbEntity
  8
241
100
AcDbVertex
100
AcDb3dPolylineVertex
 10
70.7453
 20
8.66013
 30
0.0
 70
    32
  0
VERTEX
  5
13F6
330
13BE
100
AcDbEntity
  8
241
100
AcDbVertex
100
AcDb3dPolylineVertex
 10
70.7149
 20
8.67365
 30
0.0
 70
    32
  0
VERTEX
  5
13F7
330
13BE
100
AcDbEntity
  8
241
100
AcDbVertex
100
AcDb3dPolylineVertex
 10
70.6843
 20
8.68639
 30
0.0
 70
    32
  0
VERTEX
  5
13F8
330
13BE
100
AcDbEntity
  8
241
100
AcDbVertex
100
AcDb3dPolylineVertex
 10
70.6533
 20
8.69832
 30
0.0
 70
    32
  0
VERTEX
  5
13F9
330
13BE
100
AcDbEntity
  8
241
100
AcDbVertex
100
AcDb3dPolylineVertex
 10
70.622
 20
8.70945
 30
0.0
 70
    32
  0
VERTEX
  5
13FA
330
13BE
100
AcDbEntity
  8
241
100
AcDbVertex
100
AcDb3dPolylineVertex
 10
70.5905
 20
8.71976
 30
0.0
 70
    32
  0
VERTEX
  5
13FB
330
13BE
100
AcDbEntity
  8
241
100
AcDbVertex
100
AcDb3dPolylineVertex
 10
70.5587
 20
8.72926
 30
0.0
 70
    32
  0
VERTEX
  5
13FC
330
13BE
100
AcDbEntity
  8
241
100
AcDbVertex
100
AcDb3dPolylineVertex
 10
70.5268
 20
8.73794
 30
0.0
 70
    32
  0
VERTEX
  5
13FD
330
13BE
100
AcDbEntity
  8
241
100
AcDbVertex
100
AcDb3dPolylineVertex
 10
70.4946
 20
8.74578
 30
0.0
 70
    32
  0
VERTEX
  5
13FE
330
13BE
100
AcDbEntity
  8
241
100
AcDbVertex
100
AcDb3dPolylineVertex
 10
70.4622
 20
8.7528
 30
0.0
 70
    32
  0
VERTEX
  5
13FF
330
13BE
100
AcDbEntity
  8
241
100
AcDbVertex
100
AcDb3dPolylineVertex
 10
70.4296
 20
8.75897
 30
0.0
 70
    32
  0
VERTEX
  5
1400
330
13BE
100
AcDbEntity
  8
241
100
AcDbVertex
100
AcDb3dPolylineVertex
 10
70.3969
 20
8.7643
 30
0.0
 70
    32
  0
VERTEX
  5
1401
330
13BE
100
AcDbEntity
  8
241
100
AcDbVertex
100
AcDb3dPolylineVertex
 10
70.3641
 20
8.76879
 30
0.0
 70
    32
  0
VERTEX
  5
1402
330
13BE
100
AcDbEntity
  8
241
100
AcDbVertex
100
AcDb3dPolylineVertex
 10
70.3312
 20
8.77243
 30
0.0
 70
    32
  0
VERTEX
  5
1403
330
13BE
100
AcDbEntity
  8
241
100
AcDbVertex
100
AcDb3dPolylineVertex
 10
70.2981
 20
8.77522
 30
0.0
 70
    32
  0
VERTEX
  5
1404
330
13BE
100
AcDbEntity
  8
241
100
AcDbVertex
100
AcDb3dPolylineVertex
 10
70.265
 20
8.77716
 30
0.0
 70
    32
  0
VERTEX
  5
1405
330
13BE
100
AcDbEntity
  8
241
100
AcDbVertex
100
AcDb3dPolylineVertex
 10
70.2319
 20
8.77824
 30
0.0
 70
    32
  0
VERTEX
  5
1406
330
13BE
100
AcDbEntity
  8
241
100
AcDbVertex
100
AcDb3dPolylineVertex
 10
70.1987
 20
8.77848
 30
0.0
 70
    32
  0
VERTEX
  5
1407
330
13BE
100
AcDbEntity
  8
241
100
AcDbVertex
100
AcDb3dPolylineVertex
 10
70.1655
 20
8.77785
 30
0.0
 70
    32
  0
VERTEX
  5
1408
330
13BE
100
AcDbEntity
  8
241
100
AcDbVertex
100
AcDb3dPolylineVertex
 10
70.1323
 20
8.77638
 30
0.0
 70
    32
  0
VERTEX
  5
1409
330
13BE
100
AcDbEntity
  8
241
100
AcDbVertex
100
AcDb3dPolylineVertex
 10
70.0992
 20
8.77405
 30
0.0
 70
    32
  0
VERTEX
  5
140A
330
13BE
100
AcDbEntity
  8
241
100
AcDbVertex
100
AcDb3dPolylineVertex
 10
70.0661
 20
8.77088
 30
0.0
 70
    32
  0
VERTEX
  5
140B
330
13BE
100
AcDbEntity
  8
241
100
AcDbVertex
100
AcDb3dPolylineVertex
 10
70.0331
 20
8.76685
 30
0.0
 70
    32
  0
VERTEX
  5
140C
330
13BE
100
AcDbEntity
  8
241
100
AcDbVertex
100
AcDb3dPolylineVertex
 10
70.0001
 20
8.76198
 30
0.0
 70
    32
  0
VERTEX
  5
140D
330
13BE
100
AcDbEntity
  8
241
100
AcDbVertex
100
AcDb3dPolylineVertex
 10
69.9673
 20
8.75626
 30
0.0
 70
    32
  0
VERTEX
  5
140E
330
13BE
100
AcDbEntity
  8
241
100
AcDbVertex
100
AcDb3dPolylineVertex
 10
69.9346
 20
8.74971
 30
0.0
 70
    32
  0
VERTEX
  5
140F
330
13BE
100
AcDbEntity
  8
241
100
AcDbVertex
100
AcDb3dPolylineVertex
 10
69.9021
 20
8.74231
 30
0.0
 70
    32
  0
VERTEX
  5
1410
330
13BE
100
AcDbEntity
  8
241
100
AcDbVertex
100
AcDb3dPolylineVertex
 10
69.8697
 20
8.73409
 30
0.0
 70
    32
  0
VERTEX
  5
1411
330
13BE
100
AcDbEntity
  8
241
100
AcDbVertex
100
AcDb3dPolylineVertex
 10
69.8375
 20
8.72504
 30
0.0
 70
    32
  0
VERTEX
  5
1412
330
13BE
100
AcDbEntity
  8
241
100
AcDbVertex
100
AcDb3dPolylineVertex
 10
69.8056
 20
8.71517
 30
0.0
 70
    32
  0
VERTEX
  5
1413
330
13BE
100
AcDbEntity
  8
241
100
AcDbVertex
100
AcDb3dPolylineVertex
 10
69.7738
 20
8.70448
 30
0.0
 70
    32
  0
VERTEX
  5
1414
330
13BE
100
AcDbEntity
  8
241
100
AcDbVertex
100
AcDb3dPolylineVertex
 10
69.7423
 20
8.69298
 30
0.0
 70
    32
  0
VERTEX
  5
1415
330
13BE
100
AcDbEntity
  8
241
100
AcDbVertex
100
AcDb3dPolylineVertex
 10
69.7111
 20
8.68069
 30
0.0
 70
    32
  0
VERTEX
  5
1416
330
13BE
100
AcDbEntity
  8
241
100
AcDbVertex
100
AcDb3dPolylineVertex
 10
69.6801
 20
8.66759
 30
0.0
 70
    32
  0
VERTEX
  5
1417
330
13BE
100
AcDbEntity
  8
241
100
AcDbVertex
100
AcDb3dPolylineVertex
 10
69.6495
 20
8.65371
 30
0.0
 70
    32
  0
VERTEX
  5
1418
330
13BE
100
AcDbEntity
  8
241
100
AcDbVertex
100
AcDb3dPolylineVertex
 10
69.6191
 20
8.63906
 30
0.0
 70
    32
  0
VERTEX
  5
1419
330
13BE
100
AcDbEntity
  8
241
100
AcDbVertex
100
AcDb3dPolylineVertex
 10
69.5892
 20
8.62363
 30
0.0
 70
    32
  0
VERTEX
  5
141A
330
13BE
100
AcDbEntity
  8
241
100
AcDbVertex
100
AcDb3dPolylineVertex
 10
69.5595
 20
8.60744
 30
0.0
 70
    32
  0
VERTEX
  5
141B
330
13BE
100
AcDbEntity
  8
241
100
AcDbVertex
100
AcDb3dPolylineVertex
 10
69.5303
 20
8.5905
 30
0.0
 70
    32
  0
VERTEX
  5
141C
330
13BE
100
AcDbEntity
  8
241
100
AcDbVertex
100
AcDb3dPolylineVertex
 10
69.5014
 20
8.57283
 30
0.0
 70
    32
  0
VERTEX
  5
141D
330
13BE
100
AcDbEntity
  8
241
100
AcDbVertex
100
AcDb3dPolylineVertex
 10
69.473
 20
8.55442
 30
0.0
 70
    32
  0
VERTEX
  5
141E
330
13BE
100
AcDbEntity
  8
241
100
AcDbVertex
100
AcDb3dPolylineVertex
 10
69.4449
 20
8.53529
 30
0.0
 70
    32
  0
VERTEX
  5
141F
330
13BE
100
AcDbEntity
  8
241
100
AcDbVertex
100
AcDb3dPolylineVertex
 10
69.4174
 20
8.51546
 30
0.0
 70
    32
  0
VERTEX
  5
1420
330
13BE
100
AcDbEntity
  8
241
100
AcDbVertex
100
AcDb3dPolylineVertex
 10
69.3902
 20
8.49493
 30
0.0
 70
    32
  0
VERTEX
  5
1421
330
13BE
100
AcDbEntity
  8
241
100
AcDbVertex
100
AcDb3dPolylineVertex
 10
69.3636
 20
8.47372
 30
0.0
 70
    32
  0
VERTEX
  5
1422
330
13BE
100
AcDbEntity
  8
241
100
AcDbVertex
100
AcDb3dPolylineVertex
 10
69.3375
 20
8.45184
 30
0.0
 70
    32
  0
VERTEX
  5
1423
330
13BE
100
AcDbEntity
  8
241
100
AcDbVertex
100
AcDb3dPolylineVertex
 10
69.3118
 20
8.4293
 30
0.0
 70
    32
  0
VERTEX
  5
1424
330
13BE
100
AcDbEntity
  8
241
100
AcDbVertex
100
AcDb3dPolylineVertex
 10
69.2867
 20
8.40612
 30
0.0
 70
    32
  0
VERTEX
  5
1425
330
13BE
100
AcDbEntity
  8
241
100
AcDbVertex
100
AcDb3dPolylineVertex
 10
69.2621
 20
8.38231
 30
0.0
 70
    32
  0
VERTEX
  5
1426
330
13BE
100
AcDbEntity
  8
241
100
AcDbVertex
100
AcDb3dPolylineVertex
 10
69.2381
 20
8.35789
 30
0.0
 70
    32
  0
VERTEX
  5
1427
330
13BE
100
AcDbEntity
  8
241
100
AcDbVertex
100
AcDb3dPolylineVertex
 10
69.2147
 20
8.33287
 30
0.0
 70
    32
  0
VERTEX
  5
1428
330
13BE
100
AcDbEntity
  8
241
100
AcDbVertex
100
AcDb3dPolylineVertex
 10
69.1918
 20
8.30726
 30
0.0
 70
    32
  0
VERTEX
  5
1429
330
13BE
100
AcDbEntity
  8
241
100
AcDbVertex
100
AcDb3dPolylineVertex
 10
69.1696
 20
8.28108
 30
0.0
 70
    32
  0
VERTEX
  5
142A
330
13BE
100
AcDbEntity
  8
241
100
AcDbVertex
100
AcDb3dPolylineVertex
 10
69.1479
 20
8.25434
 30
0.0
 70
    32
  0
VERTEX
  5
142B
330
13BE
100
AcDbEntity
  8
241
100
AcDbVertex
100
AcDb3dPolylineVertex
 10
69.1269
 20
8.22707
 30
0.0
 70
    32
  0
VERTEX
  5
142C
330
13BE
100
AcDbEntity
  8
241
100
AcDbVertex
100
AcDb3dPolylineVertex
 10
69.1065
 20
8.19928
 30
0.0
 70
    32
  0
VERTEX
  5
142D
330
13BE
100
AcDbEntity
  8
241
100
AcDbVertex
100
AcDb3dPolylineVertex
 10
69.0867
 20
8.17099
 30
0.0
 70
    32
  0
VERTEX
  5
142E
330
13BE
100
AcDbEntity
  8
241
100
AcDbVertex
100
AcDb3dPolylineVertex
 10
69.0676
 20
8.1422
 30
0.0
 70
    32
  0
VERTEX
  5
142F
330
13BE
100
AcDbEntity
  8
241
100
AcDbVertex
100
AcDb3dPolylineVertex
 10
69.0492
 20
8.11295
 30
0.0
 70
    32
  0
VERTEX
  5
1430
330
13BE
100
AcDbEntity
  8
241
100
AcDbVertex
100
AcDb3dPolylineVertex
 10
69.0315
 20
8.08324
 30
0.0
 70
    32
  0
VERTEX
  5
1431
330
13BE
100
AcDbEntity
  8
241
100
AcDbVertex
100
AcDb3dPolylineVertex
 10
69.0145
 20
8.0531
 30
0.0
 70
    32
  0
VERTEX
  5
1432
330
13BE
100
AcDbEntity
  8
241
100
AcDbVertex
100
AcDb3dPolylineVertex
 10
68.9981
 20
8.02254
 30
0.0
 70
    32
  0
VERTEX
  5
1433
330
13BE
100
AcDbEntity
  8
241
100
AcDbVertex
100
AcDb3dPolylineVertex
 10
68.9825
 20
7.99158
 30
0.0
 70
    32
  0
VERTEX
  5
1434
330
13BE
100
AcDbEntity
  8
241
100
AcDbVertex
100
AcDb3dPolylineVertex
 10
68.9676
 20
7.96025
 30
0.0
 70
    32
  0
VERTEX
  5
1435
330
13BE
100
AcDbEntity
  8
241
100
AcDbVertex
100
AcDb3dPolylineVertex
 10
68.9535
 20
7.92855
 30
0.0
 70
    32
  0
VERTEX
  5
1436
330
13BE
100
AcDbEntity
  8
241
100
AcDbVertex
100
AcDb3dPolylineVertex
 10
68.94
 20
7.89651
 30
0.0
 70
    32
  0
VERTEX
  5
1437
330
13BE
100
AcDbEntity
  8
241
100
AcDbVertex
100
AcDb3dPolylineVertex
 10
68.9274
 20
7.86415
 30
0.0
 70
    32
  0
VERTEX
  5
1438
330
13BE
100
AcDbEntity
  8
241
100
AcDbVertex
100
AcDb3dPolylineVertex
 10
68.9154
 20
7.83149
 30
0.0
 70
    32
  0
VERTEX
  5
1439
330
13BE
100
AcDbEntity
  8
241
100
AcDbVertex
100
AcDb3dPolylineVertex
 10
68.9043
 20
7.79855
 30
0.0
 70
    32
  0
VERTEX
  5
143A
330
13BE
100
AcDbEntity
  8
241
100
AcDbVertex
100
AcDb3dPolylineVertex
 10
68.8939
 20
7.76534
 30
0.0
 70
    32
  0
VERTEX
  5
143B
330
13BE
100
AcDbEntity
  8
241
100
AcDbVertex
100
AcDb3dPolylineVertex
 10
68.8843
 20
7.73189
 30
0.0
 70
    32
  0
VERTEX
  5
143C
330
13BE
100
AcDbEntity
  8
241
100
AcDbVertex
100
AcDb3dPolylineVertex
 10
68.8755
 20
7.69821
 30
0.0
 70
    32
  0
VERTEX
  5
143D
330
13BE
100
AcDbEntity
  8
241
100
AcDbVertex
100
AcDb3dPolylineVertex
 10
68.8674
 20
7.66433
 30
0.0
 70
    32
  0
VERTEX
  5
143E
330
13BE
100
AcDbEntity
  8
241
100
AcDbVertex
100
AcDb3dPolylineVertex
 10
68.8602
 20
7.63027
 30
0.0
 70
    32
  0
VERTEX
  5
143F
330
13BE
100
AcDbEntity
  8
241
100
AcDbVertex
100
AcDb3dPolylineVertex
 10
68.8537
 20
7.59605
 30
0.0
 70
    32
  0
SEQEND
  5
1440
330
13BE
100
AcDbEntity
  8
241
  0
LINE
  5
1441
330
EC6
100
AcDbEntity
  8
246
100
AcDbLine
 10
75.0
 20
-12.5
 30
0.0
 11
75.0
 21
12.5
 31
0.0
  0
POLYLINE
  5
1442
330
EC6
100
AcDbEntity
  8
241
100
AcDb3dPolyline
 66
     1
 10
0.0
 20
0.0
 30
0.0
 70
     8
  0
VERTEX
  5
1443
330
1442
100
AcDbEntity
  8
241
100
AcDbVertex
100
AcDb3dPolylineVertex
 10
68.8537
 20
7.59605
 30
0.0
 70
    32
  0
VERTEX
  5
1444
330
1442
100
AcDbEntity
  8
241
100
AcDbVertex
100
AcDb3dPolylineVertex
 10
68.846
 20
7.54959
 30
0.0
 70
    32
  0
VERTEX
  5
1445
330
1442
100
AcDbEntity
  8
241
100
AcDbVertex
100
AcDb3dPolylineVertex
 10
68.839
 20
7.50303
 30
0.0
 70
    32
  0
VERTEX
  5
1446
330
1442
100
AcDbEntity
  8
241
100
AcDbVertex
100
AcDb3dPolylineVertex
 10
68.8328
 20
7.45637
 30
0.0
 70
    32
  0
VERTEX
  5
1447
330
1442
100
AcDbEntity
  8
241
100
AcDbVertex
100
AcDb3dPolylineVertex
 10
68.8275
 20
7.40966
 30
0.0
 70
    32
  0
VERTEX
  5
1448
330
1442
100
AcDbEntity
  8
241
100
AcDbVertex
100
AcDb3dPolylineVertex
 10
68.8229
 20
7.36292
 30
0.0
 70
    32
  0
VERTEX
  5
1449
330
1442
100
AcDbEntity
  8
241
100
AcDbVertex
100
AcDb3dPolylineVertex
 10
68.8192
 20
7.31618
 30
0.0
 70
    32
  0
VERTEX
  5
144A
330
1442
100
AcDbEntity
  8
241
100
AcDbVertex
100
AcDb3dPolylineVertex
 10
68.8163
 20
7.26946
 30
0.0
 70
    32
  0
VERTEX
  5
144B
330
1442
100
AcDbEntity
  8
241
100
AcDbVertex
100
AcDb3dPolylineVertex
 10
68.8143
 20
7.2228
 30
0.0
 70
    32
  0
VERTEX
  5
144C
330
1442
100
AcDbEntity
  8
241
100
AcDbVertex
100
AcDb3dPolylineVertex
 10
68.813
 20
7.17623
 30
0.0
 70
    32
  0
VERTEX
  5
144D
330
1442
100
AcDbEntity
  8
241
100
AcDbVertex
100
AcDb3dPolylineVertex
 10
68.8126
 20
7.12977
 30
0.0
 70
    32
  0
VERTEX
  5
144E
330
1442
100
AcDbEntity
  8
241
100
AcDbVertex
100
AcDb3dPolylineVertex
 10
68.813
 20
7.08344
 30
0.0
 70
    32
  0
VERTEX
  5
144F
330
1442
100
AcDbEntity
  8
241
100
AcDbVertex
100
AcDb3dPolylineVertex
 10
68.8142
 20
7.03729
 30
0.0
 70
    32
  0
VERTEX
  5
1450
330
1442
100
AcDbEntity
  8
241
100
AcDbVertex
100
AcDb3dPolylineVertex
 10
68.8163
 20
6.99132
 30
0.0
 70
    32
  0
VERTEX
  5
1451
330
1442
100
AcDbEntity
  8
241
100
AcDbVertex
100
AcDb3dPolylineVertex
 10
68.8192
 20
6.94559
 30
0.0
 70
    32
  0
VERTEX
  5
1452
330
1442
100
AcDbEntity
  8
241
100
AcDbVertex
100
AcDb3dPolylineVertex
 10
68.8229
 20
6.9001
 30
0.0
 70
    32
  0
VERTEX
  5
1453
330
1442
100
AcDbEntity
  8
241
100
AcDbVertex
100
AcDb3dPolylineVertex
 10
68.8274
 20
6.85489
 30
0.0
 70
    32
  0
VERTEX
  5
1454
330
1442
100
AcDbEntity
  8
241
100
AcDbVertex
100
AcDb3dPolylineVertex
 10
68.8327
 20
6.80999
 30
0.0
 70
    32
  0
VERTEX
  5
1455
330
1442
100
AcDbEntity
  8
241
100
AcDbVertex
100
AcDb3dPolylineVertex
 10
68.8389
 20
6.76542
 30
0.0
 70
    32
  0
VERTEX
  5
1456
330
1442
100
AcDbEntity
  8
241
100
AcDbVertex
100
AcDb3dPolylineVertex
 10
68.8459
 20
6.7212
 30
0.0
 70
    32
  0
VERTEX
  5
1457
330
1442
100
AcDbEntity
  8
241
100
AcDbVertex
100
AcDb3dPolylineVertex
 10
68.8536
 20
6.67738
 30
0.0
 70
    32
  0
VERTEX
  5
1458
330
1442
100
AcDbEntity
  8
241
100
AcDbVertex
100
AcDb3dPolylineVertex
 10
68.8622
 20
6.63396
 30
0.0
 70
    32
  0
VERTEX
  5
1459
330
1442
100
AcDbEntity
  8
241
100
AcDbVertex
100
AcDb3dPolylineVertex
 10
68.8716
 20
6.59099
 30
0.0
 70
    32
  0
VERTEX
  5
145A
330
1442
100
AcDbEntity
  8
241
100
AcDbVertex
100
AcDb3dPolylineVertex
 10
68.8817
 20
6.54847
 30
0.0
 70
    32
  0
VERTEX
  5
145B
330
1442
100
AcDbEntity
  8
241
100
AcDbVertex
100
AcDb3dPolylineVertex
 10
68.8926
 20
6.50645
 30
0.0
 70
    32
  0
VERTEX
  5
145C
330
1442
100
AcDbEntity
  8
241
100
AcDbVertex
100
AcDb3dPolylineVertex
 10
68.9044
 20
6.46495
 30
0.0
 70
    32
  0
VERTEX
  5
145D
330
1442
100
AcDbEntity
  8
241
100
AcDbVertex
100
AcDb3dPolylineVertex
 10
68.9168
 20
6.42398
 30
0.0
 70
    32
  0
VERTEX
  5
145E
330
1442
100
AcDbEntity
  8
241
100
AcDbVertex
100
AcDb3dPolylineVertex
 10
68.9301
 20
6.38358
 30
0.0
 70
    32
  0
VERTEX
  5
145F
330
1442
100
AcDbEntity
  8
241
100
AcDbVertex
100
AcDb3dPolylineVertex
 10
68.9441
 20
6.34376
 30
0.0
 70
    32
  0
VERTEX
  5
1460
330
1442
100
AcDbEntity
  8
241
100
AcDbVertex
100
AcDb3dPolylineVertex
 10
68.9588
 20
6.30456
 30
0.0
 70
    32
  0
VERTEX
  5
1461
330
1442
100
AcDbEntity
  8
241
100
AcDbVertex
100
AcDb3dPolylineVertex
 10
68.9743
 20
6.266
 30
0.0
 70
    32
  0
VERTEX
  5
1462
330
1442
100
AcDbEntity
  8
241
100
AcDbVertex
100
AcDb3dPolylineVertex
 10
68.9905
 20
6.2281
 30
0.0
 70
    32
  0
VERTEX
  5
1463
330
1442
100
AcDbEntity
  8
241
100
AcDbVertex
100
AcDb3dPolylineVertex
 10
69.0075
 20
6.19088
 30
0.0
 70
    32
  0
VERTEX
  5
1464
330
1442
100
AcDbEntity
  8
241
100
AcDbVertex
100
AcDb3dPolylineVertex
 10
69.0251
 20
6.15436
 30
0.0
 70
    32
  0
VERTEX
  5
1465
330
1442
100
AcDbEntity
  8
241
100
AcDbVertex
100
AcDb3dPolylineVertex
 10
69.0435
 20
6.11857
 30
0.0
 70
    32
  0
VERTEX
  5
1466
330
1442
100
AcDbEntity
  8
241
100
AcDbVertex
100
AcDb3dPolylineVertex
 10
69.0625
 20
6.08353
 30
0.0
 70
    32
  0
VERTEX
  5
1467
330
1442
100
AcDbEntity
  8
241
100
AcDbVertex
100
AcDb3dPolylineVertex
 10
69.0822
 20
6.04927
 30
0.0
 70
    32
  0
VERTEX
  5
1468
330
1442
100
AcDbEntity
  8
241
100
AcDbVertex
100
AcDb3dPolylineVertex
 10
69.1025
 20
6.01579
 30
0.0
 70
    32
  0
VERTEX
  5
1469
330
1442
100
AcDbEntity
  8
241
100
AcDbVertex
100
AcDb3dPolylineVertex
 10
69.1236
 20
5.98312
 30
0.0
 70
    32
  0
VERTEX
  5
146A
330
1442
100
AcDbEntity
  8
241
100
AcDbVertex
100
AcDb3dPolylineVertex
 10
69.1452
 20
5.95128
 30
0.0
 70
    32
  0
VERTEX
  5
146B
330
1442
100
AcDbEntity
  8
241
100
AcDbVertex
100
AcDb3dPolylineVertex
 10
69.1675
 20
5.92029
 30
0.0
 70
    32
  0
VERTEX
  5
146C
330
1442
100
AcDbEntity
  8
241
100
AcDbVertex
100
AcDb3dPolylineVertex
 10
69.1904
 20
5.89017
 30
0.0
 70
    32
  0
VERTEX
  5
146D
330
1442
100
AcDbEntity
  8
241
100
AcDbVertex
100
AcDb3dPolylineVertex
 10
69.2139
 20
5.86094
 30
0.0
 70
    32
  0
VERTEX
  5
146E
330
1442
100
AcDbEntity
  8
241
100
AcDbVertex
100
AcDb3dPolylineVertex
 10
69.2379
 20
5.83261
 30
0.0
 70
    32
  0
VERTEX
  5
146F
330
1442
100
AcDbEntity
  8
241
100
AcDbVertex
100
AcDb3dPolylineVertex
 10
69.2626
 20
5.8052
 30
0.0
 70
    32
  0
VERTEX
  5
1470
330
1442
100
AcDbEntity
  8
241
100
AcDbVertex
100
AcDb3dPolylineVertex
 10
69.2878
 20
5.77873
 30
0.0
 70
    32
  0
VERTEX
  5
1471
330
1442
100
AcDbEntity
  8
241
100
AcDbVertex
100
AcDb3dPolylineVertex
 10
69.3135
 20
5.75321
 30
0.0
 70
    32
  0
VERTEX
  5
1472
330
1442
100
AcDbEntity
  8
241
100
AcDbVertex
100
AcDb3dPolylineVertex
 10
69.3398
 20
5.72866
 30
0.0
 70
    32
  0
VERTEX
  5
1473
330
1442
100
AcDbEntity
  8
241
100
AcDbVertex
100
AcDb3dPolylineVertex
 10
69.3665
 20
5.7051
 30
0.0
 70
    32
  0
VERTEX
  5
1474
330
1442
100
AcDbEntity
  8
241
100
AcDbVertex
100
AcDb3dPolylineVertex
 10
69.3938
 20
5.68253
 30
0.0
 70
    32
  0
VERTEX
  5
1475
330
1442
100
AcDbEntity
  8
241
100
AcDbVertex
100
AcDb3dPolylineVertex
 10
69.4215
 20
5.66098
 30
0.0
 70
    32
  0
VERTEX
  5
1476
330
1442
100
AcDbEntity
  8
241
100
AcDbVertex
100
AcDb3dPolylineVertex
 10
69.4497
 20
5.64044
 30
0.0
 70
    32
  0
VERTEX
  5
1477
330
1442
100
AcDbEntity
  8
241
100
AcDbVertex
100
AcDb3dPolylineVertex
 10
69.4784
 20
5.62095
 30
0.0
 70
    32
  0
VERTEX
  5
1478
330
1442
100
AcDbEntity
  8
241
100
AcDbVertex
100
AcDb3dPolylineVertex
 10
69.5074
 20
5.6025
 30
0.0
 70
    32
  0
VERTEX
  5
1479
330
1442
100
AcDbEntity
  8
241
100
AcDbVertex
100
AcDb3dPolylineVertex
 10
69.5369
 20
5.58512
 30
0.0
 70
    32
  0
VERTEX
  5
147A
330
1442
100
AcDbEntity
  8
241
100
AcDbVertex
100
AcDb3dPolylineVertex
 10
69.5668
 20
5.5688
 30
0.0
 70
    32
  0
VERTEX
  5
147B
330
1442
100
AcDbEntity
  8
241
100
AcDbVertex
100
AcDb3dPolylineVertex
 10
69.597
 20
5.55356
 30
0.0
 70
    32
  0
VERTEX
  5
147C
330
1442
100
AcDbEntity
  8
241
100
AcDbVertex
100
AcDb3dPolylineVertex
 10
69.6276
 20
5.53942
 30
0.0
 70
    32
  0
VERTEX
  5
147D
330
1442
100
AcDbEntity
  8
241
100
AcDbVertex
100
AcDb3dPolylineVertex
 10
69.6585
 20
5.52637
 30
0.0
 70
    32
  0
VERTEX
  5
147E
330
1442
100
AcDbEntity
  8
241
100
AcDbVertex
100
AcDb3dPolylineVertex
 10
69.6897
 20
5.51442
 30
0.0
 70
    32
  0
VERTEX
  5
147F
330
1442
100
AcDbEntity
  8
241
100
AcDbVertex
100
AcDb3dPolylineVertex
 10
69.7212
 20
5.50359
 30
0.0
 70
    32
  0
VERTEX
  5
1480
330
1442
100
AcDbEntity
  8
241
100
AcDbVertex
100
AcDb3dPolylineVertex
 10
69.7531
 20
5.49388
 30
0.0
 70
    32
  0
VERTEX
  5
1481
330
1442
100
AcDbEntity
  8
241
100
AcDbVertex
100
AcDb3dPolylineVertex
 10
69.7851
 20
5.48529
 30
0.0
 70
    32
  0
VERTEX
  5
1482
330
1442
100
AcDbEntity
  8
241
100
AcDbVertex
100
AcDb3dPolylineVertex
 10
69.8174
 20
5.47783
 30
0.0
 70
    32
  0
VERTEX
  5
1483
330
1442
100
AcDbEntity
  8
241
100
AcDbVertex
100
AcDb3dPolylineVertex
 10
69.85
 20
5.47151
 30
0.0
 70
    32
  0
VERTEX
  5
1484
330
1442
100
AcDbEntity
  8
241
100
AcDbVertex
100
AcDb3dPolylineVertex
 10
69.8827
 20
5.46633
 30
0.0
 70
    32
  0
VERTEX
  5
1485
330
1442
100
AcDbEntity
  8
241
100
AcDbVertex
100
AcDb3dPolylineVertex
 10
69.9156
 20
5.46229
 30
0.0
 70
    32
  0
VERTEX
  5
1486
330
1442
100
AcDbEntity
  8
241
100
AcDbVertex
100
AcDb3dPolylineVertex
 10
69.9487
 20
5.45939
 30
0.0
 70
    32
  0
VERTEX
  5
1487
330
1442
100
AcDbEntity
  8
241
100
AcDbVertex
100
AcDb3dPolylineVertex
 10
69.9819
 20
5.45764
 30
0.0
 70
    32
  0
VERTEX
  5
1488
330
1442
100
AcDbEntity
  8
241
100
AcDbVertex
100
AcDb3dPolylineVertex
 10
70.0152
 20
5.45703
 30
0.0
 70
    32
  0
VERTEX
  5
1489
330
1442
100
AcDbEntity
  8
241
100
AcDbVertex
100
AcDb3dPolylineVertex
 10
70.0486
 20
5.45757
 30
0.0
 70
    32
  0
VERTEX
  5
148A
330
1442
100
AcDbEntity
  8
241
100
AcDbVertex
100
AcDb3dPolylineVertex
 10
70.0822
 20
5.45926
 30
0.0
 70
    32
  0
VERTEX
  5
148B
330
1442
100
AcDbEntity
  8
241
100
AcDbVertex
100
AcDb3dPolylineVertex
 10
70.1157
 20
5.4621
 30
0.0
 70
    32
  0
VERTEX
  5
148C
330
1442
100
AcDbEntity
  8
241
100
AcDbVertex
100
AcDb3dPolylineVertex
 10
70.1493
 20
5.46607
 30
0.0
 70
    32
  0
VERTEX
  5
148D
330
1442
100
AcDbEntity
  8
241
100
AcDbVertex
100
AcDb3dPolylineVertex
 10
70.183
 20
5.4712
 30
0.0
 70
    32
  0
VERTEX
  5
148E
330
1442
100
AcDbEntity
  8
241
100
AcDbVertex
100
AcDb3dPolylineVertex
 10
70.2166
 20
5.47746
 30
0.0
 70
    32
  0
VERTEX
  5
148F
330
1442
100
AcDbEntity
  8
241
100
AcDbVertex
100
AcDb3dPolylineVertex
 10
70.2502
 20
5.48485
 30
0.0
 70
    32
  0
VERTEX
  5
1490
330
1442
100
AcDbEntity
  8
241
100
AcDbVertex
100
AcDb3dPolylineVertex
 10
70.2838
 20
5.49337
 30
0.0
 70
    32
  0
VERTEX
  5
1491
330
1442
100
AcDbEntity
  8
241
100
AcDbVertex
100
AcDb3dPolylineVertex
 10
70.3173
 20
5.50302
 30
0.0
 70
    32
  0
VERTEX
  5
1492
330
1442
100
AcDbEntity
  8
241
100
AcDbVertex
100
AcDb3dPolylineVertex
 10
70.3508
 20
5.51379
 30
0.0
 70
    32
  0
VERTEX
  5
1493
330
1442
100
AcDbEntity
  8
241
100
AcDbVertex
100
AcDb3dPolylineVertex
 10
70.3841
 20
5.52568
 30
0.0
 70
    32
  0
VERTEX
  5
1494
330
1442
100
AcDbEntity
  8
241
100
AcDbVertex
100
AcDb3dPolylineVertex
 10
70.4173
 20
5.53867
 30
0.0
 70
    32
  0
VERTEX
  5
1495
330
1442
100
AcDbEntity
  8
241
100
AcDbVertex
100
AcDb3dPolylineVertex
 10
70.4504
 20
5.55275
 30
0.0
 70
    32
  0
VERTEX
  5
1496
330
1442
100
AcDbEntity
  8
241
100
AcDbVertex
100
AcDb3dPolylineVertex
 10
70.4833
 20
5.56793
 30
0.0
 70
    32
  0
VERTEX
  5
1497
330
1442
100
AcDbEntity
  8
241
100
AcDbVertex
100
AcDb3dPolylineVertex
 10
70.516
 20
5.58419
 30
0.0
 70
    32
  0
VERTEX
  5
1498
330
1442
100
AcDbEntity
  8
241
100
AcDbVertex
100
AcDb3dPolylineVertex
 10
70.5486
 20
5.60151
 30
0.0
 70
    32
  0
VERTEX
  5
1499
330
1442
100
AcDbEntity
  8
241
100
AcDbVertex
100
AcDb3dPolylineVertex
 10
70.5809
 20
5.6199
 30
0.0
 70
    32
  0
VERTEX
  5
149A
330
1442
100
AcDbEntity
  8
241
100
AcDbVertex
100
AcDb3dPolylineVertex
 10
70.6129
 20
5.63934
 30
0.0
 70
    32
  0
VERTEX
  5
149B
330
1442
100
AcDbEntity
  8
241
100
AcDbVertex
100
AcDb3dPolylineVertex
 10
70.6447
 20
5.65981
 30
0.0
 70
    32
  0
VERTEX
  5
149C
330
1442
100
AcDbEntity
  8
241
100
AcDbVertex
100
AcDb3dPolylineVertex
 10
70.6763
 20
5.68131
 30
0.0
 70
    32
  0
VERTEX
  5
149D
330
1442
100
AcDbEntity
  8
241
100
AcDbVertex
100
AcDb3dPolylineVertex
 10
70.7075
 20
5.70383
 30
0.0
 70
    32
  0
VERTEX
  5
149E
330
1442
100
AcDbEntity
  8
241
100
AcDbVertex
100
AcDb3dPolylineVertex
 10
70.7384
 20
5.72734
 30
0.0
 70
    32
  0
VERTEX
  5
149F
330
1442
100
AcDbEntity
  8
241
100
AcDbVertex
100
AcDb3dPolylineVertex
 10
70.769
 20
5.75183
 30
0.0
 70
    32
  0
VERTEX
  5
14A0
330
1442
100
AcDbEntity
  8
241
100
AcDbVertex
100
AcDb3dPolylineVertex
 10
70.7993
 20
5.77729
 30
0.0
 70
    32
  0
VERTEX
  5
14A1
330
1442
100
AcDbEntity
  8
241
100
AcDbVertex
100
AcDb3dPolylineVertex
 10
70.8291
 20
5.80371
 30
0.0
 70
    32
  0
VERTEX
  5
14A2
330
1442
100
AcDbEntity
  8
241
100
AcDbVertex
100
AcDb3dPolylineVertex
 10
70.8586
 20
5.83107
 30
0.0
 70
    32
  0
VERTEX
  5
14A3
330
1442
100
AcDbEntity
  8
241
100
AcDbVertex
100
AcDb3dPolylineVertex
 10
70.8877
 20
5.85935
 30
0.0
 70
    32
  0
VERTEX
  5
14A4
330
1442
100
AcDbEntity
  8
241
100
AcDbVertex
100
AcDb3dPolylineVertex
 10
70.9163
 20
5.88853
 30
0.0
 70
    32
  0
VERTEX
  5
14A5
330
1442
100
AcDbEntity
  8
241
100
AcDbVertex
100
AcDb3dPolylineVertex
 10
70.9445
 20
5.91861
 30
0.0
 70
    32
  0
VERTEX
  5
14A6
330
1442
100
AcDbEntity
  8
241
100
AcDbVertex
100
AcDb3dPolylineVertex
 10
70.9722
 20
5.94955
 30
0.0
 70
    32
  0
VERTEX
  5
14A7
330
1442
100
AcDbEntity
  8
241
100
AcDbVertex
100
AcDb3dPolylineVertex
 10
70.9995
 20
5.98134
 30
0.0
 70
    32
  0
VERTEX
  5
14A8
330
1442
100
AcDbEntity
  8
241
100
AcDbVertex
100
AcDb3dPolylineVertex
 10
71.0263
 20
6.01396
 30
0.0
 70
    32
  0
VERTEX
  5
14A9
330
1442
100
AcDbEntity
  8
241
100
AcDbVertex
100
AcDb3dPolylineVertex
 10
71.0526
 20
6.04739
 30
0.0
 70
    32
  0
VERTEX
  5
14AA
330
1442
100
AcDbEntity
  8
241
100
AcDbVertex
100
AcDb3dPolylineVertex
 10
71.0783
 20
6.08162
 30
0.0
 70
    32
  0
VERTEX
  5
14AB
330
1442
100
AcDbEntity
  8
241
100
AcDbVertex
100
AcDb3dPolylineVertex
 10
71.1035
 20
6.11662
 30
0.0
 70
    32
  0
VERTEX
  5
14AC
330
1442
100
AcDbEntity
  8
241
100
AcDbVertex
100
AcDb3dPolylineVertex
 10
71.1282
 20
6.15236
 30
0.0
 70
    32
  0
VERTEX
  5
14AD
330
1442
100
AcDbEntity
  8
241
100
AcDbVertex
100
AcDb3dPolylineVertex
 10
71.1522
 20
6.18884
 30
0.0
 70
    32
  0
VERTEX
  5
14AE
330
1442
100
AcDbEntity
  8
241
100
AcDbVertex
100
AcDb3dPolylineVertex
 10
71.1757
 20
6.22602
 30
0.0
 70
    32
  0
VERTEX
  5
14AF
330
1442
100
AcDbEntity
  8
241
100
AcDbVertex
100
AcDb3dPolylineVertex
 10
71.1986
 20
6.26389
 30
0.0
 70
    32
  0
VERTEX
  5
14B0
330
1442
100
AcDbEntity
  8
241
100
AcDbVertex
100
AcDb3dPolylineVertex
 10
71.2209
 20
6.30242
 30
0.0
 70
    32
  0
VERTEX
  5
14B1
330
1442
100
AcDbEntity
  8
241
100
AcDbVertex
100
AcDb3dPolylineVertex
 10
71.2426
 20
6.34158
 30
0.0
 70
    32
  0
VERTEX
  5
14B2
330
1442
100
AcDbEntity
  8
241
100
AcDbVertex
100
AcDb3dPolylineVertex
 10
71.2636
 20
6.38136
 30
0.0
 70
    32
  0
VERTEX
  5
14B3
330
1442
100
AcDbEntity
  8
241
100
AcDbVertex
100
AcDb3dPolylineVertex
 10
71.284
 20
6.42173
 30
0.0
 70
    32
  0
VERTEX
  5
14B4
330
1442
100
AcDbEntity
  8
241
100
AcDbVertex
100
AcDb3dPolylineVertex
 10
71.3037
 20
6.46267
 30
0.0
 70
    32
  0
VERTEX
  5
14B5
330
1442
100
AcDbEntity
  8
241
100
AcDbVertex
100
AcDb3dPolylineVertex
 10
71.3227
 20
6.50414
 30
0.0
 70
    32
  0
VERTEX
  5
14B6
330
1442
100
AcDbEntity
  8
241
100
AcDbVertex
100
AcDb3dPolylineVertex
 10
71.3411
 20
6.54614
 30
0.0
 70
    32
  0
VERTEX
  5
14B7
330
1442
100
AcDbEntity
  8
241
100
AcDbVertex
100
AcDb3dPolylineVertex
 10
71.3587
 20
6.58862
 30
0.0
 70
    32
  0
VERTEX
  5
14B8
330
1442
100
AcDbEntity
  8
241
100
AcDbVertex
100
AcDb3dPolylineVertex
 10
71.3757
 20
6.63158
 30
0.0
 70
    32
  0
VERTEX
  5
14B9
330
1442
100
AcDbEntity
  8
241
100
AcDbVertex
100
AcDb3dPolylineVertex
 10
71.3919
 20
6.67497
 30
0.0
 70
    32
  0
VERTEX
  5
14BA
330
1442
100
AcDbEntity
  8
241
100
AcDbVertex
100
AcDb3dPolylineVertex
 10
71.4074
 20
6.71877
 30
0.0
 70
    32
  0
VERTEX
  5
14BB
330
1442
100
AcDbEntity
  8
241
100
AcDbVertex
100
AcDb3dPolylineVertex
 10
71.4222
 20
6.76296
 30
0.0
 70
    32
  0
VERTEX
  5
14BC
330
1442
100
AcDbEntity
  8
241
100
AcDbVertex
100
AcDb3dPolylineVertex
 10
71.4362
 20
6.80751
 30
0.0
 70
    32
  0
VERTEX
  5
14BD
330
1442
100
AcDbEntity
  8
241
100
AcDbVertex
100
AcDb3dPolylineVertex
 10
71.4494
 20
6.8524
 30
0.0
 70
    32
  0
VERTEX
  5
14BE
330
1442
100
AcDbEntity
  8
241
100
AcDbVertex
100
AcDb3dPolylineVertex
 10
71.4619
 20
6.89759
 30
0.0
 70
    32
  0
VERTEX
  5
14BF
330
1442
100
AcDbEntity
  8
241
100
AcDbVertex
100
AcDb3dPolylineVertex
 10
71.4737
 20
6.94307
 30
0.0
 70
    32
  0
VERTEX
  5
14C0
330
1442
100
AcDbEntity
  8
241
100
AcDbVertex
100
AcDb3dPolylineVertex
 10
71.4846
 20
6.98879
 30
0.0
 70
    32
  0
VERTEX
  5
14C1
330
1442
100
AcDbEntity
  8
241
100
AcDbVertex
100
AcDb3dPolylineVertex
 10
71.4948
 20
7.03474
 30
0.0
 70
    32
  0
VERTEX
  5
14C2
330
1442
100
AcDbEntity
  8
241
100
AcDbVertex
100
AcDb3dPolylineVertex
 10
71.5041
 20
7.08089
 30
0.0
 70
    32
  0
VERTEX
  5
14C3
330
1442
100
AcDbEntity
  8
241
100
AcDbVertex
100
AcDb3dPolylineVertex
 10
71.5127
 20
7.1272
 30
0.0
 70
    32
  0
SEQEND
  5
14C4
330
1442
100
AcDbEntity
  8
241
  0
LINE
  5
14C5
330
EC6
100
AcDbEntity
  8
241
100
AcDbLine
 10
63.89702364
 20
0.47315291
 30
0.0
 11
74.25
 21
-3.29502232
 31
0.0
  0
LINE
  5
14C6
330
EC6
100
AcDbEntity
  8
241
100
AcDbLine
 10
65.18428121
 20
2.70274844
 30
0.0
 11
63.75457206
 21
0.22641954
 31
0.0
  0
LINE
  5
14C7
330
EC6
100
AcDbEntity
  8
240
100
AcDbLine
 10
63.87806342
 20
-11.75
 30
0.0
 11
65.18428122
 21
-12.1
 31
0.0
  0
LINE
  5
14C8
330
EC6
100
AcDbEntity
  8
241
100
AcDbLine
 10
56.51931253
 20
-5.04716552
 30
0.0
 11
74.1959231
 21
-10.59119153
 31
0.0
  0
ARC
  5
14C9
330
EC6
100
AcDbEntity
  8
241
100
AcDbCircle
 10
57.48846337
 20
-1.95711833
 30
0.0
 40
3.238463372383664
100
AcDbArc
 50
79.9999824
 51
252.58666619
  0
LINE
  5
14CA
330
EC6
100
AcDbEntity
  8
241
100
AcDbLine
 10
63.75457206
 20
0.22641954
 30
0.0
 11
58.05081664
 21
1.23214551
 31
0.0
  0
LINE
  5
14CB
330
EC6
100
AcDbEntity
  8
240
100
AcDbLine
 10
74.25
 20
-11.89776928
 30
0.0
 11
74.25
 21
-3.29502232
 31
0.0
  0
LINE
  5
14CC
330
EC6
100
AcDbEntity
  8
240
100
AcDbLine
 10
74.25
 20
-11.89776928
 30
0.0
 11
65.18428122
 21
-12.1
 31
0.0
  0
LINE
  5
14CD
330
EC6
100
AcDbEntity
  8
246
100
AcDbLine
 10
75.0
 20
-12.5
 30
0.0
 11
67.0
 21
-12.5
 31
0.0
  0
LINE
  5
14CE
330
EC6
100
AcDbEntity
  8
241
100
AcDbLine
 10
65.18428121
 20
2.70274844
 30
0.0
 11
74.17379259
 21
1.11765504
 31
0.0
  0
LINE
  5
14CF
330
EC6
100
AcDbEntity
  8
240
100
AcDbLine
 10
74.25
 20
1.10421762
 30
0.0
 11
74.17379259
 21
1.11765504
 31
0.0
  0
LINE
  5
14D0
330
EC6
100
AcDbEntity
  8
240
100
AcDbLine
 10
74.17379259
 20
1.11765504
 30
0.0
 11
75.0
 21
-3.568
 31
0.0
  0
LINE
  5
14D1
330
EC6
100
AcDbEntity
  8
240
100
AcDbLine
 10
75.0
 20
-3.568
 30
0.0
 11
74.25
 21
-3.29502232
 31
0.0
  0
LINE
  5
14D2
330
EC6
100
AcDbEntity
  8
240
100
AcDbLine
 10
63.87806342
 20
11.75
 30
0.0
 11
65.18428122
 21
12.1
 31
0.0
  0
LINE
  5
14D3
330
EC6
100
AcDbEntity
  8
240
100
AcDbLine
 10
74.25
 20
11.89776928
 30
0.0
 11
65.18428122
 21
12.1
 31
0.0
  0
LINE
  5
14D4
330
EC6
100
AcDbEntity
  8
246
100
AcDbLine
 10
75.0
 20
12.5
 30
0.0
 11
67.0
 21
12.5
 31
0.0
  0
ENDBLK
  5
EC8
330
EC6
100
AcDbEntity
  8
0
100
AcDbBlockEnd
  0
ENDSEC
  0
SECTION
  2
ENTITIES
  0
INSERT
  5
6E6
330
1A
100
AcDbEntity
  8
245
100
AcDbBlockReference
  2
矢印なし
 10
175.62382697
 20
90.55123572
 30
0.0
  0
TEXT
  5
ACE
330
1A
100
AcDbEntity
  8
241
100
AcDbText
 10
-25.0
 20
52.0
 30
0.0
 40
5.0
  1
HSK-A50-FCR25083-75
  7
YOKO
100
AcDbText
  0
DIMENSION
  5
E3F
330
1A
100
AcDbEntity
  8
250
  6
CONTINUOUS
100
AcDbDimension
  2
*D2
 10
87.0
 20
12.5
 30
0.0
 11
84.6
 21
0.0
 31
0.0
 70
    32
  1
{\H2.8;\U+2205}<>
  3
BIGT
100
AcDbAlignedDimension
 13
75.0
 23
-12.5
 33
0.0
 14
75.0
 24
12.5
 34
0.0
 50
90.0
100
AcDbRotatedDimension
  0
DIMENSION
  5
E4E
330
1A
100
AcDbEntity
  8
250
  6
CONTINUOUS
100
AcDbDimension
  2
*D3
 10
75.0
 20
24.0
 30
0.0
 11
71.0
 21
26.4
 31
0.0
 70
    32
  3
BIGT
100
AcDbAlignedDimension
 13
67.0
 23
12.5
 33
0.0
 14
75.0
 24
12.5
 34
0.0
100
AcDbRotatedDimension
  0
DIMENSION
  5
E5D
330
1A
100
AcDbEntity
  8
250
  6
CONTINUOUS
100
AcDbDimension
  2
*D4
 10
75.0
 20
31.0
 30
0.0
 11
58.5
 21
33.4
 31
0.0
 70
    32
  3
BIGT
100
AcDbAlignedDimension
 13
42.0
 23
11.85013145
 33
0.0
 14
75.0
 24
12.5
 34
0.0
100
AcDbRotatedDimension
  0
DIMENSION
  5
E6C
330
1A
100
AcDbEntity
  8
250
  6
CONTINUOUS
100
AcDbDimension
  2
*D5
 10
75.0
 20
38.0
 30
0.0
 11
37.5
 21
40.4
 31
0.0
 70
    32
  3
BIGT
100
AcDbAlignedDimension
 13
0.0
 23
25.0
 33
0.0
 14
75.0
 24
12.5
 34
0.0
100
AcDbRotatedDimension
  0
LINE
  5
1285
330
1A
100
AcDbEntity
  8
250
  6
CONTINUOUS
100
AcDbLine
 10
-16.04440773
 20
-28.02592197
 30
0.0
 11
-40.3110744
 21
-28.02592197
 31
0.0
1001
ITEMNAME
1000
LNSP2
  0
MTEXT
  5
1286
330
1A
100
AcDbEntity
  8
251
  6
CONTINUOUS
100
AcDbMText
 10
-37.5110744
 20
-27.02592197
 30
0.0
 40
2.8
 41
0.0
 71
     7
 72
     1
  1
HSK-A50
  7
YOKO
1001
ITEMNAME
1000
LNSP3
1001
ACAD
1000
MTEXTBEGIN
1070
    73
1070
     1
1070
    44
1040
1.0
1070
    74
1070
     0
1000
MTEXTEND
1000
MTEXTBEGIN
1070
    73
1070
     1
1070
    44
1040
1.0
1070
    74
1070
     0
1000
MTEXTEND
1000
MTEXTBEGIN
1070
    73
1070
     1
1070
    44
1040
1.0
1070
    74
1070
     0
1000
MTEXTEND
1000
MTEXTBEGIN
1070
    73
1070
     1
1070
    44
1040
1.0
1070
    74
1070
     0
1000
MTEXTEND
  0
LEADER
  5
1298
330
1A
100
AcDbEntity
  8
250
  6
CONTINUOUS
100
AcDbLeader
  3
BIGT
 76
     2
 10
-10.66962138
 20
-18.71651893
 30
0.0
 10
-16.04440773
 20
-28.02592197
 30
0.0
1001
ACAD
1000
DSTYLE
1002
{
1070
     6
1000
OPEN
1070
   343
1005
594
1002
}
  0
INSERT
  5
14D5
330
1A
100
AcDbEntity
  8
245
100
AcDbBlockReference
  2
1
 10
0.0
 20
0.0
 30
0.0
  0
VIEWPORT
  5
22
330
17
100
AcDbEntity
 67
     1
  8
0
100
AcDbViewport
 10
261.51769912
 20
148.5
 30
0.0
 40
523.03539823
 41
297.0
 68
     1
 69
     1
1001
ACAD
1000
MVIEW
1002
{
1070
    16
1010
0.0
1020
0.0
1030
0.0
1010
0.0
1020
0.0
1030
1.0
1040
0.0
1040
297.0
1040
261.51769912
1040
148.5
1040
50.0
1040
0.0
1040
0.0
1070
     0
1070
   100
1070
     1
1070
     1
1070
     0
1070
     0
1070
     0
1070
     0
1040
0.0
1040
0.0
1040
0.0
1040
1.0
1040
1.0
1040
10.0
1040
10.0
1070
     0
1002
{
1002
}
1002
}
  0
ENDSEC
  0
SECTION
  2
OBJECTS
  0
DICTIONARY
  5
C
330
0
100
AcDbDictionary
  3
ACAD_GROUP
350
D
  3
ACAD_LAYOUT
350
565
  3
ACAD_MLINESTYLE
350
E
  3
ACAD_PLOTSETTINGS
350
566
  3
ACAD_PLOTSTYLENAME
350
563
  3
ACDBHEADERROUNDTRIPXREC
350
14D7
  3
GRADE_DWG
350
540
  0
DICTIONARY
  5
1099
330
1A
100
AcDbDictionary
280
     1
  3
ACAD_LAYOUTSELFREF
360
14F9
  0
DICTIONARY
  5
1097
330
17
100
AcDbDictionary
280
     1
  3
ACAD_LAYOUTSELFREF
360
14F8
  0
DICTIONARY
  5
D
102
{ACAD_REACTORS
330
C
102
}
330
C
100
AcDbDictionary
  3
*A1
350
6C7
  3
*A2
350
6C8
  3
*A3
350
6D4
  3
*A4
350
6D5
  3
DREC-1
350
5FC
  3
DREC-2
350
654
  3
DREC-3
350
673
  0
DICTIONARY
  5
565
102
{ACAD_REACTORS
330
C
102
}
330
C
100
AcDbDictionary
  0
DICTIONARY
  5
E
102
{ACAD_REACTORS
330
C
102
}
330
C
100
AcDbDictionary
  3
STANDARD
350
13
  0
DICTIONARY
  5
566
102
{ACAD_REACTORS
330
C
102
}
330
C
100
AcDbDictionary
  3
A3_0_5倍_
350
758
  3
A3_1倍_
350
757
  3
A3_1倍__2000_
350
707
  3
A3_2倍_
350
759
  3
A4_0_5倍_
350
755
  3
A4_1倍_
350
754
  3
A4_1倍__2000_
350
708
  3
A4_2倍_
350
756
  0
ACDBDICTIONARYWDFLT
  5
563
102
{ACAD_REACTORS
330
C
102
}
330
C
100
AcDbDictionary
281
     1
  3
Normal
350
564
100
AcDbDictionaryWithDefault
340
564
  0
DICTIONARY
  5
14D7
102
{ACAD_REACTORS
330
C
102
}
330
C
100
AcDbDictionary
  3
CEPSNTYPE
350
14E1
  3
DIMSTYLEDATA
350
14E5
  3
FINGERPRINTGUID
350
14E2
  3
HYPERLINKBASE
350
14DA
  3
INSUNITS
350
14E0
  3
LAYOUTDICT
350
14DC
  3
LWETCUNION
350
14DF
  3
PLOTSETDICT
350
14DD
  3
PLOTSTYLNAMDICT
350
14DE
  3
PSVPSCALE
350
14E4
  3
PUCSBASE
350
14E8
  3
PUCSORGBACK
350
14EE
  3
PUCSORGBOTTOM
350
14EA
  3
PUCSORGFRONT
350
14ED
  3
PUCSORGLEFT
350
14EB
  3
PUCSORGRIGHT
350
14EC
  3
PUCSORGTOP
350
14E9
  3
PUCSORTHOREF
350
14E6
  3
PUCSORTHOVIEW
350
14E7
  3
STYLESHEET
350
14DB
  3
TSTACKALIGN
350
14D8
  3
TSTACKSIZE
350
14D9
  3
UCSBASE
350
14F1
  3
UCSORGBACK
350
14F7
  3
UCSORGBOTTOM
350
14F3
  3
UCSORGFRONT
350
14F6
  3
UCSORGLEFT
350
14F4
  3
UCSORGRIGHT
350
14F5
  3
UCSORGTOP
350
14F2
  3
UCSORTHOREF
350
14EF
  3
UCSORTHOVIEW
350
14F0
  3
VERSIONGUID
350
14E3
  0
DICTIONARY
  5
540
102
{ACAD_REACTORS
330
C
102
}
330
C
100
AcDbDictionary
  3
VERSION
350
560
  0
XRECORD
  5
14F9
102
{ACAD_REACTORS
330
1099
102
}
330
1099
100
AcDbXrecord
340
1A
  0
XRECORD
  5
14F8
102
{ACAD_REACTORS
330
1097
102
}
330
1097
100
AcDbXrecord
340
17
  0
GROUP
  5
6C7
102
{ACAD_REACTORS
330
D
102
}
330
D
100
AcDbGroup
300

 70
     0
 71
     1
1001
GRPNAME
1000
DMA00
  0
GROUP
  5
6C8
102
{ACAD_REACTORS
330
D
102
}
330
D
100
AcDbGroup
300

 70
     0
 71
     1
1001
GRPNAME
1000
DMA00
  0
GROUP
  5
6D4
102
{ACAD_REACTORS
330
D
102
}
330
D
100
AcDbGroup
300

 70
     0
 71
     1
1001
GRPNAME
1000
DMA00
  0
GROUP
  5
6D5
102
{ACAD_REACTORS
330
D
102
}
330
D
100
AcDbGroup
300

 70
     0
 71
     1
1001
GRPNAME
1000
DMA00
  0
GROUP
  5
5FC
102
{ACAD_REACTORS
330
D
102
}
330
D
100
AcDbGroup
300

 70
     0
 71
     1
1001
GRPNAME
1000
DREC-
1001
GPARA
1000
xsiz
1000
44.182
1000
ysiz
1000
40.677
1000
angl
1000
0
1000
ctyp
1000
0
1000
csiz
1000
5
1000
lfnt
1000
cont
1000
hcnt
1000
hoff
1000
vcnt
1000
voff
1000
opnt
1000
4
1000
dxpt
1000
0
1000
dypt
1000
0
  0
GROUP
  5
654
102
{ACAD_REACTORS
330
D
102
}
330
D
100
AcDbGroup
300

 70
     0
 71
     1
1001
GRPNAME
1000
DREC-
1001
GPARA
1000
xsiz
1000
54.592
1000
ysiz
1000
53.036
1000
angl
1000
0
1000
ctyp
1000
0
1000
csiz
1000
5
1000
lfnt
1000
cont
1000
hcnt
1000
hoff
1000
vcnt
1000
voff
1000
opnt
1000
4
1000
dxpt
1000
0
1000
dypt
1000
0
  0
GROUP
  5
673
102
{ACAD_REACTORS
330
D
102
}
330
D
100
AcDbGroup
300

 70
     0
 71
     1
1001
GRPNAME
1000
DREC-
1001
GPARA
1000
xsiz
1000
30.363
1000
ysiz
1000
36.175
1000
angl
1000
0
1000
ctyp
1000
0
1000
csiz
1000
5
1000
lfnt
1000
cont
1000
hcnt
1000
hoff
1000
vcnt
1000
voff
1000
opnt
1000
4
1000
dxpt
1000
0
1000
dypt
1000
0
  0
MLINESTYLE
  5
13
102
{ACAD_REACTORS
330
E
102
}
330
E
100
AcDbMlineStyle
  2
STANDARD
 70
     0
  3

 62
     0
 51
90.0
 52
90.0
 71
     2
 49
0.5
 62
   256
  6
BYLAYER
 49
-0.5
 62
   256
  6
BYLAYER
  0
PLOTSETTINGS
  5
758
102
{ACAD_REACTORS
330
566
102
}
330
566
100
AcDbPlotSettings
  1
A3(0.5倍)
  2
\\AWTECPC05\HP DeskJet 1120C
  4
A3
  6

 40
5.95841646
 41
13.49375153
 42
6.04309082
 43
3.67242432
 44
296.92599487
 45
419.94665527
 46
89.96
 47
127.14
 48
0.0
 49
0.0
140
0.0
141
0.0
142
1.0
143
2.0
 70
  1716
 72
     1
 73
     1
 74
     2
  7
big.ctb
 75
    17
147
0.5
148
0.0
149
0.0
  0
PLOTSETTINGS
  5
757
102
{ACAD_REACTORS
330
566
102
}
330
566
100
AcDbPlotSettings
  1
A3(1倍)
  2
\\AWTECPC05\HP DeskJet 1120C
  4
A3
  6

 40
5.95841646
 41
13.49375153
 42
6.04309082
 43
3.67242432
 44
296.92599487
 45
419.94665527
 46
37.46
 47
52.89
 48
0.0
 49
0.0
140
0.0
141
0.0
142
1.0
143
1.0
 70
  1716
 72
     1
 73
     1
 74
     2
  7
big.ctb
 75
    16
147
1.0
148
0.0
149
0.0
  0
PLOTSETTINGS
  5
707
102
{ACAD_REACTORS
330
566
102
}
330
566
100
AcDbPlotSettings
  1
A3(1倍)(2000)
  2
SII LS-1300 (D-SCAN)
  4
User258
  6

 40
3.17499995
 41
3.17499995
 42
3.17498779
 43
3.17498779
 44
419.98898315
 45
296.98950195
 46
58.32
 47
40.32
 48
0.0
 49
0.0
140
0.0
141
0.0
142
1.0
143
1.0
 70
  1716
 72
     1
 73
     0
 74
     2
  7
big.ctb
 75
    16
147
1.0
148
0.0
149
0.0
  0
PLOTSETTINGS
  5
759
102
{ACAD_REACTORS
330
566
102
}
330
566
100
AcDbPlotSettings
  1
A3(2倍)
  2
\\AWTECPC05\HP DeskJet 1120C
  4
A3
  6

 40
5.95841646
 41
13.49375153
 42
6.04309082
 43
3.67242432
 44
296.92599487
 45
419.94665527
 46
-67.54
 47
-95.61
 48
0.0
 49
0.0
140
0.0
141
0.0
142
1.0
143
0.5
 70
  1716
 72
     1
 73
     1
 74
     2
  7
big.ctb
 75
    27
147
2.0
148
0.0
149
0.0
  0
PLOTSETTINGS
  5
755
102
{ACAD_REACTORS
330
566
102
}
330
566
100
AcDbPlotSettings
  1
A4(0.5倍)
  2
\\AWTECPC05\HP DeskJet 1120C
  4
A4
  6

 40
4.18041658
 41
13.49374962
 42
4.18040466
 43
3.92642212
 44
209.97332764
 45
296.92599487
 46
48.31
 47
65.5
 48
0.0
 49
0.0
140
0.0
141
0.0
142
1.0
143
2.0
 70
  1716
 72
     1
 73
     1
 74
     2
  7
big.ctb
 75
    17
147
0.5
148
0.0
149
0.0
  0
PLOTSETTINGS
  5
754
102
{ACAD_REACTORS
330
566
102
}
330
566
100
AcDbPlotSettings
  1
A4(1倍)
  2
\\AWTECPC05\HP DeskJet 1120C
  4
A4
  6

 40
4.18041658
 41
13.49374962
 42
4.18040466
 43
3.92642212
 44
209.97332764
 45
296.92599487
 46
-4.19
 47
-8.75
 48
0.0
 49
0.0
140
0.0
141
0.0
142
1.0
143
1.0
 70
  1716
 72
     1
 73
     1
 74
     2
  7
big.ctb
 75
    16
147
1.0
148
0.0
149
0.0
  0
PLOTSETTINGS
  5
708
102
{ACAD_REACTORS
330
566
102
}
330
566
100
AcDbPlotSettings
  1
A4(1倍)(2000)
  2
SII LS-1300 (D-SCAN)
  4
User259
  6

 40
3.17499995
 41
3.17499995
 42
3.17498779
 43
3.17500305
 44
296.98950195
 45
209.99449158
 46
-3.18
 47
-3.18
 48
0.0
 49
0.0
140
0.0
141
0.0
142
1.0
143
1.0
 70
  1716
 72
     1
 73
     0
 74
     2
  7
big.ctb
 75
    16
147
1.0
148
0.0
149
0.0
  0
PLOTSETTINGS
  5
756
102
{ACAD_REACTORS
330
566
102
}
330
566
100
AcDbPlotSettings
  1
A4(2倍)
  2
\\AWTECPC05\HP DeskJet 1120C
  4
A4
  6

 40
4.18041658
 41
13.49374962
 42
4.18040466
 43
3.92642212
 44
209.97332764
 45
296.92599487
 46
-109.19
 47
-157.25
 48
0.0
 49
0.0
140
0.0
141
0.0
142
1.0
143
0.5
 70
  1716
 72
     1
 73
     1
 74
     2
  7
big.ctb
 75
    27
147
2.0
148
0.0
149
0.0
  0
ACDBPLACEHOLDER
  5
564
102
{ACAD_REACTORS
330
563
102
}
330
563
100
AcDbPlaceHolder
280
     0
  0
XRECORD
  5
14E1
102
{ACAD_REACTORS
330
14D7
102
}
330
14D7
100
AcDbXrecord
 90
        0
  0
XRECORD
  5
14E5
102
{ACAD_REACTORS
330
14D7
102
}
330
14D7
100
AcDbXrecord
1000
DSTYLE
1002
{
1070
    79
 70
     2
1070
   179
 70
     3
1070
   341
340
594
1070
   343
340
594
1070
   344
340
594
1070
   371
 70
    -1
1070
   372
 70
    -1
1002
}
  0
XRECORD
  5
14E2
102
{ACAD_REACTORS
330
14D7
102
}
330
14D7
100
AcDbXrecord
  1
{51294030-9CB4-11D3-8E18-00A0C925D94D}
  0
XRECORD
  5
14DA
102
{ACAD_REACTORS
330
14D7
102
}
330
14D7
100
AcDbXrecord
  1

  0
XRECORD
  5
14E0
102
{ACAD_REACTORS
330
14D7
102
}
330
14D7
100
AcDbXrecord
 90
        0
  0
XRECORD
  5
14DC
102
{ACAD_REACTORS
330
14D7
102
}
330
14D7
100
AcDbXrecord
340
565
  0
XRECORD
  5
14DF
102
{ACAD_REACTORS
330
14D7
102
}
330
14D7
100
AcDbXrecord
 90
    10781
  0
XRECORD
  5
14DD
102
{ACAD_REACTORS
330
14D7
102
}
330
14D7
100
AcDbXrecord
340
566
  0
XRECORD
  5
14DE
102
{ACAD_REACTORS
330
14D7
102
}
330
14D7
100
AcDbXrecord
340
563
  0
XRECORD
  5
14E4
102
{ACAD_REACTORS
330
14D7
102
}
330
14D7
100
AcDbXrecord
 40
0.0
  0
XRECORD
  5
14E8
102
{ACAD_REACTORS
330
14D7
102
}
330
14D7
100
AcDbXrecord
340
0
  0
XRECORD
  5
14EE
102
{ACAD_REACTORS
330
14D7
102
}
330
14D7
100
AcDbXrecord
 10
0.0
 20
0.0
 30
0.0
  0
XRECORD
  5
14EA
102
{ACAD_REACTORS
330
14D7
102
}
330
14D7
100
AcDbXrecord
 10
0.0
 20
0.0
 30
0.0
  0
XRECORD
  5
14ED
102
{ACAD_REACTORS
330
14D7
102
}
330
14D7
100
AcDbXrecord
 10
0.0
 20
0.0
 30
0.0
  0
XRECORD
  5
14EB
102
{ACAD_REACTORS
330
14D7
102
}
330
14D7
100
AcDbXrecord
 10
0.0
 20
0.0
 30
0.0
  0
XRECORD
  5
14EC
102
{ACAD_REACTORS
330
14D7
102
}
330
14D7
100
AcDbXrecord
 10
0.0
 20
0.0
 30
0.0
  0
XRECORD
  5
14E9
102
{ACAD_REACTORS
330
14D7
102
}
330
14D7
100
AcDbXrecord
 10
0.0
 20
0.0
 30
0.0
  0
XRECORD
  5
14E6
102
{ACAD_REACTORS
330
14D7
102
}
330
14D7
100
AcDbXrecord
340
0
  0
XRECORD
  5
14E7
102
{ACAD_REACTORS
330
14D7
102
}
330
14D7
100
AcDbXrecord
 70
     0
  0
XRECORD
  5
14DB
102
{ACAD_REACTORS
330
14D7
102
}
330
14D7
100
AcDbXrecord
  1
big.ctb
  0
XRECORD
  5
14D8
102
{ACAD_REACTORS
330
14D7
102
}
330
14D7
100
AcDbXrecord
 90
        1
  0
XRECORD
  5
14D9
102
{ACAD_REACTORS
330
14D7
102
}
330
14D7
100
AcDbXrecord
 90
       70
  0
XRECORD
  5
14F1
102
{ACAD_REACTORS
330
14D7
102
}
330
14D7
100
AcDbXrecord
340
0
  0
XRECORD
  5
14F7
102
{ACAD_REACTORS
330
14D7
102
}
330
14D7
100
AcDbXrecord
 10
0.0
 20
0.0
 30
0.0
  0
XRECORD
  5
14F3
102
{ACAD_REACTORS
330
14D7
102
}
330
14D7
100
AcDbXrecord
 10
0.0
 20
0.0
 30
0.0
  0
XRECORD
  5
14F6
102
{ACAD_REACTORS
330
14D7
102
}
330
14D7
100
AcDbXrecord
 10
0.0
 20
0.0
 30
0.0
  0
XRECORD
  5
14F4
102
{ACAD_REACTORS
330
14D7
102
}
330
14D7
100
AcDbXrecord
 10
0.0
 20
0.0
 30
0.0
  0
XRECORD
  5
14F5
102
{ACAD_REACTORS
330
14D7
102
}
330
14D7
100
AcDbXrecord
 10
0.0
 20
0.0
 30
0.0
  0
XRECORD
  5
14F2
102
{ACAD_REACTORS
330
14D7
102
}
330
14D7
100
AcDbXrecord
 10
0.0
 20
0.0
 30
0.0
  0
XRECORD
  5
14EF
102
{ACAD_REACTORS
330
14D7
102
}
330
14D7
100
AcDbXrecord
340
0
  0
XRECORD
  5
14F0
102
{ACAD_REACTORS
330
14D7
102
}
330
14D7
100
AcDbXrecord
 70
     0
  0
XRECORD
  5
14E3
102
{ACAD_REACTORS
330
14D7
102
}
330
14D7
100
AcDbXrecord
  1
{6C637B3E-5BBF-45DD-9C8C-391584ACAE1B}
  0
XRECORD
  5
560
102
{ACAD_REACTORS
330
540
102
}
330
540
100
AcDbXrecord
  1
2.0.0
  0
ENDSEC
  0
EOF
