  0
SECTION
  2
HEADER
  9
$ACADVER
  1
AC1014
  9
$ACADMAINTVER
 70
     9
  9
$DWGCODEPAGE
  3
ANSI_932
  9
$INSBASE
 10
0.0
 20
0.0
 30
0.0
  9
$EXTMIN
 10
-40.31110098
 20
-28.03852791
 30
-0.00152582
  9
$EXTMAX
 10
85.02511792
 20
54.01085095
 30
0.00000003
  9
$LIMMIN
 10
0.0
 20
0.0
  9
$LIMMAX
 10
420.0
 20
297.0
  9
$ORTHOMODE
 70
     0
  9
$REGENMODE
 70
     1
  9
$FILLMODE
 70
     1
  9
$QTEXTMODE
 70
     0
  9
$MIRRTEXT
 70
     1
  9
$DRAGMODE
 70
     2
  9
$LTSCALE
 40
10.0
  9
$OSMODE
 70
   549
  9
$ATTMODE
 70
     1
  9
$TEXTSIZE
 40
3.0
  9
$TRACEWID
 40
1.0
  9
$TEXTSTYLE
  7
YOKO
  9
$CLAYER
  8
245
  9
$CELTYPE
  6
BYLAYER
  9
$CECOLOR
 62
   256
  9
$CELTSCALE
 40
1.0
  9
$DELOBJ
 70
     1
  9
$DISPSILH
 70
     0
  9
$DIMSCALE
 40
1.0
  9
$DIMASZ
 40
2.0
  9
$DIMEXO
 40
2.0
  9
$DIMDLI
 40
2.5
  9
$DIMRND
 40
0.0
  9
$DIMDLE
 40
0.0
  9
$DIMEXE
 40
2.0
  9
$DIMTP
 40
0.0
  9
$DIMTM
 40
0.0
  9
$DIMTXT
 40
4.0
  9
$DIMCEN
 40
0.0
  9
$DIMTSZ
 40
0.0
  9
$DIMTOL
 70
     0
  9
$DIMLIM
 70
     0
  9
$DIMTIH
 70
     0
  9
$DIMTOH
 70
     0
  9
$DIMSE1
 70
     0
  9
$DIMSE2
 70
     0
  9
$DIMTAD
 70
     3
  9
$DIMZIN
 70
     8
  9
$DIMBLK
  1

  9
$DIMASO
 70
     1
  9
$DIMSHO
 70
     1
  9
$DIMPOST
  1

  9
$DIMAPOST
  1

  9
$DIMALT
 70
     0
  9
$DIMALTD
 70
     2
  9
$DIMALTF
 40
25.4
  9
$DIMLFAC
 40
1.0
  9
$DIMTOFL
 70
     1
  9
$DIMTVP
 40
0.0
  9
$DIMTIX
 70
     1
  9
$DIMSOXD
 70
     0
  9
$DIMSAH
 70
     1
  9
$DIMBLK1
  1
OPEN
  9
$DIMBLK2
  1
OPEN
  9
$DIMSTYLE
  2
BIGT
  9
$DIMCLRD
 70
   256
  9
$DIMCLRE
 70
   256
  9
$DIMCLRT
 70
    40
  9
$DIMTFAC
 40
1.0
  9
$DIMGAP
 40
1.0
  9
$DIMJUST
 70
     0
  9
$DIMSD1
 70
     0
  9
$DIMSD2
 70
     0
  9
$DIMTOLJ
 70
     1
  9
$DIMTZIN
 70
     8
  9
$DIMALTZ
 70
     0
  9
$DIMALTTZ
 70
     0
  9
$DIMFIT
 70
     3
  9
$DIMUPT
 70
     0
  9
$DIMUNIT
 70
     2
  9
$DIMDEC
 70
     3
  9
$DIMTDEC
 70
     3
  9
$DIMALTU
 70
     2
  9
$DIMALTTD
 70
     2
  9
$DIMTXSTY
  7
STANDARD
  9
$DIMAUNIT
 70
     0
  9
$LUNITS
 70
     2
  9
$LUPREC
 70
     3
  9
$SKETCHINC
 40
1.0
  9
$FILLETRAD
 40
1.0
  9
$AUNITS
 70
     0
  9
$AUPREC
 70
     3
  9
$MENU
  1
.
  9
$ELEVATION
 40
0.0
  9
$PELEVATION
 40
0.0
  9
$THICKNESS
 40
0.0
  9
$LIMCHECK
 70
     0
  9
$BLIPMODE
 70
     0
  9
$CHAMFERA
 40
10.0
  9
$CHAMFERB
 40
10.0
  9
$CHAMFERC
 40
0.0
  9
$CHAMFERD
 40
0.0
  9
$SKPOLY
 70
     0
  9
$TDCREATE
 40
2455141.585011574
  9
$TDUPDATE
 40
2455371.711705359
  9
$TDINDWG
 40
0.0170082755
  9
$TDUSRTIMER
 40
0.0170082755
  9
$USRTIMER
 70
     1
  9
$ANGBASE
 50
0.0
  9
$ANGDIR
 70
     0
  9
$PDMODE
 70
     1
  9
$PDSIZE
 40
-5.0
  9
$PLINEWID
 40
0.0
  9
$COORDS
 70
     0
  9
$SPLFRAME
 70
     0
  9
$SPLINETYPE
 70
     6
  9
$SPLINESEGS
 70
     8
  9
$ATTDIA
 70
     0
  9
$ATTREQ
 70
     1
  9
$HANDLING
 70
-16383
  9
$HANDSEED
  5
FD1
  9
$SURFTAB1
 70
     6
  9
$SURFTAB2
 70
     6
  9
$SURFTYPE
 70
     6
  9
$SURFU
 70
     6
  9
$SURFV
 70
     6
  9
$UCSNAME
  2

  9
$UCSORG
 10
0.0
 20
0.0
 30
0.0
  9
$UCSXDIR
 10
1.0
 20
0.0
 30
0.0
  9
$UCSYDIR
 10
0.0
 20
1.0
 30
0.0
  9
$PUCSNAME
  2

  9
$PUCSORG
 10
0.0
 20
0.0
 30
0.0
  9
$PUCSXDIR
 10
1.0
 20
0.0
 30
0.0
  9
$PUCSYDIR
 10
0.0
 20
1.0
 30
0.0
  9
$USERI1
 70
     1
  9
$USERI2
 70
     0
  9
$USERI3
 70
     0
  9
$USERI4
 70
     0
  9
$USERI5
 70
     0
  9
$USERR1
 40
0.0
  9
$USERR2
 40
0.0
  9
$USERR3
 40
0.0
  9
$USERR4
 40
0.0
  9
$USERR5
 40
0.0
  9
$WORLDVIEW
 70
     1
  9
$SHADEDGE
 70
     3
  9
$SHADEDIF
 70
    70
  9
$TILEMODE
 70
     1
  9
$MAXACTVP
 70
    16
  9
$PINSBASE
 10
0.0
 20
0.0
 30
0.0
  9
$PLIMCHECK
 70
     0
  9
$PEXTMIN
 10
1.00000000E+20
 20
1.00000000E+20
 30
1.00000000E+20
  9
$PEXTMAX
 10
-1.00000000E+20
 20
-1.00000000E+20
 30
-1.00000000E+20
  9
$PLIMMIN
 10
0.0
 20
0.0
  9
$PLIMMAX
 10
420.0
 20
297.0
  9
$UNITMODE
 70
     0
  9
$VISRETAIN
 70
     0
  9
$PLINEGEN
 70
     0
  9
$PSLTSCALE
 70
     1
  9
$TREEDEPTH
 70
  3020
  9
$PICKSTYLE
 70
     0
  9
$CMLSTYLE
  2
STANDARD
  9
$CMLJUST
 70
     0
  9
$CMLSCALE
 40
1.0
  9
$PROXYGRAPHICS
 70
     1
  9
$MEASUREMENT
 70
     1
  0
ENDSEC
  0
SECTION
  2
CLASSES
  0
CLASS
  1
XRECORD
  2
AcDbXrecord
  3
AutoCAD 2000
 90
        0
280
     0
281
     0
  0
CLASS
  1
ACDBDICTIONARYWDFLT
  2
AcDbDictionaryWithDefault
  3
AutoCAD 2000
 90
        0
280
     0
281
     0
  0
CLASS
  1
ACDBPLACEHOLDER
  2
AcDbPlaceHolder
  3
AutoCAD 2000
 90
        0
280
     0
281
     0
  0
CLASS
  1
LAYOUT
  2
AcDbLayout
  3
AutoCAD 2000
 90
        0
280
     0
281
     0
  0
CLASS
  1
PLOTSETTINGS
  2
AcDbPlotSettings
  3
AutoCAD 2000
 90
        0
280
     0
281
     0
  0
CLASS
  1
LONG_TRANSACTION
  2
AcDbLongTransaction
  3
AutoCAD 2000
 90
        0
280
     0
281
     0
  0
CLASS
  1
LWPOLYLINE
  2
AcDbPolyline
  3
AutoCAD 2000
 90
        0
280
     0
281
     1
  0
CLASS
  1
HATCH
  2
AcDbHatch
  3
AutoCAD 2000
 90
        0
280
     0
281
     1
  0
CLASS
  1
XRECORD
  2
AcDbXrecord
  3
AutoCAD 2000
 90
        0
280
     0
281
     0
  0
CLASS
  1
LONG_TRANSACTION
  2
AcDbLongTransaction
  3
AutoCAD 2000
 90
        0
280
     0
281
     0
  0
CLASS
  1
LWPOLYLINE
  2
AcDbPolyline
  3
AutoCAD 2000
 90
        0
280
     0
281
     1
  0
CLASS
  1
HATCH
  2
AcDbHatch
  3
AutoCAD 2000
 90
        0
280
     0
281
     1
  0
CLASS
  1
XRECORD
  2
AcDbXrecord
  3
AutoCAD 2000
 90
        0
280
     0
281
     0
  0
CLASS
  1
LONG_TRANSACTION
  2
AcDbLongTransaction
  3
AutoCAD 2000
 90
        0
280
     0
281
     0
  0
CLASS
  1
LWPOLYLINE
  2
AcDbPolyline
  3
AutoCAD 2000
 90
        0
280
     0
281
     1
  0
CLASS
  1
HATCH
  2
AcDbHatch
  3
AutoCAD 2000
 90
        0
280
     0
281
     1
  0
CLASS
  1
XRECORD
  2
AcDbXrecord
  3
AutoCAD 2000
 90
        0
280
     0
281
     0
  0
ENDSEC
  0
SECTION
  2
TABLES
  0
TABLE
  2
VPORT
  5
8
330
0
100
AcDbSymbolTable
 70
     2
  0
VPORT
  5
FAC
330
8
100
AcDbSymbolTableRecord
100
AcDbViewportTableRecord
  2
*ACTIVE
 70
     0
 10
0.0
 20
0.0
 11
1.0
 21
1.0
 12
22.35700847
 22
12.98616152
 13
0.0
 23
0.0
 14
7.0
 24
7.0
 15
7.0
 25
7.0
 16
0.0
 26
0.0
 36
1.0
 17
0.0
 27
0.0
 37
0.0
 40
86.54395277
 41
1.45595855
 42
50.0
 43
0.0
 44
0.0
 50
0.0
 51
0.0
 71
     0
 72
  2000
 73
     1
 74
     0
 75
     0
 76
     0
 77
     0
 78
     0
  0
ENDTAB
  0
TABLE
  2
LTYPE
  5
5
330
0
100
AcDbSymbolTable
 70
     4
  0
LTYPE
  5
14
330
5
100
AcDbSymbolTableRecord
100
AcDbLinetypeTableRecord
  2
BYBLOCK
 70
     0
  3

 72
    65
 73
     0
 40
0.0
  0
LTYPE
  5
15
330
5
100
AcDbSymbolTableRecord
100
AcDbLinetypeTableRecord
  2
BYLAYER
 70
     0
  3

 72
    65
 73
     0
 40
0.0
  0
LTYPE
  5
16
330
5
100
AcDbSymbolTableRecord
100
AcDbLinetypeTableRecord
  2
CONTINUOUS
 70
     0
  3
Solid line
 72
    65
 73
     0
 40
0.0
  0
LTYPE
  5
258
330
5
100
AcDbSymbolTableRecord
100
AcDbLinetypeTableRecord
  2
CENTER2
 70
     0
  3
___ _ ___ _ ___ _ ___ _ ___ _ ___ _ ___ _ ___ _
 72
    65
 73
     4
 40
1.125
 49
0.75
 74
     0
 49
-0.125
 74
     0
 49
0.125
 74
     0
 49
-0.125
 74
     0
  0
LTYPE
  5
25C
330
5
100
AcDbSymbolTableRecord
100
AcDbLinetypeTableRecord
  2
HIDDEN2
 70
     0
  3
_ _ _ _ _ _ _ _ _ _ _ _ _ _ _ _ _ _ _ _ _ _ _ _
 72
    65
 73
     2
 40
0.1875
 49
0.125
 74
     0
 49
-0.0625
 74
     0
  0
LTYPE
  5
25D
330
5
100
AcDbSymbolTableRecord
100
AcDbLinetypeTableRecord
  2
PHANTOM2
 70
     0
  3
___ _ _ ___ _ _ ___ _ _ ___ _ _ ___ _ _ ___ _ _
 72
    65
 73
     6
 40
1.25
 49
0.625
 74
     0
 49
-0.125
 74
     0
 49
0.125
 74
     0
 49
-0.125
 74
     0
 49
0.125
 74
     0
 49
-0.125
 74
     0
  0
ENDTAB
  0
TABLE
  2
LAYER
  5
2
330
0
100
AcDbSymbolTable
 70
    10
  0
LAYER
  5
F
330
2
100
AcDbSymbolTableRecord
100
AcDbLayerTableRecord
  2
0
 70
     0
 62
     7
  6
CONTINUOUS
  0
LAYER
  5
1AA
330
2
100
AcDbSymbolTableRecord
100
AcDbLayerTableRecord
  2
240
 70
     0
 62
     4
  6
CONTINUOUS
  0
LAYER
  5
1AB
330
2
100
AcDbSymbolTableRecord
100
AcDbLayerTableRecord
  2
241
 70
     0
 62
   211
  6
CONTINUOUS
  0
LAYER
  5
1AF
330
2
100
AcDbSymbolTableRecord
100
AcDbLayerTableRecord
  2
245
 70
     0
 62
     2
  6
CENTER2
  0
LAYER
  5
21A
330
2
100
AcDbSymbolTableRecord
100
AcDbLayerTableRecord
  2
246
 70
     0
 62
     3
  6
PHANTOM2
  0
LAYER
  5
21E
330
2
100
AcDbSymbolTableRecord
100
AcDbLayerTableRecord
  2
250
 70
     0
 62
     3
  6
CONTINUOUS
  0
LAYER
  5
21F
330
2
100
AcDbSymbolTableRecord
100
AcDbLayerTableRecord
  2
251
 70
     0
 62
    40
  6
CONTINUOUS
  0
LAYER
  5
5C4
330
2
100
AcDbSymbolTableRecord
100
AcDbLayerTableRecord
  2
DEFPOINTS
 70
     0
 62
     7
  6
CONTINUOUS
  0
LAYER
  5
F00
330
2
100
AcDbSymbolTableRecord
100
AcDbLayerTableRecord
  2
242
 70
     0
 62
     3
  6
CONTINUOUS
  0
ENDTAB
  0
TABLE
  2
STYLE
  5
3
330
0
100
AcDbSymbolTable
 70
     2
  0
STYLE
  5
10
330
3
100
AcDbSymbolTableRecord
100
AcDbTextStyleTableRecord
  2
STANDARD
 70
     0
 40
0.0
 41
1.0
 50
0.0
 71
     0
 42
3.0
  3
romans.shx
  4
BIGFONT.SHX
  0
STYLE
  5
339
330
3
100
AcDbSymbolTableRecord
100
AcDbTextStyleTableRecord
  2
YOKO
 70
     0
 40
0.0
 41
1.0
 50
0.0
 71
     0
 42
3.0
  3
romans.shx
  4
extfont.shx
  0
ENDTAB
  0
TABLE
  2
VIEW
  5
6
330
0
100
AcDbSymbolTable
 70
     0
  0
ENDTAB
  0
TABLE
  2
UCS
  5
7
330
0
100
AcDbSymbolTable
 70
     0
  0
ENDTAB
  0
TABLE
  2
APPID
  5
9
330
0
100
AcDbSymbolTable
 70
    14
  0
APPID
  5
11
330
9
100
AcDbSymbolTableRecord
100
AcDbRegAppTableRecord
  2
ACAD
 70
     0
  0
APPID
  5
1B1
330
9
100
AcDbSymbolTableRecord
100
AcDbRegAppTableRecord
  2
GLOBAL
 70
     0
  0
APPID
  5
2A4
330
9
100
AcDbSymbolTableRecord
100
AcDbRegAppTableRecord
  2
DETAIL
 70
     0
  0
APPID
  5
5FD
330
9
100
AcDbSymbolTableRecord
100
AcDbRegAppTableRecord
  2
GRPNAME
 70
     0
  0
APPID
  5
5FE
330
9
100
AcDbSymbolTableRecord
100
AcDbRegAppTableRecord
  2
GPARA
 70
     0
  0
APPID
  5
6C4
330
9
100
AcDbSymbolTableRecord
100
AcDbRegAppTableRecord
  2
DCO15
 70
     0
  0
APPID
  5
6C5
330
9
100
AcDbSymbolTableRecord
100
AcDbRegAppTableRecord
  2
ITEMNAME
 70
     0
  0
APPID
  5
6C6
330
9
100
AcDbSymbolTableRecord
100
AcDbRegAppTableRecord
  2
GRADE_0
 70
     0
  0
APPID
  5
98D
330
9
100
AcDbSymbolTableRecord
100
AcDbRegAppTableRecord
  2
GENIUS_GENODEF_13
 70
     0
  0
APPID
  5
98E
330
9
100
AcDbSymbolTableRecord
100
AcDbRegAppTableRecord
  2
GENIUS_GENOBJ-N-FIL_13
 70
     0
  0
APPID
  5
98F
330
9
100
AcDbSymbolTableRecord
100
AcDbRegAppTableRecord
  2
HATCH_TYPE
 70
     0
  0
APPID
  5
990
330
9
100
AcDbSymbolTableRecord
100
AcDbRegAppTableRecord
  2
HATCH_DISPLAY
 70
     0
  0
APPID
  5
991
330
9
100
AcDbSymbolTableRecord
100
AcDbRegAppTableRecord
  2
HATCH_DISTANCE
 70
     0
  0
APPID
  5
D7D
330
9
100
AcDbSymbolTableRecord
100
AcDbRegAppTableRecord
  2
CONTENTBLOCKICON
 70
     0
  0
ENDTAB
  0
TABLE
  2
DIMSTYLE
  5
A
330
0
100
AcDbSymbolTable
 70
     4
  0
DIMSTYLE
105
725
102
{ACAD_REACTORS
330
C2B
330
C3A
330
C49
330
C58
102
}
330
A
100
AcDbSymbolTableRecord
100
AcDbDimStyleTableRecord
  2
BIGT
 70
     0
  3

  4

  5

  6
OPEN
  7
OPEN
 40
1.0
 41
2.23
 42
0.5
 43
2.5
 44
1.0
 45
0.0
 46
0.0
 47
0.0
 48
0.0
140
2.8
141
0.0
142
0.0
143
25.4
144
1.0
145
0.0
146
1.0
147
1.0
 71
     0
 72
     0
 73
     0
 74
     0
 75
     0
 76
     0
 77
     3
 78
     8
170
     0
171
     2
172
     1
173
     1
174
     1
175
     0
176
   256
177
   256
178
    40
270
     2
271
     3
272
     3
273
     2
274
     2
340
10
275
     0
280
     0
281
     0
282
     0
283
     1
284
     8
285
     0
286
     0
287
     3
288
     0
  0
ENDTAB
  0
TABLE
  2
BLOCK_RECORD
  5
1
330
0
100
AcDbSymbolTable
 70
     9
  0
BLOCK_RECORD
  5
1A
102
{ACAD_XDICTIONARY
360
D7B
102
}
330
1
100
AcDbSymbolTableRecord
100
AcDbBlockTableRecord
  2
*MODEL_SPACE
  0
BLOCK_RECORD
  5
17
102
{ACAD_XDICTIONARY
360
D79
102
}
330
1
100
AcDbSymbolTableRecord
100
AcDbBlockTableRecord
  2
*PAPER_SPACE
  0
BLOCK_RECORD
  5
594
330
1
100
AcDbSymbolTableRecord
100
AcDbBlockTableRecord
  2
_OPEN
  0
BLOCK_RECORD
  5
6E3
330
1
100
AcDbSymbolTableRecord
100
AcDbBlockTableRecord
  2
矢印なし
  0
BLOCK_RECORD
  5
C2C
330
1
100
AcDbSymbolTableRecord
100
AcDbBlockTableRecord
  2
*D2
  0
BLOCK_RECORD
  5
C3B
330
1
100
AcDbSymbolTableRecord
100
AcDbBlockTableRecord
  2
*D3
  0
BLOCK_RECORD
  5
C4A
330
1
100
AcDbSymbolTableRecord
100
AcDbBlockTableRecord
  2
*D4
  0
BLOCK_RECORD
  5
C59
330
1
100
AcDbSymbolTableRecord
100
AcDbBlockTableRecord
  2
*D5
  0
BLOCK_RECORD
  5
CB7
330
1
100
AcDbSymbolTableRecord
100
AcDbBlockTableRecord
  2
1
1001
CONTENTBLOCKICON
1071
        0
1004
2800000020000000200000000100080000000000000400000000000000000000000000000000000000000000000080000080000000808000800000008000800080800000C0C0C000C0DCC000F0CAA6000020400000206000002080000020A0000020C0000020E00000400000004020000040400000406000004080000040A0
1004
000040C0000040E00000600000006020000060400000606000006080000060A0000060C0000060E00000800000008020000080400000806000008080000080A0000080C0000080E00000A0000000A0200000A0400000A0600000A0800000A0A00000A0C00000A0E00000C0000000C0200000C0400000C0600000C0800000C0
1004
A00000C0C00000C0E00000E0000000E0200000E0400000E0600000E0800000E0A00000E0C00000E0E00040000000400020004000400040006000400080004000A0004000C0004000E00040200000402020004020400040206000402080004020A0004020C0004020E000404000004040200040404000404060004040800040
1004
40A0004040C0004040E00040600000406020004060400040606000406080004060A0004060C0004060E00040800000408020004080400040806000408080004080A0004080C0004080E00040A0000040A0200040A0400040A0600040A0800040A0A00040A0C00040A0E00040C0000040C0200040C0400040C0600040C08000
1004
40C0A00040C0C00040C0E00040E0000040E0200040E0400040E0600040E0800040E0A00040E0C00040E0E00080000000800020008000400080006000800080008000A0008000C0008000E00080200000802020008020400080206000802080008020A0008020C0008020E00080400000804020008040400080406000804080
1004
008040A0008040C0008040E00080600000806020008060400080606000806080008060A0008060C0008060E00080800000808020008080400080806000808080008080A0008080C0008080E00080A0000080A0200080A0400080A0600080A0800080A0A00080A0C00080A0E00080C0000080C0200080C0400080C0600080C0
1004
800080C0A00080C0C00080C0E00080E0000080E0200080E0400080E0600080E0800080E0A00080E0C00080E0E000C0000000C0002000C0004000C0006000C0008000C000A000C000C000C000E000C0200000C0202000C0204000C0206000C0208000C020A000C020C000C020E000C0400000C0402000C0404000C0406000C0
1004
408000C040A000C040C000C040E000C0600000C0602000C0604000C0606000C0608000C060A000C060C000C060E000C0800000C0802000C0804000C0806000C0808000C080A000C080C000C080E000C0A00000C0A02000C0A04000C0A06000C0A08000C0A0A000C0A0C000C0A0E000C0C00000C0C02000C0C04000C0C06000
1004
C0C08000C0C0A000F0FBFF00A4A0A000808080000000FF0000FF000000FFFF00FF000000FF00FF00FFFF0000FFFFFF0000000000000000000000000000000000000000000000000000000000000000000000000000000000000000000000000000000000000000000000000000000000000000000000000000000000000000
1004
00000000000000000000000000000000000000000000000000000000000000000000000000000000000000000000000000000000000000000000000000000000000000000000000000000000000000000000000000000000000000000000000000000000000000000000000000000000000000000000000000000000000000
1004
000000000000000000000000000000000000000000000000000000000000000000000000000000000000000000000000000000000000000000000000000000000000000000000000000000000000000000000000000000000000FEFEFEFEE7FEFEFEFE0000000000000000000000000000000000FEFEFEFEFEFEFE00E7E7E7
1004
FEE7E7E7FEFE0000000000000000000000000000FE000000000000E70000E7E7E7E7E7E7FAFE0000000000000000000000000000FE000000000000E7000000E7FBE700E7E7FEFEFEFEFEFEFEFEFEFAFAFA000000FE000000000000E7000000E7FBE700E700E700E7000000000000E7E7FE000000FEFEFEE700FB00E70000E7
1004
E7E7E7E7E700E700E7000000E7E7E70000FE0000000000FEE7E7FBE7E70000E700FB0000E700E700E7000000E7000000E7FE000000FBFBFEE7E7FBE7E7FBE7E7FBFBFBFBE7FBE7FBE7FBFBFBE7E7E7E7E7FEFB0000FEFEE7E700FB00E70000E7E7E7E7E7E700E700E700000000000000E7FA000000FE000000000000E70000
1004
00E7E7E700E700E700E700000000000000E7FA000000FE000000000000E7000000E7E7E700E700FEFEFEFEFEFEFEFEFEFAFAFA000000FE000000000000E7000000E7E7E700E700FE000000000000000000000000000000FEFEFEFEFEFEFE000000E7FEFE00FEFEFE000000000000000000000000000000000000000000FEFE
1004
FEFEFEFEFEFEFE000000000000000000000000000000000000000000000000000000000000000000000000000000000000000000000000000000000000000000000000000000000000000000000000000000000000000000000000000000000000000000000000000000000000000000000000000000000000000000000000
1004
00000000000000000000000000000000000000000000000000000000000000000000000000000000000000000000000000000000000000000000000000000000000000000000000000000000000000000000000000000000000000000000000000000000000000000000000000000000000000000000000000000000000000
1004
0000000000000000000000000000000000000000000000000000000000000000000000000000000000000000000000000000000000000000
  0
ENDTAB
  0
ENDSEC
  0
SECTION
  2
BLOCKS
  0
BLOCK
  5
1B
330
1A
100
AcDbEntity
  8
0
100
AcDbBlockBegin
  2
*MODEL_SPACE
 70
     0
 10
0.0
 20
0.0
 30
0.0
  3
*MODEL_SPACE
  1

  0
ENDBLK
  5
1C
330
1A
100
AcDbEntity
  8
0
100
AcDbBlockEnd
  0
BLOCK
  5
18
330
17
100
AcDbEntity
 67
     1
  8
0
100
AcDbBlockBegin
  2
*PAPER_SPACE
 70
     0
 10
0.0
 20
0.0
 30
0.0
  3
*PAPER_SPACE
  1

  0
ENDBLK
  5
19
330
17
100
AcDbEntity
 67
     1
  8
0
100
AcDbBlockEnd
  0
BLOCK
  5
598
330
594
100
AcDbEntity
  8
0
100
AcDbBlockBegin
  2
_OPEN
 70
     0
 10
0.0
 20
0.0
 30
0.0
  3
_OPEN
  1

  0
LINE
  5
595
330
594
100
AcDbEntity
  8
0
  6
BYBLOCK
 62
     0
100
AcDbLine
 10
-1.0
 20
0.16666667
 30
0.0
 11
0.0
 21
0.0
 31
0.0
  0
LINE
  5
596
330
594
100
AcDbEntity
  8
0
  6
BYBLOCK
 62
     0
100
AcDbLine
 10
-1.0
 20
-0.16666667
 30
0.0
 11
0.0
 21
0.0
 31
0.0
  0
LINE
  5
597
330
594
100
AcDbEntity
  8
0
  6
BYBLOCK
 62
     0
100
AcDbLine
 10
0.0
 20
0.0
 30
0.0
 11
-1.0
 21
0.0
 31
0.0
  0
ENDBLK
  5
599
330
594
100
AcDbEntity
  8
0
100
AcDbBlockEnd
  0
BLOCK
  5
6E4
330
6E3
100
AcDbEntity
  8
0
100
AcDbBlockBegin
  2
矢印なし
 70
     0
 10
0.0
 20
0.0
 30
0.0
  3
矢印なし
  1

  0
ENDBLK
  5
6E5
330
6E3
100
AcDbEntity
  8
0
100
AcDbBlockEnd
  0
BLOCK
  5
C36
330
C2C
100
AcDbEntity
  8
0
100
AcDbBlockBegin
  2
*D2
 70
     1
 10
0.0
 20
0.0
 30
0.0
  3
*D2
  1

  0
LINE
  5
CA5
330
C2C
100
AcDbEntity
  8
250
  6
CONTINUOUS
100
AcDbLine
 10
75.5
 20
-12.5
 30
0.0
 11
85.0
 21
-12.5
 31
0.0
  0
LINE
  5
CA6
330
C2C
100
AcDbEntity
  8
250
  6
CONTINUOUS
100
AcDbLine
 10
75.5
 20
12.5
 30
0.0
 11
85.0
 21
12.5
 31
0.0
  0
LINE
  5
CA7
330
C2C
100
AcDbEntity
  8
250
  6
CONTINUOUS
100
AcDbLine
 10
84.0
 20
-10.27
 30
0.0
 11
84.0
 21
10.27
 31
0.0
  0
INSERT
  5
CA8
330
C2C
100
AcDbEntity
  8
250
  6
CONTINUOUS
100
AcDbBlockReference
  2
_OPEN
 10
84.0
 20
-12.5
 30
0.0
 41
2.23
 42
2.23
 43
2.23
 50
270.0
  0
INSERT
  5
CA9
330
C2C
100
AcDbEntity
  8
250
  6
CONTINUOUS
100
AcDbBlockReference
  2
_OPEN
 10
84.0
 20
12.5
 30
0.0
 41
2.23
 42
2.23
 43
2.23
 50
90.0
  0
MTEXT
  5
CAA
330
C2C
100
AcDbEntity
  8
250
  6
CONTINUOUS
 62
    40
100
AcDbMText
 10
81.6
 20
0.0
 30
0.0
 40
2.8
 41
0.0
 71
     5
 72
     1
  1
\A1;{\H2.8;\U+2205}25
 11
0.0
 21
1.0
 31
0.0
1001
ACAD
1000
MTEXTBEGIN
1070
    73
1070
     1
1070
    44
1040
1.0
1070
    74
1070
     0
1000
MTEXTEND
1000
MTEXTBEGIN
1070
    73
1070
     1
1070
    44
1040
1.0
1070
    74
1070
     0
1000
MTEXTEND
1000
MTEXTBEGIN
1070
    73
1070
     1
1070
    44
1040
1.0
1070
    74
1070
     0
1000
MTEXTEND
  0
POINT
  5
CAB
330
C2C
100
AcDbEntity
  8
DEFPOINTS
  6
CONTINUOUS
 62
     0
100
AcDbPoint
 10
75.0
 20
-12.5
 30
0.0
  0
POINT
  5
CAC
330
C2C
100
AcDbEntity
  8
DEFPOINTS
  6
CONTINUOUS
 62
     0
100
AcDbPoint
 10
75.0
 20
12.5
 30
0.0
  0
POINT
  5
CAD
330
C2C
100
AcDbEntity
  8
DEFPOINTS
  6
CONTINUOUS
 62
     0
100
AcDbPoint
 10
84.0
 20
12.5
 30
0.0
  0
ENDBLK
  5
C37
330
C2C
100
AcDbEntity
  8
0
100
AcDbBlockEnd
  0
BLOCK
  5
C45
330
C3B
100
AcDbEntity
  8
0
100
AcDbBlockBegin
  2
*D3
 70
     1
 10
0.0
 20
0.0
 30
0.0
  3
*D3
  1

  0
LINE
  5
CAE
330
C3B
100
AcDbEntity
  8
250
  6
CONTINUOUS
100
AcDbLine
 10
66.0
 20
13.0
 30
0.0
 11
66.0
 21
22.0
 31
0.0
  0
LINE
  5
CAF
330
C3B
100
AcDbEntity
  8
250
  6
CONTINUOUS
100
AcDbLine
 10
75.0
 20
13.0
 30
0.0
 11
75.0
 21
22.0
 31
0.0
  0
LINE
  5
CB0
330
C3B
100
AcDbEntity
  8
250
  6
CONTINUOUS
100
AcDbLine
 10
68.23
 20
21.0
 30
0.0
 11
72.77
 21
21.0
 31
0.0
  0
INSERT
  5
CB1
330
C3B
100
AcDbEntity
  8
250
  6
CONTINUOUS
100
AcDbBlockReference
  2
_OPEN
 10
66.0
 20
21.0
 30
0.0
 41
2.23
 42
2.23
 43
2.23
 50
180.0
  0
INSERT
  5
CB2
330
C3B
100
AcDbEntity
  8
250
  6
CONTINUOUS
100
AcDbBlockReference
  2
_OPEN
 10
75.0
 20
21.0
 30
0.0
 41
2.23
 42
2.23
 43
2.23
  0
MTEXT
  5
CB3
330
C3B
100
AcDbEntity
  8
250
  6
CONTINUOUS
 62
    40
100
AcDbMText
 10
70.5
 20
23.4
 30
0.0
 40
2.8
 41
0.0
 71
     5
 72
     1
  1
\A1;9
1001
ACAD
1000
MTEXTBEGIN
1070
    73
1070
     1
1070
    44
1040
1.0
1070
    74
1070
     0
1000
MTEXTEND
1000
MTEXTBEGIN
1070
    73
1070
     1
1070
    44
1040
1.0
1070
    74
1070
     0
1000
MTEXTEND
1000
MTEXTBEGIN
1070
    73
1070
     1
1070
    44
1040
1.0
1070
    74
1070
     0
1000
MTEXTEND
  0
POINT
  5
CB4
330
C3B
100
AcDbEntity
  8
DEFPOINTS
  6
CONTINUOUS
 62
     0
100
AcDbPoint
 10
66.0
 20
12.5
 30
0.0
  0
POINT
  5
CB5
330
C3B
100
AcDbEntity
  8
DEFPOINTS
  6
CONTINUOUS
 62
     0
100
AcDbPoint
 10
75.0
 20
12.5
 30
0.0
  0
POINT
  5
CB6
330
C3B
100
AcDbEntity
  8
DEFPOINTS
  6
CONTINUOUS
 62
     0
100
AcDbPoint
 10
75.0
 20
21.0
 30
0.0
  0
ENDBLK
  5
C46
330
C3B
100
AcDbEntity
  8
0
100
AcDbBlockEnd
  0
BLOCK
  5
C54
330
C4A
100
AcDbEntity
  8
0
100
AcDbBlockBegin
  2
*D4
 70
     1
 10
0.0
 20
0.0
 30
0.0
  3
*D4
  1

  0
LINE
  5
C93
330
C4A
100
AcDbEntity
  8
250
  6
CONTINUOUS
100
AcDbLine
 10
42.0
 20
12.46829809
 30
0.0
 11
42.0
 21
29.0
 31
0.0
  0
LINE
  5
C94
330
C4A
100
AcDbEntity
  8
250
  6
CONTINUOUS
100
AcDbLine
 10
75.0
 20
13.0
 30
0.0
 11
75.0
 21
29.0
 31
0.0
  0
LINE
  5
C95
330
C4A
100
AcDbEntity
  8
250
  6
CONTINUOUS
100
AcDbLine
 10
44.23
 20
28.0
 30
0.0
 11
72.77
 21
28.0
 31
0.0
  0
INSERT
  5
C96
330
C4A
100
AcDbEntity
  8
250
  6
CONTINUOUS
100
AcDbBlockReference
  2
_OPEN
 10
42.0
 20
28.0
 30
0.0
 41
2.23
 42
2.23
 43
2.23
 50
180.0
  0
INSERT
  5
C97
330
C4A
100
AcDbEntity
  8
250
  6
CONTINUOUS
100
AcDbBlockReference
  2
_OPEN
 10
75.0
 20
28.0
 30
0.0
 41
2.23
 42
2.23
 43
2.23
  0
MTEXT
  5
C98
330
C4A
100
AcDbEntity
  8
250
  6
CONTINUOUS
 62
    40
100
AcDbMText
 10
58.5
 20
30.4
 30
0.0
 40
2.8
 41
0.0
 71
     5
 72
     1
  1
\A1;33
1001
ACAD
1000
MTEXTBEGIN
1070
    73
1070
     1
1070
    44
1040
1.0
1070
    74
1070
     0
1000
MTEXTEND
1000
MTEXTBEGIN
1070
    73
1070
     1
1070
    44
1040
1.0
1070
    74
1070
     0
1000
MTEXTEND
1000
MTEXTBEGIN
1070
    73
1070
     1
1070
    44
1040
1.0
1070
    74
1070
     0
1000
MTEXTEND
  0
POINT
  5
C99
330
C4A
100
AcDbEntity
  8
DEFPOINTS
  6
CONTINUOUS
 62
     0
100
AcDbPoint
 10
42.0
 20
11.96829809
 30
0.0
  0
POINT
  5
C9A
330
C4A
100
AcDbEntity
  8
DEFPOINTS
  6
CONTINUOUS
 62
     0
100
AcDbPoint
 10
75.0
 20
12.5
 30
0.0
  0
POINT
  5
C9B
330
C4A
100
AcDbEntity
  8
DEFPOINTS
  6
CONTINUOUS
 62
     0
100
AcDbPoint
 10
75.0
 20
28.0
 30
0.0
  0
ENDBLK
  5
C55
330
C4A
100
AcDbEntity
  8
0
100
AcDbBlockEnd
  0
BLOCK
  5
C63
330
C59
100
AcDbEntity
  8
0
100
AcDbBlockBegin
  2
*D5
 70
     1
 10
0.0
 20
0.0
 30
0.0
  3
*D5
  1

  0
LINE
  5
EEC
330
C59
100
AcDbEntity
  8
250
  6
CONTINUOUS
100
AcDbLine
 10
0.0
 20
25.5
 30
0.0
 11
0.0
 21
36.0
 31
0.0
  0
LINE
  5
EED
330
C59
100
AcDbEntity
  8
250
  6
CONTINUOUS
100
AcDbLine
 10
75.0
 20
13.5
 30
0.0
 11
75.0
 21
36.0
 31
0.0
  0
LINE
  5
EEE
330
C59
100
AcDbEntity
  8
250
  6
CONTINUOUS
100
AcDbLine
 10
2.23
 20
35.0
 30
0.0
 11
72.77
 21
35.0
 31
0.0
  0
INSERT
  5
EEF
330
C59
100
AcDbEntity
  8
250
  6
CONTINUOUS
100
AcDbBlockReference
  2
_OPEN
 10
0.0
 20
35.0
 30
0.0
 41
2.23
 42
2.23
 43
2.23
 50
180.0
  0
INSERT
  5
EF0
330
C59
100
AcDbEntity
  8
250
  6
CONTINUOUS
100
AcDbBlockReference
  2
_OPEN
 10
75.0
 20
35.0
 30
0.0
 41
2.23
 42
2.23
 43
2.23
  0
MTEXT
  5
EF1
330
C59
100
AcDbEntity
  8
250
  6
CONTINUOUS
 62
    40
100
AcDbMText
 10
37.5
 20
37.4
 30
0.0
 40
2.8
 41
0.0
 71
     5
 72
     1
  1
\A1;75
1001
ACAD
1000
MTEXTBEGIN
1070
    73
1070
     1
1070
    44
1040
1.0
1070
    74
1070
     0
1000
MTEXTEND
  0
POINT
  5
EF2
330
C59
100
AcDbEntity
  8
DEFPOINTS
  6
CONTINUOUS
 62
     0
100
AcDbPoint
 10
0.0
 20
25.0
 30
0.0
  0
POINT
  5
EF3
330
C59
100
AcDbEntity
  8
DEFPOINTS
  6
CONTINUOUS
 62
     0
100
AcDbPoint
 10
75.0
 20
13.0
 30
0.0
  0
POINT
  5
EF4
330
C59
100
AcDbEntity
  8
DEFPOINTS
  6
CONTINUOUS
 62
     0
100
AcDbPoint
 10
75.0
 20
35.0
 30
0.0
  0
ENDBLK
  5
C64
330
C59
100
AcDbEntity
  8
0
100
AcDbBlockEnd
  0
BLOCK
  5
CB8
330
CB7
100
AcDbEntity
  8
0
100
AcDbBlockBegin
  2
1
 70
     0
 10
0.0
 20
0.0
 30
0.0
  3
1
  1

  0
LINE
  5
F3A
330
CB7
100
AcDbEntity
  8
240
  6
CONTINUOUS
100
AcDbLine
 10
64.45050452
 20
-11.9
 30
0.0
 11
43.65144148
 21
-11.9
 31
0.0
1001
GRPNAME
1000
PASTMD1D
  0
LINE
  5
F3B
330
CB7
100
AcDbEntity
  8
240
  6
CONTINUOUS
100
AcDbLine
 10
64.45050452
 20
11.9
 30
0.0
 11
43.65144148
 21
11.9
 31
0.0
1001
GRPNAME
1000
PASTMD1D
  0
LINE
  5
F3C
330
CB7
100
AcDbEntity
  8
245
100
AcDbLine
 10
-25.0
 20
0.0
 30
0.0
 11
76.0
 21
0.0
 31
0.0
  0
ARC
  5
F3D
330
CB7
100
AcDbEntity
  8
240
  6
CONTINUOUS
100
AcDbCircle
 10
-24.0
 20
17.04875078
 30
0.0
 40
1.000000000000019
100
AcDbArc
 50
92.86240523
 51
180.0
  0
LINE
  5
F3E
330
CB7
100
AcDbEntity
  8
240
  6
CONTINUOUS
100
AcDbLine
 10
-24.0
 20
5.27
 30
0.0
 11
-25.0
 21
6.27
 31
0.0
  0
LINE
  5
F3F
330
CB7
100
AcDbEntity
  8
240
  6
CONTINUOUS
100
AcDbLine
 10
-25.0
 20
-6.27
 30
0.0
 11
-24.0
 21
-5.27
 31
0.0
  0
ARC
  5
F40
330
CB7
100
AcDbEntity
  8
240
  6
CONTINUOUS
100
AcDbCircle
 10
-24.0
 20
-17.04875078
 30
0.0
 40
1.0
100
AcDbArc
 50
180.0
 51
267.13759477
  0
LINE
  5
F41
330
CB7
100
AcDbEntity
  8
240
  6
CONTINUOUS
100
AcDbLine
 10
-25.0
 20
6.27
 30
0.0
 11
-25.0
 21
17.04875078
 31
0.0
  0
LINE
  5
F42
330
CB7
100
AcDbEntity
  8
240
  6
CONTINUOUS
100
AcDbLine
 10
-25.0
 20
-17.04875078
 30
0.0
 11
-25.0
 21
-6.27
 31
0.0
  0
LINE
  5
F43
330
CB7
100
AcDbEntity
  8
240
100
AcDbLine
 10
34.0
 20
-19.55101506
 30
0.0
 11
34.0
 21
-16.0
 31
0.0
  0
LINE
  5
F44
330
CB7
100
AcDbEntity
  8
242
  6
CONTINUOUS
100
AcDbLine
 10
26.5
 20
-13.25700469
 30
0.0
 11
33.70301665
 21
-20.26218844
 31
0.0
  0
LINE
  5
F45
330
CB7
100
AcDbEntity
  8
241
  6
CONTINUOUS
100
AcDbLine
 10
26.0
 20
0.0
 30
0.0
 11
26.0
 21
-20.55101506
 31
0.0
  0
LINE
  5
F46
330
CB7
100
AcDbEntity
  8
242
  6
CONTINUOUS
100
AcDbLine
 10
34.0
 20
-13.25700469
 30
0.0
 11
26.5
 21
-20.55101506
 31
0.0
  0
LINE
  5
F47
330
CB7
100
AcDbEntity
  8
241
  6
CONTINUOUS
100
AcDbLine
 10
26.5
 20
-13.25700469
 30
0.0
 11
26.5
 21
-20.55101506
 31
0.0
  0
LINE
  5
F48
330
CB7
100
AcDbEntity
  8
241
  6
CONTINUOUS
100
AcDbLine
 10
21.37749907
 20
-19.61504525
 30
0.0
 11
19.875
 21
-16.16793968
 31
0.0
  0
LINE
  5
F49
330
CB7
100
AcDbEntity
  8
241
  6
CONTINUOUS
100
AcDbLine
 10
19.875
 20
-6.0
 30
0.0
 11
19.875
 21
-21.5
 31
0.0
  0
LINE
  5
F4A
330
CB7
100
AcDbEntity
  8
241
  6
CONTINUOUS
100
AcDbLine
 10
16.125
 20
-16.16793968
 30
0.0
 11
14.62250093
 21
-19.61504525
 31
0.0
  0
ARC
  5
F4B
330
CB7
100
AcDbEntity
  8
241
  6
CONTINUOUS
100
AcDbCircle
 10
12.69622204
 20
-21.5
 30
0.0
 40
6.0
100
AcDbArc
 50
90.0
 51
161.68994155
  0
LINE
  5
F4C
330
CB7
100
AcDbEntity
  8
241
  6
CONTINUOUS
100
AcDbLine
 10
16.125
 20
-6.0
 30
0.0
 11
16.125
 21
-21.5
 31
0.0
  0
LINE
  5
F4D
330
CB7
100
AcDbEntity
  8
241
  6
CONTINUOUS
100
AcDbLine
 10
-2.0
 20
-19.15
 30
0.0
 11
-2.0
 21
0.0
 31
0.0
  0
LINE
  5
F4E
330
CB7
100
AcDbEntity
  8
241
100
AcDbLine
 10
0.0
 20
-19.15
 30
0.0
 11
0.0
 21
0.0
 31
0.0
  0
LINE
  5
F4F
330
CB7
100
AcDbEntity
  8
245
  6
CENTER2
100
AcDbLine
 10
18.0
 20
-25.0
 30
0.0
 11
18.0
 21
25.0
 31
0.0
  0
LINE
  5
F50
330
CB7
100
AcDbEntity
  8
241
  6
CONTINUOUS
100
AcDbLine
 10
7.0
 20
-19.61504525
 30
0.0
 11
14.62250093
 21
-19.61504525
 31
0.0
  0
LINE
  5
F51
330
CB7
100
AcDbEntity
  8
240
  6
CONTINUOUS
100
AcDbLine
 10
0.0
 20
-25.0
 30
0.0
 11
14.62250093
 21
-25.0
 31
0.0
  0
LINE
  5
F52
330
CB7
100
AcDbEntity
  8
240
  6
CONTINUOUS
100
AcDbLine
 10
-2.0
 20
-19.15
 30
0.0
 11
-24.04993762
 21
-18.04750312
 31
0.0
  0
LINE
  5
F53
330
CB7
100
AcDbEntity
  8
240
  6
CONTINUOUS
100
AcDbLine
 10
0.0
 20
-25.0
 30
0.0
 11
0.0
 21
-19.15
 31
0.0
  0
LINE
  5
F54
330
CB7
100
AcDbEntity
  8
240
100
AcDbLine
 10
-2.0
 20
-19.15
 30
0.0
 11
0.0
 21
-19.15
 31
0.0
  0
LINE
  5
F55
330
CB7
100
AcDbEntity
  8
240
  6
CONTINUOUS
100
AcDbLine
 10
26.0
 20
-20.55101506
 30
0.0
 11
33.0
 21
-20.55101506
 31
0.0
  0
LINE
  5
F56
330
CB7
100
AcDbEntity
  8
240
  6
CONTINUOUS
100
AcDbLine
 10
21.37749907
 20
-25.0
 30
0.0
 11
19.875
 21
-22.39759526
 31
0.0
  0
LINE
  5
F57
330
CB7
100
AcDbEntity
  8
240
  6
CONTINUOUS
100
AcDbLine
 10
14.62250093
 20
-25.0
 30
0.0
 11
16.125
 21
-22.39759526
 31
0.0
  0
LINE
  5
F58
330
CB7
100
AcDbEntity
  8
241
  6
CONTINUOUS
100
AcDbLine
 10
14.62250093
 20
-19.61504525
 30
0.0
 11
14.62250093
 21
-25.0
 31
0.0
  0
LINE
  5
F59
330
CB7
100
AcDbEntity
  8
240
  6
CONTINUOUS
100
AcDbLine
 10
19.875
 20
-22.39759526
 30
0.0
 11
19.875
 21
-21.5
 31
0.0
  0
LINE
  5
F5A
330
CB7
100
AcDbEntity
  8
240
  6
CONTINUOUS
100
AcDbLine
 10
16.125
 20
-22.39759526
 30
0.0
 11
16.125
 21
-21.5
 31
0.0
  0
LINE
  5
F5B
330
CB7
100
AcDbEntity
  8
240
  6
CONTINUOUS
100
AcDbLine
 10
16.125
 20
-21.5
 30
0.0
 11
19.875
 21
-21.5
 31
0.0
  0
LINE
  5
F5C
330
CB7
100
AcDbEntity
  8
240
  6
CONTINUOUS
100
AcDbLine
 10
26.0
 20
-25.0
 30
0.0
 11
26.0
 21
-20.55101506
 31
0.0
  0
LINE
  5
F5D
330
CB7
100
AcDbEntity
  8
241
  6
CONTINUOUS
100
AcDbLine
 10
21.37749907
 20
-19.61504525
 30
0.0
 11
21.37749907
 21
-25.0
 31
0.0
  0
LINE
  5
F5E
330
CB7
100
AcDbEntity
  8
240
  6
CONTINUOUS
100
AcDbLine
 10
21.37749907
 20
-25.0
 30
0.0
 11
26.0
 21
-25.0
 31
0.0
  0
LINE
  5
F5F
330
CB7
100
AcDbEntity
  8
241
  6
CONTINUOUS
100
AcDbLine
 10
21.37749907
 20
-19.61504525
 30
0.0
 11
26.0
 21
-19.61504525
 31
0.0
  0
ARC
  5
F60
330
CB7
100
AcDbEntity
  8
240
  6
CONTINUOUS
100
AcDbCircle
 10
33.0
 20
-19.55101506
 30
0.0
 40
1.0
100
AcDbArc
 50
270.0
 51
0.0
  0
LINE
  5
F61
330
CB7
100
AcDbEntity
  8
240
  6
CONTINUOUS
100
AcDbLine
 10
0.0
 20
25.0
 30
0.0
 11
14.62250093
 21
25.0
 31
0.0
  0
ARC
  5
F62
330
CB7
100
AcDbEntity
  8
241
  6
CONTINUOUS
100
AcDbCircle
 10
13.0
 20
0.0
 30
0.0
 40
6.0
100
AcDbArc
 50
90.0
 51
180.0
  0
ARC
  5
F63
330
CB7
100
AcDbEntity
  8
241
  6
CONTINUOUS
100
AcDbCircle
 10
13.0
 20
0.0
 30
0.0
 40
6.0
100
AcDbArc
 50
180.0
 51
270.0
  0
LINE
  5
F64
330
CB7
100
AcDbEntity
  8
241
  6
CONTINUOUS
100
AcDbLine
 10
-2.0
 20
19.15
 30
0.0
 11
-2.0
 21
0.0
 31
0.0
  0
LINE
  5
F65
330
CB7
100
AcDbEntity
  8
241
100
AcDbLine
 10
0.0
 20
0.0
 30
0.0
 11
0.0
 21
19.15
 31
0.0
  0
CIRCLE
  5
F66
330
CB7
100
AcDbEntity
  8
241
  6
CONTINUOUS
100
AcDbCircle
 10
-7.5
 20
0.0
 30
0.0
 40
3.0
  0
ARC
  5
F67
330
CB7
100
AcDbEntity
  8
241
  6
HIDDEN2
100
AcDbCircle
 10
-19.0
 20
-3.77
 30
0.0
 40
1.5
100
AcDbArc
 50
270.0
 51
0.0
  0
ARC
  5
F68
330
CB7
100
AcDbEntity
  8
240
  6
CONTINUOUS
100
AcDbCircle
 10
-22.0
 20
-3.77
 30
0.0
 40
1.500000000000014
100
AcDbArc
 50
270.0
 51
0.0
  0
LINE
  5
F69
330
CB7
100
AcDbEntity
  8
241
  6
HIDDEN2
100
AcDbLine
 10
-22.0
 20
-5.27
 30
0.0
 11
-19.0
 21
-5.27
 31
0.0
  0
LINE
  5
F6A
330
CB7
100
AcDbEntity
  8
240
  6
CONTINUOUS
100
AcDbLine
 10
-24.0
 20
-5.27
 30
0.0
 11
-22.0
 21
-5.27
 31
0.0
  0
LINE
  5
F6B
330
CB7
100
AcDbEntity
  8
240
  6
CONTINUOUS
100
AcDbLine
 10
-20.5
 20
3.77
 30
0.0
 11
-20.5
 21
0.0
 31
0.0
  0
LINE
  5
F6C
330
CB7
100
AcDbEntity
  8
241
  6
HIDDEN2
100
AcDbLine
 10
-17.5
 20
3.77
 30
0.0
 11
-17.5
 21
0.0
 31
0.0
  0
LINE
  5
F6D
330
CB7
100
AcDbEntity
  8
240
  6
CONTINUOUS
100
AcDbLine
 10
-20.5
 20
-3.77
 30
0.0
 11
-20.5
 21
0.0
 31
0.0
  0
LINE
  5
F6E
330
CB7
100
AcDbEntity
  8
241
  6
HIDDEN2
100
AcDbLine
 10
-17.5
 20
-3.77
 30
0.0
 11
-17.5
 21
0.0
 31
0.0
  0
LINE
  5
F6F
330
CB7
100
AcDbEntity
  8
241
  6
HIDDEN2
100
AcDbLine
 10
-22.0
 20
5.27
 30
0.0
 11
-19.0
 21
5.27
 31
0.0
  0
ARC
  5
F70
330
CB7
100
AcDbEntity
  8
240
  6
CONTINUOUS
100
AcDbCircle
 10
-22.0
 20
3.77
 30
0.0
 40
1.5
100
AcDbArc
 50
0.0
 51
90.0
  0
LINE
  5
F71
330
CB7
100
AcDbEntity
  8
240
  6
CONTINUOUS
100
AcDbLine
 10
-24.0
 20
5.27
 30
0.0
 11
-22.0
 21
5.27
 31
0.0
  0
ARC
  5
F72
330
CB7
100
AcDbEntity
  8
241
  6
HIDDEN2
100
AcDbCircle
 10
-19.0
 20
3.77
 30
0.0
 40
1.5
100
AcDbArc
 50
0.0
 51
90.0
  0
LINE
  5
F73
330
CB7
100
AcDbEntity
  8
245
  6
CENTER2
100
AcDbLine
 10
-7.5
 20
-4.0
 30
0.0
 11
-7.5
 21
4.0
 31
0.0
  0
LINE
  5
F74
330
CB7
100
AcDbEntity
  8
240
  6
CONTINUOUS
100
AcDbLine
 10
-2.0
 20
19.15
 30
0.0
 11
-24.04993762
 21
18.04750312
 31
0.0
  0
LINE
  5
F75
330
CB7
100
AcDbEntity
  8
240
  6
CONTINUOUS
100
AcDbLine
 10
0.0
 20
19.15
 30
0.0
 11
0.0
 21
25.0
 31
0.0
  0
LINE
  5
F76
330
CB7
100
AcDbEntity
  8
240
100
AcDbLine
 10
-2.0
 20
19.15
 30
0.0
 11
0.0
 21
19.15
 31
0.0
  0
LINE
  5
F77
330
CB7
100
AcDbEntity
  8
241
100
AcDbLine
 10
34.0
 20
16.0
 30
0.0
 11
34.0
 21
0.0
 31
0.0
  0
LINE
  5
F78
330
CB7
100
AcDbEntity
  8
241
  6
CONTINUOUS
100
AcDbLine
 10
42.0
 20
11.9
 30
0.0
 11
42.0
 21
0.0
 31
0.0
1001
GRPNAME
1000
PASTMD1E
  0
LINE
  5
F79
330
CB7
100
AcDbEntity
  8
241
  6
CONTINUOUS
100
AcDbLine
 10
26.0
 20
0.0
 30
0.0
 11
26.0
 21
20.8
 31
0.0
  0
LINE
  5
F7A
330
CB7
100
AcDbEntity
  8
241
  6
CONTINUOUS
100
AcDbLine
 10
19.875
 20
6.0
 30
0.0
 11
19.875
 21
21.5
 31
0.0
  0
LINE
  5
F7B
330
CB7
100
AcDbEntity
  8
241
  6
CONTINUOUS
100
AcDbLine
 10
21.37749907
 20
6.0
 30
0.0
 11
21.37749907
 21
25.0
 31
0.0
  0
LINE
  5
F7C
330
CB7
100
AcDbEntity
  8
241
  6
CONTINUOUS
100
AcDbLine
 10
16.125
 20
6.0
 30
0.0
 11
16.125
 21
21.5
 31
0.0
  0
LINE
  5
F7D
330
CB7
100
AcDbEntity
  8
241
  6
CONTINUOUS
100
AcDbLine
 10
14.62250093
 20
6.0
 30
0.0
 11
14.62250093
 21
25.0
 31
0.0
  0
LINE
  5
F7E
330
CB7
100
AcDbEntity
  8
241
  6
CONTINUOUS
100
AcDbLine
 10
26.5
 20
-13.25700469
 30
0.0
 11
34.0
 21
-13.25700469
 31
0.0
  0
LINE
  5
F7F
330
CB7
100
AcDbEntity
  8
241
  6
CONTINUOUS
100
AcDbLine
 10
19.875
 20
-15.5
 30
0.0
 11
26.0
 21
-15.5
 31
0.0
  0
LINE
  5
F80
330
CB7
100
AcDbEntity
  8
241
  6
CONTINUOUS
100
AcDbLine
 10
13.0
 20
-6.0
 30
0.0
 11
26.0
 21
-6.0
 31
0.0
  0
LINE
  5
F81
330
CB7
100
AcDbEntity
  8
241
  6
CONTINUOUS
100
AcDbLine
 10
14.62250093
 20
-6.0
 30
0.0
 11
14.62250093
 21
-15.5
 31
0.0
  0
LINE
  5
F82
330
CB7
100
AcDbEntity
  8
241
  6
CONTINUOUS
100
AcDbLine
 10
12.69622204
 20
-15.5
 30
0.0
 11
16.125
 21
-15.5
 31
0.0
  0
LINE
  5
F83
330
CB7
100
AcDbEntity
  8
241
  6
CONTINUOUS
100
AcDbLine
 10
21.37749907
 20
-6.0
 30
0.0
 11
21.37749907
 21
-15.5
 31
0.0
  0
LINE
  5
F84
330
CB7
100
AcDbEntity
  8
241
  6
CONTINUOUS
100
AcDbLine
 10
13.0
 20
6.0
 30
0.0
 11
26.0
 21
6.0
 31
0.0
  0
LINE
  5
F85
330
CB7
100
AcDbEntity
  8
241
100
AcDbLine
 10
34.0
 20
-16.0
 30
0.0
 11
34.0
 21
0.0
 31
0.0
  0
LINE
  5
F86
330
CB7
100
AcDbEntity
  8
241
  6
CONTINUOUS
100
AcDbLine
 10
42.0
 20
-11.9
 30
0.0
 11
42.0
 21
0.0
 31
0.0
1001
GRPNAME
1000
PASTMD1E
  0
ARC
  5
F87
330
CB7
100
AcDbEntity
  8
240
100
AcDbCircle
 10
49.28186058
 20
-61.36690314
 30
0.0
 40
50.0
100
AcDbArc
 50
100.81745964
 51
105.14817409
  0
ARC
  5
F88
330
CB7
100
AcDbEntity
  8
240
100
AcDbCircle
 10
37.0
 20
-16.0
 30
0.0
 40
3.0
100
AcDbArc
 50
105.14817409
 51
180.0
  0
ARC
  5
F89
330
CB7
100
AcDbEntity
  8
240
100
AcDbCircle
 10
43.65144148
 20
-31.9
 30
0.0
 40
20.0
100
AcDbArc
 50
90.0
 51
100.81745964
  0
LINE
  5
F8A
330
CB7
100
AcDbEntity
  8
240
  6
CONTINUOUS
100
AcDbLine
 10
26.0
 20
20.8
 30
0.0
 11
33.0
 21
20.8
 31
0.0
  0
LINE
  5
F8B
330
CB7
100
AcDbEntity
  8
240
  6
CONTINUOUS
100
AcDbLine
 10
21.37749907
 20
25.0
 30
0.0
 11
19.875
 21
22.39759526
 31
0.0
  0
LINE
  5
F8C
330
CB7
100
AcDbEntity
  8
240
  6
CONTINUOUS
100
AcDbLine
 10
14.62250093
 20
25.0
 30
0.0
 11
16.125
 21
22.39759526
 31
0.0
  0
LINE
  5
F8D
330
CB7
100
AcDbEntity
  8
240
  6
CONTINUOUS
100
AcDbLine
 10
19.875
 20
22.39759526
 30
0.0
 11
19.875
 21
21.5
 31
0.0
  0
LINE
  5
F8E
330
CB7
100
AcDbEntity
  8
240
  6
CONTINUOUS
100
AcDbLine
 10
16.125
 20
22.39759526
 30
0.0
 11
16.125
 21
21.5
 31
0.0
  0
LINE
  5
F8F
330
CB7
100
AcDbEntity
  8
240
  6
CONTINUOUS
100
AcDbLine
 10
16.125
 20
21.5
 30
0.0
 11
19.875
 21
21.5
 31
0.0
  0
LINE
  5
F90
330
CB7
100
AcDbEntity
  8
240
  6
CONTINUOUS
100
AcDbLine
 10
21.37749907
 20
25.0
 30
0.0
 11
26.0
 21
25.0
 31
0.0
  0
LINE
  5
F91
330
CB7
100
AcDbEntity
  8
240
  6
CONTINUOUS
100
AcDbLine
 10
26.0
 20
25.0
 30
0.0
 11
26.0
 21
20.8
 31
0.0
  0
ARC
  5
F92
330
CB7
100
AcDbEntity
  8
240
  6
PHANTOM2
100
AcDbCircle
 10
33.0
 20
19.8
 30
0.0
 40
1.0
100
AcDbArc
 50
360.0
 51
90.0
  0
ARC
  5
F93
330
CB7
100
AcDbEntity
  8
240
100
AcDbCircle
 10
49.28186058
 20
61.36690314
 30
0.0
 40
50.0
100
AcDbArc
 50
254.85182591
 51
259.18254036
  0
ARC
  5
F94
330
CB7
100
AcDbEntity
  8
240
100
AcDbCircle
 10
37.0
 20
16.0
 30
0.0
 40
3.0
100
AcDbArc
 50
180.0
 51
254.85182591
  0
LINE
  5
F95
330
CB7
100
AcDbEntity
  8
240
  6
PHANTOM2
100
AcDbLine
 10
34.0
 20
16.0
 30
0.0
 11
34.0
 21
19.8
 31
0.0
  0
ARC
  5
F96
330
CB7
100
AcDbEntity
  8
240
100
AcDbCircle
 10
43.65144148
 20
31.9
 30
0.0
 40
20.0
100
AcDbArc
 50
259.18254036
 51
270.0
  0
LINE
  5
F97
330
CB7
100
AcDbEntity
  8
240
  6
CONTINUOUS
100
AcDbLine
 10
74.5
 20
11.8
 30
0.0
 11
74.5
 21
1.15604058
 31
0.0
1001
GRPNAME
1000
PASTMD1D
  0
LWPOLYLINE
  5
F98
330
CB7
100
AcDbEntity
  8
241
  6
CONTINUOUS
100
AcDbPolyline
 90
       70
 70
     0
 43
0.0
 10
68.93306905
 20
7.95977473
 10
68.91661898
 20
7.85749977
 10
68.90326452
 20
7.75489732
 10
68.89303332
 20
7.65218002
 10
68.8859466
 20
7.54956075
 10
68.88201904
 20
7.44725217
 10
68.88125879
 20
7.34546632
 10
68.88366741
 20
7.24441413
 10
68.88923992
 20
7.14430505
 10
68.89796477
 20
7.04534653
 10
68.90982388
 20
6.94774367
 10
68.92479266
 20
6.85169874
 10
68.9428401
 20
6.75741078
 10
68.96392879
 20
6.66507521
 10
68.98801504
 20
6.57488338
 10
69.01504891
 20
6.48702222
 10
69.04497439
 20
6.40167381
 10
69.07772946
 20
6.31901502
 10
69.11324623
 20
6.23921717
 10
69.15145109
 20
6.16244564
 10
69.19226488
 20
6.08885952
 10
69.235603
 20
6.01861132
 10
69.28137564
 20
5.95184662
 10
69.32948794
 20
5.8887038
 10
69.37984019
 20
5.82931371
 10
69.43232803
 20
5.77379943
 10
69.48684269
 20
5.72227602
 10
69.54327119
 20
5.67485025
 10
69.60149659
 20
5.63162042
 10
69.66139821
 20
5.59267611
 10
69.72285191
 20
5.55809803
 10
69.78573033
 20
5.52795784
 10
69.84990316
 20
5.50231801
 10
69.91523741
 20
5.48123168
 10
69.98159768
 20
5.46474254
 10
70.04884643
 20
5.45288477
 10
70.1168443
 20
5.44568295
 10
70.18545036
 20
5.44315199
 10
70.25452243
 20
5.44529714
 10
70.32391738
 20
5.45211397
 10
70.39349136
 20
5.46358833
 10
70.46310021
 20
5.47969645
 10
70.53259966
 20
5.50040495
 10
70.60184567
 20
5.52567091
 10
70.67069474
 20
5.55544197
 10
70.73900418
 20
5.58965643
 10
70.80663242
 20
5.62824337
 10
70.87343931
 20
5.67112284
 10
70.9392864
 20
5.71820597
 10
71.00403721
 20
5.76939517
 10
71.06755756
 20
5.82458437
 10
71.1297158
 20
5.88365918
 10
71.19038312
 20
5.94649718
 10
71.24943378
 20
6.01296814
 10
71.30674541
 20
6.08293429
 10
71.36219923
 20
6.15625065
 10
71.41568032
 20
6.23276527
 10
71.46707783
 20
6.31231956
 10
71.51628526
 20
6.39474867
 10
71.56320062
 20
6.47988176
 10
71.60772668
 20
6.5675424
 10
71.64977116
 20
6.65754891
 10
71.68924693
 20
6.74971477
 10
71.72607217
 20
6.84384896
 10
71.76017058
 20
6.9397564
 10
71.79147148
 20
7.03723832
 10
71.81991
 20
7.13609269
 10
71.84542721
 20
7.23611466
 10
71.86797022
 20
7.33709692
 10
71.88749231
 20
7.4388302
1001
GRPNAME
1000
PASTMD1D
  0
LINE
  5
F99
330
CB7
100
AcDbEntity
  8
246
100
AcDbLine
 10
75.0
 20
-12.5
 30
0.0
 11
75.0
 21
12.5
 31
0.0
1001
GRPNAME
1000
PASTMD1D
  0
LWPOLYLINE
  5
F9A
330
CB7
100
AcDbEntity
  8
241
  6
CONTINUOUS
100
AcDbPolyline
 90
       70
 70
     0
 43
0.0
 10
71.88749231
 20
7.4388302
 10
71.89781979
 20
7.50637395
 10
71.90506431
 20
7.57431737
 10
71.90921086
 20
7.64251965
 10
71.91025085
 20
7.71083944
 10
71.9081821
 20
7.77913514
 10
71.90300893
 20
7.84726522
 10
71.89474204
 20
7.91508846
 10
71.88339857
 20
7.98246432
 10
71.86900203
 20
8.04925315
 10
71.85158225
 20
8.11531653
 10
71.83117535
 20
8.18051754
 10
71.8078236
 20
8.24472106
 10
71.78157541
 20
8.30779403
 10
71.75248518
 20
8.36960572
 10
71.7206132
 20
8.43002803
 10
71.68602552
 20
8.48893574
 10
71.64879383
 20
8.54620675
 10
71.60899528
 20
8.60172238
 10
71.56671236
 20
8.65536757
 10
71.5220327
 20
8.70703113
 10
71.47504891
 20
8.756606
 10
71.42585835
 20
8.80398943
 10
71.37456297
 20
8.84908322
 10
71.32126908
 20
8.89179392
 10
71.26608714
 20
8.93203299
 10
71.2091315
 20
8.96971706
 10
71.15052021
 20
9.00476801
 10
71.09037475
 20
9.03711321
 10
71.02881976
 20
9.06668562
 10
70.96598281
 20
9.09342395
 10
70.90199414
 20
9.11727279
 10
70.83698636
 20
9.1381827
 10
70.7710942
 20
9.15611035
 10
70.70445422
 20
9.1710186
 10
70.63720454
 20
9.18287653
 10
70.56948452
 20
9.19165958
 10
70.50143453
 20
9.19734954
 10
70.43319558
 20
9.19993462
 10
70.36490912
 20
9.19940946
 10
70.29671666
 20
9.19577515
 10
70.22875952
 20
9.18903922
 10
70.16117856
 20
9.17921564
 10
70.09411384
 20
9.16632476
 10
70.02770434
 20
9.15039329
 10
69.9620877
 20
9.13145427
 10
69.89739991
 20
9.10954693
 10
69.83377503
 20
9.08471668
 10
69.77134494
 20
9.05701498
 10
69.71023901
 20
9.02649924
 10
69.65058389
 20
8.99323271
 10
69.59250321
 20
8.95728434
 10
69.53611734
 20
8.91872862
 10
69.48154315
 20
8.87764546
 10
69.42889374
 20
8.83412
 10
69.37827822
 20
8.78824246
 10
69.32980151
 20
8.74010792
 10
69.28356405
 20
8.68981613
 10
69.23966169
 20
8.63747132
 10
69.19818541
 20
8.58318198
 10
69.15922117
 20
8.52706062
 10
69.12284973
 20
8.46922356
 10
69.08914645
 20
8.40979066
 10
69.0581812
 20
8.3488851
 10
69.03001815
 20
8.2866331
 10
69.00471566
 20
8.22316369
 10
68.98232618
 20
8.15860839
 10
68.96289611
 20
8.09310101
 10
68.94646571
 20
8.0267773
 10
68.93306905
 20
7.95977473
1001
GRPNAME
1000
PASTMD1D
  0
LINE
  5
F9B
330
CB7
100
AcDbEntity
  8
241
100
AcDbLine
 10
63.89946266
 20
0.64026518
 30
0.0
 11
74.5
 21
-3.21801488
 31
0.0
1001
GRPNAME
1000
PASTMD1D
  0
LINE
  5
F9C
330
CB7
100
AcDbEntity
  8
241
100
AcDbLine
 10
64.97055901
 20
2.83633814
 30
0.0
 11
63.84602145
 21
0.53069447
 31
0.0
1001
GRPNAME
1000
PASTMD1D
  0
LINE
  5
F9D
330
CB7
100
AcDbEntity
  8
240
  6
CONTINUOUS
100
AcDbLine
 10
64.45050452
 20
-11.9
 30
0.0
 11
64.99999999
 21
-12.05
 31
0.0
1001
GRPNAME
1000
PASTMD1D
  0
LINE
  5
F9E
330
CB7
100
AcDbEntity
  8
241
  6
CONTINUOUS
100
AcDbLine
 10
56.77939208
 20
-4.90544291
 30
0.0
 11
74.5
 21
-10.69795326
 31
0.0
1001
GRPNAME
1000
PASTMD1D
  0
ARC
  5
F9F
330
CB7
100
AcDbEntity
  8
241
  6
CONTINUOUS
100
AcDbCircle
 10
57.80683002
 20
-1.76227634
 30
0.0
 40
3.306830020297926
100
AcDbArc
 50
79.99999995
 51
251.89845495
1001
GRPNAME
1000
PASTMD1D
  0
LINE
  5
FA0
330
CB7
100
AcDbEntity
  8
241
  6
CONTINUOUS
100
AcDbLine
 10
58.38105503
 20
1.4943155
 30
0.0
 11
63.84602145
 21
0.53069447
 31
0.0
1001
GRPNAME
1000
PASTMD1D
  0
LINE
  5
FA1
330
CB7
100
AcDbEntity
  8
240
  6
CONTINUOUS
100
AcDbLine
 10
74.5
 20
-3.21801488
 30
0.0
 11
74.5
 21
-11.8
 31
0.0
1001
GRPNAME
1000
PASTMD1D
  0
LINE
  5
FA2
330
CB7
100
AcDbEntity
  8
240
  6
CONTINUOUS
100
AcDbLine
 10
74.5
 20
-11.8
 30
0.0
 11
64.99999999
 21
-12.05
 31
0.0
1001
GRPNAME
1000
PASTMD1D
  0
LINE
  5
FA3
330
CB7
100
AcDbEntity
  8
246
100
AcDbLine
 10
75.0
 20
-12.5
 30
0.0
 11
66.0
 21
-12.5
 31
0.0
  0
LINE
  5
FA4
330
CB7
100
AcDbEntity
  8
241
100
AcDbLine
 10
64.97055901
 20
2.83633814
 30
0.0
 11
74.5
 21
1.15604058
 31
0.0
1001
GRPNAME
1000
PASTMD1D
  0
LINE
  5
FA5
330
CB7
100
AcDbEntity
  8
240
100
AcDbLine
 10
75.0
 20
-3.4
 30
0.0
 11
74.5
 21
-3.21801488
 31
0.0
1001
GRPNAME
1000
PASTMD1D
  0
LINE
  5
FA6
330
CB7
100
AcDbEntity
  8
240
100
AcDbLine
 10
74.5
 20
1.15604058
 30
0.0
 11
74.52154003
 21
1.15224249
 31
0.0
1001
GRPNAME
1000
PASTMD1D
  0
LINE
  5
FA7
330
CB7
100
AcDbEntity
  8
240
100
AcDbLine
 10
74.52154003
 20
1.15224249
 30
0.0
 11
75.0
 21
-3.4
 31
0.0
1001
GRPNAME
1000
PASTMD1D
  0
LINE
  5
FA8
330
CB7
100
AcDbEntity
  8
240
  6
CONTINUOUS
100
AcDbLine
 10
64.45050452
 20
11.9
 30
0.0
 11
64.99999999
 21
12.05
 31
0.0
1001
GRPNAME
1000
PASTMD1D
  0
LINE
  5
FA9
330
CB7
100
AcDbEntity
  8
240
  6
CONTINUOUS
100
AcDbLine
 10
74.5
 20
11.8
 30
0.0
 11
64.99999999
 21
12.05
 31
0.0
1001
GRPNAME
1000
PASTMD1D
  0
LINE
  5
FAA
330
CB7
100
AcDbEntity
  8
246
100
AcDbLine
 10
75.0
 20
12.5
 30
0.0
 11
66.0
 21
12.5
 31
0.0
  0
ENDBLK
  5
CB9
330
CB7
100
AcDbEntity
  8
0
100
AcDbBlockEnd
  0
ENDSEC
  0
SECTION
  2
ENTITIES
  0
INSERT
  5
6E6
330
1A
100
AcDbEntity
  8
245
100
AcDbBlockReference
  2
矢印なし
 10
175.62382697
 20
90.55123572
 30
0.0
  0
TEXT
  5
9BC
330
1A
100
AcDbEntity
  8
241
100
AcDbText
 10
-25.0
 20
49.0
 30
0.0
 40
5.0
  1
HSK-A50-FCM25093-75
  7
YOKO
100
AcDbText
  0
DIMENSION
  5
C2B
330
1A
100
AcDbEntity
  8
250
  6
CONTINUOUS
100
AcDbDimension
  2
*D2
 10
84.0
 20
12.5
 30
0.0
 11
81.6
 21
0.0
 31
0.0
 70
    32
  1
{\H2.8;\U+2205}<>
  3
BIGT
100
AcDbAlignedDimension
 13
75.0
 23
-12.5
 33
0.0
 14
75.0
 24
12.5
 34
0.0
 50
90.0
100
AcDbRotatedDimension
  0
DIMENSION
  5
C3A
330
1A
100
AcDbEntity
  8
250
  6
CONTINUOUS
100
AcDbDimension
  2
*D3
 10
75.0
 20
21.0
 30
0.0
 11
70.5
 21
23.4
 31
0.0
 70
    32
  3
BIGT
100
AcDbAlignedDimension
 13
66.0
 23
12.5
 33
0.0
 14
75.0
 24
12.5
 34
0.0
100
AcDbRotatedDimension
  0
DIMENSION
  5
C49
330
1A
100
AcDbEntity
  8
250
  6
CONTINUOUS
100
AcDbDimension
  2
*D4
 10
75.0
 20
28.0
 30
0.0
 11
58.5
 21
30.4
 31
0.0
 70
    32
  3
BIGT
100
AcDbAlignedDimension
 13
42.0
 23
11.96829809
 33
0.0
 14
75.0
 24
12.5
 34
0.0
100
AcDbRotatedDimension
  0
DIMENSION
  5
C58
330
1A
100
AcDbEntity
  8
250
  6
CONTINUOUS
100
AcDbDimension
  2
*D5
 10
75.0
 20
35.0
 30
0.0
 11
37.5
 21
37.4
 31
0.0
 70
    32
  3
BIGT
100
AcDbAlignedDimension
 13
0.0
 23
25.0
 33
0.0
 14
75.0
 24
13.0
 34
0.0
100
AcDbRotatedDimension
  0
LEADER
  5
EA3
330
1A
100
AcDbEntity
  8
250
  6
CONTINUOUS
100
AcDbLeader
  3
BIGT
 76
     2
 10
-10.66962138
 20
-18.71651893
 30
0.0
 10
-16.04440773
 20
-28.02592197
 30
0.0
1001
ACAD
1000
DSTYLE
1002
{
1070
     6
1000
OPEN
1070
   343
1005
594
1002
}
  0
MTEXT
  5
EA4
330
1A
100
AcDbEntity
  8
251
  6
CONTINUOUS
100
AcDbMText
 10
-37.5110744
 20
-27.02592197
 30
0.0
 40
2.8
 41
0.0
 71
     7
 72
     1
  1
HSK-A50
  7
YOKO
1001
ITEMNAME
1000
LNSP3
1001
ACAD
1000
MTEXTBEGIN
1070
    73
1070
     1
1070
    44
1040
1.0
1070
    74
1070
     0
1000
MTEXTEND
1000
MTEXTBEGIN
1070
    73
1070
     1
1070
    44
1040
1.0
1070
    74
1070
     0
1000
MTEXTEND
1000
MTEXTBEGIN
1070
    73
1070
     1
1070
    44
1040
1.0
1070
    74
1070
     0
1000
MTEXTEND
  0
LINE
  5
EA5
330
1A
100
AcDbEntity
  8
250
  6
CONTINUOUS
100
AcDbLine
 10
-16.04440773
 20
-28.02592197
 30
0.0
 11
-40.3110744
 21
-28.02592197
 31
0.0
1001
ITEMNAME
1000
LNSP2
  0
INSERT
  5
FAB
330
1A
100
AcDbEntity
  8
245
100
AcDbBlockReference
  2
1
 10
0.0
 20
0.0
 30
0.0
  0
VIEWPORT
  5
22
330
17
100
AcDbEntity
 67
     1
  8
0
100
AcDbViewport
 10
261.51769912
 20
148.5
 30
0.0
 40
523.03539823
 41
297.0
 68
     1
 69
     1
1001
ACAD
1000
MVIEW
1002
{
1070
    16
1010
0.0
1020
0.0
1030
0.0
1010
0.0
1020
0.0
1030
1.0
1040
0.0
1040
297.0
1040
261.51769912
1040
148.5
1040
50.0
1040
0.0
1040
0.0
1070
     0
1070
   100
1070
     1
1070
     1
1070
     0
1070
     0
1070
     0
1070
     0
1040
0.0
1040
0.0
1040
0.0
1040
1.0
1040
1.0
1040
10.0
1040
10.0
1070
     0
1002
{
1002
}
1002
}
  0
ENDSEC
  0
SECTION
  2
OBJECTS
  0
DICTIONARY
  5
C
330
0
100
AcDbDictionary
  3
ACAD_GROUP
350
D
  3
ACAD_LAYOUT
350
565
  3
ACAD_MLINESTYLE
350
E
  3
ACAD_PLOTSETTINGS
350
566
  3
ACAD_PLOTSTYLENAME
350
563
  3
ACDBHEADERROUNDTRIPXREC
350
FAD
  3
GRADE_DWG
350
540
  0
DICTIONARY
  5
D7B
330
1A
100
AcDbDictionary
280
     1
  3
ACAD_LAYOUTSELFREF
360
FCF
  0
DICTIONARY
  5
D79
330
17
100
AcDbDictionary
280
     1
  3
ACAD_LAYOUTSELFREF
360
FCE
  0
DICTIONARY
  5
D
102
{ACAD_REACTORS
330
C
102
}
330
C
100
AcDbDictionary
  3
*A1
350
6C7
  3
*A2
350
6C8
  3
*A3
350
6D4
  3
*A4
350
6D5
  3
DREC-1
350
5FC
  3
DREC-2
350
654
  3
DREC-3
350
673
  0
DICTIONARY
  5
565
102
{ACAD_REACTORS
330
C
102
}
330
C
100
AcDbDictionary
  0
DICTIONARY
  5
E
102
{ACAD_REACTORS
330
C
102
}
330
C
100
AcDbDictionary
  3
STANDARD
350
13
  0
DICTIONARY
  5
566
102
{ACAD_REACTORS
330
C
102
}
330
C
100
AcDbDictionary
  3
A3_0_5倍_
350
758
  3
A3_1倍_
350
757
  3
A3_1倍__2000_
350
707
  3
A3_2倍_
350
759
  3
A4_0_5倍_
350
755
  3
A4_1倍_
350
754
  3
A4_1倍__2000_
350
708
  3
A4_2倍_
350
756
  0
ACDBDICTIONARYWDFLT
  5
563
102
{ACAD_REACTORS
330
C
102
}
330
C
100
AcDbDictionary
281
     1
  3
Normal
350
564
100
AcDbDictionaryWithDefault
340
564
  0
DICTIONARY
  5
FAD
102
{ACAD_REACTORS
330
C
102
}
330
C
100
AcDbDictionary
  3
CEPSNTYPE
350
FB7
  3
DIMSTYLEDATA
350
FBB
  3
FINGERPRINTGUID
350
FB8
  3
HYPERLINKBASE
350
FB0
  3
INSUNITS
350
FB6
  3
LAYOUTDICT
350
FB2
  3
LWETCUNION
350
FB5
  3
PLOTSETDICT
350
FB3
  3
PLOTSTYLNAMDICT
350
FB4
  3
PSVPSCALE
350
FBA
  3
PUCSBASE
350
FBE
  3
PUCSORGBACK
350
FC4
  3
PUCSORGBOTTOM
350
FC0
  3
PUCSORGFRONT
350
FC3
  3
PUCSORGLEFT
350
FC1
  3
PUCSORGRIGHT
350
FC2
  3
PUCSORGTOP
350
FBF
  3
PUCSORTHOREF
350
FBC
  3
PUCSORTHOVIEW
350
FBD
  3
STYLESHEET
350
FB1
  3
TSTACKALIGN
350
FAE
  3
TSTACKSIZE
350
FAF
  3
UCSBASE
350
FC7
  3
UCSORGBACK
350
FCD
  3
UCSORGBOTTOM
350
FC9
  3
UCSORGFRONT
350
FCC
  3
UCSORGLEFT
350
FCA
  3
UCSORGRIGHT
350
FCB
  3
UCSORGTOP
350
FC8
  3
UCSORTHOREF
350
FC5
  3
UCSORTHOVIEW
350
FC6
  3
VERSIONGUID
350
FB9
  0
DICTIONARY
  5
540
102
{ACAD_REACTORS
330
C
102
}
330
C
100
AcDbDictionary
  3
VERSION
350
560
  0
XRECORD
  5
FCF
102
{ACAD_REACTORS
330
D7B
102
}
330
D7B
100
AcDbXrecord
340
1A
  0
XRECORD
  5
FCE
102
{ACAD_REACTORS
330
D79
102
}
330
D79
100
AcDbXrecord
340
17
  0
GROUP
  5
6C7
102
{ACAD_REACTORS
330
D
102
}
330
D
100
AcDbGroup
300

 70
     0
 71
     1
1001
GRPNAME
1000
DMA00
  0
GROUP
  5
6C8
102
{ACAD_REACTORS
330
D
102
}
330
D
100
AcDbGroup
300

 70
     0
 71
     1
1001
GRPNAME
1000
DMA00
  0
GROUP
  5
6D4
102
{ACAD_REACTORS
330
D
102
}
330
D
100
AcDbGroup
300

 70
     0
 71
     1
1001
GRPNAME
1000
DMA00
  0
GROUP
  5
6D5
102
{ACAD_REACTORS
330
D
102
}
330
D
100
AcDbGroup
300

 70
     0
 71
     1
1001
GRPNAME
1000
DMA00
  0
GROUP
  5
5FC
102
{ACAD_REACTORS
330
D
102
}
330
D
100
AcDbGroup
300

 70
     0
 71
     1
1001
GRPNAME
1000
DREC-
1001
GPARA
1000
xsiz
1000
44.182
1000
ysiz
1000
40.677
1000
angl
1000
0
1000
ctyp
1000
0
1000
csiz
1000
5
1000
lfnt
1000
cont
1000
hcnt
1000
hoff
1000
vcnt
1000
voff
1000
opnt
1000
4
1000
dxpt
1000
0
1000
dypt
1000
0
  0
GROUP
  5
654
102
{ACAD_REACTORS
330
D
102
}
330
D
100
AcDbGroup
300

 70
     0
 71
     1
1001
GRPNAME
1000
DREC-
1001
GPARA
1000
xsiz
1000
54.592
1000
ysiz
1000
53.036
1000
angl
1000
0
1000
ctyp
1000
0
1000
csiz
1000
5
1000
lfnt
1000
cont
1000
hcnt
1000
hoff
1000
vcnt
1000
voff
1000
opnt
1000
4
1000
dxpt
1000
0
1000
dypt
1000
0
  0
GROUP
  5
673
102
{ACAD_REACTORS
330
D
102
}
330
D
100
AcDbGroup
300

 70
     0
 71
     1
1001
GRPNAME
1000
DREC-
1001
GPARA
1000
xsiz
1000
30.363
1000
ysiz
1000
36.175
1000
angl
1000
0
1000
ctyp
1000
0
1000
csiz
1000
5
1000
lfnt
1000
cont
1000
hcnt
1000
hoff
1000
vcnt
1000
voff
1000
opnt
1000
4
1000
dxpt
1000
0
1000
dypt
1000
0
  0
MLINESTYLE
  5
13
102
{ACAD_REACTORS
330
E
102
}
330
E
100
AcDbMlineStyle
  2
STANDARD
 70
     0
  3

 62
     0
 51
90.0
 52
90.0
 71
     2
 49
0.5
 62
   256
  6
BYLAYER
 49
-0.5
 62
   256
  6
BYLAYER
  0
PLOTSETTINGS
  5
758
102
{ACAD_REACTORS
330
566
102
}
330
566
100
AcDbPlotSettings
  1
A3(0.5倍)
  2
\\AWTECPC05\HP DeskJet 1120C
  4
A3
  6

 40
5.95841646
 41
13.49375153
 42
6.04309082
 43
3.67242432
 44
296.92599487
 45
419.94665527
 46
89.96
 47
127.14
 48
0.0
 49
0.0
140
0.0
141
0.0
142
1.0
143
2.0
 70
  1716
 72
     1
 73
     1
 74
     2
  7
big.ctb
 75
    17
147
0.5
148
0.0
149
0.0
  0
PLOTSETTINGS
  5
757
102
{ACAD_REACTORS
330
566
102
}
330
566
100
AcDbPlotSettings
  1
A3(1倍)
  2
\\AWTECPC05\HP DeskJet 1120C
  4
A3
  6

 40
5.95841646
 41
13.49375153
 42
6.04309082
 43
3.67242432
 44
296.92599487
 45
419.94665527
 46
37.46
 47
52.89
 48
0.0
 49
0.0
140
0.0
141
0.0
142
1.0
143
1.0
 70
  1716
 72
     1
 73
     1
 74
     2
  7
big.ctb
 75
    16
147
1.0
148
0.0
149
0.0
  0
PLOTSETTINGS
  5
707
102
{ACAD_REACTORS
330
566
102
}
330
566
100
AcDbPlotSettings
  1
A3(1倍)(2000)
  2
SII LS-1300 (D-SCAN)
  4
User258
  6

 40
3.17499995
 41
3.17499995
 42
3.17498779
 43
3.17498779
 44
419.98898315
 45
296.98950195
 46
58.32
 47
40.32
 48
0.0
 49
0.0
140
0.0
141
0.0
142
1.0
143
1.0
 70
  1716
 72
     1
 73
     0
 74
     2
  7
big.ctb
 75
    16
147
1.0
148
0.0
149
0.0
  0
PLOTSETTINGS
  5
759
102
{ACAD_REACTORS
330
566
102
}
330
566
100
AcDbPlotSettings
  1
A3(2倍)
  2
\\AWTECPC05\HP DeskJet 1120C
  4
A3
  6

 40
5.95841646
 41
13.49375153
 42
6.04309082
 43
3.67242432
 44
296.92599487
 45
419.94665527
 46
-67.54
 47
-95.61
 48
0.0
 49
0.0
140
0.0
141
0.0
142
1.0
143
0.5
 70
  1716
 72
     1
 73
     1
 74
     2
  7
big.ctb
 75
    27
147
2.0
148
0.0
149
0.0
  0
PLOTSETTINGS
  5
755
102
{ACAD_REACTORS
330
566
102
}
330
566
100
AcDbPlotSettings
  1
A4(0.5倍)
  2
\\AWTECPC05\HP DeskJet 1120C
  4
A4
  6

 40
4.18041658
 41
13.49374962
 42
4.18040466
 43
3.92642212
 44
209.97332764
 45
296.92599487
 46
48.31
 47
65.5
 48
0.0
 49
0.0
140
0.0
141
0.0
142
1.0
143
2.0
 70
  1716
 72
     1
 73
     1
 74
     2
  7
big.ctb
 75
    17
147
0.5
148
0.0
149
0.0
  0
PLOTSETTINGS
  5
754
102
{ACAD_REACTORS
330
566
102
}
330
566
100
AcDbPlotSettings
  1
A4(1倍)
  2
\\AWTECPC05\HP DeskJet 1120C
  4
A4
  6

 40
4.18041658
 41
13.49374962
 42
4.18040466
 43
3.92642212
 44
209.97332764
 45
296.92599487
 46
-4.19
 47
-8.75
 48
0.0
 49
0.0
140
0.0
141
0.0
142
1.0
143
1.0
 70
  1716
 72
     1
 73
     1
 74
     2
  7
big.ctb
 75
    16
147
1.0
148
0.0
149
0.0
  0
PLOTSETTINGS
  5
708
102
{ACAD_REACTORS
330
566
102
}
330
566
100
AcDbPlotSettings
  1
A4(1倍)(2000)
  2
SII LS-1300 (D-SCAN)
  4
User259
  6

 40
3.17499995
 41
3.17499995
 42
3.17498779
 43
3.17500305
 44
296.98950195
 45
209.99449158
 46
-3.18
 47
-3.18
 48
0.0
 49
0.0
140
0.0
141
0.0
142
1.0
143
1.0
 70
  1716
 72
     1
 73
     0
 74
     2
  7
big.ctb
 75
    16
147
1.0
148
0.0
149
0.0
  0
PLOTSETTINGS
  5
756
102
{ACAD_REACTORS
330
566
102
}
330
566
100
AcDbPlotSettings
  1
A4(2倍)
  2
\\AWTECPC05\HP DeskJet 1120C
  4
A4
  6

 40
4.18041658
 41
13.49374962
 42
4.18040466
 43
3.92642212
 44
209.97332764
 45
296.92599487
 46
-109.19
 47
-157.25
 48
0.0
 49
0.0
140
0.0
141
0.0
142
1.0
143
0.5
 70
  1716
 72
     1
 73
     1
 74
     2
  7
big.ctb
 75
    27
147
2.0
148
0.0
149
0.0
  0
ACDBPLACEHOLDER
  5
564
102
{ACAD_REACTORS
330
563
102
}
330
563
100
AcDbPlaceHolder
280
     0
  0
XRECORD
  5
FB7
102
{ACAD_REACTORS
330
FAD
102
}
330
FAD
100
AcDbXrecord
 90
        0
  0
XRECORD
  5
FBB
102
{ACAD_REACTORS
330
FAD
102
}
330
FAD
100
AcDbXrecord
1000
DSTYLE
1002
{
1070
    79
 70
     2
1070
   179
 70
     3
1070
   341
340
594
1070
   343
340
594
1070
   344
340
594
1070
   371
 70
    -1
1070
   372
 70
    -1
1002
}
  0
XRECORD
  5
FB8
102
{ACAD_REACTORS
330
FAD
102
}
330
FAD
100
AcDbXrecord
  1
{51294030-9CB4-11D3-8E18-00A0C925D94D}
  0
XRECORD
  5
FB0
102
{ACAD_REACTORS
330
FAD
102
}
330
FAD
100
AcDbXrecord
  1

  0
XRECORD
  5
FB6
102
{ACAD_REACTORS
330
FAD
102
}
330
FAD
100
AcDbXrecord
 90
        0
  0
XRECORD
  5
FB2
102
{ACAD_REACTORS
330
FAD
102
}
330
FAD
100
AcDbXrecord
340
565
  0
XRECORD
  5
FB5
102
{ACAD_REACTORS
330
FAD
102
}
330
FAD
100
AcDbXrecord
 90
    10781
  0
XRECORD
  5
FB3
102
{ACAD_REACTORS
330
FAD
102
}
330
FAD
100
AcDbXrecord
340
566
  0
XRECORD
  5
FB4
102
{ACAD_REACTORS
330
FAD
102
}
330
FAD
100
AcDbXrecord
340
563
  0
XRECORD
  5
FBA
102
{ACAD_REACTORS
330
FAD
102
}
330
FAD
100
AcDbXrecord
 40
0.0
  0
XRECORD
  5
FBE
102
{ACAD_REACTORS
330
FAD
102
}
330
FAD
100
AcDbXrecord
340
0
  0
XRECORD
  5
FC4
102
{ACAD_REACTORS
330
FAD
102
}
330
FAD
100
AcDbXrecord
 10
0.0
 20
0.0
 30
0.0
  0
XRECORD
  5
FC0
102
{ACAD_REACTORS
330
FAD
102
}
330
FAD
100
AcDbXrecord
 10
0.0
 20
0.0
 30
0.0
  0
XRECORD
  5
FC3
102
{ACAD_REACTORS
330
FAD
102
}
330
FAD
100
AcDbXrecord
 10
0.0
 20
0.0
 30
0.0
  0
XRECORD
  5
FC1
102
{ACAD_REACTORS
330
FAD
102
}
330
FAD
100
AcDbXrecord
 10
0.0
 20
0.0
 30
0.0
  0
XRECORD
  5
FC2
102
{ACAD_REACTORS
330
FAD
102
}
330
FAD
100
AcDbXrecord
 10
0.0
 20
0.0
 30
0.0
  0
XRECORD
  5
FBF
102
{ACAD_REACTORS
330
FAD
102
}
330
FAD
100
AcDbXrecord
 10
0.0
 20
0.0
 30
0.0
  0
XRECORD
  5
FBC
102
{ACAD_REACTORS
330
FAD
102
}
330
FAD
100
AcDbXrecord
340
0
  0
XRECORD
  5
FBD
102
{ACAD_REACTORS
330
FAD
102
}
330
FAD
100
AcDbXrecord
 70
     0
  0
XRECORD
  5
FB1
102
{ACAD_REACTORS
330
FAD
102
}
330
FAD
100
AcDbXrecord
  1
big.ctb
  0
XRECORD
  5
FAE
102
{ACAD_REACTORS
330
FAD
102
}
330
FAD
100
AcDbXrecord
 90
        1
  0
XRECORD
  5
FAF
102
{ACAD_REACTORS
330
FAD
102
}
330
FAD
100
AcDbXrecord
 90
       70
  0
XRECORD
  5
FC7
102
{ACAD_REACTORS
330
FAD
102
}
330
FAD
100
AcDbXrecord
340
0
  0
XRECORD
  5
FCD
102
{ACAD_REACTORS
330
FAD
102
}
330
FAD
100
AcDbXrecord
 10
0.0
 20
0.0
 30
0.0
  0
XRECORD
  5
FC9
102
{ACAD_REACTORS
330
FAD
102
}
330
FAD
100
AcDbXrecord
 10
0.0
 20
0.0
 30
0.0
  0
XRECORD
  5
FCC
102
{ACAD_REACTORS
330
FAD
102
}
330
FAD
100
AcDbXrecord
 10
0.0
 20
0.0
 30
0.0
  0
XRECORD
  5
FCA
102
{ACAD_REACTORS
330
FAD
102
}
330
FAD
100
AcDbXrecord
 10
0.0
 20
0.0
 30
0.0
  0
XRECORD
  5
FCB
102
{ACAD_REACTORS
330
FAD
102
}
330
FAD
100
AcDbXrecord
 10
0.0
 20
0.0
 30
0.0
  0
XRECORD
  5
FC8
102
{ACAD_REACTORS
330
FAD
102
}
330
FAD
100
AcDbXrecord
 10
0.0
 20
0.0
 30
0.0
  0
XRECORD
  5
FC5
102
{ACAD_REACTORS
330
FAD
102
}
330
FAD
100
AcDbXrecord
340
0
  0
XRECORD
  5
FC6
102
{ACAD_REACTORS
330
FAD
102
}
330
FAD
100
AcDbXrecord
 70
     0
  0
XRECORD
  5
FB9
102
{ACAD_REACTORS
330
FAD
102
}
330
FAD
100
AcDbXrecord
  1
{D4964446-E2F1-44FB-8A8B-B4A87F0CCBE9}
  0
XRECORD
  5
560
102
{ACAD_REACTORS
330
540
102
}
330
540
100
AcDbXrecord
  1
2.0.0
  0
ENDSEC
  0
EOF
