  0
SECTION
  2
HEADER
  9
$ACADVER
  1
AC1014
  9
$ACADMAINTVER
 70
     9
  9
$DWGCODEPAGE
  3
ANSI_932
  9
$INSBASE
 10
0.0
 20
0.0
 30
0.0
  9
$EXTMIN
 10
-37.77608093
 20
-22.86977955
 30
-0.00152582
  9
$EXTMAX
 10
105.27457877
 20
54.00087597
 30
0.00000003
  9
$LIMMIN
 10
0.0
 20
0.0
  9
$LIMMAX
 10
420.0
 20
297.0
  9
$ORTHOMODE
 70
     1
  9
$REGENMODE
 70
     1
  9
$FILLMODE
 70
     1
  9
$QTEXTMODE
 70
     0
  9
$MIRRTEXT
 70
     1
  9
$DRAGMODE
 70
     2
  9
$LTSCALE
 40
10.0
  9
$OSMODE
 70
   549
  9
$ATTMODE
 70
     1
  9
$TEXTSIZE
 40
3.0
  9
$TRACEWID
 40
1.0
  9
$TEXTSTYLE
  7
YOKO
  9
$CLAYER
  8
245
  9
$CELTYPE
  6
BYLAYER
  9
$CECOLOR
 62
   256
  9
$CELTSCALE
 40
1.0
  9
$DELOBJ
 70
     1
  9
$DISPSILH
 70
     0
  9
$DIMSCALE
 40
1.0
  9
$DIMASZ
 40
2.0
  9
$DIMEXO
 40
2.0
  9
$DIMDLI
 40
2.5
  9
$DIMRND
 40
0.0
  9
$DIMDLE
 40
0.0
  9
$DIMEXE
 40
2.0
  9
$DIMTP
 40
0.0
  9
$DIMTM
 40
0.0
  9
$DIMTXT
 40
4.0
  9
$DIMCEN
 40
0.0
  9
$DIMTSZ
 40
0.0
  9
$DIMTOL
 70
     0
  9
$DIMLIM
 70
     0
  9
$DIMTIH
 70
     0
  9
$DIMTOH
 70
     0
  9
$DIMSE1
 70
     0
  9
$DIMSE2
 70
     0
  9
$DIMTAD
 70
     3
  9
$DIMZIN
 70
     8
  9
$DIMBLK
  1

  9
$DIMASO
 70
     1
  9
$DIMSHO
 70
     1
  9
$DIMPOST
  1

  9
$DIMAPOST
  1

  9
$DIMALT
 70
     0
  9
$DIMALTD
 70
     2
  9
$DIMALTF
 40
25.4
  9
$DIMLFAC
 40
1.0
  9
$DIMTOFL
 70
     1
  9
$DIMTVP
 40
0.0
  9
$DIMTIX
 70
     1
  9
$DIMSOXD
 70
     0
  9
$DIMSAH
 70
     1
  9
$DIMBLK1
  1
OPEN
  9
$DIMBLK2
  1
OPEN
  9
$DIMSTYLE
  2
BIGT
  9
$DIMCLRD
 70
   256
  9
$DIMCLRE
 70
   256
  9
$DIMCLRT
 70
    40
  9
$DIMTFAC
 40
1.0
  9
$DIMGAP
 40
1.0
  9
$DIMJUST
 70
     0
  9
$DIMSD1
 70
     0
  9
$DIMSD2
 70
     0
  9
$DIMTOLJ
 70
     1
  9
$DIMTZIN
 70
     8
  9
$DIMALTZ
 70
     0
  9
$DIMALTTZ
 70
     0
  9
$DIMFIT
 70
     3
  9
$DIMUPT
 70
     0
  9
$DIMUNIT
 70
     2
  9
$DIMDEC
 70
     3
  9
$DIMTDEC
 70
     3
  9
$DIMALTU
 70
     2
  9
$DIMALTTD
 70
     2
  9
$DIMTXSTY
  7
STANDARD
  9
$DIMAUNIT
 70
     0
  9
$LUNITS
 70
     2
  9
$LUPREC
 70
     3
  9
$SKETCHINC
 40
1.0
  9
$FILLETRAD
 40
0.0
  9
$AUNITS
 70
     0
  9
$AUPREC
 70
     3
  9
$MENU
  1
.
  9
$ELEVATION
 40
0.0
  9
$PELEVATION
 40
0.0
  9
$THICKNESS
 40
0.0
  9
$LIMCHECK
 70
     0
  9
$BLIPMODE
 70
     0
  9
$CHAMFERA
 40
10.0
  9
$CHAMFERB
 40
10.0
  9
$CHAMFERC
 40
0.0
  9
$CHAMFERD
 40
0.0
  9
$SKPOLY
 70
     0
  9
$TDCREATE
 40
2455037.692136319
  9
$TDUPDATE
 40
2455324.646419629
  9
$TDINDWG
 40
0.2275325347
  9
$TDUSRTIMER
 40
0.2275319907
  9
$USRTIMER
 70
     1
  9
$ANGBASE
 50
0.0
  9
$ANGDIR
 70
     0
  9
$PDMODE
 70
     1
  9
$PDSIZE
 40
-5.0
  9
$PLINEWID
 40
0.0
  9
$COORDS
 70
     2
  9
$SPLFRAME
 70
     0
  9
$SPLINETYPE
 70
     6
  9
$SPLINESEGS
 70
     8
  9
$ATTDIA
 70
     0
  9
$ATTREQ
 70
     1
  9
$HANDLING
 70
-16383
  9
$HANDSEED
  5
188F
  9
$SURFTAB1
 70
     6
  9
$SURFTAB2
 70
     6
  9
$SURFTYPE
 70
     6
  9
$SURFU
 70
     6
  9
$SURFV
 70
     6
  9
$UCSNAME
  2

  9
$UCSORG
 10
0.0
 20
0.0
 30
0.0
  9
$UCSXDIR
 10
1.0
 20
0.0
 30
0.0
  9
$UCSYDIR
 10
0.0
 20
1.0
 30
0.0
  9
$PUCSNAME
  2

  9
$PUCSORG
 10
0.0
 20
0.0
 30
0.0
  9
$PUCSXDIR
 10
1.0
 20
0.0
 30
0.0
  9
$PUCSYDIR
 10
0.0
 20
1.0
 30
0.0
  9
$USERI1
 70
     1
  9
$USERI2
 70
     0
  9
$USERI3
 70
     0
  9
$USERI4
 70
     0
  9
$USERI5
 70
     0
  9
$USERR1
 40
0.0
  9
$USERR2
 40
0.0
  9
$USERR3
 40
0.0
  9
$USERR4
 40
0.0
  9
$USERR5
 40
0.0
  9
$WORLDVIEW
 70
     1
  9
$SHADEDGE
 70
     3
  9
$SHADEDIF
 70
    70
  9
$TILEMODE
 70
     1
  9
$MAXACTVP
 70
    16
  9
$PINSBASE
 10
0.0
 20
0.0
 30
0.0
  9
$PLIMCHECK
 70
     0
  9
$PEXTMIN
 10
1.00000000E+20
 20
1.00000000E+20
 30
1.00000000E+20
  9
$PEXTMAX
 10
-1.00000000E+20
 20
-1.00000000E+20
 30
-1.00000000E+20
  9
$PLIMMIN
 10
0.0
 20
0.0
  9
$PLIMMAX
 10
420.0
 20
297.0
  9
$UNITMODE
 70
     0
  9
$VISRETAIN
 70
     0
  9
$PLINEGEN
 70
     0
  9
$PSLTSCALE
 70
     1
  9
$TREEDEPTH
 70
  3020
  9
$PICKSTYLE
 70
     0
  9
$CMLSTYLE
  2
STANDARD
  9
$CMLJUST
 70
     0
  9
$CMLSCALE
 40
1.0
  9
$PROXYGRAPHICS
 70
     1
  9
$MEASUREMENT
 70
     1
  0
ENDSEC
  0
SECTION
  2
CLASSES
  0
CLASS
  1
XRECORD
  2
AcDbXrecord
  3
AutoCAD 2000
 90
        0
280
     0
281
     0
  0
CLASS
  1
ACDBDICTIONARYWDFLT
  2
AcDbDictionaryWithDefault
  3
AutoCAD 2000
 90
        0
280
     0
281
     0
  0
CLASS
  1
ACDBPLACEHOLDER
  2
AcDbPlaceHolder
  3
AutoCAD 2000
 90
        0
280
     0
281
     0
  0
CLASS
  1
LAYOUT
  2
AcDbLayout
  3
AutoCAD 2000
 90
        0
280
     0
281
     0
  0
CLASS
  1
PLOTSETTINGS
  2
AcDbPlotSettings
  3
AutoCAD 2000
 90
        0
280
     0
281
     0
  0
CLASS
  1
LONG_TRANSACTION
  2
AcDbLongTransaction
  3
AutoCAD 2000
 90
        0
280
     0
281
     0
  0
CLASS
  1
LWPOLYLINE
  2
AcDbPolyline
  3
AutoCAD 2000
 90
        0
280
     0
281
     1
  0
CLASS
  1
HATCH
  2
AcDbHatch
  3
AutoCAD 2000
 90
        0
280
     0
281
     1
  0
CLASS
  1
XRECORD
  2
AcDbXrecord
  3
AutoCAD 2000
 90
        0
280
     0
281
     0
  0
CLASS
  1
LONG_TRANSACTION
  2
AcDbLongTransaction
  3
AutoCAD 2000
 90
        0
280
     0
281
     0
  0
CLASS
  1
LWPOLYLINE
  2
AcDbPolyline
  3
AutoCAD 2000
 90
        0
280
     0
281
     1
  0
CLASS
  1
HATCH
  2
AcDbHatch
  3
AutoCAD 2000
 90
        0
280
     0
281
     1
  0
CLASS
  1
XRECORD
  2
AcDbXrecord
  3
AutoCAD 2000
 90
        0
280
     0
281
     0
  0
CLASS
  1
LONG_TRANSACTION
  2
AcDbLongTransaction
  3
AutoCAD 2000
 90
        0
280
     0
281
     0
  0
CLASS
  1
LWPOLYLINE
  2
AcDbPolyline
  3
AutoCAD 2000
 90
        0
280
     0
281
     1
  0
CLASS
  1
HATCH
  2
AcDbHatch
  3
AutoCAD 2000
 90
        0
280
     0
281
     1
  0
CLASS
  1
XRECORD
  2
AcDbXrecord
  3
AutoCAD 2000
 90
        0
280
     0
281
     0
  0
CLASS
  1
LONG_TRANSACTION
  2
AcDbLongTransaction
  3
AutoCAD 2000
 90
        0
280
     0
281
     0
  0
CLASS
  1
LWPOLYLINE
  2
AcDbPolyline
  3
AutoCAD 2000
 90
        0
280
     0
281
     1
  0
CLASS
  1
HATCH
  2
AcDbHatch
  3
AutoCAD 2000
 90
        0
280
     0
281
     1
  0
CLASS
  1
XRECORD
  2
AcDbXrecord
  3
AutoCAD 2000
 90
        0
280
     0
281
     0
  0
CLASS
  1
LONG_TRANSACTION
  2
AcDbLongTransaction
  3
AutoCAD 2000
 90
        0
280
     0
281
     0
  0
CLASS
  1
LWPOLYLINE
  2
AcDbPolyline
  3
AutoCAD 2000
 90
        0
280
     0
281
     1
  0
CLASS
  1
HATCH
  2
AcDbHatch
  3
AutoCAD 2000
 90
        0
280
     0
281
     1
  0
CLASS
  1
XRECORD
  2
AcDbXrecord
  3
AutoCAD 2000
 90
        0
280
     0
281
     0
  0
CLASS
  1
LONG_TRANSACTION
  2
AcDbLongTransaction
  3
AutoCAD 2000
 90
        0
280
     0
281
     0
  0
CLASS
  1
LWPOLYLINE
  2
AcDbPolyline
  3
AutoCAD 2000
 90
        0
280
     0
281
     1
  0
CLASS
  1
HATCH
  2
AcDbHatch
  3
AutoCAD 2000
 90
        0
280
     0
281
     1
  0
CLASS
  1
XRECORD
  2
AcDbXrecord
  3
AutoCAD 2000
 90
        0
280
     0
281
     0
  0
CLASS
  1
LONG_TRANSACTION
  2
AcDbLongTransaction
  3
AutoCAD 2000
 90
        0
280
     0
281
     0
  0
CLASS
  1
LWPOLYLINE
  2
AcDbPolyline
  3
AutoCAD 2000
 90
        0
280
     0
281
     1
  0
CLASS
  1
HATCH
  2
AcDbHatch
  3
AutoCAD 2000
 90
        0
280
     0
281
     1
  0
CLASS
  1
XRECORD
  2
AcDbXrecord
  3
AutoCAD 2000
 90
        0
280
     0
281
     0
  0
ENDSEC
  0
SECTION
  2
TABLES
  0
TABLE
  2
VPORT
  5
8
330
0
100
AcDbSymbolTable
 70
     2
  0
VPORT
  5
186A
330
8
100
AcDbSymbolTableRecord
100
AcDbViewportTableRecord
  2
*ACTIVE
 70
     0
 10
0.0
 20
0.0
 11
1.0
 21
1.0
 12
33.74924892
 22
15.56554821
 13
0.0
 23
0.0
 14
7.0
 24
7.0
 15
7.0
 25
7.0
 16
0.0
 26
0.0
 36
1.0
 17
0.0
 27
0.0
 37
0.0
 40
100.43900665
 41
1.43184713
 42
50.0
 43
0.0
 44
0.0
 50
0.0
 51
0.0
 71
     0
 72
  2000
 73
     1
 74
     0
 75
     0
 76
     0
 77
     0
 78
     0
  0
ENDTAB
  0
TABLE
  2
LTYPE
  5
5
330
0
100
AcDbSymbolTable
 70
     3
  0
LTYPE
  5
14
330
5
100
AcDbSymbolTableRecord
100
AcDbLinetypeTableRecord
  2
BYBLOCK
 70
     0
  3

 72
    65
 73
     0
 40
0.0
  0
LTYPE
  5
15
330
5
100
AcDbSymbolTableRecord
100
AcDbLinetypeTableRecord
  2
BYLAYER
 70
     0
  3

 72
    65
 73
     0
 40
0.0
  0
LTYPE
  5
16
330
5
100
AcDbSymbolTableRecord
100
AcDbLinetypeTableRecord
  2
CONTINUOUS
 70
     0
  3
Solid line
 72
    65
 73
     0
 40
0.0
  0
LTYPE
  5
258
330
5
100
AcDbSymbolTableRecord
100
AcDbLinetypeTableRecord
  2
CENTER2
 70
     0
  3
___ _ ___ _ ___ _ ___ _ ___ _ ___ _ ___ _ ___ _
 72
    65
 73
     4
 40
1.125
 49
0.75
 74
     0
 49
-0.125
 74
     0
 49
0.125
 74
     0
 49
-0.125
 74
     0
  0
LTYPE
  5
25C
330
5
100
AcDbSymbolTableRecord
100
AcDbLinetypeTableRecord
  2
HIDDEN2
 70
     0
  3
_ _ _ _ _ _ _ _ _ _ _ _ _ _ _ _ _ _ _ _ _ _ _ _
 72
    65
 73
     2
 40
0.1875
 49
0.125
 74
     0
 49
-0.0625
 74
     0
  0
ENDTAB
  0
TABLE
  2
LAYER
  5
2
330
0
100
AcDbSymbolTable
 70
    10
  0
LAYER
  5
F
330
2
100
AcDbSymbolTableRecord
100
AcDbLayerTableRecord
  2
0
 70
     0
 62
     7
  6
CONTINUOUS
  0
LAYER
  5
1AA
330
2
100
AcDbSymbolTableRecord
100
AcDbLayerTableRecord
  2
240
 70
     0
 62
     4
  6
CONTINUOUS
  0
LAYER
  5
1AB
330
2
100
AcDbSymbolTableRecord
100
AcDbLayerTableRecord
  2
241
 70
     0
 62
   211
  6
CONTINUOUS
  0
LAYER
  5
1AF
330
2
100
AcDbSymbolTableRecord
100
AcDbLayerTableRecord
  2
245
 70
     0
 62
     2
  6
CENTER2
  0
LAYER
  5
21E
330
2
100
AcDbSymbolTableRecord
100
AcDbLayerTableRecord
  2
250
 70
     0
 62
     3
  6
CONTINUOUS
  0
LAYER
  5
21F
330
2
100
AcDbSymbolTableRecord
100
AcDbLayerTableRecord
  2
251
 70
     0
 62
    40
  6
CONTINUOUS
  0
LAYER
  5
5C4
330
2
100
AcDbSymbolTableRecord
100
AcDbLayerTableRecord
  2
DEFPOINTS
 70
     0
 62
     7
  6
CONTINUOUS
  0
LAYER
  5
784
102
{ACAD_XDICTIONARY
360
785
102
}
330
2
100
AcDbSymbolTableRecord
100
AcDbLayerTableRecord
  2
AM_7
 70
     0
 62
     2
  6
CENTER2
  0
ENDTAB
  0
TABLE
  2
STYLE
  5
3
330
0
100
AcDbSymbolTable
 70
     2
  0
STYLE
  5
10
330
3
100
AcDbSymbolTableRecord
100
AcDbTextStyleTableRecord
  2
STANDARD
 70
     0
 40
0.0
 41
1.0
 50
0.0
 71
     0
 42
3.0
  3
romans.shx
  4
BIGFONT.SHX
  0
STYLE
  5
339
330
3
100
AcDbSymbolTableRecord
100
AcDbTextStyleTableRecord
  2
YOKO
 70
     0
 40
0.0
 41
1.0
 50
0.0
 71
     0
 42
3.0
  3
romans.shx
  4
extfont.shx
  0
ENDTAB
  0
TABLE
  2
VIEW
  5
6
330
0
100
AcDbSymbolTable
 70
     1
  0
VIEW
  5
1505
330
6
100
AcDbSymbolTableRecord
100
AcDbViewTableRecord
  2
OLE1
 70
     0
 40
100.43900665
 10
33.74924892
 20
15.56554821
 41
143.8133038
 11
0.0
 21
0.0
 31
1.0
 12
0.0
 22
0.0
 32
0.0
 42
50.0
 43
0.0
 44
0.0
 50
0.0
 71
     0
  0
ENDTAB
  0
TABLE
  2
UCS
  5
7
330
0
100
AcDbSymbolTable
 70
     0
  0
ENDTAB
  0
TABLE
  2
APPID
  5
9
330
0
100
AcDbSymbolTable
 70
    19
  0
APPID
  5
11
330
9
100
AcDbSymbolTableRecord
100
AcDbRegAppTableRecord
  2
ACAD
 70
     0
  0
APPID
  5
1B1
330
9
100
AcDbSymbolTableRecord
100
AcDbRegAppTableRecord
  2
GLOBAL
 70
     0
  0
APPID
  5
2A4
330
9
100
AcDbSymbolTableRecord
100
AcDbRegAppTableRecord
  2
DETAIL
 70
     0
  0
APPID
  5
5FD
330
9
100
AcDbSymbolTableRecord
100
AcDbRegAppTableRecord
  2
GRPNAME
 70
     0
  0
APPID
  5
5FE
330
9
100
AcDbSymbolTableRecord
100
AcDbRegAppTableRecord
  2
GPARA
 70
     0
  0
APPID
  5
6C4
330
9
100
AcDbSymbolTableRecord
100
AcDbRegAppTableRecord
  2
DCO15
 70
     0
  0
APPID
  5
6C5
330
9
100
AcDbSymbolTableRecord
100
AcDbRegAppTableRecord
  2
ITEMNAME
 70
     0
  0
APPID
  5
6C6
330
9
100
AcDbSymbolTableRecord
100
AcDbRegAppTableRecord
  2
GRADE_0
 70
     0
  0
APPID
  5
788
330
9
100
AcDbSymbolTableRecord
100
AcDbRegAppTableRecord
  2
GENIUS_GENODEF_13
 70
     0
  0
APPID
  5
789
330
9
100
AcDbSymbolTableRecord
100
AcDbRegAppTableRecord
  2
GENIUS_GENOREF_13
 70
     0
  0
APPID
  5
78A
330
9
100
AcDbSymbolTableRecord
100
AcDbRegAppTableRecord
  2
GENIUS_GENOBJ-N-FIL_13
 70
     0
  0
APPID
  5
78B
330
9
100
AcDbSymbolTableRecord
100
AcDbRegAppTableRecord
  2
GENIUS_GENFIL_13
 70
     0
  0
APPID
  5
78C
330
9
100
AcDbSymbolTableRecord
100
AcDbRegAppTableRecord
  2
GENIUS_GENOBJ-N-CHA_13
 70
     0
  0
APPID
  5
A23
330
9
100
AcDbSymbolTableRecord
100
AcDbRegAppTableRecord
  2
HATCH_TYPE
 70
     0
  0
APPID
  5
A24
330
9
100
AcDbSymbolTableRecord
100
AcDbRegAppTableRecord
  2
HATCH_DISPLAY
 70
     0
  0
APPID
  5
A25
330
9
100
AcDbSymbolTableRecord
100
AcDbRegAppTableRecord
  2
HATCH_DISTANCE
 70
     0
  0
APPID
  5
C91
330
9
100
AcDbSymbolTableRecord
100
AcDbRegAppTableRecord
  2
GENIUS_GENOBJ-N-CEN_13
 70
     0
  0
APPID
  5
C92
330
9
100
AcDbSymbolTableRecord
100
AcDbRegAppTableRecord
  2
ACAD_PSEXT
 70
     0
  0
APPID
  5
F76
330
9
100
AcDbSymbolTableRecord
100
AcDbRegAppTableRecord
  2
CONTENTBLOCKICON
 70
     0
  0
ENDTAB
  0
TABLE
  2
DIMSTYLE
  5
A
330
0
100
AcDbSymbolTable
 70
     4
  0
DIMSTYLE
105
725
102
{ACAD_REACTORS
330
A37
330
E4A
102
}
330
A
100
AcDbSymbolTableRecord
100
AcDbDimStyleTableRecord
  2
BIGT
 70
     0
  3

  4

  5

  6
OPEN
  7
OPEN
 40
1.0
 41
2.23
 42
0.5
 43
2.5
 44
1.0
 45
0.0
 46
0.0
 47
0.0
 48
0.0
140
2.8
141
0.0
142
0.0
143
25.4
144
1.0
145
0.0
146
1.0
147
1.0
 71
     0
 72
     0
 73
     0
 74
     0
 75
     0
 76
     0
 77
     3
 78
     8
170
     0
171
     2
172
     1
173
     1
174
     1
175
     0
176
   256
177
   256
178
    40
270
     2
271
     3
272
     3
273
     2
274
     2
340
10
275
     0
280
     0
281
     0
282
     0
283
     1
284
     8
285
     0
286
     0
287
     3
288
     0
  0
ENDTAB
  0
TABLE
  2
BLOCK_RECORD
  5
1
330
0
100
AcDbSymbolTable
 70
     6
  0
BLOCK_RECORD
  5
1A
102
{ACAD_XDICTIONARY
360
F74
102
}
330
1
100
AcDbSymbolTableRecord
100
AcDbBlockTableRecord
  2
*MODEL_SPACE
  0
BLOCK_RECORD
  5
17
102
{ACAD_XDICTIONARY
360
F72
102
}
330
1
100
AcDbSymbolTableRecord
100
AcDbBlockTableRecord
  2
*PAPER_SPACE
  0
BLOCK_RECORD
  5
594
330
1
100
AcDbSymbolTableRecord
100
AcDbBlockTableRecord
  2
_OPEN
  0
BLOCK_RECORD
  5
6E3
330
1
100
AcDbSymbolTableRecord
100
AcDbBlockTableRecord
  2
矢印なし
  0
BLOCK_RECORD
  5
8F7
330
1
100
AcDbSymbolTableRecord
100
AcDbBlockTableRecord
  2
1
1001
CONTENTBLOCKICON
1071
        0
1004
2800000020000000200000000100080000000000000400000000000000000000000000000000000000000000000080000080000000808000800000008000800080800000C0C0C000C0DCC000F0CAA6000020400000206000002080000020A0000020C0000020E00000400000004020000040400000406000004080000040A0
1004
000040C0000040E00000600000006020000060400000606000006080000060A0000060C0000060E00000800000008020000080400000806000008080000080A0000080C0000080E00000A0000000A0200000A0400000A0600000A0800000A0A00000A0C00000A0E00000C0000000C0200000C0400000C0600000C0800000C0
1004
A00000C0C00000C0E00000E0000000E0200000E0400000E0600000E0800000E0A00000E0C00000E0E00040000000400020004000400040006000400080004000A0004000C0004000E00040200000402020004020400040206000402080004020A0004020C0004020E000404000004040200040404000404060004040800040
1004
40A0004040C0004040E00040600000406020004060400040606000406080004060A0004060C0004060E00040800000408020004080400040806000408080004080A0004080C0004080E00040A0000040A0200040A0400040A0600040A0800040A0A00040A0C00040A0E00040C0000040C0200040C0400040C0600040C08000
1004
40C0A00040C0C00040C0E00040E0000040E0200040E0400040E0600040E0800040E0A00040E0C00040E0E00080000000800020008000400080006000800080008000A0008000C0008000E00080200000802020008020400080206000802080008020A0008020C0008020E00080400000804020008040400080406000804080
1004
008040A0008040C0008040E00080600000806020008060400080606000806080008060A0008060C0008060E00080800000808020008080400080806000808080008080A0008080C0008080E00080A0000080A0200080A0400080A0600080A0800080A0A00080A0C00080A0E00080C0000080C0200080C0400080C0600080C0
1004
800080C0A00080C0C00080C0E00080E0000080E0200080E0400080E0600080E0800080E0A00080E0C00080E0E000C0000000C0002000C0004000C0006000C0008000C000A000C000C000C000E000C0200000C0202000C0204000C0206000C0208000C020A000C020C000C020E000C0400000C0402000C0404000C0406000C0
1004
408000C040A000C040C000C040E000C0600000C0602000C0604000C0606000C0608000C060A000C060C000C060E000C0800000C0802000C0804000C0806000C0808000C080A000C080C000C080E000C0A00000C0A02000C0A04000C0A06000C0A08000C0A0A000C0A0C000C0A0E000C0C00000C0C02000C0C04000C0C06000
1004
C0C08000C0C0A000F0FBFF00A4A0A000808080000000FF0000FF000000FFFF00FF000000FF00FF00FFFF0000FFFFFF0000000000000000000000000000000000000000000000000000000000000000000000000000000000000000000000000000000000000000000000000000000000000000000000000000000000000000
1004
00000000000000000000000000000000000000000000000000000000000000000000000000000000000000000000000000000000000000000000000000000000000000000000000000000000000000000000000000000000000000000000000000000000000000000000000000000000000000000000000000000000000000
1004
00000000000000000000000000000000000000000000000000000000000000000000000000000000000000000000000000000000000000000000000000000000000000000000000000000000000000000000000000000000000000000000000000000000000000000000000000000000000000000000000000FEFEFEFEFEFE
1004
00000000FEFEFEFEFEFEFEFEFEFEFEFE00000000000000000000FE00E7E7FEE7FEFEFEFEE700000000E7E700E700E700FE00000000FEFEFEFEFEFE00E7E7E7E7000000E7E700000000E7E700E700E700FE00000000FE000000E7E7000000E7E7000000E7E700000000E7E700E700E700FE00000000FEE70000E7E70000E7E7
1004
E7000000E7E700E7FBE7E7E700E700E700FE0000000000FE00FBE7E700E700FBE7000000E7E7E7E7FB00E7E700E700E700FE000000FBFBE7FBFBE7E7FBE7FBFBE7FBFBFBE7E7E7E7FBFBE7E7FBE7FBE7FBFEFB000000E7E70000E7E70000E7E7E7000000E7E700E7FBE7E7E700E700E700FE00000000FE000000E7E7000000
1004
E7E7000000E7E700000000E7E700E700E700FE00000000FEFEFEFEFEFE000000E7E7000000E7E700000000E7E700E700E700FE000000000000000000FE000000FEFEFEFEFEFEE700000000E7E700E700E700FE000000000000000000FEFEFEFEFEFE00000000FEFEFEFEFEFEFEFEFEFEFEFE00000000000000000000000000
1004
00000000000000000000000000000000000000000000000000000000000000000000000000000000000000000000000000000000000000000000000000000000000000000000000000000000000000000000000000000000000000000000000000000000000000000000000000000000000000000000000000000000000000
1004
00000000000000000000000000000000000000000000000000000000000000000000000000000000000000000000000000000000000000000000000000000000000000000000000000000000000000000000000000000000000000000000000000000000000000000000000000000000000000000000000000000000000000
1004
0000000000000000000000000000000000000000000000000000000000000000000000000000000000000000000000000000000000000000
  0
BLOCK_RECORD
  5
A42
330
1
100
AcDbSymbolTableRecord
100
AcDbBlockTableRecord
  2
*D3
  0
BLOCK_RECORD
  5
E57
330
1
100
AcDbSymbolTableRecord
100
AcDbBlockTableRecord
  2
*D4
  0
ENDTAB
  0
ENDSEC
  0
SECTION
  2
BLOCKS
  0
BLOCK
  5
1B
330
1A
100
AcDbEntity
  8
0
100
AcDbBlockBegin
  2
*MODEL_SPACE
 70
     0
 10
0.0
 20
0.0
 30
0.0
  3
*MODEL_SPACE
  1

  0
ENDBLK
  5
1C
330
1A
100
AcDbEntity
  8
0
100
AcDbBlockEnd
  0
BLOCK
  5
18
330
17
100
AcDbEntity
 67
     1
  8
0
100
AcDbBlockBegin
  2
*PAPER_SPACE
 70
     0
 10
0.0
 20
0.0
 30
0.0
  3
*PAPER_SPACE
  1

  0
ENDBLK
  5
19
330
17
100
AcDbEntity
 67
     1
  8
0
100
AcDbBlockEnd
  0
BLOCK
  5
598
330
594
100
AcDbEntity
  8
0
100
AcDbBlockBegin
  2
_OPEN
 70
     0
 10
0.0
 20
0.0
 30
0.0
  3
_OPEN
  1

  0
LINE
  5
595
330
594
100
AcDbEntity
  8
0
  6
BYBLOCK
 62
     0
100
AcDbLine
 10
-1.0
 20
0.16666667
 30
0.0
 11
0.0
 21
0.0
 31
0.0
  0
LINE
  5
596
330
594
100
AcDbEntity
  8
0
  6
BYBLOCK
 62
     0
100
AcDbLine
 10
-1.0
 20
-0.16666667
 30
0.0
 11
0.0
 21
0.0
 31
0.0
  0
LINE
  5
597
330
594
100
AcDbEntity
  8
0
  6
BYBLOCK
 62
     0
100
AcDbLine
 10
0.0
 20
0.0
 30
0.0
 11
-1.0
 21
0.0
 31
0.0
  0
ENDBLK
  5
599
330
594
100
AcDbEntity
  8
0
100
AcDbBlockEnd
  0
BLOCK
  5
6E4
330
6E3
100
AcDbEntity
  8
0
100
AcDbBlockBegin
  2
矢印なし
 70
     0
 10
0.0
 20
0.0
 30
0.0
  3
矢印なし
  1

  0
ENDBLK
  5
6E5
330
6E3
100
AcDbEntity
  8
0
100
AcDbBlockEnd
  0
BLOCK
  5
981
330
8F7
100
AcDbEntity
  8
0
100
AcDbBlockBegin
  2
1
 70
     0
 10
0.0
 20
0.0
 30
0.0
  3
1
  1

  0
LINE
  5
17EE
330
8F7
100
AcDbEntity
  8
240
100
AcDbLine
 10
39.11421356
 20
-20.5
 30
0.0
 11
57.4
 21
-20.5
 31
0.0
  0
LINE
  5
17EF
330
8F7
100
AcDbEntity
  8
240
100
AcDbLine
 10
39.11421356
 20
20.5
 30
0.0
 11
57.4
 21
20.5
 31
0.0
  0
LINE
  5
17F0
330
8F7
100
AcDbEntity
  8
245
  6
CENTER2
100
AcDbLine
 10
86.0
 20
0.0
 30
0.0
 11
-21.0
 21
0.0
 31
0.0
  0
CIRCLE
  5
17F1
330
8F7
100
AcDbEntity
  8
241
100
AcDbCircle
 10
50.0
 20
0.0
 30
0.0
 40
6.5
  0
ARC
  5
17F2
330
8F7
100
AcDbEntity
  8
241
  6
CONTINUOUS
100
AcDbCircle
 10
12.47213595
 20
-16.5
 30
0.0
 40
4.5
100
AcDbArc
 50
90.0
 51
173.62062979
1001
GRPNAME
1000
PASTMD0J
  0
LINE
  5
17F3
330
8F7
100
AcDbEntity
  8
241
  6
CONTINUOUS
100
AcDbLine
 10
15.0
 20
-12.6
 30
0.0
 11
15.0
 21
-17.4
 31
0.0
1001
GRPNAME
1000
PASTMD0J
  0
LINE
  5
17F4
330
8F7
100
AcDbEntity
  8
241
  6
CONTINUOUS
100
AcDbLine
 10
17.0
 20
-12.6
 30
0.0
 11
17.0
 21
-17.4
 31
0.0
1001
GRPNAME
1000
PASTMD0J
  0
LINE
  5
17F5
330
8F7
100
AcDbEntity
  8
241
100
AcDbLine
 10
-2.0
 20
-15.1
 30
0.0
 11
-2.0
 21
0.0
 31
0.0
  0
LINE
  5
17F6
330
8F7
100
AcDbEntity
  8
245
  6
CENTER2
100
AcDbLine
 10
16.0
 20
-20.0
 30
0.0
 11
16.0
 21
20.0
 31
0.0
1001
GRPNAME
1000
PASTMD0J
  0
LINE
  5
17F7
330
8F7
100
AcDbEntity
  8
241
  6
CONTINUOUS
100
AcDbLine
 10
0.0
 20
-15.1
 30
0.0
 11
0.0
 21
0.0
 31
0.0
1001
GRPNAME
1000
PASTMD0J
  0
LINE
  5
17F8
330
8F7
100
AcDbEntity
  8
241
100
AcDbLine
 10
20.0
 20
-16.8
 30
0.0
 11
20.0
 21
0.0
 31
0.0
  0
LINE
  5
17F9
330
8F7
100
AcDbEntity
  8
240
  6
CONTINUOUS
100
AcDbLine
 10
-20.0
 20
-13.43900062
 30
0.0
 11
-20.0
 21
-4.825
 31
0.0
1001
GRPNAME
1000
PASTMD0J
  0
LINE
  5
17FA
330
8F7
100
AcDbEntity
  8
241
100
AcDbLine
 10
38.7
 20
-20.41017972
 30
0.0
 11
38.7
 21
0.0
 31
0.0
  0
LINE
  5
17FB
330
8F7
100
AcDbEntity
  8
241
100
AcDbLine
 10
35.0
 20
-16.8
 30
0.0
 11
35.0
 21
0.0
 31
0.0
  0
LINE
  5
17FC
330
8F7
100
AcDbEntity
  8
241
  6
CONTINUOUS
100
AcDbLine
 10
8.0
 20
-16.0
 30
0.0
 11
13.97927406
 21
-16.0
 31
0.0
1001
GRPNAME
1000
PASTMD0J
  0
LINE
  5
17FD
330
8F7
100
AcDbEntity
  8
240
  6
CONTINUOUS
100
AcDbLine
 10
0.0
 20
-20.0
 30
0.0
 11
13.97927406
 21
-20.0
 31
0.0
1001
GRPNAME
1000
PASTMD0J
  0
LINE
  5
17FE
330
8F7
100
AcDbEntity
  8
240
  6
CONTINUOUS
100
AcDbLine
 10
-2.0
 20
-15.1
 30
0.0
 11
-19.23995009
 21
-14.2380025
 31
0.0
1001
GRPNAME
1000
PASTMD0J
  0
ARC
  5
17FF
330
8F7
100
AcDbEntity
  8
240
  6
CONTINUOUS
100
AcDbCircle
 10
-19.2
 20
-13.43900062
 30
0.0
 40
0.8000000000000111
100
AcDbArc
 50
179.99999999
 51
267.13759477
1001
GRPNAME
1000
PASTMD0J
  0
LINE
  5
1800
330
8F7
100
AcDbEntity
  8
240
  6
CONTINUOUS
100
AcDbLine
 10
0.0
 20
-20.0
 30
0.0
 11
0.0
 21
-15.1
 31
0.0
1001
GRPNAME
1000
PASTMD0J
  0
LINE
  5
1801
330
8F7
100
AcDbEntity
  8
240
100
AcDbLine
 10
-2.0
 20
-15.1
 30
0.0
 11
0.0
 21
-15.1
 31
0.0
  0
LINE
  5
1802
330
8F7
100
AcDbEntity
  8
240
100
AcDbLine
 10
20.0
 20
-16.8
 30
0.0
 11
35.0
 21
-16.8
 31
0.0
  0
LINE
  5
1803
330
8F7
100
AcDbEntity
  8
241
  6
CONTINUOUS
100
AcDbLine
 10
18.02072594
 20
-20.0
 30
0.0
 11
18.02072594
 21
-16.0
 31
0.0
1001
GRPNAME
1000
PASTMD0J
  0
LINE
  5
1804
330
8F7
100
AcDbEntity
  8
240
  6
CONTINUOUS
100
AcDbLine
 10
17.0
 20
-18.23205081
 30
0.0
 11
18.02072594
 21
-20.0
 31
0.0
1001
GRPNAME
1000
PASTMD0J
  0
LINE
  5
1805
330
8F7
100
AcDbEntity
  8
240
  6
CONTINUOUS
100
AcDbLine
 10
20.0
 20
-16.8
 30
0.0
 11
20.0
 21
-20.0
 31
0.0
1001
GRPNAME
1000
PASTMD0J
  0
LINE
  5
1806
330
8F7
100
AcDbEntity
  8
241
  6
CONTINUOUS
100
AcDbLine
 10
13.97927406
 20
-20.0
 30
0.0
 11
13.97927406
 21
-16.0
 31
0.0
1001
GRPNAME
1000
PASTMD0J
  0
LINE
  5
1807
330
8F7
100
AcDbEntity
  8
240
  6
CONTINUOUS
100
AcDbLine
 10
15.0
 20
-18.23205081
 30
0.0
 11
13.97927406
 21
-20.0
 31
0.0
1001
GRPNAME
1000
PASTMD0J
  0
LINE
  5
1808
330
8F7
100
AcDbEntity
  8
240
  6
CONTINUOUS
100
AcDbLine
 10
18.02072594
 20
-20.0
 30
0.0
 11
20.0
 21
-20.0
 31
0.0
1001
GRPNAME
1000
PASTMD0J
  0
LINE
  5
1809
330
8F7
100
AcDbEntity
  8
240
  6
CONTINUOUS
100
AcDbLine
 10
15.0
 20
-17.4
 30
0.0
 11
17.0
 21
-17.4
 31
0.0
1001
GRPNAME
1000
PASTMD0J
  0
LINE
  5
180A
330
8F7
100
AcDbEntity
  8
240
  6
CONTINUOUS
100
AcDbLine
 10
15.0
 20
-17.4
 30
0.0
 11
15.0
 21
-18.23205081
 31
0.0
1001
GRPNAME
1000
PASTMD0J
  0
LINE
  5
180B
330
8F7
100
AcDbEntity
  8
241
  6
CONTINUOUS
100
AcDbLine
 10
15.0
 20
-13.72616759
 30
0.0
 11
13.97927406
 21
-16.0
 31
0.0
1001
GRPNAME
1000
PASTMD0J
  0
LINE
  5
180C
330
8F7
100
AcDbEntity
  8
240
  6
CONTINUOUS
100
AcDbLine
 10
17.0
 20
-18.23205081
 30
0.0
 11
17.0
 21
-17.4
 31
0.0
1001
GRPNAME
1000
PASTMD0J
  0
LINE
  5
180D
330
8F7
100
AcDbEntity
  8
241
  6
CONTINUOUS
100
AcDbLine
 10
18.02072594
 20
-16.0
 30
0.0
 11
20.0
 21
-16.0
 31
0.0
1001
GRPNAME
1000
PASTMD0J
  0
LINE
  5
180E
330
8F7
100
AcDbEntity
  8
241
  6
CONTINUOUS
100
AcDbLine
 10
18.02072594
 20
-16.0
 30
0.0
 11
17.0
 21
-13.72616759
 31
0.0
1001
GRPNAME
1000
PASTMD0J
  0
LINE
  5
180F
330
8F7
100
AcDbEntity
  8
240
100
AcDbLine
 10
35.0
 20
-16.8
 30
0.0
 11
38.40710678
 21
-20.20710678
 31
0.0
  0
ARC
  5
1810
330
8F7
100
AcDbEntity
  8
240
100
AcDbCircle
 10
39.11421356
 20
-19.5
 30
0.0
 40
1.0
100
AcDbArc
 50
225.0
 51
270.0
1001
GENIUS_GENOREF_13
1005
0
  0
ARC
  5
1811
330
8F7
100
AcDbEntity
  8
241
  6
CONTINUOUS
100
AcDbCircle
 10
12.5
 20
0.0
 30
0.0
 40
4.5
100
AcDbArc
 50
90.00000001
 51
180.00000001
1001
GRPNAME
1000
PASTMD0J
  0
ARC
  5
1812
330
8F7
100
AcDbEntity
  8
241
  6
CONTINUOUS
100
AcDbCircle
 10
12.5
 20
0.0
 30
0.0
 40
4.5
100
AcDbArc
 50
179.99999999
 51
269.99999999
1001
GRPNAME
1000
PASTMD0J
  0
LINE
  5
1813
330
8F7
100
AcDbEntity
  8
240
  6
CONTINUOUS
100
AcDbLine
 10
0.0
 20
20.0
 30
0.0
 11
13.97927406
 21
20.0
 31
0.0
1001
GRPNAME
1000
PASTMD0J
  0
LINE
  5
1814
330
8F7
100
AcDbEntity
  8
241
100
AcDbLine
 10
-2.0
 20
15.1
 30
0.0
 11
-2.0
 21
0.0
 31
0.0
  0
LINE
  5
1815
330
8F7
100
AcDbEntity
  8
241
  6
CONTINUOUS
100
AcDbLine
 10
0.0
 20
15.1
 30
0.0
 11
0.0
 21
0.0
 31
0.0
1001
GRPNAME
1000
PASTMD0J
  0
LINE
  5
1816
330
8F7
100
AcDbEntity
  8
240
  6
CONTINUOUS
100
AcDbLine
 10
-20.0
 20
4.825
 30
0.0
 11
-20.0
 21
13.43900062
 31
0.0
1001
GRPNAME
1000
PASTMD0J
  0
CIRCLE
  5
1817
330
8F7
100
AcDbEntity
  8
241
  6
CONTINUOUS
100
AcDbCircle
 10
-6.0
 20
0.0
 30
0.0
 40
2.299999999999998
1001
GRPNAME
1000
PASTMD0J
  0
LINE
  5
1818
330
8F7
100
AcDbEntity
  8
245
  6
CENTER2
100
AcDbLine
 10
-6.0
 20
-3.3
 30
0.0
 11
-6.0
 21
3.3
 31
0.0
1001
GRPNAME
1000
PASTMD0J
  0
LINE
  5
1819
330
8F7
100
AcDbEntity
  8
241
  6
HIDDEN2
100
AcDbLine
 10
-14.0
 20
-3.025
 30
0.0
 11
-14.0
 21
0.0
 31
0.0
1001
GRPNAME
1000
PASTMD0J
  0
LINE
  5
181A
330
8F7
100
AcDbEntity
  8
240
  6
CONTINUOUS
100
AcDbLine
 10
-16.5
 20
-3.025
 30
0.0
 11
-16.5
 21
0.0
 31
0.0
1001
GRPNAME
1000
PASTMD0J
  0
ARC
  5
181B
330
8F7
100
AcDbEntity
  8
241
  6
HIDDEN2
100
AcDbCircle
 10
-15.0
 20
-3.025
 30
0.0
 40
1.0
100
AcDbArc
 50
269.99999999
 51
359.99999999
1001
GRPNAME
1000
PASTMD0J
  0
LINE
  5
181C
330
8F7
100
AcDbEntity
  8
240
  6
CONTINUOUS
100
AcDbLine
 10
-19.2
 20
-4.025
 30
0.0
 11
-17.5
 21
-4.025
 31
0.0
1001
GRPNAME
1000
PASTMD0J
  0
LINE
  5
181D
330
8F7
100
AcDbEntity
  8
240
  6
CONTINUOUS
100
AcDbLine
 10
-20.0
 20
-4.825
 30
0.0
 11
-19.2
 21
-4.025
 31
0.0
1001
GRPNAME
1000
PASTMD0J
  0
LINE
  5
181E
330
8F7
100
AcDbEntity
  8
241
  6
HIDDEN2
100
AcDbLine
 10
-17.5
 20
-4.025
 30
0.0
 11
-15.0
 21
-4.025
 31
0.0
1001
GRPNAME
1000
PASTMD0J
  0
ARC
  5
181F
330
8F7
100
AcDbEntity
  8
240
  6
CONTINUOUS
100
AcDbCircle
 10
-17.5
 20
-3.025
 30
0.0
 40
1.0
100
AcDbArc
 50
269.99999999
 51
359.99999999
1001
GRPNAME
1000
PASTMD0J
  0
ARC
  5
1820
330
8F7
100
AcDbEntity
  8
241
  6
HIDDEN2
100
AcDbCircle
 10
-15.0
 20
3.025
 30
0.0
 40
1.0
100
AcDbArc
 50
0.0
 51
90.0
1001
GRPNAME
1000
PASTMD0J
  0
LINE
  5
1821
330
8F7
100
AcDbEntity
  8
240
  6
CONTINUOUS
100
AcDbLine
 10
-19.2
 20
4.025
 30
0.0
 11
-17.5
 21
4.025
 31
0.0
1001
GRPNAME
1000
PASTMD0J
  0
LINE
  5
1822
330
8F7
100
AcDbEntity
  8
240
  6
CONTINUOUS
100
AcDbLine
 10
-19.2
 20
4.025
 30
0.0
 11
-20.0
 21
4.825
 31
0.0
1001
GRPNAME
1000
PASTMD0J
  0
ARC
  5
1823
330
8F7
100
AcDbEntity
  8
240
  6
CONTINUOUS
100
AcDbCircle
 10
-17.5
 20
3.025
 30
0.0
 40
1.0
100
AcDbArc
 50
0.0
 51
90.0
1001
GRPNAME
1000
PASTMD0J
  0
LINE
  5
1824
330
8F7
100
AcDbEntity
  8
241
  6
HIDDEN2
100
AcDbLine
 10
-17.5
 20
4.025
 30
0.0
 11
-15.0
 21
4.025
 31
0.0
1001
GRPNAME
1000
PASTMD0J
  0
LINE
  5
1825
330
8F7
100
AcDbEntity
  8
240
  6
CONTINUOUS
100
AcDbLine
 10
-16.5
 20
3.025
 30
0.0
 11
-16.5
 21
0.0
 31
0.0
1001
GRPNAME
1000
PASTMD0J
  0
LINE
  5
1826
330
8F7
100
AcDbEntity
  8
241
  6
HIDDEN2
100
AcDbLine
 10
-14.0
 20
3.025
 30
0.0
 11
-14.0
 21
0.0
 31
0.0
1001
GRPNAME
1000
PASTMD0J
  0
LINE
  5
1827
330
8F7
100
AcDbEntity
  8
240
  6
CONTINUOUS
100
AcDbLine
 10
-2.0
 20
15.1
 30
0.0
 11
-19.23995009
 21
14.2380025
 31
0.0
1001
GRPNAME
1000
PASTMD0J
  0
ARC
  5
1828
330
8F7
100
AcDbEntity
  8
240
  6
CONTINUOUS
100
AcDbCircle
 10
-19.2
 20
13.43900062
 30
0.0
 40
0.8000000000000191
100
AcDbArc
 50
92.86240523
 51
180.0
1001
GRPNAME
1000
PASTMD0J
  0
LINE
  5
1829
330
8F7
100
AcDbEntity
  8
240
  6
CONTINUOUS
100
AcDbLine
 10
0.0
 20
15.1
 30
0.0
 11
0.0
 21
20.0
 31
0.0
1001
GRPNAME
1000
PASTMD0J
  0
LINE
  5
182A
330
8F7
100
AcDbEntity
  8
240
100
AcDbLine
 10
-2.0
 20
15.1
 30
0.0
 11
0.0
 21
15.1
 31
0.0
  0
LINE
  5
182B
330
8F7
100
AcDbEntity
  8
241
100
AcDbLine
 10
20.0
 20
16.8
 30
0.0
 11
20.0
 21
0.0
 31
0.0
  0
LINE
  5
182C
330
8F7
100
AcDbEntity
  8
241
  6
CONTINUOUS
100
AcDbLine
 10
15.0
 20
4.5
 30
0.0
 11
15.0
 21
17.4
 31
0.0
1001
GRPNAME
1000
PASTMD0J
  0
LINE
  5
182D
330
8F7
100
AcDbEntity
  8
241
  6
CONTINUOUS
100
AcDbLine
 10
17.0
 20
4.5
 30
0.0
 11
17.0
 21
17.4
 31
0.0
1001
GRPNAME
1000
PASTMD0J
  0
LINE
  5
182E
330
8F7
100
AcDbEntity
  8
241
  6
CONTINUOUS
100
AcDbLine
 10
13.97927406
 20
4.5
 30
0.0
 11
13.97927406
 21
20.0
 31
0.0
1001
GRPNAME
1000
PASTMD0J
  0
LINE
  5
182F
330
8F7
100
AcDbEntity
  8
241
  6
CONTINUOUS
100
AcDbLine
 10
18.02072594
 20
4.5
 30
0.0
 11
18.02072594
 21
20.0
 31
0.0
1001
GRPNAME
1000
PASTMD0J
  0
LINE
  5
1830
330
8F7
100
AcDbEntity
  8
241
100
AcDbLine
 10
35.0
 20
16.8
 30
0.0
 11
35.0
 21
0.0
 31
0.0
  0
LINE
  5
1831
330
8F7
100
AcDbEntity
  8
241
100
AcDbLine
 10
38.7
 20
20.41017972
 30
0.0
 11
38.7
 21
0.0
 31
0.0
  0
LINE
  5
1832
330
8F7
100
AcDbEntity
  8
241
  6
CONTINUOUS
100
AcDbLine
 10
18.02072594
 20
-12.0
 30
0.0
 11
18.02072594
 21
-4.5
 31
0.0
1001
GRPNAME
1000
PASTMD0J
  0
LINE
  5
1833
330
8F7
100
AcDbEntity
  8
241
  6
CONTINUOUS
100
AcDbLine
 10
13.97927406
 20
-12.0
 30
0.0
 11
13.97927406
 21
-4.5
 31
0.0
1001
GRPNAME
1000
PASTMD0J
  0
LINE
  5
1834
330
8F7
100
AcDbEntity
  8
241
  6
CONTINUOUS
100
AcDbLine
 10
17.0
 20
-4.5
 30
0.0
 11
17.0
 21
-12.0
 31
0.0
1001
GRPNAME
1000
PASTMD0J
  0
LINE
  5
1835
330
8F7
100
AcDbEntity
  8
241
  6
CONTINUOUS
100
AcDbLine
 10
15.0
 20
-4.5
 30
0.0
 11
15.0
 21
-12.0
 31
0.0
1001
GRPNAME
1000
PASTMD0J
  0
LINE
  5
1836
330
8F7
100
AcDbEntity
  8
241
  6
CONTINUOUS
100
AcDbLine
 10
12.47213595
 20
-12.0
 30
0.0
 11
20.0
 21
-12.0
 31
0.0
1001
GRPNAME
1000
PASTMD0J
  0
LINE
  5
1837
330
8F7
100
AcDbEntity
  8
241
  6
CONTINUOUS
100
AcDbLine
 10
15.0
 20
-12.6
 30
0.0
 11
17.0
 21
-12.6
 31
0.0
1001
GRPNAME
1000
PASTMD0J
  0
LINE
  5
1838
330
8F7
100
AcDbEntity
  8
241
  6
CONTINUOUS
100
AcDbLine
 10
12.5
 20
-4.5
 30
0.0
 11
20.0
 21
-4.5
 31
0.0
1001
GRPNAME
1000
PASTMD0J
  0
LINE
  5
1839
330
8F7
100
AcDbEntity
  8
241
  6
CONTINUOUS
100
AcDbLine
 10
12.5
 20
4.5
 30
0.0
 11
20.0
 21
4.5
 31
0.0
1001
GRPNAME
1000
PASTMD0J
  0
LINE
  5
183A
330
8F7
100
AcDbEntity
  8
240
100
AcDbLine
 10
20.0
 20
16.8
 30
0.0
 11
35.0
 21
16.8
 31
0.0
  0
LINE
  5
183B
330
8F7
100
AcDbEntity
  8
240
  6
CONTINUOUS
100
AcDbLine
 10
20.0
 20
16.8
 30
0.0
 11
20.0
 21
20.0
 31
0.0
1001
GRPNAME
1000
PASTMD0J
  0
LINE
  5
183C
330
8F7
100
AcDbEntity
  8
240
  6
CONTINUOUS
100
AcDbLine
 10
15.0
 20
18.23205081
 30
0.0
 11
13.97927406
 21
20.0
 31
0.0
1001
GRPNAME
1000
PASTMD0J
  0
LINE
  5
183D
330
8F7
100
AcDbEntity
  8
240
  6
CONTINUOUS
100
AcDbLine
 10
17.0
 20
18.23205081
 30
0.0
 11
18.02072594
 21
20.0
 31
0.0
1001
GRPNAME
1000
PASTMD0J
  0
LINE
  5
183E
330
8F7
100
AcDbEntity
  8
240
  6
CONTINUOUS
100
AcDbLine
 10
15.0
 20
17.4
 30
0.0
 11
17.0
 21
17.4
 31
0.0
1001
GRPNAME
1000
PASTMD0J
  0
LINE
  5
183F
330
8F7
100
AcDbEntity
  8
240
  6
CONTINUOUS
100
AcDbLine
 10
15.0
 20
17.4
 30
0.0
 11
15.0
 21
18.23205081
 31
0.0
1001
GRPNAME
1000
PASTMD0J
  0
LINE
  5
1840
330
8F7
100
AcDbEntity
  8
240
  6
CONTINUOUS
100
AcDbLine
 10
17.0
 20
17.4
 30
0.0
 11
17.0
 21
18.23205081
 31
0.0
1001
GRPNAME
1000
PASTMD0J
  0
LINE
  5
1841
330
8F7
100
AcDbEntity
  8
240
  6
CONTINUOUS
100
AcDbLine
 10
18.02072594
 20
20.0
 30
0.0
 11
20.0
 21
20.0
 31
0.0
1001
GRPNAME
1000
PASTMD0J
  0
LINE
  5
1842
330
8F7
100
AcDbEntity
  8
240
100
AcDbLine
 10
35.0
 20
16.8
 30
0.0
 11
38.40710678
 21
20.20710678
 31
0.0
  0
ARC
  5
1843
330
8F7
100
AcDbEntity
  8
240
100
AcDbCircle
 10
39.11421356
 20
19.5
 30
0.0
 40
1.0
100
AcDbArc
 50
90.0
 51
135.0
1001
GENIUS_GENODEF_13
1002
{
1000
HIER
1070
     0
1002
}
1002
{
1000
MANEDIT
1070
     0
1002
}
1002
{
1000
NOSEL
1070
     0
1002
}
1002
{
1000
BEHIND
1070
     0
1002
}
1002
{
1000
OTHER
1070
     0
1002
}
1002
{
1000
REACTOR
1002
}
1001
GENIUS_GENOBJ-N-FIL_13
1002
{
1000
OWNER
1000
GEN
1002
}
  0
LINE
  5
1844
330
8F7
100
AcDbEntity
  8
241
100
AcDbLine
 10
69.0
 20
0.0
 30
0.0
 11
69.0
 21
-20.5
 31
0.0
  0
LINE
  5
1845
330
8F7
100
AcDbEntity
  8
240
100
AcDbLine
 10
85.0
 20
-16.82175248
 30
0.0
 11
85.0
 21
0.0
 31
0.0
  0
LINE
  5
1846
330
8F7
100
AcDbEntity
  8
241
100
AcDbLine
 10
77.0
 20
-20.4129593
 30
0.0
 11
77.0
 21
0.0
 31
0.0
  0
LINE
  5
1847
330
8F7
100
AcDbEntity
  8
241
100
AcDbLine
 10
62.0
 20
-20.5
 30
0.0
 11
62.0
 21
0.0
 31
0.0
  0
LINE
  5
1848
330
8F7
100
AcDbEntity
  8
241
100
AcDbLine
 10
60.4
 20
-20.5
 30
0.0
 11
60.4
 21
0.0
 31
0.0
  0
LINE
  5
1849
330
8F7
100
AcDbEntity
  8
241
100
AcDbLine
 10
59.0
 20
-20.5
 30
0.0
 11
59.0
 21
0.0
 31
0.0
  0
LINE
  5
184A
330
8F7
100
AcDbEntity
  8
241
100
AcDbLine
 10
57.4
 20
-20.5
 30
0.0
 11
57.4
 21
0.0
 31
0.0
  0
ARC
  5
184B
330
8F7
100
AcDbEntity
  8
240
100
AcDbCircle
 10
83.0
 20
-16.82175248
 30
0.0
 40
2.0
100
AcDbArc
 50
285.0
 51
0.0
1001
GENIUS_GENODEF_13
1002
{
1000
HIER
1070
     0
1002
}
1002
{
1000
MANEDIT
1070
     0
1002
}
1002
{
1000
NOSEL
1070
     0
1002
}
1002
{
1000
BEHIND
1070
     0
1002
}
1002
{
1000
OTHER
1070
     0
1002
}
1002
{
1000
REACTOR
1002
}
1001
GENIUS_GENOBJ-N-FIL_13
1002
{
1000
OWNER
1000
GEN
1002
}
  0
LINE
  5
184C
330
8F7
100
AcDbEntity
  8
240
100
AcDbLine
 10
62.0
 20
-20.5
 30
0.0
 11
75.68347502
 21
-20.5
 31
0.0
  0
LINE
  5
184D
330
8F7
100
AcDbEntity
  8
240
100
AcDbLine
 10
60.8
 20
-20.1
 30
0.0
 11
61.6
 21
-20.1
 31
0.0
  0
LINE
  5
184E
330
8F7
100
AcDbEntity
  8
240
100
AcDbLine
 10
60.4
 20
-20.5
 30
0.0
 11
60.8
 21
-20.1
 31
0.0
  0
LINE
  5
184F
330
8F7
100
AcDbEntity
  8
240
100
AcDbLine
 10
57.8
 20
-20.1
 30
0.0
 11
58.6
 21
-20.1
 31
0.0
  0
LINE
  5
1850
330
8F7
100
AcDbEntity
  8
240
100
AcDbLine
 10
59.0
 20
-20.5
 30
0.0
 11
58.6
 21
-20.1
 31
0.0
  0
LINE
  5
1851
330
8F7
100
AcDbEntity
  8
240
100
AcDbLine
 10
57.4
 20
-20.5
 30
0.0
 11
57.8
 21
-20.1
 31
0.0
  0
LINE
  5
1852
330
8F7
100
AcDbEntity
  8
240
100
AcDbLine
 10
59.0
 20
-20.5
 30
0.0
 11
60.4
 21
-20.5
 31
0.0
  0
LINE
  5
1853
330
8F7
100
AcDbEntity
  8
240
100
AcDbLine
 10
62.0
 20
-20.5
 30
0.0
 11
61.6
 21
-20.1
 31
0.0
  0
LINE
  5
1854
330
8F7
100
AcDbEntity
  8
240
100
AcDbLine
 10
78.27166548
 20
-20.15925826
 30
0.0
 11
83.51763809
 21
-18.75360414
 31
0.0
  0
ARC
  5
1855
330
8F7
100
AcDbEntity
  8
240
100
AcDbCircle
 10
75.68347502
 20
-10.5
 30
0.0
 40
10.0
100
AcDbArc
 50
270.0
 51
285.0
1001
GENIUS_GENOBJ-N-FIL_13
1002
{
1000
OWNER
1000
GEN
1002
}
1001
GENIUS_GENODEF_13
1002
{
1000
HIER
1070
     0
1002
}
1002
{
1000
MANEDIT
1070
     0
1002
}
1002
{
1000
NOSEL
1070
     0
1002
}
1002
{
1000
BEHIND
1070
     0
1002
}
1002
{
1000
OTHER
1070
     0
1002
}
1002
{
1000
REACTOR
1002
}
  0
ARC
  5
1856
330
8F7
100
AcDbEntity
  8
240
100
AcDbCircle
 10
83.0
 20
16.82175248
 30
0.0
 40
2.0
100
AcDbArc
 50
0.0
 51
75.0
1001
GENIUS_GENODEF_13
1002
{
1000
HIER
1070
     0
1002
}
1002
{
1000
MANEDIT
1070
     0
1002
}
1002
{
1000
NOSEL
1070
     0
1002
}
1002
{
1000
BEHIND
1070
     0
1002
}
1002
{
1000
OTHER
1070
     0
1002
}
1002
{
1000
REACTOR
1002
}
1001
GENIUS_GENOBJ-N-FIL_13
1002
{
1000
OWNER
1000
GEN
1002
}
  0
LINE
  5
1857
330
8F7
100
AcDbEntity
  8
241
100
AcDbLine
 10
57.4
 20
20.5
 30
0.0
 11
57.4
 21
0.0
 31
0.0
  0
LINE
  5
1858
330
8F7
100
AcDbEntity
  8
241
100
AcDbLine
 10
59.0
 20
20.5
 30
0.0
 11
59.0
 21
0.0
 31
0.0
  0
LINE
  5
1859
330
8F7
100
AcDbEntity
  8
241
100
AcDbLine
 10
60.4
 20
20.5
 30
0.0
 11
60.4
 21
0.0
 31
0.0
  0
LINE
  5
185A
330
8F7
100
AcDbEntity
  8
241
100
AcDbLine
 10
62.0
 20
20.5
 30
0.0
 11
62.0
 21
0.0
 31
0.0
  0
LINE
  5
185B
330
8F7
100
AcDbEntity
  8
241
100
AcDbLine
 10
77.0
 20
20.4129593
 30
0.0
 11
77.0
 21
0.0
 31
0.0
  0
LINE
  5
185C
330
8F7
100
AcDbEntity
  8
241
100
AcDbLine
 10
69.0
 20
0.0
 30
0.0
 11
69.0
 21
20.5
 31
0.0
  0
LINE
  5
185D
330
8F7
100
AcDbEntity
  8
AM_7
100
AcDbLine
 10
50.0
 20
7.5
 30
0.0
 11
50.0
 21
-7.5
 31
0.0
1001
GENIUS_GENOBJ-N-CEN_13
1002
{
1000
OWNER
1000
GEN
1002
}
1001
GENIUS_GENODEF_13
1002
{
1000
HIER
1070
     0
1002
}
1002
{
1000
MANEDIT
1070
     0
1002
}
1002
{
1000
NOSEL
1070
     0
1002
}
1002
{
1000
BEHIND
1070
     0
1002
}
1002
{
1000
OTHER
1070
     0
1002
}
1002
{
1000
REACTOR
1002
}
  0
LINE
  5
185E
330
8F7
100
AcDbEntity
  8
240
100
AcDbLine
 10
62.0
 20
20.5
 30
0.0
 11
75.68347502
 21
20.5
 31
0.0
  0
LINE
  5
185F
330
8F7
100
AcDbEntity
  8
240
100
AcDbLine
 10
60.8
 20
20.1
 30
0.0
 11
61.6
 21
20.1
 31
0.0
  0
LINE
  5
1860
330
8F7
100
AcDbEntity
  8
240
100
AcDbLine
 10
59.0
 20
20.5
 30
0.0
 11
60.4
 21
20.5
 31
0.0
  0
LINE
  5
1861
330
8F7
100
AcDbEntity
  8
240
100
AcDbLine
 10
57.4
 20
20.5
 30
0.0
 11
57.8
 21
20.1
 31
0.0
  0
LINE
  5
1862
330
8F7
100
AcDbEntity
  8
240
100
AcDbLine
 10
59.0
 20
20.5
 30
0.0
 11
58.6
 21
20.1
 31
0.0
  0
LINE
  5
1863
330
8F7
100
AcDbEntity
  8
240
100
AcDbLine
 10
57.8
 20
20.1
 30
0.0
 11
58.6
 21
20.1
 31
0.0
  0
LINE
  5
1864
330
8F7
100
AcDbEntity
  8
240
100
AcDbLine
 10
60.4
 20
20.5
 30
0.0
 11
60.8
 21
20.1
 31
0.0
  0
LINE
  5
1865
330
8F7
100
AcDbEntity
  8
240
100
AcDbLine
 10
62.0
 20
20.5
 30
0.0
 11
61.6
 21
20.1
 31
0.0
  0
LINE
  5
1866
330
8F7
100
AcDbEntity
  8
240
100
AcDbLine
 10
78.27166548
 20
20.15925826
 30
0.0
 11
83.51763809
 21
18.75360414
 31
0.0
  0
ARC
  5
1867
330
8F7
100
AcDbEntity
  8
240
100
AcDbCircle
 10
75.68347502
 20
10.5
 30
0.0
 40
10.0
100
AcDbArc
 50
75.0
 51
90.0
1001
GENIUS_GENOBJ-N-FIL_13
1002
{
1000
OWNER
1000
GEN
1002
}
1001
GENIUS_GENODEF_13
1002
{
1000
HIER
1070
     0
1002
}
1002
{
1000
MANEDIT
1070
     0
1002
}
1002
{
1000
NOSEL
1070
     0
1002
}
1002
{
1000
BEHIND
1070
     0
1002
}
1002
{
1000
OTHER
1070
     0
1002
}
1002
{
1000
REACTOR
1002
}
  0
LINE
  5
1868
330
8F7
100
AcDbEntity
  8
240
100
AcDbLine
 10
85.0
 20
16.82175248
 30
0.0
 11
85.0
 21
0.0
 31
0.0
  0
ENDBLK
  5
982
330
8F7
100
AcDbEntity
  8
0
100
AcDbBlockEnd
  0
BLOCK
  5
A4C
330
A42
100
AcDbEntity
  8
0
100
AcDbBlockBegin
  2
*D3
 70
     1
 10
0.0
 20
0.0
 30
0.0
  3
*D3
  1

  0
LINE
  5
15CF
330
A42
100
AcDbEntity
  8
250
  6
CONTINUOUS
100
AcDbLine
 10
0.0
 20
20.5
 30
0.0
 11
0.0
 21
36.0
 31
0.0
  0
LINE
  5
15D0
330
A42
100
AcDbEntity
  8
250
  6
CONTINUOUS
100
AcDbLine
 10
85.0
 20
17.32175248
 30
0.0
 11
85.0
 21
36.0
 31
0.0
  0
LINE
  5
15D1
330
A42
100
AcDbEntity
  8
250
  6
CONTINUOUS
100
AcDbLine
 10
2.23
 20
35.0
 30
0.0
 11
82.77
 21
35.0
 31
0.0
  0
INSERT
  5
15D2
330
A42
100
AcDbEntity
  8
250
  6
CONTINUOUS
100
AcDbBlockReference
  2
_OPEN
 10
0.0
 20
35.0
 30
0.0
 41
2.23
 42
2.23
 43
2.23
 50
180.0
  0
INSERT
  5
15D3
330
A42
100
AcDbEntity
  8
250
  6
CONTINUOUS
100
AcDbBlockReference
  2
_OPEN
 10
85.0
 20
35.0
 30
0.0
 41
2.23
 42
2.23
 43
2.23
  0
MTEXT
  5
15D4
330
A42
100
AcDbEntity
  8
250
  6
CONTINUOUS
 62
    40
100
AcDbMText
 10
42.9187443
 20
37.4
 30
0.0
 40
2.8
 41
0.0
 71
     5
 72
     1
  1
\A1;85
1001
ACAD
1000
MTEXTBEGIN
1070
    73
1070
     1
1070
    44
1040
1.0
1070
    74
1070
     0
1000
MTEXTEND
1000
MTEXTBEGIN
1070
    73
1070
     1
1070
    44
1040
1.0
1070
    74
1070
     0
1000
MTEXTEND
  0
POINT
  5
15D5
330
A42
100
AcDbEntity
  8
DEFPOINTS
  6
CONTINUOUS
 62
     0
100
AcDbPoint
 10
0.0
 20
20.0
 30
0.0
  0
POINT
  5
15D6
330
A42
100
AcDbEntity
  8
DEFPOINTS
  6
CONTINUOUS
 62
     0
100
AcDbPoint
 10
85.0
 20
16.82175248
 30
0.0
  0
POINT
  5
15D7
330
A42
100
AcDbEntity
  8
DEFPOINTS
  6
CONTINUOUS
 62
     0
100
AcDbPoint
 10
85.0
 20
35.0
 30
0.0
  0
ENDBLK
  5
A4D
330
A42
100
AcDbEntity
  8
0
100
AcDbBlockEnd
  0
BLOCK
  5
E61
330
E57
100
AcDbEntity
  8
0
100
AcDbBlockBegin
  2
*D4
 70
     1
 10
0.0
 20
0.0
 30
0.0
  3
*D4
  1

  0
LINE
  5
13ED
330
E57
100
AcDbEntity
  8
250
  6
CONTINUOUS
100
AcDbLine
 10
76.18347502
 20
-20.5
 30
0.0
 11
99.0
 21
-20.5
 31
0.0
  0
LINE
  5
13EE
330
E57
100
AcDbEntity
  8
250
  6
CONTINUOUS
100
AcDbLine
 10
76.18347502
 20
20.5
 30
0.0
 11
99.0
 21
20.5
 31
0.0
  0
LINE
  5
13EF
330
E57
100
AcDbEntity
  8
250
  6
CONTINUOUS
100
AcDbLine
 10
98.0
 20
-18.27
 30
0.0
 11
98.0
 21
18.27
 31
0.0
  0
INSERT
  5
13F0
330
E57
100
AcDbEntity
  8
250
  6
CONTINUOUS
100
AcDbBlockReference
  2
_OPEN
 10
98.0
 20
-20.5
 30
0.0
 41
2.23
 42
2.23
 43
2.23
 50
270.0
  0
INSERT
  5
13F1
330
E57
100
AcDbEntity
  8
250
  6
CONTINUOUS
100
AcDbBlockReference
  2
_OPEN
 10
98.0
 20
20.5
 30
0.0
 41
2.23
 42
2.23
 43
2.23
 50
90.0
  0
MTEXT
  5
13F2
330
E57
100
AcDbEntity
  8
250
  6
CONTINUOUS
 62
    40
100
AcDbMText
 10
95.6
 20
0.0
 30
0.0
 40
2.8
 41
0.0
 71
     5
 72
     1
  1
\A1;{\H2.8;\U+2205}41
 11
0.0
 21
1.0
 31
0.0
1001
ACAD
1000
MTEXTBEGIN
1070
    73
1070
     1
1070
    44
1040
1.0
1070
    74
1070
     0
1000
MTEXTEND
1000
MTEXTBEGIN
1070
    73
1070
     1
1070
    44
1040
1.0
1070
    74
1070
     0
1000
MTEXTEND
1000
MTEXTBEGIN
1070
    73
1070
     1
1070
    44
1040
1.0
1070
    74
1070
     0
1000
MTEXTEND
1000
MTEXTBEGIN
1070
    73
1070
     1
1070
    44
1040
1.0
1070
    74
1070
     0
1000
MTEXTEND
  0
POINT
  5
13F3
330
E57
100
AcDbEntity
  8
DEFPOINTS
  6
CONTINUOUS
 62
     0
100
AcDbPoint
 10
75.68347502
 20
-20.5
 30
0.0
  0
POINT
  5
13F4
330
E57
100
AcDbEntity
  8
DEFPOINTS
  6
CONTINUOUS
 62
     0
100
AcDbPoint
 10
75.68347502
 20
20.5
 30
0.0
  0
POINT
  5
13F5
330
E57
100
AcDbEntity
  8
DEFPOINTS
  6
CONTINUOUS
 62
     0
100
AcDbPoint
 10
98.0
 20
20.5
 30
0.0
  0
ENDBLK
  5
E62
330
E57
100
AcDbEntity
  8
0
100
AcDbBlockEnd
  0
ENDSEC
  0
SECTION
  2
ENTITIES
  0
INSERT
  5
6E6
330
1A
100
AcDbEntity
  8
245
100
AcDbBlockReference
  2
矢印なし
 10
175.62382697
 20
90.55123572
 30
0.0
  0
DIMENSION
  5
A37
330
1A
100
AcDbEntity
  8
250
  6
CONTINUOUS
100
AcDbDimension
  2
*D3
 10
85.0
 20
35.0
 30
0.0
 11
42.9187443
 21
35.0
 31
0.0
 70
   160
  3
BIGT
100
AcDbAlignedDimension
 13
0.0
 23
20.0
 33
0.0
 14
85.0
 24
16.82175248
 34
0.0
100
AcDbRotatedDimension
  0
TEXT
  5
A38
330
1A
100
AcDbEntity
  8
241
100
AcDbText
 10
-20.0
 20
49.0
 30
0.0
 40
5.0
  1
HSK-A40-MGT12-85
  7
YOKO
 11
-20.0
 21
49.0
 31
0.0
100
AcDbText
 73
     1
  0
DIMENSION
  5
E4A
330
1A
100
AcDbEntity
  8
250
  6
CONTINUOUS
100
AcDbDimension
  2
*D4
 10
98.0
 20
20.5
 30
0.0
 11
98.0
 21
0.0
 31
0.0
 70
   160
  1
{\H2.8;\U+2205}<>
  3
BIGT
100
AcDbAlignedDimension
 13
75.68347502
 23
-20.5
 33
0.0
 14
75.68347502
 24
20.5
 34
0.0
 50
90.0
100
AcDbRotatedDimension
  0
LEADER
  5
14D9
102
{ACAD_REACTORS
330
14DE
102
}
330
1A
100
AcDbEntity
  8
250
  6
CONTINUOUS
100
AcDbLeader
  3
BIGT
 76
     2
 10
81.93743368
 20
19.17701864
 30
0.0
 10
87.13372548
 20
28.17726006
 30
0.0
1001
ACAD
1000
DSTYLE
1002
{
1070
     6
1000
OPEN
1070
    41
1040
2.0
1070
    42
1040
2.0
1070
    44
1040
2.0
1070
    79
1070
     2
1070
   140
1040
4.0
1070
   179
1070
     3
1070
   343
1005
594
1070
   371
1070
    -1
1070
   372
1070
    -1
1002
}
  0
MTEXT
  5
14DA
102
{ACAD_REACTORS
330
14DE
102
}
330
1A
100
AcDbEntity
  8
250
  6
CONTINUOUS
 62
    40
100
AcDbMText
 10
89.93372548
 20
29.17726006
 30
0.0
 40
2.8
 41
0.0
 71
     7
 72
     1
  1
MGT12
  7
YOKO
1001
ITEMNAME
1000
LNSP3
1001
ACAD
1000
MTEXTBEGIN
1070
    73
1070
     1
1070
    44
1040
1.0
1070
    74
1070
     0
1000
MTEXTEND
1000
MTEXTBEGIN
1070
    73
1070
     1
1070
    44
1040
1.0
1070
    74
1070
     0
1000
MTEXTEND
1000
MTEXTBEGIN
1070
    73
1070
     1
1070
    44
1040
1.0
1070
    74
1070
     0
1000
MTEXTEND
  0
LINE
  5
14DC
102
{ACAD_REACTORS
330
14DE
102
}
330
1A
100
AcDbEntity
  8
250
  6
CONTINUOUS
100
AcDbLine
 10
87.13372548
 20
28.17726006
 30
0.0
 11
105.26705882
 21
28.17726006
 31
0.0
1001
ITEMNAME
1000
LNSP2
  0
LEADER
  5
17A2
330
1A
100
AcDbEntity
  8
250
  6
CONTINUOUS
100
AcDbLeader
  3
BIGT
 76
     2
 10
-8.8183672
 20
-14.75908164
 30
0.0
 10
-13.49544553
 20
-22.86001894
 30
0.0
1001
ACAD
1000
DSTYLE
1002
{
1070
     6
1000
OPEN
1070
   343
1005
594
1002
}
  0
LINE
  5
17A5
330
1A
100
AcDbEntity
  8
250
  6
CONTINUOUS
100
AcDbLine
 10
-13.49544553
 20
-22.86001894
 30
0.0
 11
-37.7621122
 21
-22.86001894
 31
0.0
1001
ITEMNAME
1000
LNSP2
  0
MTEXT
  5
17A6
330
1A
100
AcDbEntity
  8
251
  6
CONTINUOUS
100
AcDbMText
 10
-34.9621122
 20
-21.86001894
 30
0.0
 40
2.8
 41
0.0
 71
     7
 72
     1
  1
HSK-A40
  7
YOKO
1001
ITEMNAME
1000
LNSP3
1001
ACAD
1000
MTEXTBEGIN
1070
    73
1070
     1
1070
    44
1040
1.0
1070
    74
1070
     0
1000
MTEXTEND
1000
MTEXTBEGIN
1070
    73
1070
     1
1070
    44
1040
1.0
1070
    74
1070
     0
1000
MTEXTEND
1000
MTEXTBEGIN
1070
    73
1070
     1
1070
    44
1040
1.0
1070
    74
1070
     0
1000
MTEXTEND
1000
MTEXTBEGIN
1070
    73
1070
     1
1070
    44
1040
1.0
1070
    74
1070
     0
1000
MTEXTEND
1000
MTEXTBEGIN
1070
    73
1070
     1
1070
    44
1040
1.0
1070
    74
1070
     0
1000
MTEXTEND
1000
MTEXTBEGIN
1070
    73
1070
     1
1070
    44
1040
1.0
1070
    74
1070
     0
1000
MTEXTEND
1000
MTEXTBEGIN
1070
    73
1070
     1
1070
    44
1040
1.0
1070
    74
1070
     0
1000
MTEXTEND
  0
INSERT
  5
1869
330
1A
100
AcDbEntity
  8
245
100
AcDbBlockReference
  2
1
 10
0.0
 20
0.0
 30
0.0
  0
VIEWPORT
  5
22
330
17
100
AcDbEntity
 67
     1
  8
0
100
AcDbViewport
 10
261.51769912
 20
148.5
 30
0.0
 40
523.03539823
 41
297.0
 68
     1
 69
     1
1001
ACAD
1000
MVIEW
1002
{
1070
    16
1010
0.0
1020
0.0
1030
0.0
1010
0.0
1020
0.0
1030
1.0
1040
0.0
1040
297.0
1040
261.51769912
1040
148.5
1040
50.0
1040
0.0
1040
0.0
1070
     0
1070
   100
1070
     1
1070
     1
1070
     0
1070
     0
1070
     0
1070
     0
1040
0.0
1040
0.0
1040
0.0
1040
1.0
1040
1.0
1040
10.0
1040
10.0
1070
     0
1002
{
1002
}
1002
}
  0
ENDSEC
  0
SECTION
  2
OBJECTS
  0
DICTIONARY
  5
C
330
0
100
AcDbDictionary
  3
ACAD_GROUP
350
D
  3
ACAD_LAYOUT
350
565
  3
ACAD_MLINESTYLE
350
E
  3
ACAD_PLOTSETTINGS
350
566
  3
ACAD_PLOTSTYLENAME
350
563
  3
ACDBHEADERROUNDTRIPXREC
350
186B
  3
GRADE_DWG
350
540
  0
DICTIONARY
  5
785
330
784
100
AcDbDictionary
280
     1
  3
ACAD_XREC_ROUNDTRIP
360
786
  3
ADSK_XREC_LAYER_RECONCILED
360
787
  0
DICTIONARY
  5
F74
330
1A
100
AcDbDictionary
280
     1
  3
ACAD_LAYOUTSELFREF
360
188D
  0
DICTIONARY
  5
F72
330
17
100
AcDbDictionary
280
     1
  3
ACAD_LAYOUTSELFREF
360
188C
  0
DICTIONARY
  5
D
102
{ACAD_REACTORS
330
C
102
}
330
C
100
AcDbDictionary
  3
*A1
350
6C7
  3
*A2
350
6C8
  3
*A3
350
6D4
  3
*A4
350
6D5
  3
DREC-1
350
5FC
  3
DREC-2
350
654
  3
DREC-3
350
673
  3
LNSP-1
350
E87
  3
LNSP-2
350
14DE
  0
DICTIONARY
  5
565
102
{ACAD_REACTORS
330
C
102
}
330
C
100
AcDbDictionary
  0
DICTIONARY
  5
E
102
{ACAD_REACTORS
330
C
102
}
330
C
100
AcDbDictionary
  3
STANDARD
350
13
  0
DICTIONARY
  5
566
102
{ACAD_REACTORS
330
C
102
}
330
C
100
AcDbDictionary
  3
A3_0_5倍_
350
758
  3
A3_1倍_
350
757
  3
A3_1倍__2000_
350
707
  3
A3_2倍_
350
759
  3
A4_0_5倍_
350
755
  3
A4_1倍_
350
754
  3
A4_1倍__2000_
350
708
  3
A4_2倍_
350
756
  0
ACDBDICTIONARYWDFLT
  5
563
102
{ACAD_REACTORS
330
C
102
}
330
C
100
AcDbDictionary
281
     1
  3
Normal
350
564
100
AcDbDictionaryWithDefault
340
564
  0
DICTIONARY
  5
186B
102
{ACAD_REACTORS
330
C
102
}
330
C
100
AcDbDictionary
  3
CEPSNTYPE
350
1875
  3
DIMSTYLEDATA
350
1879
  3
FINGERPRINTGUID
350
1876
  3
HYPERLINKBASE
350
186E
  3
INSUNITS
350
1874
  3
LAYOUTDICT
350
1870
  3
LWETCUNION
350
1873
  3
PLOTSETDICT
350
1871
  3
PLOTSTYLNAMDICT
350
1872
  3
PSVPSCALE
350
1878
  3
PUCSBASE
350
187C
  3
PUCSORGBACK
350
1882
  3
PUCSORGBOTTOM
350
187E
  3
PUCSORGFRONT
350
1881
  3
PUCSORGLEFT
350
187F
  3
PUCSORGRIGHT
350
1880
  3
PUCSORGTOP
350
187D
  3
PUCSORTHOREF
350
187A
  3
PUCSORTHOVIEW
350
187B
  3
STYLESHEET
350
186F
  3
TSTACKALIGN
350
186C
  3
TSTACKSIZE
350
186D
  3
UCSBASE
350
1885
  3
UCSORGBACK
350
188B
  3
UCSORGBOTTOM
350
1887
  3
UCSORGFRONT
350
188A
  3
UCSORGLEFT
350
1888
  3
UCSORGRIGHT
350
1889
  3
UCSORGTOP
350
1886
  3
UCSORTHOREF
350
1883
  3
UCSORTHOVIEW
350
1884
  3
VERSIONGUID
350
1877
  0
DICTIONARY
  5
540
102
{ACAD_REACTORS
330
C
102
}
330
C
100
AcDbDictionary
  3
VERSION
350
560
  0
XRECORD
  5
786
102
{ACAD_REACTORS
330
785
102
}
330
785
100
AcDbXrecord
102
MATERIAL
340
0
  0
XRECORD
  5
787
102
{ACAD_REACTORS
330
785
102
}
330
785
100
AcDbXrecord
290
     1
  0
XRECORD
  5
188D
102
{ACAD_REACTORS
330
F74
102
}
330
F74
100
AcDbXrecord
340
1A
  0
XRECORD
  5
188C
102
{ACAD_REACTORS
330
F72
102
}
330
F72
100
AcDbXrecord
340
17
  0
GROUP
  5
6C7
102
{ACAD_REACTORS
330
D
102
}
330
D
100
AcDbGroup
300

 70
     0
 71
     1
1001
GRPNAME
1000
DMA00
  0
GROUP
  5
6C8
102
{ACAD_REACTORS
330
D
102
}
330
D
100
AcDbGroup
300

 70
     0
 71
     1
1001
GRPNAME
1000
DMA00
  0
GROUP
  5
6D4
102
{ACAD_REACTORS
330
D
102
}
330
D
100
AcDbGroup
300

 70
     0
 71
     1
1001
GRPNAME
1000
DMA00
  0
GROUP
  5
6D5
102
{ACAD_REACTORS
330
D
102
}
330
D
100
AcDbGroup
300

 70
     0
 71
     1
1001
GRPNAME
1000
DMA00
  0
GROUP
  5
5FC
102
{ACAD_REACTORS
330
D
102
}
330
D
100
AcDbGroup
300

 70
     0
 71
     1
1001
GRPNAME
1000
DREC-
1001
GPARA
1000
xsiz
1000
44.182
1000
ysiz
1000
40.677
1000
angl
1000
0
1000
ctyp
1000
0
1000
csiz
1000
5
1000
lfnt
1000
cont
1000
hcnt
1000
hoff
1000
vcnt
1000
voff
1000
opnt
1000
4
1000
dxpt
1000
0
1000
dypt
1000
0
  0
GROUP
  5
654
102
{ACAD_REACTORS
330
D
102
}
330
D
100
AcDbGroup
300

 70
     0
 71
     1
1001
GRPNAME
1000
DREC-
1001
GPARA
1000
xsiz
1000
54.592
1000
ysiz
1000
53.036
1000
angl
1000
0
1000
ctyp
1000
0
1000
csiz
1000
5
1000
lfnt
1000
cont
1000
hcnt
1000
hoff
1000
vcnt
1000
voff
1000
opnt
1000
4
1000
dxpt
1000
0
1000
dypt
1000
0
  0
GROUP
  5
673
102
{ACAD_REACTORS
330
D
102
}
330
D
100
AcDbGroup
300

 70
     0
 71
     1
1001
GRPNAME
1000
DREC-
1001
GPARA
1000
xsiz
1000
30.363
1000
ysiz
1000
36.175
1000
angl
1000
0
1000
ctyp
1000
0
1000
csiz
1000
5
1000
lfnt
1000
cont
1000
hcnt
1000
hoff
1000
vcnt
1000
voff
1000
opnt
1000
4
1000
dxpt
1000
0
1000
dypt
1000
0
  0
GROUP
  5
E87
102
{ACAD_REACTORS
330
D
102
}
330
D
100
AcDbGroup
300

 70
     0
 71
     1
1001
GRPNAME
1000
LNSP
  0
GROUP
  5
14DE
102
{ACAD_REACTORS
330
D
102
}
330
D
100
AcDbGroup
300

 70
     0
 71
     1
340
14D9
340
14DA
340
14DC
1001
GRPNAME
1000
LNSP
  0
MLINESTYLE
  5
13
102
{ACAD_REACTORS
330
E
102
}
330
E
100
AcDbMlineStyle
  2
STANDARD
 70
     0
  3

 62
     0
 51
90.0
 52
90.0
 71
     2
 49
0.5
 62
   256
  6
BYLAYER
 49
-0.5
 62
   256
  6
BYLAYER
  0
PLOTSETTINGS
  5
758
102
{ACAD_REACTORS
330
566
102
}
330
566
100
AcDbPlotSettings
  1
A3(0.5倍)
  2
\\AWTECPC05\HP DeskJet 1120C
  4
A3
  6

 40
5.95841646
 41
13.49375153
 42
6.04309082
 43
3.67242432
 44
296.92599487
 45
419.94665527
 46
89.96
 47
127.14
 48
0.0
 49
0.0
140
0.0
141
0.0
142
1.0
143
2.0
 70
  1716
 72
     1
 73
     1
 74
     2
  7
big.ctb
 75
    17
147
0.5
148
0.0
149
0.0
  0
PLOTSETTINGS
  5
757
102
{ACAD_REACTORS
330
566
102
}
330
566
100
AcDbPlotSettings
  1
A3(1倍)
  2
\\AWTECPC05\HP DeskJet 1120C
  4
A3
  6

 40
5.95841646
 41
13.49375153
 42
6.04309082
 43
3.67242432
 44
296.92599487
 45
419.94665527
 46
37.46
 47
52.89
 48
0.0
 49
0.0
140
0.0
141
0.0
142
1.0
143
1.0
 70
  1716
 72
     1
 73
     1
 74
     2
  7
big.ctb
 75
    16
147
1.0
148
0.0
149
0.0
  0
PLOTSETTINGS
  5
707
102
{ACAD_REACTORS
330
566
102
}
330
566
100
AcDbPlotSettings
  1
A3(1倍)(2000)
  2
SII LS-1300 (D-SCAN)
  4
User258
  6

 40
3.17499995
 41
3.17499995
 42
3.17498779
 43
3.17498779
 44
419.98898315
 45
296.98950195
 46
58.32
 47
40.32
 48
0.0
 49
0.0
140
0.0
141
0.0
142
1.0
143
1.0
 70
  1716
 72
     1
 73
     0
 74
     2
  7
big.ctb
 75
    16
147
1.0
148
0.0
149
0.0
  0
PLOTSETTINGS
  5
759
102
{ACAD_REACTORS
330
566
102
}
330
566
100
AcDbPlotSettings
  1
A3(2倍)
  2
\\AWTECPC05\HP DeskJet 1120C
  4
A3
  6

 40
5.95841646
 41
13.49375153
 42
6.04309082
 43
3.67242432
 44
296.92599487
 45
419.94665527
 46
-67.54
 47
-95.61
 48
0.0
 49
0.0
140
0.0
141
0.0
142
1.0
143
0.5
 70
  1716
 72
     1
 73
     1
 74
     2
  7
big.ctb
 75
    27
147
2.0
148
0.0
149
0.0
  0
PLOTSETTINGS
  5
755
102
{ACAD_REACTORS
330
566
102
}
330
566
100
AcDbPlotSettings
  1
A4(0.5倍)
  2
\\AWTECPC05\HP DeskJet 1120C
  4
A4
  6

 40
4.18041658
 41
13.49374962
 42
4.18040466
 43
3.92642212
 44
209.97332764
 45
296.92599487
 46
48.31
 47
65.5
 48
0.0
 49
0.0
140
0.0
141
0.0
142
1.0
143
2.0
 70
  1716
 72
     1
 73
     1
 74
     2
  7
big.ctb
 75
    17
147
0.5
148
0.0
149
0.0
  0
PLOTSETTINGS
  5
754
102
{ACAD_REACTORS
330
566
102
}
330
566
100
AcDbPlotSettings
  1
A4(1倍)
  2
\\AWTECPC05\HP DeskJet 1120C
  4
A4
  6

 40
4.18041658
 41
13.49374962
 42
4.18040466
 43
3.92642212
 44
209.97332764
 45
296.92599487
 46
-4.19
 47
-8.75
 48
0.0
 49
0.0
140
0.0
141
0.0
142
1.0
143
1.0
 70
  1716
 72
     1
 73
     1
 74
     2
  7
big.ctb
 75
    16
147
1.0
148
0.0
149
0.0
  0
PLOTSETTINGS
  5
708
102
{ACAD_REACTORS
330
566
102
}
330
566
100
AcDbPlotSettings
  1
A4(1倍)(2000)
  2
SII LS-1300 (D-SCAN)
  4
User259
  6

 40
3.17499995
 41
3.17499995
 42
3.17498779
 43
3.17500305
 44
296.98950195
 45
209.99449158
 46
-3.18
 47
-3.18
 48
0.0
 49
0.0
140
0.0
141
0.0
142
1.0
143
1.0
 70
  1716
 72
     1
 73
     0
 74
     2
  7
big.ctb
 75
    16
147
1.0
148
0.0
149
0.0
  0
PLOTSETTINGS
  5
756
102
{ACAD_REACTORS
330
566
102
}
330
566
100
AcDbPlotSettings
  1
A4(2倍)
  2
\\AWTECPC05\HP DeskJet 1120C
  4
A4
  6

 40
4.18041658
 41
13.49374962
 42
4.18040466
 43
3.92642212
 44
209.97332764
 45
296.92599487
 46
-109.19
 47
-157.25
 48
0.0
 49
0.0
140
0.0
141
0.0
142
1.0
143
0.5
 70
  1716
 72
     1
 73
     1
 74
     2
  7
big.ctb
 75
    27
147
2.0
148
0.0
149
0.0
  0
ACDBPLACEHOLDER
  5
564
102
{ACAD_REACTORS
330
563
102
}
330
563
100
AcDbPlaceHolder
280
     0
  0
XRECORD
  5
1875
102
{ACAD_REACTORS
330
186B
102
}
330
186B
100
AcDbXrecord
 90
        0
  0
XRECORD
  5
1879
102
{ACAD_REACTORS
330
186B
102
}
330
186B
100
AcDbXrecord
1000
DSTYLE
1002
{
1070
    79
 70
     2
1070
   179
 70
     3
1070
   341
340
594
1070
   343
340
594
1070
   344
340
594
1070
   371
 70
    -1
1070
   372
 70
    -1
1002
}
  0
XRECORD
  5
1876
102
{ACAD_REACTORS
330
186B
102
}
330
186B
100
AcDbXrecord
  1
{51294030-9CB4-11D3-8E18-00A0C925D94D}
  0
XRECORD
  5
186E
102
{ACAD_REACTORS
330
186B
102
}
330
186B
100
AcDbXrecord
  1

  0
XRECORD
  5
1874
102
{ACAD_REACTORS
330
186B
102
}
330
186B
100
AcDbXrecord
 90
        0
  0
XRECORD
  5
1870
102
{ACAD_REACTORS
330
186B
102
}
330
186B
100
AcDbXrecord
340
565
  0
XRECORD
  5
1873
102
{ACAD_REACTORS
330
186B
102
}
330
186B
100
AcDbXrecord
 90
    10781
  0
XRECORD
  5
1871
102
{ACAD_REACTORS
330
186B
102
}
330
186B
100
AcDbXrecord
340
566
  0
XRECORD
  5
1872
102
{ACAD_REACTORS
330
186B
102
}
330
186B
100
AcDbXrecord
340
563
  0
XRECORD
  5
1878
102
{ACAD_REACTORS
330
186B
102
}
330
186B
100
AcDbXrecord
 40
0.0
  0
XRECORD
  5
187C
102
{ACAD_REACTORS
330
186B
102
}
330
186B
100
AcDbXrecord
340
0
  0
XRECORD
  5
1882
102
{ACAD_REACTORS
330
186B
102
}
330
186B
100
AcDbXrecord
 10
0.0
 20
0.0
 30
0.0
  0
XRECORD
  5
187E
102
{ACAD_REACTORS
330
186B
102
}
330
186B
100
AcDbXrecord
 10
0.0
 20
0.0
 30
0.0
  0
XRECORD
  5
1881
102
{ACAD_REACTORS
330
186B
102
}
330
186B
100
AcDbXrecord
 10
0.0
 20
0.0
 30
0.0
  0
XRECORD
  5
187F
102
{ACAD_REACTORS
330
186B
102
}
330
186B
100
AcDbXrecord
 10
0.0
 20
0.0
 30
0.0
  0
XRECORD
  5
1880
102
{ACAD_REACTORS
330
186B
102
}
330
186B
100
AcDbXrecord
 10
0.0
 20
0.0
 30
0.0
  0
XRECORD
  5
187D
102
{ACAD_REACTORS
330
186B
102
}
330
186B
100
AcDbXrecord
 10
0.0
 20
0.0
 30
0.0
  0
XRECORD
  5
187A
102
{ACAD_REACTORS
330
186B
102
}
330
186B
100
AcDbXrecord
340
0
  0
XRECORD
  5
187B
102
{ACAD_REACTORS
330
186B
102
}
330
186B
100
AcDbXrecord
 70
     0
  0
XRECORD
  5
186F
102
{ACAD_REACTORS
330
186B
102
}
330
186B
100
AcDbXrecord
  1
big.ctb
  0
XRECORD
  5
186C
102
{ACAD_REACTORS
330
186B
102
}
330
186B
100
AcDbXrecord
 90
        1
  0
XRECORD
  5
186D
102
{ACAD_REACTORS
330
186B
102
}
330
186B
100
AcDbXrecord
 90
       70
  0
XRECORD
  5
1885
102
{ACAD_REACTORS
330
186B
102
}
330
186B
100
AcDbXrecord
340
0
  0
XRECORD
  5
188B
102
{ACAD_REACTORS
330
186B
102
}
330
186B
100
AcDbXrecord
 10
0.0
 20
0.0
 30
0.0
  0
XRECORD
  5
1887
102
{ACAD_REACTORS
330
186B
102
}
330
186B
100
AcDbXrecord
 10
0.0
 20
0.0
 30
0.0
  0
XRECORD
  5
188A
102
{ACAD_REACTORS
330
186B
102
}
330
186B
100
AcDbXrecord
 10
0.0
 20
0.0
 30
0.0
  0
XRECORD
  5
1888
102
{ACAD_REACTORS
330
186B
102
}
330
186B
100
AcDbXrecord
 10
0.0
 20
0.0
 30
0.0
  0
XRECORD
  5
1889
102
{ACAD_REACTORS
330
186B
102
}
330
186B
100
AcDbXrecord
 10
0.0
 20
0.0
 30
0.0
  0
XRECORD
  5
1886
102
{ACAD_REACTORS
330
186B
102
}
330
186B
100
AcDbXrecord
 10
0.0
 20
0.0
 30
0.0
  0
XRECORD
  5
1883
102
{ACAD_REACTORS
330
186B
102
}
330
186B
100
AcDbXrecord
340
0
  0
XRECORD
  5
1884
102
{ACAD_REACTORS
330
186B
102
}
330
186B
100
AcDbXrecord
 70
     0
  0
XRECORD
  5
1877
102
{ACAD_REACTORS
330
186B
102
}
330
186B
100
AcDbXrecord
  1
{16A3039C-D9FE-462C-86E0-E2AF4A6568D1}
  0
XRECORD
  5
560
102
{ACAD_REACTORS
330
540
102
}
330
540
100
AcDbXrecord
  1
2.0.0
  0
ENDSEC
  0
EOF
