  0
SECTION
  2
HEADER
  9
$ACADVER
  1
AC1014
  9
$ACADMAINTVER
 70
     9
  9
$DWGCODEPAGE
  3
ANSI_932
  9
$INSBASE
 10
0.0
 20
0.0
 30
0.0
  9
$EXTMIN
 10
-37.77608093
 20
-22.86977955
 30
-0.00152582
  9
$EXTMAX
 10
91.02539191
 20
54.00087597
 30
0.00000003
  9
$LIMMIN
 10
0.0
 20
0.0
  9
$LIMMAX
 10
420.0
 20
297.0
  9
$ORTHOMODE
 70
     0
  9
$REGENMODE
 70
     1
  9
$FILLMODE
 70
     1
  9
$QTEXTMODE
 70
     0
  9
$MIRRTEXT
 70
     1
  9
$DRAGMODE
 70
     2
  9
$LTSCALE
 40
10.0
  9
$OSMODE
 70
   549
  9
$ATTMODE
 70
     1
  9
$TEXTSIZE
 40
3.0
  9
$TRACEWID
 40
1.0
  9
$TEXTSTYLE
  7
YOKO
  9
$CLAYER
  8
245
  9
$CELTYPE
  6
BYLAYER
  9
$CECOLOR
 62
   256
  9
$CELTSCALE
 40
1.0
  9
$DELOBJ
 70
     1
  9
$DISPSILH
 70
     0
  9
$DIMSCALE
 40
1.0
  9
$DIMASZ
 40
2.0
  9
$DIMEXO
 40
2.0
  9
$DIMDLI
 40
2.5
  9
$DIMRND
 40
0.0
  9
$DIMDLE
 40
0.0
  9
$DIMEXE
 40
2.0
  9
$DIMTP
 40
0.0
  9
$DIMTM
 40
0.0
  9
$DIMTXT
 40
4.0
  9
$DIMCEN
 40
0.0
  9
$DIMTSZ
 40
0.0
  9
$DIMTOL
 70
     0
  9
$DIMLIM
 70
     0
  9
$DIMTIH
 70
     0
  9
$DIMTOH
 70
     0
  9
$DIMSE1
 70
     0
  9
$DIMSE2
 70
     0
  9
$DIMTAD
 70
     3
  9
$DIMZIN
 70
     8
  9
$DIMBLK
  1

  9
$DIMASO
 70
     1
  9
$DIMSHO
 70
     1
  9
$DIMPOST
  1

  9
$DIMAPOST
  1

  9
$DIMALT
 70
     0
  9
$DIMALTD
 70
     2
  9
$DIMALTF
 40
25.4
  9
$DIMLFAC
 40
1.0
  9
$DIMTOFL
 70
     1
  9
$DIMTVP
 40
0.0
  9
$DIMTIX
 70
     1
  9
$DIMSOXD
 70
     0
  9
$DIMSAH
 70
     1
  9
$DIMBLK1
  1
OPEN
  9
$DIMBLK2
  1
OPEN
  9
$DIMSTYLE
  2
BIGT
  9
$DIMCLRD
 70
   256
  9
$DIMCLRE
 70
   256
  9
$DIMCLRT
 70
    40
  9
$DIMTFAC
 40
1.0
  9
$DIMGAP
 40
1.0
  9
$DIMJUST
 70
     0
  9
$DIMSD1
 70
     0
  9
$DIMSD2
 70
     0
  9
$DIMTOLJ
 70
     1
  9
$DIMTZIN
 70
     8
  9
$DIMALTZ
 70
     0
  9
$DIMALTTZ
 70
     0
  9
$DIMFIT
 70
     3
  9
$DIMUPT
 70
     0
  9
$DIMUNIT
 70
     2
  9
$DIMDEC
 70
     3
  9
$DIMTDEC
 70
     3
  9
$DIMALTU
 70
     2
  9
$DIMALTTD
 70
     2
  9
$DIMTXSTY
  7
STANDARD
  9
$DIMAUNIT
 70
     0
  9
$LUNITS
 70
     2
  9
$LUPREC
 70
     3
  9
$SKETCHINC
 40
1.0
  9
$FILLETRAD
 40
0.5
  9
$AUNITS
 70
     0
  9
$AUPREC
 70
     3
  9
$MENU
  1
.
  9
$ELEVATION
 40
0.0
  9
$PELEVATION
 40
0.0
  9
$THICKNESS
 40
0.0
  9
$LIMCHECK
 70
     0
  9
$BLIPMODE
 70
     0
  9
$CHAMFERA
 40
10.0
  9
$CHAMFERB
 40
10.0
  9
$CHAMFERC
 40
0.0
  9
$CHAMFERD
 40
0.0
  9
$SKPOLY
 70
     0
  9
$TDCREATE
 40
2455118.450853044
  9
$TDUPDATE
 40
2455216.575374884
  9
$TDINDWG
 40
0.0344433565
  9
$TDUSRTIMER
 40
0.0344433565
  9
$USRTIMER
 70
     1
  9
$ANGBASE
 50
0.0
  9
$ANGDIR
 70
     0
  9
$PDMODE
 70
     1
  9
$PDSIZE
 40
-5.0
  9
$PLINEWID
 40
0.0
  9
$COORDS
 70
     2
  9
$SPLFRAME
 70
     0
  9
$SPLINETYPE
 70
     6
  9
$SPLINESEGS
 70
     8
  9
$ATTDIA
 70
     0
  9
$ATTREQ
 70
     1
  9
$HANDLING
 70
-16383
  9
$HANDSEED
  5
123C
  9
$SURFTAB1
 70
     6
  9
$SURFTAB2
 70
     6
  9
$SURFTYPE
 70
     6
  9
$SURFU
 70
     6
  9
$SURFV
 70
     6
  9
$UCSNAME
  2

  9
$UCSORG
 10
0.0
 20
0.0
 30
0.0
  9
$UCSXDIR
 10
1.0
 20
0.0
 30
0.0
  9
$UCSYDIR
 10
0.0
 20
1.0
 30
0.0
  9
$PUCSNAME
  2

  9
$PUCSORG
 10
0.0
 20
0.0
 30
0.0
  9
$PUCSXDIR
 10
1.0
 20
0.0
 30
0.0
  9
$PUCSYDIR
 10
0.0
 20
1.0
 30
0.0
  9
$USERI1
 70
     1
  9
$USERI2
 70
     0
  9
$USERI3
 70
     0
  9
$USERI4
 70
     0
  9
$USERI5
 70
     0
  9
$USERR1
 40
0.0
  9
$USERR2
 40
0.0
  9
$USERR3
 40
0.0
  9
$USERR4
 40
0.0
  9
$USERR5
 40
0.0
  9
$WORLDVIEW
 70
     1
  9
$SHADEDGE
 70
     3
  9
$SHADEDIF
 70
    70
  9
$TILEMODE
 70
     1
  9
$MAXACTVP
 70
    16
  9
$PINSBASE
 10
0.0
 20
0.0
 30
0.0
  9
$PLIMCHECK
 70
     0
  9
$PEXTMIN
 10
1.00000000E+20
 20
1.00000000E+20
 30
1.00000000E+20
  9
$PEXTMAX
 10
-1.00000000E+20
 20
-1.00000000E+20
 30
-1.00000000E+20
  9
$PLIMMIN
 10
0.0
 20
0.0
  9
$PLIMMAX
 10
420.0
 20
297.0
  9
$UNITMODE
 70
     0
  9
$VISRETAIN
 70
     0
  9
$PLINEGEN
 70
     0
  9
$PSLTSCALE
 70
     1
  9
$TREEDEPTH
 70
  3020
  9
$PICKSTYLE
 70
     0
  9
$CMLSTYLE
  2
STANDARD
  9
$CMLJUST
 70
     0
  9
$CMLSCALE
 40
1.0
  9
$PROXYGRAPHICS
 70
     1
  9
$MEASUREMENT
 70
     1
  0
ENDSEC
  0
SECTION
  2
CLASSES
  0
CLASS
  1
XRECORD
  2
AcDbXrecord
  3
AutoCAD 2000
 90
        0
280
     0
281
     0
  0
CLASS
  1
ACDBDICTIONARYWDFLT
  2
AcDbDictionaryWithDefault
  3
AutoCAD 2000
 90
        0
280
     0
281
     0
  0
CLASS
  1
ACDBPLACEHOLDER
  2
AcDbPlaceHolder
  3
AutoCAD 2000
 90
        0
280
     0
281
     0
  0
CLASS
  1
LAYOUT
  2
AcDbLayout
  3
AutoCAD 2000
 90
        0
280
     0
281
     0
  0
CLASS
  1
PLOTSETTINGS
  2
AcDbPlotSettings
  3
AutoCAD 2000
 90
        0
280
     0
281
     0
  0
CLASS
  1
LONG_TRANSACTION
  2
AcDbLongTransaction
  3
AutoCAD 2000
 90
        0
280
     0
281
     0
  0
CLASS
  1
LWPOLYLINE
  2
AcDbPolyline
  3
AutoCAD 2000
 90
        0
280
     0
281
     1
  0
CLASS
  1
HATCH
  2
AcDbHatch
  3
AutoCAD 2000
 90
        0
280
     0
281
     1
  0
CLASS
  1
XRECORD
  2
AcDbXrecord
  3
AutoCAD 2000
 90
        0
280
     0
281
     0
  0
CLASS
  1
LONG_TRANSACTION
  2
AcDbLongTransaction
  3
AutoCAD 2000
 90
        0
280
     0
281
     0
  0
CLASS
  1
LWPOLYLINE
  2
AcDbPolyline
  3
AutoCAD 2000
 90
        0
280
     0
281
     1
  0
CLASS
  1
HATCH
  2
AcDbHatch
  3
AutoCAD 2000
 90
        0
280
     0
281
     1
  0
CLASS
  1
XRECORD
  2
AcDbXrecord
  3
AutoCAD 2000
 90
        0
280
     0
281
     0
  0
CLASS
  1
LONG_TRANSACTION
  2
AcDbLongTransaction
  3
AutoCAD 2000
 90
        0
280
     0
281
     0
  0
CLASS
  1
LWPOLYLINE
  2
AcDbPolyline
  3
AutoCAD 2000
 90
        0
280
     0
281
     1
  0
CLASS
  1
HATCH
  2
AcDbHatch
  3
AutoCAD 2000
 90
        0
280
     0
281
     1
  0
CLASS
  1
XRECORD
  2
AcDbXrecord
  3
AutoCAD 2000
 90
        0
280
     0
281
     0
  0
CLASS
  1
LONG_TRANSACTION
  2
AcDbLongTransaction
  3
AutoCAD 2000
 90
        0
280
     0
281
     0
  0
CLASS
  1
LWPOLYLINE
  2
AcDbPolyline
  3
AutoCAD 2000
 90
        0
280
     0
281
     1
  0
CLASS
  1
HATCH
  2
AcDbHatch
  3
AutoCAD 2000
 90
        0
280
     0
281
     1
  0
CLASS
  1
XRECORD
  2
AcDbXrecord
  3
AutoCAD 2000
 90
        0
280
     0
281
     0
  0
CLASS
  1
LONG_TRANSACTION
  2
AcDbLongTransaction
  3
AutoCAD 2000
 90
        0
280
     0
281
     0
  0
CLASS
  1
LWPOLYLINE
  2
AcDbPolyline
  3
AutoCAD 2000
 90
        0
280
     0
281
     1
  0
CLASS
  1
HATCH
  2
AcDbHatch
  3
AutoCAD 2000
 90
        0
280
     0
281
     1
  0
CLASS
  1
XRECORD
  2
AcDbXrecord
  3
AutoCAD 2000
 90
        0
280
     0
281
     0
  0
ENDSEC
  0
SECTION
  2
TABLES
  0
TABLE
  2
VPORT
  5
8
330
0
100
AcDbSymbolTable
 70
     4
  0
VPORT
  5
1217
330
8
100
AcDbSymbolTableRecord
100
AcDbViewportTableRecord
  2
*ACTIVE
 70
     0
 10
0.0
 20
0.0
 11
1.0
 21
1.0
 12
26.62465549
 22
15.56554821
 13
0.0
 23
0.0
 14
7.0
 24
7.0
 15
7.0
 25
7.0
 16
0.0
 26
0.0
 36
1.0
 17
0.0
 27
0.0
 37
0.0
 40
90.43433994
 41
1.43184713
 42
50.0
 43
0.0
 44
0.0
 50
0.0
 51
0.0
 71
     0
 72
  2000
 73
     1
 74
     0
 75
     0
 76
     0
 77
     0
 78
     0
  0
ENDTAB
  0
TABLE
  2
LTYPE
  5
5
330
0
100
AcDbSymbolTable
 70
     3
  0
LTYPE
  5
14
330
5
100
AcDbSymbolTableRecord
100
AcDbLinetypeTableRecord
  2
BYBLOCK
 70
     0
  3

 72
    65
 73
     0
 40
0.0
  0
LTYPE
  5
15
330
5
100
AcDbSymbolTableRecord
100
AcDbLinetypeTableRecord
  2
BYLAYER
 70
     0
  3

 72
    65
 73
     0
 40
0.0
  0
LTYPE
  5
16
330
5
100
AcDbSymbolTableRecord
100
AcDbLinetypeTableRecord
  2
CONTINUOUS
 70
     0
  3
Solid line
 72
    65
 73
     0
 40
0.0
  0
LTYPE
  5
258
330
5
100
AcDbSymbolTableRecord
100
AcDbLinetypeTableRecord
  2
CENTER2
 70
     0
  3
___ _ ___ _ ___ _ ___ _ ___ _ ___ _ ___ _ ___ _
 72
    65
 73
     4
 40
1.125
 49
0.75
 74
     0
 49
-0.125
 74
     0
 49
0.125
 74
     0
 49
-0.125
 74
     0
  0
LTYPE
  5
25C
330
5
100
AcDbSymbolTableRecord
100
AcDbLinetypeTableRecord
  2
HIDDEN2
 70
     0
  3
_ _ _ _ _ _ _ _ _ _ _ _ _ _ _ _ _ _ _ _ _ _ _ _
 72
    65
 73
     2
 40
0.1875
 49
0.125
 74
     0
 49
-0.0625
 74
     0
  0
ENDTAB
  0
TABLE
  2
LAYER
  5
2
330
0
100
AcDbSymbolTable
 70
     9
  0
LAYER
  5
F
330
2
100
AcDbSymbolTableRecord
100
AcDbLayerTableRecord
  2
0
 70
     0
 62
     7
  6
CONTINUOUS
  0
LAYER
  5
1AA
330
2
100
AcDbSymbolTableRecord
100
AcDbLayerTableRecord
  2
240
 70
     0
 62
     4
  6
CONTINUOUS
  0
LAYER
  5
1AB
330
2
100
AcDbSymbolTableRecord
100
AcDbLayerTableRecord
  2
241
 70
     0
 62
   211
  6
CONTINUOUS
  0
LAYER
  5
1AC
330
2
100
AcDbSymbolTableRecord
100
AcDbLayerTableRecord
  2
242
 70
     0
 62
     3
  6
CONTINUOUS
  0
LAYER
  5
1AF
330
2
100
AcDbSymbolTableRecord
100
AcDbLayerTableRecord
  2
245
 70
     0
 62
     2
  6
CENTER2
  0
LAYER
  5
21E
330
2
100
AcDbSymbolTableRecord
100
AcDbLayerTableRecord
  2
250
 70
     0
 62
     3
  6
CONTINUOUS
  0
LAYER
  5
21F
330
2
100
AcDbSymbolTableRecord
100
AcDbLayerTableRecord
  2
251
 70
     0
 62
    40
  6
CONTINUOUS
  0
LAYER
  5
5C4
330
2
100
AcDbSymbolTableRecord
100
AcDbLayerTableRecord
  2
DEFPOINTS
 70
     0
 62
     7
  6
CONTINUOUS
  0
ENDTAB
  0
TABLE
  2
STYLE
  5
3
330
0
100
AcDbSymbolTable
 70
     2
  0
STYLE
  5
10
330
3
100
AcDbSymbolTableRecord
100
AcDbTextStyleTableRecord
  2
STANDARD
 70
     0
 40
0.0
 41
1.0
 50
0.0
 71
     0
 42
3.0
  3
romans.shx
  4
BIGFONT.SHX
  0
STYLE
  5
339
330
3
100
AcDbSymbolTableRecord
100
AcDbTextStyleTableRecord
  2
YOKO
 70
     0
 40
0.0
 41
1.0
 50
0.0
 71
     0
 42
3.0
  3
romans.shx
  4
extfont.shx
  0
ENDTAB
  0
TABLE
  2
VIEW
  5
6
330
0
100
AcDbSymbolTable
 70
     1
  0
VIEW
  5
1083
330
6
100
AcDbSymbolTableRecord
100
AcDbViewTableRecord
  2
OLE1
 70
     0
 40
90.43433994
 10
26.62465549
 20
15.56554821
 41
129.48815043
 11
0.0
 21
0.0
 31
1.0
 12
0.0
 22
0.0
 32
0.0
 42
50.0
 43
0.0
 44
0.0
 50
0.0
 71
     0
  0
ENDTAB
  0
TABLE
  2
UCS
  5
7
330
0
100
AcDbSymbolTable
 70
     0
  0
ENDTAB
  0
TABLE
  2
APPID
  5
9
330
0
100
AcDbSymbolTable
 70
     9
  0
APPID
  5
11
330
9
100
AcDbSymbolTableRecord
100
AcDbRegAppTableRecord
  2
ACAD
 70
     0
  0
APPID
  5
1B1
330
9
100
AcDbSymbolTableRecord
100
AcDbRegAppTableRecord
  2
GLOBAL
 70
     0
  0
APPID
  5
2A4
330
9
100
AcDbSymbolTableRecord
100
AcDbRegAppTableRecord
  2
DETAIL
 70
     0
  0
APPID
  5
5FD
330
9
100
AcDbSymbolTableRecord
100
AcDbRegAppTableRecord
  2
GRPNAME
 70
     0
  0
APPID
  5
5FE
330
9
100
AcDbSymbolTableRecord
100
AcDbRegAppTableRecord
  2
GPARA
 70
     0
  0
APPID
  5
6C4
330
9
100
AcDbSymbolTableRecord
100
AcDbRegAppTableRecord
  2
DCO15
 70
     0
  0
APPID
  5
6C5
330
9
100
AcDbSymbolTableRecord
100
AcDbRegAppTableRecord
  2
ITEMNAME
 70
     0
  0
APPID
  5
6C6
330
9
100
AcDbSymbolTableRecord
100
AcDbRegAppTableRecord
  2
GRADE_0
 70
     0
  0
APPID
  5
A94
330
9
100
AcDbSymbolTableRecord
100
AcDbRegAppTableRecord
  2
CONTENTBLOCKICON
 70
     0
  0
ENDTAB
  0
TABLE
  2
DIMSTYLE
  5
A
330
0
100
AcDbSymbolTable
 70
     2
  0
DIMSTYLE
105
725
102
{ACAD_REACTORS
330
840
102
}
330
A
100
AcDbSymbolTableRecord
100
AcDbDimStyleTableRecord
  2
BIGT
 70
     0
  3

  4

  5

  6
OPEN
  7
OPEN
 40
1.0
 41
2.23
 42
0.5
 43
2.5
 44
1.0
 45
0.0
 46
0.0
 47
0.0
 48
0.0
140
2.8
141
0.0
142
0.0
143
25.4
144
1.0
145
0.0
146
1.0
147
1.0
 71
     0
 72
     0
 73
     0
 74
     0
 75
     0
 76
     0
 77
     3
 78
     8
170
     0
171
     2
172
     1
173
     1
174
     1
175
     0
176
   256
177
   256
178
    40
270
     2
271
     3
272
     3
273
     2
274
     2
340
10
275
     0
280
     0
281
     0
282
     0
283
     1
284
     8
285
     0
286
     0
287
     3
288
     0
  0
DIMSTYLE
105
82D
102
{ACAD_REACTORS
330
841
330
C65
330
C66
330
CD2
102
}
330
A
100
AcDbSymbolTableRecord
100
AcDbDimStyleTableRecord
  2
BIGT$0
 70
     0
  3

  4
"
  5
OPEN
  6

  7

 40
1.0
 41
2.23
 42
0.5
 43
7.0
 44
1.0
 45
0.0
 46
0.0
 47
0.1
 48
0.1
140
3.0
141
0.0
142
0.0
143
0.0393701
144
1.0
145
0.0
146
0.71
147
1.0
 71
     0
 72
     0
 73
     0
 74
     0
 75
     0
 76
     0
 77
     3
 78
     8
170
     0
171
     2
172
     1
173
     0
174
     0
175
     0
176
     3
177
     3
178
    40
270
     2
271
     3
272
     3
273
     2
274
     2
340
10
275
     0
280
     0
281
     0
282
     0
283
     1
284
     8
285
     0
286
     0
287
     3
288
     0
  0
ENDTAB
  0
TABLE
  2
BLOCK_RECORD
  5
1
330
0
100
AcDbSymbolTable
 70
     9
  0
BLOCK_RECORD
  5
1A
102
{ACAD_XDICTIONARY
360
A92
102
}
330
1
100
AcDbSymbolTableRecord
100
AcDbBlockTableRecord
  2
*MODEL_SPACE
  0
BLOCK_RECORD
  5
17
102
{ACAD_XDICTIONARY
360
A90
102
}
330
1
100
AcDbSymbolTableRecord
100
AcDbBlockTableRecord
  2
*PAPER_SPACE
  0
BLOCK_RECORD
  5
594
330
1
100
AcDbSymbolTableRecord
100
AcDbBlockTableRecord
  2
_OPEN
  0
BLOCK_RECORD
  5
6E3
330
1
100
AcDbSymbolTableRecord
100
AcDbBlockTableRecord
  2
矢印なし
  0
BLOCK_RECORD
  5
76C
330
1
100
AcDbSymbolTableRecord
100
AcDbBlockTableRecord
  2
1
1001
CONTENTBLOCKICON
1071
        0
1004
2800000020000000200000000100080000000000000400000000000000000000000000000000000000000000000080000080000000808000800000008000800080800000C0C0C000C0DCC000F0CAA6000020400000206000002080000020A0000020C0000020E00000400000004020000040400000406000004080000040A0
1004
000040C0000040E00000600000006020000060400000606000006080000060A0000060C0000060E00000800000008020000080400000806000008080000080A0000080C0000080E00000A0000000A0200000A0400000A0600000A0800000A0A00000A0C00000A0E00000C0000000C0200000C0400000C0600000C0800000C0
1004
A00000C0C00000C0E00000E0000000E0200000E0400000E0600000E0800000E0A00000E0C00000E0E00040000000400020004000400040006000400080004000A0004000C0004000E00040200000402020004020400040206000402080004020A0004020C0004020E000404000004040200040404000404060004040800040
1004
40A0004040C0004040E00040600000406020004060400040606000406080004060A0004060C0004060E00040800000408020004080400040806000408080004080A0004080C0004080E00040A0000040A0200040A0400040A0600040A0800040A0A00040A0C00040A0E00040C0000040C0200040C0400040C0600040C08000
1004
40C0A00040C0C00040C0E00040E0000040E0200040E0400040E0600040E0800040E0A00040E0C00040E0E00080000000800020008000400080006000800080008000A0008000C0008000E00080200000802020008020400080206000802080008020A0008020C0008020E00080400000804020008040400080406000804080
1004
008040A0008040C0008040E00080600000806020008060400080606000806080008060A0008060C0008060E00080800000808020008080400080806000808080008080A0008080C0008080E00080A0000080A0200080A0400080A0600080A0800080A0A00080A0C00080A0E00080C0000080C0200080C0400080C0600080C0
1004
800080C0A00080C0C00080C0E00080E0000080E0200080E0400080E0600080E0800080E0A00080E0C00080E0E000C0000000C0002000C0004000C0006000C0008000C000A000C000C000C000E000C0200000C0202000C0204000C0206000C0208000C020A000C020C000C020E000C0400000C0402000C0404000C0406000C0
1004
408000C040A000C040C000C040E000C0600000C0602000C0604000C0606000C0608000C060A000C060C000C060E000C0800000C0802000C0804000C0806000C0808000C080A000C080C000C080E000C0A00000C0A02000C0A04000C0A06000C0A08000C0A0A000C0A0C000C0A0E000C0C00000C0C02000C0C04000C0C06000
1004
C0C08000C0C0A000F0FBFF00A4A0A000808080000000FF0000FF000000FFFF00FF000000FF00FF00FFFF0000FFFFFF0000000000000000000000000000000000000000000000000000000000000000000000000000000000000000000000000000000000000000000000000000000000000000000000000000000000000000
1004
00000000000000000000000000000000000000000000000000000000000000000000000000000000000000000000000000000000000000000000000000000000000000000000000000000000000000000000000000000000000000000000000000000000000000000000000000000000000000000000000000000000000000
1004
00000000000000000000000000000000000000000000000000000000000000000000000000000000000000000000000000000000000000000000000000000000000000000000000000000000000000000000000000000000000000000000000000000000000000000000000000000000000000000000000000FEFEFEFEE7FE
1004
FE0000000000000000000000000000000000000000FEFEFEFEFEFE0000E7E7E7E7FEFE0000000000000000000000000000000000FE0000000000E70000E7E7E7E7E7E7FE00000000000000000000000000000000FE0000000000E7000000E7E7E700E7FEFEFEFEFEFEFEFEFEFEFEFEFEFE000000FEFEE7000000E70000E7E7
1004
E7E700E70000000000000000FEE7000000FE00000000FEE700E7FBE70000E700FBE700E70000000000000000E7E7000000FE000000FBFEE7FBE7FBE7FBFBE7FBFBE7E7FAE7E7E7E7E7E7E7E7E7E7E7E7E7FEFB0000FEE7E7000000E70000E7E7E7E700FAFAFAFAFAFAE7E7E7FEE7E7E7E7FE000000FE0000000000E7000000
1004
E7E7E700E7FEFEFEFEFEFEFEFEFEFEFEFEFEFE000000FE0000000000E7000000E7E7E700FEFE0000000000000000000000000000000000FEFEFEFEFEFE000000E7E7FEFEFE0000000000000000000000000000000000000000000000FEFEFEFEFEFEFE00000000000000000000000000000000000000000000000000000000
1004
00000000000000000000000000000000000000000000000000000000000000000000000000000000000000000000000000000000000000000000000000000000000000000000000000000000000000000000000000000000000000000000000000000000000000000000000000000000000000000000000000000000000000
1004
00000000000000000000000000000000000000000000000000000000000000000000000000000000000000000000000000000000000000000000000000000000000000000000000000000000000000000000000000000000000000000000000000000000000000000000000000000000000000000000000000000000000000
1004
0000000000000000000000000000000000000000000000000000000000000000000000000000000000000000000000000000000000000000
  0
BLOCK_RECORD
  5
814
330
1
100
AcDbSymbolTableRecord
100
AcDbBlockTableRecord
  2
_NONE
  0
BLOCK_RECORD
  5
844
330
1
100
AcDbSymbolTableRecord
100
AcDbBlockTableRecord
  2
*D4
  0
BLOCK_RECORD
  5
850
330
1
100
AcDbSymbolTableRecord
100
AcDbBlockTableRecord
  2
*D5
  0
BLOCK_RECORD
  5
C71
330
1
100
AcDbSymbolTableRecord
100
AcDbBlockTableRecord
  2
*D6
  0
BLOCK_RECORD
  5
C7B
330
1
100
AcDbSymbolTableRecord
100
AcDbBlockTableRecord
  2
*D7
  0
BLOCK_RECORD
  5
CD3
330
1
100
AcDbSymbolTableRecord
100
AcDbBlockTableRecord
  2
*D8
  0
ENDTAB
  0
ENDSEC
  0
SECTION
  2
BLOCKS
  0
BLOCK
  5
1B
330
1A
100
AcDbEntity
  8
0
100
AcDbBlockBegin
  2
*MODEL_SPACE
 70
     0
 10
0.0
 20
0.0
 30
0.0
  3
*MODEL_SPACE
  1

  0
ENDBLK
  5
1C
330
1A
100
AcDbEntity
  8
0
100
AcDbBlockEnd
  0
BLOCK
  5
18
330
17
100
AcDbEntity
 67
     1
  8
0
100
AcDbBlockBegin
  2
*PAPER_SPACE
 70
     0
 10
0.0
 20
0.0
 30
0.0
  3
*PAPER_SPACE
  1

  0
ENDBLK
  5
19
330
17
100
AcDbEntity
 67
     1
  8
0
100
AcDbBlockEnd
  0
BLOCK
  5
598
330
594
100
AcDbEntity
  8
0
100
AcDbBlockBegin
  2
_OPEN
 70
     0
 10
0.0
 20
0.0
 30
0.0
  3
_OPEN
  1

  0
LINE
  5
595
330
594
100
AcDbEntity
  8
0
  6
BYBLOCK
 62
     0
100
AcDbLine
 10
-1.0
 20
0.16666667
 30
0.0
 11
0.0
 21
0.0
 31
0.0
  0
LINE
  5
596
330
594
100
AcDbEntity
  8
0
  6
BYBLOCK
 62
     0
100
AcDbLine
 10
-1.0
 20
-0.16666667
 30
0.0
 11
0.0
 21
0.0
 31
0.0
  0
LINE
  5
597
330
594
100
AcDbEntity
  8
0
  6
BYBLOCK
 62
     0
100
AcDbLine
 10
0.0
 20
0.0
 30
0.0
 11
-1.0
 21
0.0
 31
0.0
  0
ENDBLK
  5
599
330
594
100
AcDbEntity
  8
0
100
AcDbBlockEnd
  0
BLOCK
  5
6E4
330
6E3
100
AcDbEntity
  8
0
100
AcDbBlockBegin
  2
矢印なし
 70
     0
 10
0.0
 20
0.0
 30
0.0
  3
矢印なし
  1

  0
ENDBLK
  5
6E5
330
6E3
100
AcDbEntity
  8
0
100
AcDbBlockEnd
  0
BLOCK
  5
7FA
330
76C
100
AcDbEntity
  8
0
100
AcDbBlockBegin
  2
1
 70
     0
 10
0.0
 20
0.0
 30
0.0
  3
1
  1

  0
LINE
  5
1159
330
76C
100
AcDbEntity
  8
245
  6
CENTER2
100
AcDbLine
 10
-20.0
 20
0.0
 30
0.0
 11
76.0
 21
0.0
 31
0.0
  0
LINE
  5
115A
330
76C
100
AcDbEntity
  8
241
  6
HIDDEN2
100
AcDbLine
 10
46.52
 20
4.0000001
 30
0.0
 11
49.02
 21
4.0000001
 31
0.0
1001
GRPNAME
1000
PASTMD08
  0
LINE
  5
115B
330
76C
100
AcDbEntity
  8
240
100
AcDbLine
 10
56.62769417
 20
-7.02268531
 30
0.0
 11
30.23853277
 21
-9.33143776
 31
0.0
  0
LINE
  5
115C
330
76C
100
AcDbEntity
  8
240
100
AcDbLine
 10
56.62769429
 20
7.02268509
 30
0.0
 11
30.23853277
 21
9.33143757
 31
0.0
  0
LINE
  5
115D
330
76C
100
AcDbEntity
  8
242
  6
CONTINUOUS
100
AcDbLine
 10
20.5
 20
-10.89685973
 30
0.0
 11
27.23237945
 21
-14.2719565
 31
0.0
  0
LINE
  5
115E
330
76C
100
AcDbEntity
  8
242
  6
CONTINUOUS
100
AcDbLine
 10
27.5
 20
-10.89685973
 30
0.0
 11
20.5
 21
-14.40612084
 31
0.0
  0
LINE
  5
115F
330
76C
100
AcDbEntity
  8
241
  6
CONTINUOUS
100
AcDbLine
 10
17.0
 20
-12.6
 30
0.0
 11
17.0
 21
-17.4
 31
0.0
1001
GRPNAME
1000
PASTMD0J
  0
LINE
  5
1160
330
76C
100
AcDbEntity
  8
241
  6
CONTINUOUS
100
AcDbLine
 10
15.0
 20
-12.6
 30
0.0
 11
15.0
 21
-17.4
 31
0.0
1001
GRPNAME
1000
PASTMD0J
  0
LINE
  5
1161
330
76C
100
AcDbEntity
  8
241
  6
CONTINUOUS
100
AcDbLine
 10
20.5
 20
-14.40612084
 30
0.0
 11
20.5
 21
-10.89685973
 31
0.0
  0
LINE
  5
1162
330
76C
100
AcDbEntity
  8
241
100
AcDbLine
 10
20.0
 20
-16.8
 30
0.0
 11
20.0
 21
0.0
 31
0.0
  0
LINE
  5
1163
330
76C
100
AcDbEntity
  8
245
  6
CENTER2
100
AcDbLine
 10
16.0
 20
-20.0
 30
0.0
 11
16.0
 21
20.0
 31
0.0
1001
GRPNAME
1000
PASTMD0J
  0
LINE
  5
1164
330
76C
100
AcDbEntity
  8
240
  6
CONTINUOUS
100
AcDbLine
 10
-20.0
 20
-13.43900062
 30
0.0
 11
-20.0
 21
-4.825
 31
0.0
1001
GRPNAME
1000
PASTMD0J
  0
LINE
  5
1165
330
76C
100
AcDbEntity
  8
241
  6
CONTINUOUS
100
AcDbLine
 10
0.0
 20
-15.1
 30
0.0
 11
0.0
 21
0.0
 31
0.0
1001
GRPNAME
1000
PASTMD0J
  0
LINE
  5
1166
330
76C
100
AcDbEntity
  8
241
100
AcDbLine
 10
-2.0
 20
-15.1
 30
0.0
 11
-2.0
 21
0.0
 31
0.0
  0
ARC
  5
1167
330
76C
100
AcDbEntity
  8
241
  6
CONTINUOUS
100
AcDbCircle
 10
12.47213595
 20
-16.5
 30
0.0
 40
4.5
100
AcDbArc
 50
90.0
 51
173.62062979
1001
GRPNAME
1000
PASTMD0J
  0
LINE
  5
1168
330
76C
100
AcDbEntity
  8
240
100
AcDbLine
 10
27.5
 20
-12.32002186
 30
0.0
 11
27.5
 21
-14.11744571
 31
0.0
  0
LINE
  5
1169
330
76C
100
AcDbEntity
  8
240
  6
CONTINUOUS
100
AcDbLine
 10
0.5
 20
-20.0
 30
0.0
 11
13.97927406
 21
-20.0
 31
0.0
1001
GRPNAME
1000
PASTMD0J
  0
LINE
  5
116A
330
76C
100
AcDbEntity
  8
241
  6
CONTINUOUS
100
AcDbLine
 10
8.0
 20
-16.0
 30
0.0
 11
13.97927406
 21
-16.0
 31
0.0
1001
GRPNAME
1000
PASTMD0J
  0
LINE
  5
116B
330
76C
100
AcDbEntity
  8
240
  6
CONTINUOUS
100
AcDbLine
 10
-2.0
 20
-15.1
 30
0.0
 11
-19.23995009
 21
-14.2380025
 31
0.0
1001
GRPNAME
1000
PASTMD0J
  0
ARC
  5
116C
330
76C
100
AcDbEntity
  8
240
  6
CONTINUOUS
100
AcDbCircle
 10
-19.2
 20
-13.43900062
 30
0.0
 40
0.8000000000000111
100
AcDbArc
 50
179.99999999
 51
267.13759477
1001
GRPNAME
1000
PASTMD0J
  0
LINE
  5
116D
330
76C
100
AcDbEntity
  8
240
  6
CONTINUOUS
100
AcDbLine
 10
0.0
 20
-19.5
 30
0.0
 11
0.0
 21
-15.1
 31
0.0
1001
GRPNAME
1000
PASTMD0J
  0
ARC
  5
116E
330
76C
100
AcDbEntity
  8
240
  6
CONTINUOUS
100
AcDbCircle
 10
0.5
 20
-19.5
 30
0.0
 40
0.5
100
AcDbArc
 50
179.99999999
 51
269.99999999
1001
GRPNAME
1000
PASTMD0J
  0
LINE
  5
116F
330
76C
100
AcDbEntity
  8
240
100
AcDbLine
 10
-2.0
 20
-15.1
 30
0.0
 11
0.0
 21
-15.1
 31
0.0
  0
LINE
  5
1170
330
76C
100
AcDbEntity
  8
240
  6
CONTINUOUS
100
AcDbLine
 10
20.5
 20
-14.40612084
 30
0.0
 11
27.0
 21
-14.40612084
 31
0.0
  0
LINE
  5
1171
330
76C
100
AcDbEntity
  8
240
  6
CONTINUOUS
100
AcDbLine
 10
17.0
 20
-18.23205081
 30
0.0
 11
18.02072594
 21
-20.0
 31
0.0
1001
GRPNAME
1000
PASTMD0J
  0
LINE
  5
1172
330
76C
100
AcDbEntity
  8
240
  6
CONTINUOUS
100
AcDbLine
 10
15.0
 20
-18.23205081
 30
0.0
 11
13.97927406
 21
-20.0
 31
0.0
1001
GRPNAME
1000
PASTMD0J
  0
LINE
  5
1173
330
76C
100
AcDbEntity
  8
241
  6
CONTINUOUS
100
AcDbLine
 10
13.97927406
 20
-20.0
 30
0.0
 11
13.97927406
 21
-16.0
 31
0.0
1001
GRPNAME
1000
PASTMD0J
  0
LINE
  5
1174
330
76C
100
AcDbEntity
  8
241
  6
CONTINUOUS
100
AcDbLine
 10
18.02072594
 20
-20.0
 30
0.0
 11
18.02072594
 21
-16.0
 31
0.0
1001
GRPNAME
1000
PASTMD0J
  0
LINE
  5
1175
330
76C
100
AcDbEntity
  8
240
  6
CONTINUOUS
100
AcDbLine
 10
20.0
 20
-16.8
 30
0.0
 11
20.0
 21
-19.5
 31
0.0
1001
GRPNAME
1000
PASTMD0J
  0
ARC
  5
1176
330
76C
100
AcDbEntity
  8
240
  6
CONTINUOUS
100
AcDbCircle
 10
19.5
 20
-19.5
 30
0.0
 40
0.5
100
AcDbArc
 50
269.99999999
 51
359.99999999
1001
GRPNAME
1000
PASTMD0J
  0
LINE
  5
1177
330
76C
100
AcDbEntity
  8
240
  6
CONTINUOUS
100
AcDbLine
 10
18.02072594
 20
-20.0
 30
0.0
 11
19.5
 21
-20.0
 31
0.0
1001
GRPNAME
1000
PASTMD0J
  0
LINE
  5
1178
330
76C
100
AcDbEntity
  8
240
  6
CONTINUOUS
100
AcDbLine
 10
15.0
 20
-17.4
 30
0.0
 11
17.0
 21
-17.4
 31
0.0
1001
GRPNAME
1000
PASTMD0J
  0
LINE
  5
1179
330
76C
100
AcDbEntity
  8
241
  6
CONTINUOUS
100
AcDbLine
 10
15.0
 20
-13.72616759
 30
0.0
 11
13.97927406
 21
-16.0
 31
0.0
1001
GRPNAME
1000
PASTMD0J
  0
LINE
  5
117A
330
76C
100
AcDbEntity
  8
240
  6
CONTINUOUS
100
AcDbLine
 10
15.0
 20
-17.4
 30
0.0
 11
15.0
 21
-18.23205081
 31
0.0
1001
GRPNAME
1000
PASTMD0J
  0
LINE
  5
117B
330
76C
100
AcDbEntity
  8
240
  6
CONTINUOUS
100
AcDbLine
 10
20.0
 20
-16.8
 30
0.0
 11
20.5
 21
-16.8
 31
0.0
  0
LINE
  5
117C
330
76C
100
AcDbEntity
  8
240
  6
CONTINUOUS
100
AcDbLine
 10
20.5
 20
-16.8
 30
0.0
 11
20.5
 21
-14.40612084
 31
0.0
  0
LINE
  5
117D
330
76C
100
AcDbEntity
  8
241
  6
CONTINUOUS
100
AcDbLine
 10
18.02072594
 20
-16.0
 30
0.0
 11
17.0
 21
-13.72616759
 31
0.0
1001
GRPNAME
1000
PASTMD0J
  0
LINE
  5
117E
330
76C
100
AcDbEntity
  8
241
  6
CONTINUOUS
100
AcDbLine
 10
18.02072594
 20
-16.0
 30
0.0
 11
20.0
 21
-16.0
 31
0.0
1001
GRPNAME
1000
PASTMD0J
  0
LINE
  5
117F
330
76C
100
AcDbEntity
  8
240
  6
CONTINUOUS
100
AcDbLine
 10
17.0
 20
-18.23205081
 30
0.0
 11
17.0
 21
-17.4
 31
0.0
1001
GRPNAME
1000
PASTMD0J
  0
LINE
  5
1180
330
76C
100
AcDbEntity
  8
240
100
AcDbLine
 10
27.0
 20
-14.40612084
 30
0.0
 11
27.5
 21
-14.11744571
 31
0.0
  0
ARC
  5
1181
330
76C
100
AcDbEntity
  8
241
  6
CONTINUOUS
100
AcDbCircle
 10
12.5
 20
0.0
 30
0.0
 40
4.5
100
AcDbArc
 50
179.99999999
 51
269.99999999
1001
GRPNAME
1000
PASTMD0J
  0
LINE
  5
1182
330
76C
100
AcDbEntity
  8
240
  6
CONTINUOUS
100
AcDbLine
 10
0.5
 20
20.0
 30
0.0
 11
13.97927406
 21
20.0
 31
0.0
1001
GRPNAME
1000
PASTMD0J
  0
ARC
  5
1183
330
76C
100
AcDbEntity
  8
241
  6
CONTINUOUS
100
AcDbCircle
 10
12.5
 20
0.0
 30
0.0
 40
4.5
100
AcDbArc
 50
90.00000001
 51
180.00000001
1001
GRPNAME
1000
PASTMD0J
  0
LINE
  5
1184
330
76C
100
AcDbEntity
  8
241
  6
CONTINUOUS
100
AcDbLine
 10
0.0
 20
15.1
 30
0.0
 11
0.0
 21
0.0
 31
0.0
1001
GRPNAME
1000
PASTMD0J
  0
LINE
  5
1185
330
76C
100
AcDbEntity
  8
241
100
AcDbLine
 10
-2.0
 20
15.1
 30
0.0
 11
-2.0
 21
0.0
 31
0.0
  0
LINE
  5
1186
330
76C
100
AcDbEntity
  8
240
  6
CONTINUOUS
100
AcDbLine
 10
-20.0
 20
4.825
 30
0.0
 11
-20.0
 21
13.43900062
 31
0.0
1001
GRPNAME
1000
PASTMD0J
  0
CIRCLE
  5
1187
330
76C
100
AcDbEntity
  8
241
  6
CONTINUOUS
100
AcDbCircle
 10
-6.0
 20
0.0
 30
0.0
 40
2.299999999999998
1001
GRPNAME
1000
PASTMD0J
  0
LINE
  5
1188
330
76C
100
AcDbEntity
  8
241
  6
HIDDEN2
100
AcDbLine
 10
-14.0
 20
-3.025
 30
0.0
 11
-14.0
 21
0.0
 31
0.0
1001
GRPNAME
1000
PASTMD0J
  0
LINE
  5
1189
330
76C
100
AcDbEntity
  8
245
  6
CENTER2
100
AcDbLine
 10
-6.0
 20
-3.3
 30
0.0
 11
-6.0
 21
3.3
 31
0.0
1001
GRPNAME
1000
PASTMD0J
  0
LINE
  5
118A
330
76C
100
AcDbEntity
  8
240
  6
CONTINUOUS
100
AcDbLine
 10
-16.5
 20
-3.025
 30
0.0
 11
-16.5
 21
0.0
 31
0.0
1001
GRPNAME
1000
PASTMD0J
  0
ARC
  5
118B
330
76C
100
AcDbEntity
  8
241
  6
HIDDEN2
100
AcDbCircle
 10
-15.0
 20
-3.025
 30
0.0
 40
1.0
100
AcDbArc
 50
269.99999999
 51
359.99999999
1001
GRPNAME
1000
PASTMD0J
  0
LINE
  5
118C
330
76C
100
AcDbEntity
  8
240
  6
CONTINUOUS
100
AcDbLine
 10
-19.2
 20
-4.025
 30
0.0
 11
-17.5
 21
-4.025
 31
0.0
1001
GRPNAME
1000
PASTMD0J
  0
LINE
  5
118D
330
76C
100
AcDbEntity
  8
240
  6
CONTINUOUS
100
AcDbLine
 10
-20.0
 20
-4.825
 30
0.0
 11
-19.2
 21
-4.025
 31
0.0
1001
GRPNAME
1000
PASTMD0J
  0
LINE
  5
118E
330
76C
100
AcDbEntity
  8
241
  6
HIDDEN2
100
AcDbLine
 10
-17.5
 20
-4.025
 30
0.0
 11
-15.0
 21
-4.025
 31
0.0
1001
GRPNAME
1000
PASTMD0J
  0
ARC
  5
118F
330
76C
100
AcDbEntity
  8
240
  6
CONTINUOUS
100
AcDbCircle
 10
-17.5
 20
-3.025
 30
0.0
 40
1.0
100
AcDbArc
 50
269.99999999
 51
359.99999999
1001
GRPNAME
1000
PASTMD0J
  0
ARC
  5
1190
330
76C
100
AcDbEntity
  8
241
  6
HIDDEN2
100
AcDbCircle
 10
-15.0
 20
3.025
 30
0.0
 40
1.0
100
AcDbArc
 50
0.0
 51
90.0
1001
GRPNAME
1000
PASTMD0J
  0
LINE
  5
1191
330
76C
100
AcDbEntity
  8
240
  6
CONTINUOUS
100
AcDbLine
 10
-19.2
 20
4.025
 30
0.0
 11
-17.5
 21
4.025
 31
0.0
1001
GRPNAME
1000
PASTMD0J
  0
LINE
  5
1192
330
76C
100
AcDbEntity
  8
240
  6
CONTINUOUS
100
AcDbLine
 10
-19.2
 20
4.025
 30
0.0
 11
-20.0
 21
4.825
 31
0.0
1001
GRPNAME
1000
PASTMD0J
  0
ARC
  5
1193
330
76C
100
AcDbEntity
  8
240
  6
CONTINUOUS
100
AcDbCircle
 10
-17.5
 20
3.025
 30
0.0
 40
1.0
100
AcDbArc
 50
0.0
 51
90.0
1001
GRPNAME
1000
PASTMD0J
  0
LINE
  5
1194
330
76C
100
AcDbEntity
  8
241
  6
HIDDEN2
100
AcDbLine
 10
-17.5
 20
4.025
 30
0.0
 11
-15.0
 21
4.025
 31
0.0
1001
GRPNAME
1000
PASTMD0J
  0
LINE
  5
1195
330
76C
100
AcDbEntity
  8
240
  6
CONTINUOUS
100
AcDbLine
 10
-16.5
 20
3.025
 30
0.0
 11
-16.5
 21
0.0
 31
0.0
1001
GRPNAME
1000
PASTMD0J
  0
LINE
  5
1196
330
76C
100
AcDbEntity
  8
241
  6
HIDDEN2
100
AcDbLine
 10
-14.0
 20
3.025
 30
0.0
 11
-14.0
 21
0.0
 31
0.0
1001
GRPNAME
1000
PASTMD0J
  0
LINE
  5
1197
330
76C
100
AcDbEntity
  8
240
  6
CONTINUOUS
100
AcDbLine
 10
-2.0
 20
15.1
 30
0.0
 11
-19.23995009
 21
14.2380025
 31
0.0
1001
GRPNAME
1000
PASTMD0J
  0
ARC
  5
1198
330
76C
100
AcDbEntity
  8
240
  6
CONTINUOUS
100
AcDbCircle
 10
-19.2
 20
13.43900062
 30
0.0
 40
0.8000000000000191
100
AcDbArc
 50
92.86240523
 51
180.0
1001
GRPNAME
1000
PASTMD0J
  0
LINE
  5
1199
330
76C
100
AcDbEntity
  8
240
  6
CONTINUOUS
100
AcDbLine
 10
0.0
 20
15.1
 30
0.0
 11
0.0
 21
19.5
 31
0.0
1001
GRPNAME
1000
PASTMD0J
  0
LINE
  5
119A
330
76C
100
AcDbEntity
  8
240
100
AcDbLine
 10
-2.0
 20
15.1
 30
0.0
 11
0.0
 21
15.1
 31
0.0
  0
ARC
  5
119B
330
76C
100
AcDbEntity
  8
240
  6
CONTINUOUS
100
AcDbCircle
 10
0.5
 20
19.5
 30
0.0
 40
0.5
100
AcDbArc
 50
89.99999999
 51
179.99999999
1001
GRPNAME
1000
PASTMD0J
  0
LINE
  5
119C
330
76C
100
AcDbEntity
  8
241
100
AcDbLine
 10
20.0
 20
16.8
 30
0.0
 11
20.0
 21
0.0
 31
0.0
  0
LINE
  5
119D
330
76C
100
AcDbEntity
  8
241
  6
CONTINUOUS
100
AcDbLine
 10
17.0
 20
4.5
 30
0.0
 11
17.0
 21
17.4
 31
0.0
1001
GRPNAME
1000
PASTMD0J
  0
LINE
  5
119E
330
76C
100
AcDbEntity
  8
241
  6
CONTINUOUS
100
AcDbLine
 10
18.02072594
 20
4.5
 30
0.0
 11
18.02072594
 21
20.0
 31
0.0
1001
GRPNAME
1000
PASTMD0J
  0
LINE
  5
119F
330
76C
100
AcDbEntity
  8
241
  6
CONTINUOUS
100
AcDbLine
 10
15.0
 20
4.5
 30
0.0
 11
15.0
 21
17.4
 31
0.0
1001
GRPNAME
1000
PASTMD0J
  0
LINE
  5
11A0
330
76C
100
AcDbEntity
  8
241
  6
CONTINUOUS
100
AcDbLine
 10
13.97927406
 20
4.5
 30
0.0
 11
13.97927406
 21
20.0
 31
0.0
1001
GRPNAME
1000
PASTMD0J
  0
LINE
  5
11A1
330
76C
100
AcDbEntity
  8
241
100
AcDbLine
 10
27.5
 20
12.32002186
 30
0.0
 11
27.5
 21
0.0
 31
0.0
  0
ARC
  5
11A2
330
76C
100
AcDbEntity
  8
240
100
AcDbCircle
 10
30.5
 20
12.32002167
 30
0.0
 40
3.0
100
AcDbArc
 50
180.0
 51
265.0
  0
LINE
  5
11A3
330
76C
100
AcDbEntity
  8
242
  6
HIDDEN2
100
AcDbLine
 10
26.02
 20
3.5
 30
0.0
 11
46.52
 21
3.5
 31
0.0
  0
ARC
  5
11A4
330
76C
100
AcDbEntity
  8
240
100
AcDbCircle
 10
30.5
 20
-12.32002186
 30
0.0
 40
3.0
100
AcDbArc
 50
95.0
 51
180.0
  0
LINE
  5
11A5
330
76C
100
AcDbEntity
  8
241
  6
HIDDEN2
100
AcDbLine
 10
46.52
 20
3.2
 30
0.0
 11
20.0
 21
3.2
 31
0.0
  0
LINE
  5
11A6
330
76C
100
AcDbEntity
  8
241
100
AcDbLine
 10
27.5
 20
-12.32002186
 30
0.0
 11
27.5
 21
0.0
 31
0.0
  0
LINE
  5
11A7
330
76C
100
AcDbEntity
  8
241
  6
CONTINUOUS
100
AcDbLine
 10
20.5
 20
-10.89685973
 30
0.0
 11
27.5
 21
-10.89685973
 31
0.0
  0
LINE
  5
11A8
330
76C
100
AcDbEntity
  8
241
  6
CONTINUOUS
100
AcDbLine
 10
15.0
 20
-4.5
 30
0.0
 11
15.0
 21
-12.0
 31
0.0
1001
GRPNAME
1000
PASTMD0J
  0
LINE
  5
11A9
330
76C
100
AcDbEntity
  8
241
  6
CONTINUOUS
100
AcDbLine
 10
17.0
 20
-4.5
 30
0.0
 11
17.0
 21
-12.0
 31
0.0
1001
GRPNAME
1000
PASTMD0J
  0
LINE
  5
11AA
330
76C
100
AcDbEntity
  8
241
  6
CONTINUOUS
100
AcDbLine
 10
13.97927406
 20
-12.0
 30
0.0
 11
13.97927406
 21
-4.5
 31
0.0
1001
GRPNAME
1000
PASTMD0J
  0
LINE
  5
11AB
330
76C
100
AcDbEntity
  8
241
  6
CONTINUOUS
100
AcDbLine
 10
18.02072594
 20
-12.0
 30
0.0
 11
18.02072594
 21
-4.5
 31
0.0
1001
GRPNAME
1000
PASTMD0J
  0
LINE
  5
11AC
330
76C
100
AcDbEntity
  8
241
  6
CONTINUOUS
100
AcDbLine
 10
15.0
 20
-12.6
 30
0.0
 11
17.0
 21
-12.6
 31
0.0
1001
GRPNAME
1000
PASTMD0J
  0
LINE
  5
11AD
330
76C
100
AcDbEntity
  8
241
  6
CONTINUOUS
100
AcDbLine
 10
12.47213595
 20
-12.0
 30
0.0
 11
20.0
 21
-12.0
 31
0.0
1001
GRPNAME
1000
PASTMD0J
  0
LINE
  5
11AE
330
76C
100
AcDbEntity
  8
241
  6
CONTINUOUS
100
AcDbLine
 10
12.5
 20
-4.5
 30
0.0
 11
20.0
 21
-4.5
 31
0.0
1001
GRPNAME
1000
PASTMD0J
  0
LINE
  5
11AF
330
76C
100
AcDbEntity
  8
241
  6
CONTINUOUS
100
AcDbLine
 10
12.5
 20
4.5
 30
0.0
 11
20.0
 21
4.5
 31
0.0
1001
GRPNAME
1000
PASTMD0J
  0
LINE
  5
11B0
330
76C
100
AcDbEntity
  8
242
  6
HIDDEN2
100
AcDbLine
 10
26.02
 20
0.0
 30
0.0
 11
26.02
 21
3.5
 31
0.0
  0
LINE
  5
11B1
330
76C
100
AcDbEntity
  8
241
  6
HIDDEN2
100
AcDbLine
 10
46.52
 20
4.0000001
 30
0.0
 11
46.52
 21
0.0
 31
0.0
1001
GRPNAME
1000
PASTMD08
  0
LINE
  5
11B2
330
76C
100
AcDbEntity
  8
240
  6
CONTINUOUS
100
AcDbLine
 10
26.5
 20
16.8
 30
0.0
 11
20.0
 21
16.8
 31
0.0
  0
LINE
  5
11B3
330
76C
100
AcDbEntity
  8
240
  6
CONTINUOUS
100
AcDbLine
 10
17.0
 20
18.23205081
 30
0.0
 11
18.02072594
 21
20.0
 31
0.0
1001
GRPNAME
1000
PASTMD0J
  0
LINE
  5
11B4
330
76C
100
AcDbEntity
  8
240
  6
CONTINUOUS
100
AcDbLine
 10
20.0
 20
16.8
 30
0.0
 11
20.0
 21
19.5
 31
0.0
1001
GRPNAME
1000
PASTMD0J
  0
LINE
  5
11B5
330
76C
100
AcDbEntity
  8
240
  6
CONTINUOUS
100
AcDbLine
 10
15.0
 20
18.23205081
 30
0.0
 11
13.97927406
 21
20.0
 31
0.0
1001
GRPNAME
1000
PASTMD0J
  0
LINE
  5
11B6
330
76C
100
AcDbEntity
  8
240
  6
CONTINUOUS
100
AcDbLine
 10
15.0
 20
17.4
 30
0.0
 11
17.0
 21
17.4
 31
0.0
1001
GRPNAME
1000
PASTMD0J
  0
LINE
  5
11B7
330
76C
100
AcDbEntity
  8
240
  6
CONTINUOUS
100
AcDbLine
 10
15.0
 20
17.4
 30
0.0
 11
15.0
 21
18.23205081
 31
0.0
1001
GRPNAME
1000
PASTMD0J
  0
LINE
  5
11B8
330
76C
100
AcDbEntity
  8
240
  6
CONTINUOUS
100
AcDbLine
 10
17.0
 20
17.4
 30
0.0
 11
17.0
 21
18.23205081
 31
0.0
1001
GRPNAME
1000
PASTMD0J
  0
LINE
  5
11B9
330
76C
100
AcDbEntity
  8
240
  6
CONTINUOUS
100
AcDbLine
 10
18.02072594
 20
20.0
 30
0.0
 11
19.5
 21
20.0
 31
0.0
1001
GRPNAME
1000
PASTMD0J
  0
ARC
  5
11BA
330
76C
100
AcDbEntity
  8
240
  6
CONTINUOUS
100
AcDbCircle
 10
19.5
 20
19.5
 30
0.0
 40
0.5
100
AcDbArc
 50
359.99999999
 51
89.99999999
1001
GRPNAME
1000
PASTMD0J
  0
ARC
  5
11BB
330
76C
100
AcDbEntity
  8
240
100
AcDbCircle
 10
26.5
 20
15.8
 30
0.0
 40
1.0
100
AcDbArc
 50
0.0
 51
90.0
  0
LINE
  5
11BC
330
76C
100
AcDbEntity
  8
240
100
AcDbLine
 10
27.5
 20
15.8
 30
0.0
 11
27.5
 21
12.32002167
 31
0.0
  0
LINE
  5
11BD
330
76C
100
AcDbEntity
  8
242
  6
HIDDEN2
100
AcDbLine
 10
71.02
 20
5.5000001
 30
0.0
 11
63.02
 21
5.5000001
 31
0.0
1001
GRPNAME
1000
PASTMD08
  0
LINE
  5
11BE
330
76C
100
AcDbEntity
  8
241
  6
HIDDEN2
100
AcDbLine
 10
70.52
 20
6.0000001
 30
0.0
 11
62.52
 21
6.0000001
 31
0.0
1001
GRPNAME
1000
PASTMD08
  0
LINE
  5
11BF
330
76C
100
AcDbEntity
  8
241
  6
HIDDEN2
100
AcDbLine
 10
62.5
 20
3.0000001
 30
0.0
 11
73.5
 21
3.0000001
 31
0.0
1001
GRPNAME
1000
PASTMD08
  0
LINE
  5
11C0
330
76C
100
AcDbEntity
  8
240
  6
CONTINUOUS
100
AcDbLine
 10
74.0
 20
7.0000001
 30
0.0
 11
60.25980728
 21
7.0000001
 31
0.0
1001
GRPNAME
1000
PASTMD08
  0
LINE
  5
11C1
330
76C
100
AcDbEntity
  8
241
  6
HIDDEN2
100
AcDbLine
 10
61.87595703
 20
3.69999705
 30
0.0
 11
71.55739057
 21
4.547021
 31
0.0
1001
GRPNAME
1000
PASTMD08
  0
LINE
  5
11C2
330
76C
100
AcDbEntity
  8
240
  6
CONTINUOUS
100
AcDbLine
 10
74.0
 20
-6.9999999
 30
0.0
 11
60.25980762
 21
-6.9999999
 31
0.0
1001
GRPNAME
1000
PASTMD08
  0
LINE
  5
11C3
330
76C
100
AcDbEntity
  8
241
  6
CONTINUOUS
100
AcDbLine
 10
56.8869873
 20
-6.90824829
 30
0.0
 11
56.8869873
 21
0.0
 31
0.0
  0
LINE
  5
11C4
330
76C
100
AcDbEntity
  8
241
  6
CONTINUOUS
100
AcDbLine
 10
60.0
 20
-7.1499999
 30
0.0
 11
60.0
 21
0.0
 31
0.0
1001
GRPNAME
1000
PASTMD0B
  0
LINE
  5
11C5
330
76C
100
AcDbEntity
  8
241
  6
CONTINUOUS
100
AcDbLine
 10
57.32
 20
-6.2500001
 30
0.0
 11
57.32
 21
0.0
 31
0.0
  0
LINE
  5
11C6
330
76C
100
AcDbEntity
  8
241
100
AcDbLine
 10
58.0
 20
0.0
 30
0.0
 11
58.0
 21
-6.2500001
 31
0.0
  0
LINE
  5
11C7
330
76C
100
AcDbEntity
  8
241
  6
CONTINUOUS
100
AcDbLine
 10
61.2
 20
-7.0000001
 30
0.0
 11
61.2
 21
0.0
 31
0.0
1001
GRPNAME
1000
PASTMD09
  0
ARC
  5
11C8
330
76C
100
AcDbEntity
  8
240
  6
CONTINUOUS
100
AcDbCircle
 10
56.5841163
 20
-6.52458796
 30
0.0
 40
0.5
100
AcDbArc
 50
274.99999998
 51
329.9999995
  0
LINE
  5
11C9
330
76C
100
AcDbEntity
  8
240
  6
CONTINUOUS
100
AcDbLine
 10
58.0
 20
-6.2500001
 30
0.0
 11
58.0
 21
-6.84999685
 31
0.0
1001
GRPNAME
1000
PASTMD08
  0
LINE
  5
11CA
330
76C
100
AcDbEntity
  8
240
  6
CONTINUOUS
100
AcDbLine
 10
57.31999995
 20
-6.2500001
 30
0.0
 11
57.017129
 21
-6.77458796
 31
0.0
  0
ARC
  5
11CB
330
76C
100
AcDbEntity
  8
240
  6
CONTINUOUS
100
AcDbCircle
 10
58.30000305
 20
-6.84999685
 30
0.0
 40
0.3000030517578125
100
AcDbArc
 50
180.00000001
 51
270.00000069
1001
GRPNAME
1000
PASTMD0B
  0
LINE
  5
11CC
330
76C
100
AcDbEntity
  8
240
  6
CONTINUOUS
100
AcDbLine
 10
60.0
 20
-7.1499999
 30
0.0
 11
58.30000305
 21
-7.1499999
 31
0.0
1001
GRPNAME
1000
PASTMD0B
  0
LINE
  5
11CD
330
76C
100
AcDbEntity
  8
240
100
AcDbLine
 10
60.25980762
 20
-6.9999999
 30
0.0
 11
60.0
 21
-7.1499999
 31
0.0
  0
LINE
  5
11CE
330
76C
100
AcDbEntity
  8
240
  6
CONTINUOUS
100
AcDbLine
 10
57.31999995
 20
-6.2500001
 30
0.0
 11
58.0
 21
-6.2500001
 31
0.0
1001
GRPNAME
1000
PASTMD08
  0
LINE
  5
11CF
330
76C
100
AcDbEntity
  8
241
  6
HIDDEN2
100
AcDbLine
 10
61.87595703
 20
3.69999705
 30
0.0
 11
49.02
 21
3.69999705
 31
0.0
1001
GRPNAME
1000
PASTMD08
  0
LINE
  5
11D0
330
76C
100
AcDbEntity
  8
241
  6
HIDDEN2
100
AcDbLine
 10
62.44226074
 20
3.1000062
 30
0.0
 11
49.02
 21
3.1000062
 31
0.0
1001
GRPNAME
1000
PASTMD08
  0
ARC
  5
11D1
330
76C
100
AcDbEntity
  8
240
  6
CONTINUOUS
100
AcDbCircle
 10
56.58411642
 20
6.52458775
 30
0.0
 40
0.5
100
AcDbArc
 50
30.0000005
 51
85.0
  0
LINE
  5
11D2
330
76C
100
AcDbEntity
  8
241
  6
CONTINUOUS
100
AcDbLine
 10
56.8869873
 20
6.90824829
 30
0.0
 11
56.8869873
 21
0.0
 31
0.0
  0
LINE
  5
11D3
330
76C
100
AcDbEntity
  8
241
  6
HIDDEN2
100
AcDbLine
 10
49.02
 20
4.0000001
 30
0.0
 11
49.02
 21
0.0
 31
0.0
  0
LINE
  5
11D4
330
76C
100
AcDbEntity
  8
242
  6
HIDDEN2
100
AcDbLine
 10
62.52
 20
6.0000001
 30
0.0
 11
63.02
 21
5.5000001
 31
0.0
1001
GRPNAME
1000
PASTMD08
  0
LINE
  5
11D5
330
76C
100
AcDbEntity
  8
241
100
AcDbLine
 10
58.0
 20
0.0
 30
0.0
 11
58.0
 21
6.2500001
 31
0.0
  0
LINE
  5
11D6
330
76C
100
AcDbEntity
  8
241
  6
CONTINUOUS
100
AcDbLine
 10
57.32
 20
6.2500001
 30
0.0
 11
57.32
 21
0.0
 31
0.0
  0
LINE
  5
11D7
330
76C
100
AcDbEntity
  8
241
  6
CONTINUOUS
100
AcDbLine
 10
60.0
 20
7.1499999
 30
0.0
 11
60.0
 21
0.0
 31
0.0
1001
GRPNAME
1000
PASTMD0B
  0
LINE
  5
11D8
330
76C
100
AcDbEntity
  8
241
  6
CONTINUOUS
100
AcDbLine
 10
61.2
 20
7.0000001
 30
0.0
 11
61.2
 21
0.0
 31
0.0
1001
GRPNAME
1000
PASTMD09
  0
LINE
  5
11D9
330
76C
100
AcDbEntity
  8
241
  6
HIDDEN2
100
AcDbLine
 10
62.44226074
 20
3.1000062
 30
0.0
 11
62.5
 21
3.0000001
 31
0.0
1001
GRPNAME
1000
PASTMD08
  0
LINE
  5
11DA
330
76C
100
AcDbEntity
  8
241
  6
HIDDEN2
100
AcDbLine
 10
62.27
 20
6.2500001
 30
0.0
 11
58.0
 21
6.2500001
 31
0.0
1001
GRPNAME
1000
PASTMD08
  0
LINE
  5
11DB
330
76C
100
AcDbEntity
  8
240
100
AcDbLine
 10
60.25980728
 20
7.0000001
 30
0.0
 11
60.0
 21
7.1499999
 31
0.0
  0
LINE
  5
11DC
330
76C
100
AcDbEntity
  8
240
  6
CONTINUOUS
100
AcDbLine
 10
60.0
 20
7.1499999
 30
0.0
 11
58.30000305
 21
7.1499999
 31
0.0
1001
GRPNAME
1000
PASTMD0B
  0
ARC
  5
11DD
330
76C
100
AcDbEntity
  8
240
  6
CONTINUOUS
100
AcDbCircle
 10
58.30000305
 20
6.84999685
 30
0.0
 40
0.3000030517578125
100
AcDbArc
 50
89.99999931
 51
179.99999999
1001
GRPNAME
1000
PASTMD0B
  0
LINE
  5
11DE
330
76C
100
AcDbEntity
  8
240
  6
CONTINUOUS
100
AcDbLine
 10
57.31999995
 20
6.2500001
 30
0.0
 11
58.0
 21
6.2500001
 31
0.0
1001
GRPNAME
1000
PASTMD08
  0
LINE
  5
11DF
330
76C
100
AcDbEntity
  8
240
  6
CONTINUOUS
100
AcDbLine
 10
58.0
 20
6.2500001
 30
0.0
 11
58.0
 21
6.84999685
 31
0.0
1001
GRPNAME
1000
PASTMD08
  0
LINE
  5
11E0
330
76C
100
AcDbEntity
  8
240
  6
CONTINUOUS
100
AcDbLine
 10
57.31999995
 20
6.2500001
 30
0.0
 11
57.01712912
 21
6.77458775
 31
0.0
  0
LINE
  5
11E1
330
76C
100
AcDbEntity
  8
241
  6
HIDDEN2
100
AcDbLine
 10
62.27
 20
6.2500001
 30
0.0
 11
62.52
 21
6.0000001
 31
0.0
1001
GRPNAME
1000
PASTMD08
  0
LINE
  5
11E2
330
76C
100
AcDbEntity
  8
240
  6
CONTINUOUS
100
AcDbLine
 10
75.0
 20
-5.9999999
 30
0.0
 11
75.0
 21
0.0
 31
0.0
1001
GRPNAME
1000
PASTMD08
  0
ARC
  5
11E3
330
76C
100
AcDbEntity
  8
240
  6
CONTINUOUS
100
AcDbCircle
 10
74.0
 20
-5.9999999
 30
0.0
 40
1.0
100
AcDbArc
 50
270.0
 51
0.0
1001
GRPNAME
1000
PASTMD08
  0
ARC
  5
11E4
330
76C
100
AcDbEntity
  8
240
  6
CONTINUOUS
100
AcDbCircle
 10
74.0
 20
6.0000001
 30
0.0
 40
1.0
100
AcDbArc
 50
0.0
 51
90.0
1001
GRPNAME
1000
PASTMD08
  0
LINE
  5
11E5
330
76C
100
AcDbEntity
  8
241
  6
HIDDEN2
100
AcDbLine
 10
74.5
 20
3.05000315
 30
0.0
 11
75.0
 21
3.55000315
 31
0.0
1001
GRPNAME
1000
PASTMD08
  0
LINE
  5
11E6
330
76C
100
AcDbEntity
  8
241
  6
HIDDEN2
100
AcDbLine
 10
70.52
 20
6.0000001
 30
0.0
 11
71.02
 21
5.5000001
 31
0.0
1001
GRPNAME
1000
PASTMD08
  0
LINE
  5
11E7
330
76C
100
AcDbEntity
  8
241
  6
HIDDEN2
100
AcDbLine
 10
71.69999695
 20
4.30000315
 30
0.0
 11
72.30000305
 21
4.30000315
 31
0.0
1001
GRPNAME
1000
PASTMD08
  0
LINE
  5
11E8
330
76C
100
AcDbEntity
  8
241
  6
HIDDEN2
100
AcDbLine
 10
71.55739057
 20
4.547021
 30
0.0
 11
71.69999695
 21
4.30000315
 31
0.0
1001
GRPNAME
1000
PASTMD08
  0
LINE
  5
11E9
330
76C
100
AcDbEntity
  8
241
  6
HIDDEN2
100
AcDbLine
 10
72.69999695
 20
4.69999705
 30
0.0
 11
72.30000305
 21
4.30000315
 31
0.0
1001
GRPNAME
1000
PASTMD08
  0
LINE
  5
11EA
330
76C
100
AcDbEntity
  8
241
  6
HIDDEN2
100
AcDbLine
 10
73.1000061
 20
4.69999705
 30
0.0
 11
73.5
 21
4.30000315
 31
0.0
1001
GRPNAME
1000
PASTMD08
  0
LINE
  5
11EB
330
76C
100
AcDbEntity
  8
241
  6
HIDDEN2
100
AcDbLine
 10
72.69999695
 20
4.69999705
 30
0.0
 11
73.1000061
 21
4.69999705
 31
0.0
1001
GRPNAME
1000
PASTMD08
  0
LINE
  5
11EC
330
76C
100
AcDbEntity
  8
241
  6
HIDDEN2
100
AcDbLine
 10
74.5
 20
3.05000315
 30
0.0
 11
73.5
 21
3.05000315
 31
0.0
1001
GRPNAME
1000
PASTMD08
  0
LINE
  5
11ED
330
76C
100
AcDbEntity
  8
241
  6
HIDDEN2
100
AcDbLine
 10
71.02
 20
5.5000001
 30
0.0
 11
71.02
 21
4.5000001
 31
0.0
1001
GRPNAME
1000
PASTMD08
  0
LINE
  5
11EE
330
76C
100
AcDbEntity
  8
241
  6
HIDDEN2
100
AcDbLine
 10
73.5
 20
0.0
 30
0.0
 11
73.5
 21
4.30000315
 31
0.0
1001
GRPNAME
1000
PASTMD08
  0
LINE
  5
11EF
330
76C
100
AcDbEntity
  8
240
  6
CONTINUOUS
100
AcDbLine
 10
75.0
 20
6.0000001
 30
0.0
 11
75.0
 21
0.0
 31
0.0
1001
GRPNAME
1000
PASTMD08
  0
ENDBLK
  5
7FB
330
76C
100
AcDbEntity
  8
0
100
AcDbBlockEnd
  0
BLOCK
  5
815
330
814
100
AcDbEntity
  8
0
100
AcDbBlockBegin
  2
_NONE
 70
     0
 10
0.0
 20
0.0
 30
0.0
  3
_NONE
  1

  0
ENDBLK
  5
816
330
814
100
AcDbEntity
  8
0
100
AcDbBlockEnd
  0
BLOCK
  5
84E
330
844
100
AcDbEntity
  8
0
100
AcDbBlockBegin
  2
*D4
 70
     1
 10
0.0
 20
0.0
 30
0.0
  3
*D4
  1

  0
LINE
  5
C97
330
844
100
AcDbEntity
  8
250
  6
CONTINUOUS
100
AcDbLine
 10
0.0
 20
20.0
 30
0.0
 11
0.0
 21
36.0
 31
0.0
  0
LINE
  5
C98
330
844
100
AcDbEntity
  8
250
  6
CONTINUOUS
100
AcDbLine
 10
75.0
 20
6.5000001
 30
0.0
 11
75.0
 21
36.0
 31
0.0
  0
LINE
  5
C99
330
844
100
AcDbEntity
  8
250
  6
CONTINUOUS
100
AcDbLine
 10
2.23
 20
35.0
 30
0.0
 11
72.77
 21
35.0
 31
0.0
  0
INSERT
  5
C9A
330
844
100
AcDbEntity
  8
250
  6
CONTINUOUS
100
AcDbBlockReference
  2
_OPEN
 10
0.0
 20
35.0
 30
0.0
 41
2.23
 42
2.23
 43
2.23
 50
180.0
  0
INSERT
  5
C9B
330
844
100
AcDbEntity
  8
250
  6
CONTINUOUS
100
AcDbBlockReference
  2
_OPEN
 10
75.0
 20
35.0
 30
0.0
 41
2.23
 42
2.23
 43
2.23
  0
MTEXT
  5
C9C
330
844
100
AcDbEntity
  8
250
  6
CONTINUOUS
 62
    40
100
AcDbMText
 10
37.19567653
 20
37.4
 30
0.0
 40
2.8
 41
0.0
 71
     5
 72
     1
  1
\A1;75
1001
ACAD
1000
MTEXTBEGIN
1070
    73
1070
     1
1070
    44
1040
1.0
1070
    74
1070
     0
1000
MTEXTEND
1000
MTEXTBEGIN
1070
    73
1070
     1
1070
    44
1040
1.0
1070
    74
1070
     0
1000
MTEXTEND
1000
MTEXTBEGIN
1070
    73
1070
     1
1070
    44
1040
1.0
1070
    74
1070
     0
1000
MTEXTEND
1000
MTEXTBEGIN
1070
    73
1070
     1
1070
    44
1040
1.0
1070
    74
1070
     0
1000
MTEXTEND
  0
POINT
  5
C9D
330
844
100
AcDbEntity
  8
DEFPOINTS
  6
CONTINUOUS
 62
     0
100
AcDbPoint
 10
0.0
 20
19.5
 30
0.0
  0
POINT
  5
C9E
330
844
100
AcDbEntity
  8
DEFPOINTS
  6
CONTINUOUS
 62
     0
100
AcDbPoint
 10
75.0
 20
6.0000001
 30
0.0
  0
POINT
  5
C9F
330
844
100
AcDbEntity
  8
DEFPOINTS
  6
CONTINUOUS
 62
     0
100
AcDbPoint
 10
75.0
 20
35.0
 30
0.0
  0
ENDBLK
  5
84F
330
844
100
AcDbEntity
  8
0
100
AcDbBlockEnd
  0
BLOCK
  5
85A
330
850
100
AcDbEntity
  8
0
100
AcDbBlockBegin
  2
*D5
 70
     1
 10
0.0
 20
0.0
 30
0.0
  3
*D5
  1

  0
LINE
  5
FBA
330
850
100
AcDbEntity
  8
250
  6
CONTINUOUS
 62
     3
100
AcDbLine
 10
20.0
 20
3.7
 30
0.0
 11
20.0
 21
29.0
 31
0.0
  0
LINE
  5
FBB
330
850
100
AcDbEntity
  8
250
  6
CONTINUOUS
 62
     3
100
AcDbLine
 10
75.0
 20
6.5000001
 30
0.0
 11
75.0
 21
29.0
 31
0.0
  0
LINE
  5
FBC
330
850
100
AcDbEntity
  8
250
  6
CONTINUOUS
 62
     3
100
AcDbLine
 10
22.23
 20
28.0
 30
0.0
 11
72.77
 21
28.0
 31
0.0
  0
INSERT
  5
FBD
330
850
100
AcDbEntity
  8
250
  6
CONTINUOUS
 62
     3
100
AcDbBlockReference
  2
_OPEN
 10
20.0
 20
28.0
 30
0.0
 41
2.23
 42
2.23
 43
2.23
 50
180.0
  0
INSERT
  5
FBE
330
850
100
AcDbEntity
  8
250
  6
CONTINUOUS
 62
     3
100
AcDbBlockReference
  2
_OPEN
 10
75.0
 20
28.0
 30
0.0
 41
2.23
 42
2.23
 43
2.23
  0
MTEXT
  5
FBF
330
850
100
AcDbEntity
  8
250
  6
CONTINUOUS
 62
    40
100
AcDbMText
 10
47.5
 20
30.5
 30
0.0
 40
3.0
 41
0.0
 71
     5
 72
     1
  1
\A1;（max.55）
1001
ACAD
1000
MTEXTBEGIN
1070
    73
1070
     1
1070
    44
1040
1.0
1070
    74
1070
     0
1000
MTEXTEND
1000
MTEXTBEGIN
1070
    73
1070
     1
1070
    44
1040
1.0
1070
    74
1070
     0
1000
MTEXTEND
  0
POINT
  5
FC0
330
850
100
AcDbEntity
  8
DEFPOINTS
  6
CONTINUOUS
 62
     0
100
AcDbPoint
 10
20.0
 20
3.2
 30
0.0
  0
POINT
  5
FC1
330
850
100
AcDbEntity
  8
DEFPOINTS
  6
CONTINUOUS
 62
     0
100
AcDbPoint
 10
75.0
 20
6.0000001
 30
0.0
  0
POINT
  5
FC2
330
850
100
AcDbEntity
  8
DEFPOINTS
  6
CONTINUOUS
 62
     0
100
AcDbPoint
 10
75.0
 20
28.0
 30
0.0
  0
ENDBLK
  5
85B
330
850
100
AcDbEntity
  8
0
100
AcDbBlockEnd
  0
BLOCK
  5
C79
330
C71
100
AcDbEntity
  8
0
100
AcDbBlockBegin
  2
*D6
 70
     1
 10
0.0
 20
0.0
 30
0.0
  3
*D6
  1

  0
LINE
  5
C87
330
C71
100
AcDbEntity
  8
250
  6
CONTINUOUS
 62
     3
100
AcDbLine
 10
74.0
 20
3.0000001
 30
0.0
 11
84.0
 21
3.0000001
 31
0.0
  0
LINE
  5
C88
330
C71
100
AcDbEntity
  8
250
  6
CONTINUOUS
 62
     3
100
AcDbLine
 10
83.0
 20
-3.00000314
 30
0.0
 11
83.0
 21
0.7700001
 31
0.0
  0
INSERT
  5
C89
330
C71
100
AcDbEntity
  8
250
  6
CONTINUOUS
 62
     3
100
AcDbBlockReference
  2
_OPEN
 10
83.0
 20
3.0000001
 30
0.0
 41
2.23
 42
2.23
 43
2.23
 50
90.0
  0
MTEXT
  5
C8A
330
C71
100
AcDbEntity
  8
250
  6
CONTINUOUS
 62
    40
100
AcDbMText
 10
80.5
 20
-1.11500152
 30
0.0
 40
2.8
 41
0.0
 71
     5
 72
     1
  1
\A1;max.{\H3;\U+2205}6
 11
0.0
 21
1.0
 31
0.0
1001
ACAD
1000
MTEXTBEGIN
1070
    73
1070
     1
1070
    44
1040
1.0
1070
    74
1070
     0
1000
MTEXTEND
1000
MTEXTBEGIN
1070
    73
1070
     1
1070
    44
1040
1.0
1070
    74
1070
     0
1000
MTEXTEND
1000
MTEXTBEGIN
1070
    73
1070
     1
1070
    44
1040
1.0
1070
    74
1070
     0
1000
MTEXTEND
1000
MTEXTBEGIN
1070
    73
1070
     1
1070
    44
1040
1.0
1070
    74
1070
     0
1000
MTEXTEND
  0
POINT
  5
C8B
330
C71
100
AcDbEntity
  8
DEFPOINTS
  6
CONTINUOUS
 62
     0
100
AcDbPoint
 10
73.19999696
 20
-3.00000314
 30
0.0
  0
POINT
  5
C8C
330
C71
100
AcDbEntity
  8
DEFPOINTS
  6
CONTINUOUS
 62
     0
100
AcDbPoint
 10
73.5
 20
3.0000001
 30
0.0
  0
POINT
  5
C8D
330
C71
100
AcDbEntity
  8
DEFPOINTS
  6
CONTINUOUS
 62
     0
100
AcDbPoint
 10
83.0
 20
3.0000001
 30
0.0
  0
ENDBLK
  5
C7A
330
C71
100
AcDbEntity
  8
0
100
AcDbBlockEnd
  0
BLOCK
  5
C85
330
C7B
100
AcDbEntity
  8
0
100
AcDbBlockBegin
  2
*D7
 70
     1
 10
0.0
 20
0.0
 30
0.0
  3
*D7
  1

  0
LINE
  5
C8E
330
C7B
100
AcDbEntity
  8
250
  6
CONTINUOUS
 62
     3
100
AcDbLine
 10
74.5
 20
-6.9999999
 30
0.0
 11
91.0
 21
-6.9999999
 31
0.0
  0
LINE
  5
C8F
330
C7B
100
AcDbEntity
  8
250
  6
CONTINUOUS
 62
     3
100
AcDbLine
 10
74.5
 20
7.0000001
 30
0.0
 11
91.0
 21
7.0000001
 31
0.0
  0
LINE
  5
C90
330
C7B
100
AcDbEntity
  8
250
  6
CONTINUOUS
 62
     3
100
AcDbLine
 10
90.0
 20
-4.7699999
 30
0.0
 11
90.0
 21
4.7700001
 31
0.0
  0
INSERT
  5
C91
330
C7B
100
AcDbEntity
  8
250
  6
CONTINUOUS
 62
     3
100
AcDbBlockReference
  2
_OPEN
 10
90.0
 20
-6.9999999
 30
0.0
 41
2.23
 42
2.23
 43
2.23
 50
270.0
  0
INSERT
  5
C92
330
C7B
100
AcDbEntity
  8
250
  6
CONTINUOUS
 62
     3
100
AcDbBlockReference
  2
_OPEN
 10
90.0
 20
7.0000001
 30
0.0
 41
2.23
 42
2.23
 43
2.23
 50
90.0
  0
MTEXT
  5
C93
330
C7B
100
AcDbEntity
  8
250
  6
CONTINUOUS
 62
    40
100
AcDbMText
 10
87.5
 20
0.0000001
 30
0.0
 40
2.8
 41
0.0
 71
     5
 72
     1
  1
\A1;{\H3;\U+2205}14
 11
0.0
 21
1.0
 31
0.0
1001
ACAD
1000
MTEXTBEGIN
1070
    73
1070
     1
1070
    44
1040
1.0
1070
    74
1070
     0
1000
MTEXTEND
1000
MTEXTBEGIN
1070
    73
1070
     1
1070
    44
1040
1.0
1070
    74
1070
     0
1000
MTEXTEND
1000
MTEXTBEGIN
1070
    73
1070
     1
1070
    44
1040
1.0
1070
    74
1070
     0
1000
MTEXTEND
1000
MTEXTBEGIN
1070
    73
1070
     1
1070
    44
1040
1.0
1070
    74
1070
     0
1000
MTEXTEND
  0
POINT
  5
C94
330
C7B
100
AcDbEntity
  8
DEFPOINTS
  6
CONTINUOUS
 62
     0
100
AcDbPoint
 10
74.0
 20
-6.9999999
 30
0.0
  0
POINT
  5
C95
330
C7B
100
AcDbEntity
  8
DEFPOINTS
  6
CONTINUOUS
 62
     0
100
AcDbPoint
 10
74.0
 20
7.0000001
 30
0.0
  0
POINT
  5
C96
330
C7B
100
AcDbEntity
  8
DEFPOINTS
  6
CONTINUOUS
 62
     0
100
AcDbPoint
 10
90.0
 20
7.0000001
 30
0.0
  0
ENDBLK
  5
C86
330
C7B
100
AcDbEntity
  8
0
100
AcDbBlockEnd
  0
BLOCK
  5
CDD
330
CD3
100
AcDbEntity
  8
0
100
AcDbBlockBegin
  2
*D8
 70
     1
 10
0.0
 20
0.0
 30
0.0
  3
*D8
  1

  0
LINE
  5
CD4
330
CD3
100
AcDbEntity
  8
250
  6
CONTINUOUS
 62
     3
100
AcDbLine
 10
27.5
 20
16.3
 30
0.0
 11
27.5
 21
22.0
 31
0.0
  0
LINE
  5
CD5
330
CD3
100
AcDbEntity
  8
250
  6
CONTINUOUS
 62
     3
100
AcDbLine
 10
75.0
 20
6.5000001
 30
0.0
 11
75.0
 21
22.0
 31
0.0
  0
LINE
  5
CD6
330
CD3
100
AcDbEntity
  8
250
  6
CONTINUOUS
 62
     3
100
AcDbLine
 10
29.73
 20
21.0
 30
0.0
 11
72.77
 21
21.0
 31
0.0
  0
INSERT
  5
CD7
330
CD3
100
AcDbEntity
  8
250
  6
CONTINUOUS
 62
     3
100
AcDbBlockReference
  2
_OPEN
 10
27.5
 20
21.0
 30
0.0
 41
2.23
 42
2.23
 43
2.23
 50
180.0
  0
INSERT
  5
CD8
330
CD3
100
AcDbEntity
  8
250
  6
CONTINUOUS
 62
     3
100
AcDbBlockReference
  2
_OPEN
 10
75.0
 20
21.0
 30
0.0
 41
2.23
 42
2.23
 43
2.23
  0
MTEXT
  5
CD9
330
CD3
100
AcDbEntity
  8
250
  6
CONTINUOUS
 62
    40
100
AcDbMText
 10
51.25
 20
23.5
 30
0.0
 40
3.0
 41
0.0
 71
     5
 72
     1
  1
\A1;47.5
1001
ACAD
1000
MTEXTBEGIN
1070
    73
1070
     1
1070
    44
1040
1.0
1070
    74
1070
     0
1000
MTEXTEND
1000
MTEXTBEGIN
1070
    73
1070
     1
1070
    44
1040
1.0
1070
    74
1070
     0
1000
MTEXTEND
1000
MTEXTBEGIN
1070
    73
1070
     1
1070
    44
1040
1.0
1070
    74
1070
     0
1000
MTEXTEND
1000
MTEXTBEGIN
1070
    73
1070
     1
1070
    44
1040
1.0
1070
    74
1070
     0
1000
MTEXTEND
  0
POINT
  5
CDA
330
CD3
100
AcDbEntity
  8
DEFPOINTS
  6
CONTINUOUS
 62
     0
100
AcDbPoint
 10
27.5
 20
15.8
 30
0.0
  0
POINT
  5
CDB
330
CD3
100
AcDbEntity
  8
DEFPOINTS
  6
CONTINUOUS
 62
     0
100
AcDbPoint
 10
75.0
 20
6.0000001
 30
0.0
  0
POINT
  5
CDC
330
CD3
100
AcDbEntity
  8
DEFPOINTS
  6
CONTINUOUS
 62
     0
100
AcDbPoint
 10
75.0
 20
21.0
 30
0.0
  0
ENDBLK
  5
CDE
330
CD3
100
AcDbEntity
  8
0
100
AcDbBlockEnd
  0
ENDSEC
  0
SECTION
  2
ENTITIES
  0
INSERT
  5
6E6
330
1A
100
AcDbEntity
  8
245
100
AcDbBlockReference
  2
矢印なし
 10
175.62382697
 20
90.55123572
 30
0.0
  0
TEXT
  5
83F
330
1A
100
AcDbEntity
  8
241
100
AcDbText
 10
-20.0
 20
49.0
 30
0.0
 40
5.0
  1
HSK-A40-MEGA6S-75T
  7
YOKO
 11
-20.0
 21
49.0
 31
0.0
100
AcDbText
 73
     1
  0
DIMENSION
  5
840
330
1A
100
AcDbEntity
  8
250
  6
CONTINUOUS
100
AcDbDimension
  2
*D4
 10
75.0
 20
35.0
 30
0.0
 11
37.19567653
 21
35.0
 31
0.0
 70
   160
  3
BIGT
100
AcDbAlignedDimension
 13
0.0
 23
19.5
 33
0.0
 14
75.0
 24
6.0000001
 34
0.0
100
AcDbRotatedDimension
  0
DIMENSION
  5
841
330
1A
100
AcDbEntity
  8
250
  6
CONTINUOUS
100
AcDbDimension
  2
*D5
 10
75.0
 20
28.0
 30
0.0
 11
47.5
 21
30.5
 31
0.0
 70
    32
  1
（max.<>）
  3
BIGT$0
100
AcDbAlignedDimension
 13
20.0
 23
3.2
 33
0.0
 14
75.0
 24
6.0000001
 34
0.0
100
AcDbRotatedDimension
  0
LEADER
  5
B88
330
1A
100
AcDbEntity
  8
250
  6
CONTINUOUS
100
AcDbLeader
  3
BIGT
 76
     2
 10
-8.8183672
 20
-14.75908164
 30
0.0
 10
-13.49544553
 20
-22.86001894
 30
0.0
1001
ACAD
1000
DSTYLE
1002
{
1070
     6
1000
OPEN
1070
   343
1005
594
1002
}
  0
LINE
  5
B8B
330
1A
100
AcDbEntity
  8
250
  6
CONTINUOUS
100
AcDbLine
 10
-13.49544553
 20
-22.86001894
 30
0.0
 11
-37.7621122
 21
-22.86001894
 31
0.0
1001
ITEMNAME
1000
LNSP2
  0
MTEXT
  5
B8C
330
1A
100
AcDbEntity
  8
251
  6
CONTINUOUS
100
AcDbMText
 10
-34.9621122
 20
-21.86001894
 30
0.0
 40
2.8
 41
0.0
 71
     7
 72
     1
  1
HSK-A40
  7
YOKO
1001
ITEMNAME
1000
LNSP3
1001
ACAD
1000
MTEXTBEGIN
1070
    73
1070
     1
1070
    44
1040
1.0
1070
    74
1070
     0
1000
MTEXTEND
1000
MTEXTBEGIN
1070
    73
1070
     1
1070
    44
1040
1.0
1070
    74
1070
     0
1000
MTEXTEND
1000
MTEXTBEGIN
1070
    73
1070
     1
1070
    44
1040
1.0
1070
    74
1070
     0
1000
MTEXTEND
1000
MTEXTBEGIN
1070
    73
1070
     1
1070
    44
1040
1.0
1070
    74
1070
     0
1000
MTEXTEND
1000
MTEXTBEGIN
1070
    73
1070
     1
1070
    44
1040
1.0
1070
    74
1070
     0
1000
MTEXTEND
1000
MTEXTBEGIN
1070
    73
1070
     1
1070
    44
1040
1.0
1070
    74
1070
     0
1000
MTEXTEND
1000
MTEXTBEGIN
1070
    73
1070
     1
1070
    44
1040
1.0
1070
    74
1070
     0
1000
MTEXTEND
1000
MTEXTBEGIN
1070
    73
1070
     1
1070
    44
1040
1.0
1070
    74
1070
     0
1000
MTEXTEND
1000
MTEXTBEGIN
1070
    73
1070
     1
1070
    44
1040
1.0
1070
    74
1070
     0
1000
MTEXTEND
1000
MTEXTBEGIN
1070
    73
1070
     1
1070
    44
1040
1.0
1070
    74
1070
     0
1000
MTEXTEND
  0
DIMENSION
  5
C65
330
1A
100
AcDbEntity
  8
250
  6
CONTINUOUS
100
AcDbDimension
  2
*D6
 10
83.0
 20
3.0000001
 30
0.0
 11
83.0
 21
-1.11500152
 31
0.0
 70
   160
  1
max.{\H3;\U+2205}<>
  3
BIGT$0
100
AcDbAlignedDimension
 13
73.19999696
 23
-3.00000314
 33
0.0
 14
73.5
 24
3.0000001
 34
0.0
 50
90.0
100
AcDbRotatedDimension
1001
ACAD
1000
DSTYLE
1002
{
1070
   140
1040
2.8
1070
    75
1070
     1
1070
   173
1070
     1
1070
     5
1000

1070
     6
1000
NONE
1070
     7
1000
OPEN
1002
}
  0
DIMENSION
  5
C66
330
1A
100
AcDbEntity
  8
250
  6
CONTINUOUS
100
AcDbDimension
  2
*D7
 10
90.0
 20
7.0000001
 30
0.0
 11
87.5
 21
0.0000001
 31
0.0
 70
    32
  1
{\H3;\U+2205}<>
  3
BIGT$0
100
AcDbAlignedDimension
 13
74.0
 23
-6.9999999
 33
0.0
 14
74.0
 24
7.0000001
 34
0.0
 50
90.0
100
AcDbRotatedDimension
1001
ACAD
1000
DSTYLE
1002
{
1070
   140
1040
2.8
1002
}
  0
DIMENSION
  5
CD2
330
1A
100
AcDbEntity
  8
250
  6
CONTINUOUS
100
AcDbDimension
  2
*D8
 10
75.0
 20
21.0
 30
0.0
 11
51.25
 21
23.5
 31
0.0
 70
    32
  3
BIGT$0
100
AcDbAlignedDimension
 13
27.5
 23
15.8
 33
0.0
 14
75.0
 24
6.0000001
 34
0.0
100
AcDbRotatedDimension
  0
INSERT
  5
11F0
330
1A
100
AcDbEntity
  8
245
100
AcDbBlockReference
  2
1
 10
0.0
 20
0.0
 30
0.0
  0
VIEWPORT
  5
22
330
17
100
AcDbEntity
 67
     1
  8
0
100
AcDbViewport
 10
261.51769912
 20
148.5
 30
0.0
 40
523.03539823
 41
297.0
 68
     1
 69
     1
1001
ACAD
1000
MVIEW
1002
{
1070
    16
1010
0.0
1020
0.0
1030
0.0
1010
0.0
1020
0.0
1030
1.0
1040
0.0
1040
297.0
1040
261.51769912
1040
148.5
1040
50.0
1040
0.0
1040
0.0
1070
     0
1070
   100
1070
     1
1070
     1
1070
     0
1070
     0
1070
     0
1070
     0
1040
0.0
1040
0.0
1040
0.0
1040
1.0
1040
1.0
1040
10.0
1040
10.0
1070
     0
1002
{
1002
}
1002
}
  0
ENDSEC
  0
SECTION
  2
OBJECTS
  0
DICTIONARY
  5
C
330
0
100
AcDbDictionary
  3
ACAD_GROUP
350
D
  3
ACAD_LAYOUT
350
565
  3
ACAD_MLINESTYLE
350
E
  3
ACAD_PLOTSETTINGS
350
566
  3
ACAD_PLOTSTYLENAME
350
563
  3
ACDBHEADERROUNDTRIPXREC
350
1218
  3
GRADE_DWG
350
540
  0
DICTIONARY
  5
A92
330
1A
100
AcDbDictionary
280
     1
  3
ACAD_LAYOUTSELFREF
360
123A
  0
DICTIONARY
  5
A90
330
17
100
AcDbDictionary
280
     1
  3
ACAD_LAYOUTSELFREF
360
1239
  0
DICTIONARY
  5
D
102
{ACAD_REACTORS
330
C
102
}
330
C
100
AcDbDictionary
  3
*A1
350
6C7
  3
*A2
350
6C8
  3
*A3
350
6D4
  3
*A4
350
6D5
  3
DREC-1
350
5FC
  3
DREC-2
350
654
  3
DREC-3
350
673
  0
DICTIONARY
  5
565
102
{ACAD_REACTORS
330
C
102
}
330
C
100
AcDbDictionary
  0
DICTIONARY
  5
E
102
{ACAD_REACTORS
330
C
102
}
330
C
100
AcDbDictionary
  3
STANDARD
350
13
  0
DICTIONARY
  5
566
102
{ACAD_REACTORS
330
C
102
}
330
C
100
AcDbDictionary
  3
A3_0_5倍_
350
758
  3
A3_1倍_
350
757
  3
A3_1倍__2000_
350
707
  3
A3_2倍_
350
759
  3
A4_0_5倍_
350
755
  3
A4_1倍_
350
754
  3
A4_1倍__2000_
350
708
  3
A4_2倍_
350
756
  0
ACDBDICTIONARYWDFLT
  5
563
102
{ACAD_REACTORS
330
C
102
}
330
C
100
AcDbDictionary
281
     1
  3
Normal
350
564
100
AcDbDictionaryWithDefault
340
564
  0
DICTIONARY
  5
1218
102
{ACAD_REACTORS
330
C
102
}
330
C
100
AcDbDictionary
  3
CEPSNTYPE
350
1222
  3
DIMSTYLEDATA
350
1226
  3
FINGERPRINTGUID
350
1223
  3
HYPERLINKBASE
350
121B
  3
INSUNITS
350
1221
  3
LAYOUTDICT
350
121D
  3
LWETCUNION
350
1220
  3
PLOTSETDICT
350
121E
  3
PLOTSTYLNAMDICT
350
121F
  3
PSVPSCALE
350
1225
  3
PUCSBASE
350
1229
  3
PUCSORGBACK
350
122F
  3
PUCSORGBOTTOM
350
122B
  3
PUCSORGFRONT
350
122E
  3
PUCSORGLEFT
350
122C
  3
PUCSORGRIGHT
350
122D
  3
PUCSORGTOP
350
122A
  3
PUCSORTHOREF
350
1227
  3
PUCSORTHOVIEW
350
1228
  3
STYLESHEET
350
121C
  3
TSTACKALIGN
350
1219
  3
TSTACKSIZE
350
121A
  3
UCSBASE
350
1232
  3
UCSORGBACK
350
1238
  3
UCSORGBOTTOM
350
1234
  3
UCSORGFRONT
350
1237
  3
UCSORGLEFT
350
1235
  3
UCSORGRIGHT
350
1236
  3
UCSORGTOP
350
1233
  3
UCSORTHOREF
350
1230
  3
UCSORTHOVIEW
350
1231
  3
VERSIONGUID
350
1224
  0
DICTIONARY
  5
540
102
{ACAD_REACTORS
330
C
102
}
330
C
100
AcDbDictionary
  3
VERSION
350
560
  0
XRECORD
  5
123A
102
{ACAD_REACTORS
330
A92
102
}
330
A92
100
AcDbXrecord
340
1A
  0
XRECORD
  5
1239
102
{ACAD_REACTORS
330
A90
102
}
330
A90
100
AcDbXrecord
340
17
  0
GROUP
  5
6C7
102
{ACAD_REACTORS
330
D
102
}
330
D
100
AcDbGroup
300

 70
     0
 71
     1
1001
GRPNAME
1000
DMA00
  0
GROUP
  5
6C8
102
{ACAD_REACTORS
330
D
102
}
330
D
100
AcDbGroup
300

 70
     0
 71
     1
1001
GRPNAME
1000
DMA00
  0
GROUP
  5
6D4
102
{ACAD_REACTORS
330
D
102
}
330
D
100
AcDbGroup
300

 70
     0
 71
     1
1001
GRPNAME
1000
DMA00
  0
GROUP
  5
6D5
102
{ACAD_REACTORS
330
D
102
}
330
D
100
AcDbGroup
300

 70
     0
 71
     1
1001
GRPNAME
1000
DMA00
  0
GROUP
  5
5FC
102
{ACAD_REACTORS
330
D
102
}
330
D
100
AcDbGroup
300

 70
     0
 71
     1
1001
GRPNAME
1000
DREC-
1001
GPARA
1000
xsiz
1000
44.182
1000
ysiz
1000
40.677
1000
angl
1000
0
1000
ctyp
1000
0
1000
csiz
1000
5
1000
lfnt
1000
cont
1000
hcnt
1000
hoff
1000
vcnt
1000
voff
1000
opnt
1000
4
1000
dxpt
1000
0
1000
dypt
1000
0
  0
GROUP
  5
654
102
{ACAD_REACTORS
330
D
102
}
330
D
100
AcDbGroup
300

 70
     0
 71
     1
1001
GRPNAME
1000
DREC-
1001
GPARA
1000
xsiz
1000
54.592
1000
ysiz
1000
53.036
1000
angl
1000
0
1000
ctyp
1000
0
1000
csiz
1000
5
1000
lfnt
1000
cont
1000
hcnt
1000
hoff
1000
vcnt
1000
voff
1000
opnt
1000
4
1000
dxpt
1000
0
1000
dypt
1000
0
  0
GROUP
  5
673
102
{ACAD_REACTORS
330
D
102
}
330
D
100
AcDbGroup
300

 70
     0
 71
     1
1001
GRPNAME
1000
DREC-
1001
GPARA
1000
xsiz
1000
30.363
1000
ysiz
1000
36.175
1000
angl
1000
0
1000
ctyp
1000
0
1000
csiz
1000
5
1000
lfnt
1000
cont
1000
hcnt
1000
hoff
1000
vcnt
1000
voff
1000
opnt
1000
4
1000
dxpt
1000
0
1000
dypt
1000
0
  0
MLINESTYLE
  5
13
102
{ACAD_REACTORS
330
E
102
}
330
E
100
AcDbMlineStyle
  2
STANDARD
 70
     0
  3

 62
     0
 51
90.0
 52
90.0
 71
     2
 49
0.5
 62
   256
  6
BYLAYER
 49
-0.5
 62
   256
  6
BYLAYER
  0
PLOTSETTINGS
  5
758
102
{ACAD_REACTORS
330
566
102
}
330
566
100
AcDbPlotSettings
  1
A3(0.5倍)
  2
\\AWTECPC05\HP DeskJet 1120C
  4
A3
  6

 40
5.95841646
 41
13.49375153
 42
6.04309082
 43
3.67242432
 44
296.92599487
 45
419.94665527
 46
89.96
 47
127.14
 48
0.0
 49
0.0
140
0.0
141
0.0
142
1.0
143
2.0
 70
  1716
 72
     1
 73
     1
 74
     2
  7
big.ctb
 75
    17
147
0.5
148
0.0
149
0.0
  0
PLOTSETTINGS
  5
757
102
{ACAD_REACTORS
330
566
102
}
330
566
100
AcDbPlotSettings
  1
A3(1倍)
  2
\\AWTECPC05\HP DeskJet 1120C
  4
A3
  6

 40
5.95841646
 41
13.49375153
 42
6.04309082
 43
3.67242432
 44
296.92599487
 45
419.94665527
 46
37.46
 47
52.89
 48
0.0
 49
0.0
140
0.0
141
0.0
142
1.0
143
1.0
 70
  1716
 72
     1
 73
     1
 74
     2
  7
big.ctb
 75
    16
147
1.0
148
0.0
149
0.0
  0
PLOTSETTINGS
  5
707
102
{ACAD_REACTORS
330
566
102
}
330
566
100
AcDbPlotSettings
  1
A3(1倍)(2000)
  2
SII LS-1300 (D-SCAN)
  4
User258
  6

 40
3.17499995
 41
3.17499995
 42
3.17498779
 43
3.17498779
 44
419.98898315
 45
296.98950195
 46
58.32
 47
40.32
 48
0.0
 49
0.0
140
0.0
141
0.0
142
1.0
143
1.0
 70
  1716
 72
     1
 73
     0
 74
     2
  7
big.ctb
 75
    16
147
1.0
148
0.0
149
0.0
  0
PLOTSETTINGS
  5
759
102
{ACAD_REACTORS
330
566
102
}
330
566
100
AcDbPlotSettings
  1
A3(2倍)
  2
\\AWTECPC05\HP DeskJet 1120C
  4
A3
  6

 40
5.95841646
 41
13.49375153
 42
6.04309082
 43
3.67242432
 44
296.92599487
 45
419.94665527
 46
-67.54
 47
-95.61
 48
0.0
 49
0.0
140
0.0
141
0.0
142
1.0
143
0.5
 70
  1716
 72
     1
 73
     1
 74
     2
  7
big.ctb
 75
    27
147
2.0
148
0.0
149
0.0
  0
PLOTSETTINGS
  5
755
102
{ACAD_REACTORS
330
566
102
}
330
566
100
AcDbPlotSettings
  1
A4(0.5倍)
  2
\\AWTECPC05\HP DeskJet 1120C
  4
A4
  6

 40
4.18041658
 41
13.49374962
 42
4.18040466
 43
3.92642212
 44
209.97332764
 45
296.92599487
 46
48.31
 47
65.5
 48
0.0
 49
0.0
140
0.0
141
0.0
142
1.0
143
2.0
 70
  1716
 72
     1
 73
     1
 74
     2
  7
big.ctb
 75
    17
147
0.5
148
0.0
149
0.0
  0
PLOTSETTINGS
  5
754
102
{ACAD_REACTORS
330
566
102
}
330
566
100
AcDbPlotSettings
  1
A4(1倍)
  2
\\AWTECPC05\HP DeskJet 1120C
  4
A4
  6

 40
4.18041658
 41
13.49374962
 42
4.18040466
 43
3.92642212
 44
209.97332764
 45
296.92599487
 46
-4.19
 47
-8.75
 48
0.0
 49
0.0
140
0.0
141
0.0
142
1.0
143
1.0
 70
  1716
 72
     1
 73
     1
 74
     2
  7
big.ctb
 75
    16
147
1.0
148
0.0
149
0.0
  0
PLOTSETTINGS
  5
708
102
{ACAD_REACTORS
330
566
102
}
330
566
100
AcDbPlotSettings
  1
A4(1倍)(2000)
  2
SII LS-1300 (D-SCAN)
  4
User259
  6

 40
3.17499995
 41
3.17499995
 42
3.17498779
 43
3.17500305
 44
296.98950195
 45
209.99449158
 46
-3.18
 47
-3.18
 48
0.0
 49
0.0
140
0.0
141
0.0
142
1.0
143
1.0
 70
  1716
 72
     1
 73
     0
 74
     2
  7
big.ctb
 75
    16
147
1.0
148
0.0
149
0.0
  0
PLOTSETTINGS
  5
756
102
{ACAD_REACTORS
330
566
102
}
330
566
100
AcDbPlotSettings
  1
A4(2倍)
  2
\\AWTECPC05\HP DeskJet 1120C
  4
A4
  6

 40
4.18041658
 41
13.49374962
 42
4.18040466
 43
3.92642212
 44
209.97332764
 45
296.92599487
 46
-109.19
 47
-157.25
 48
0.0
 49
0.0
140
0.0
141
0.0
142
1.0
143
0.5
 70
  1716
 72
     1
 73
     1
 74
     2
  7
big.ctb
 75
    27
147
2.0
148
0.0
149
0.0
  0
ACDBPLACEHOLDER
  5
564
102
{ACAD_REACTORS
330
563
102
}
330
563
100
AcDbPlaceHolder
280
     0
  0
XRECORD
  5
1222
102
{ACAD_REACTORS
330
1218
102
}
330
1218
100
AcDbXrecord
 90
        0
  0
XRECORD
  5
1226
102
{ACAD_REACTORS
330
1218
102
}
330
1218
100
AcDbXrecord
1000
DSTYLE
1002
{
1070
   341
340
594
1070
   343
340
594
1070
   344
340
594
1002
}
  0
XRECORD
  5
1223
102
{ACAD_REACTORS
330
1218
102
}
330
1218
100
AcDbXrecord
  1
{51294030-9CB4-11D3-8E18-00A0C925D94D}
  0
XRECORD
  5
121B
102
{ACAD_REACTORS
330
1218
102
}
330
1218
100
AcDbXrecord
  1

  0
XRECORD
  5
1221
102
{ACAD_REACTORS
330
1218
102
}
330
1218
100
AcDbXrecord
 90
        0
  0
XRECORD
  5
121D
102
{ACAD_REACTORS
330
1218
102
}
330
1218
100
AcDbXrecord
340
565
  0
XRECORD
  5
1220
102
{ACAD_REACTORS
330
1218
102
}
330
1218
100
AcDbXrecord
 90
    10781
  0
XRECORD
  5
121E
102
{ACAD_REACTORS
330
1218
102
}
330
1218
100
AcDbXrecord
340
566
  0
XRECORD
  5
121F
102
{ACAD_REACTORS
330
1218
102
}
330
1218
100
AcDbXrecord
340
563
  0
XRECORD
  5
1225
102
{ACAD_REACTORS
330
1218
102
}
330
1218
100
AcDbXrecord
 40
0.0
  0
XRECORD
  5
1229
102
{ACAD_REACTORS
330
1218
102
}
330
1218
100
AcDbXrecord
340
0
  0
XRECORD
  5
122F
102
{ACAD_REACTORS
330
1218
102
}
330
1218
100
AcDbXrecord
 10
0.0
 20
0.0
 30
0.0
  0
XRECORD
  5
122B
102
{ACAD_REACTORS
330
1218
102
}
330
1218
100
AcDbXrecord
 10
0.0
 20
0.0
 30
0.0
  0
XRECORD
  5
122E
102
{ACAD_REACTORS
330
1218
102
}
330
1218
100
AcDbXrecord
 10
0.0
 20
0.0
 30
0.0
  0
XRECORD
  5
122C
102
{ACAD_REACTORS
330
1218
102
}
330
1218
100
AcDbXrecord
 10
0.0
 20
0.0
 30
0.0
  0
XRECORD
  5
122D
102
{ACAD_REACTORS
330
1218
102
}
330
1218
100
AcDbXrecord
 10
0.0
 20
0.0
 30
0.0
  0
XRECORD
  5
122A
102
{ACAD_REACTORS
330
1218
102
}
330
1218
100
AcDbXrecord
 10
0.0
 20
0.0
 30
0.0
  0
XRECORD
  5
1227
102
{ACAD_REACTORS
330
1218
102
}
330
1218
100
AcDbXrecord
340
0
  0
XRECORD
  5
1228
102
{ACAD_REACTORS
330
1218
102
}
330
1218
100
AcDbXrecord
 70
     0
  0
XRECORD
  5
121C
102
{ACAD_REACTORS
330
1218
102
}
330
1218
100
AcDbXrecord
  1
big.ctb
  0
XRECORD
  5
1219
102
{ACAD_REACTORS
330
1218
102
}
330
1218
100
AcDbXrecord
 90
        1
  0
XRECORD
  5
121A
102
{ACAD_REACTORS
330
1218
102
}
330
1218
100
AcDbXrecord
 90
       70
  0
XRECORD
  5
1232
102
{ACAD_REACTORS
330
1218
102
}
330
1218
100
AcDbXrecord
340
0
  0
XRECORD
  5
1238
102
{ACAD_REACTORS
330
1218
102
}
330
1218
100
AcDbXrecord
 10
0.0
 20
0.0
 30
0.0
  0
XRECORD
  5
1234
102
{ACAD_REACTORS
330
1218
102
}
330
1218
100
AcDbXrecord
 10
0.0
 20
0.0
 30
0.0
  0
XRECORD
  5
1237
102
{ACAD_REACTORS
330
1218
102
}
330
1218
100
AcDbXrecord
 10
0.0
 20
0.0
 30
0.0
  0
XRECORD
  5
1235
102
{ACAD_REACTORS
330
1218
102
}
330
1218
100
AcDbXrecord
 10
0.0
 20
0.0
 30
0.0
  0
XRECORD
  5
1236
102
{ACAD_REACTORS
330
1218
102
}
330
1218
100
AcDbXrecord
 10
0.0
 20
0.0
 30
0.0
  0
XRECORD
  5
1233
102
{ACAD_REACTORS
330
1218
102
}
330
1218
100
AcDbXrecord
 10
0.0
 20
0.0
 30
0.0
  0
XRECORD
  5
1230
102
{ACAD_REACTORS
330
1218
102
}
330
1218
100
AcDbXrecord
340
0
  0
XRECORD
  5
1231
102
{ACAD_REACTORS
330
1218
102
}
330
1218
100
AcDbXrecord
 70
     0
  0
XRECORD
  5
1224
102
{ACAD_REACTORS
330
1218
102
}
330
1218
100
AcDbXrecord
  1
{402060FB-EEBD-438F-B27D-1A0A39C914D2}
  0
XRECORD
  5
560
102
{ACAD_REACTORS
330
540
102
}
330
540
100
AcDbXrecord
  1
2.0.0
  0
ENDSEC
  0
EOF
