  0
SECTION
  2
HEADER
  9
$ACADVER
  1
AC1014
  9
$ACADMAINTVER
 70
     9
  9
$DWGCODEPAGE
  3
ANSI_932
  9
$INSBASE
 10
0.0
 20
0.0
 30
0.0
  9
$EXTMIN
 10
-37.77608093
 20
-25.00982591
 30
-0.00152582
  9
$EXTMAX
 10
78.03348625
 20
68.02407885
 30
0.00000003
  9
$LIMMIN
 10
0.0
 20
0.0
  9
$LIMMAX
 10
420.0
 20
297.0
  9
$ORTHOMODE
 70
     0
  9
$REGENMODE
 70
     1
  9
$FILLMODE
 70
     1
  9
$QTEXTMODE
 70
     0
  9
$MIRRTEXT
 70
     1
  9
$DRAGMODE
 70
     2
  9
$LTSCALE
 40
10.0
  9
$OSMODE
 70
   549
  9
$ATTMODE
 70
     1
  9
$TEXTSIZE
 40
3.0
  9
$TRACEWID
 40
1.0
  9
$TEXTSTYLE
  7
YOKO
  9
$CLAYER
  8
245
  9
$CELTYPE
  6
BYLAYER
  9
$CECOLOR
 62
   256
  9
$CELTSCALE
 40
1.0
  9
$DELOBJ
 70
     1
  9
$DISPSILH
 70
     0
  9
$DIMSCALE
 40
1.0
  9
$DIMASZ
 40
2.0
  9
$DIMEXO
 40
2.0
  9
$DIMDLI
 40
2.5
  9
$DIMRND
 40
0.0
  9
$DIMDLE
 40
0.0
  9
$DIMEXE
 40
2.0
  9
$DIMTP
 40
0.0
  9
$DIMTM
 40
0.0
  9
$DIMTXT
 40
4.0
  9
$DIMCEN
 40
0.0
  9
$DIMTSZ
 40
0.0
  9
$DIMTOL
 70
     0
  9
$DIMLIM
 70
     0
  9
$DIMTIH
 70
     0
  9
$DIMTOH
 70
     0
  9
$DIMSE1
 70
     0
  9
$DIMSE2
 70
     0
  9
$DIMTAD
 70
     3
  9
$DIMZIN
 70
     8
  9
$DIMBLK
  1

  9
$DIMASO
 70
     1
  9
$DIMSHO
 70
     1
  9
$DIMPOST
  1

  9
$DIMAPOST
  1

  9
$DIMALT
 70
     0
  9
$DIMALTD
 70
     2
  9
$DIMALTF
 40
25.4
  9
$DIMLFAC
 40
1.0
  9
$DIMTOFL
 70
     1
  9
$DIMTVP
 40
0.0
  9
$DIMTIX
 70
     1
  9
$DIMSOXD
 70
     0
  9
$DIMSAH
 70
     1
  9
$DIMBLK1
  1
OPEN
  9
$DIMBLK2
  1
OPEN
  9
$DIMSTYLE
  2
BIGT
  9
$DIMCLRD
 70
   256
  9
$DIMCLRE
 70
   256
  9
$DIMCLRT
 70
    40
  9
$DIMTFAC
 40
1.0
  9
$DIMGAP
 40
1.0
  9
$DIMJUST
 70
     0
  9
$DIMSD1
 70
     0
  9
$DIMSD2
 70
     0
  9
$DIMTOLJ
 70
     1
  9
$DIMTZIN
 70
     8
  9
$DIMALTZ
 70
     0
  9
$DIMALTTZ
 70
     0
  9
$DIMFIT
 70
     3
  9
$DIMUPT
 70
     0
  9
$DIMUNIT
 70
     2
  9
$DIMDEC
 70
     3
  9
$DIMTDEC
 70
     3
  9
$DIMALTU
 70
     2
  9
$DIMALTTD
 70
     2
  9
$DIMTXSTY
  7
STANDARD
  9
$DIMAUNIT
 70
     0
  9
$LUNITS
 70
     2
  9
$LUPREC
 70
     3
  9
$SKETCHINC
 40
1.0
  9
$FILLETRAD
 40
0.0
  9
$AUNITS
 70
     0
  9
$AUPREC
 70
     3
  9
$MENU
  1
.
  9
$ELEVATION
 40
0.0
  9
$PELEVATION
 40
0.0
  9
$THICKNESS
 40
0.0
  9
$LIMCHECK
 70
     0
  9
$BLIPMODE
 70
     0
  9
$CHAMFERA
 40
10.0
  9
$CHAMFERB
 40
10.0
  9
$CHAMFERC
 40
0.0
  9
$CHAMFERD
 40
0.0
  9
$SKPOLY
 70
     0
  9
$TDCREATE
 40
2455141.577028530
  9
$TDUPDATE
 40
2455377.685490081
  9
$TDINDWG
 40
0.0286158102
  9
$TDUSRTIMER
 40
0.0286158102
  9
$USRTIMER
 70
     1
  9
$ANGBASE
 50
0.0
  9
$ANGDIR
 70
     0
  9
$PDMODE
 70
     1
  9
$PDSIZE
 40
-5.0
  9
$PLINEWID
 40
0.0
  9
$COORDS
 70
     0
  9
$SPLFRAME
 70
     0
  9
$SPLINETYPE
 70
     6
  9
$SPLINESEGS
 70
     8
  9
$ATTDIA
 70
     0
  9
$ATTREQ
 70
     1
  9
$HANDLING
 70
-16383
  9
$HANDSEED
  5
D8C
  9
$SURFTAB1
 70
     6
  9
$SURFTAB2
 70
     6
  9
$SURFTYPE
 70
     6
  9
$SURFU
 70
     6
  9
$SURFV
 70
     6
  9
$UCSNAME
  2

  9
$UCSORG
 10
0.0
 20
0.0
 30
0.0
  9
$UCSXDIR
 10
1.0
 20
0.0
 30
0.0
  9
$UCSYDIR
 10
0.0
 20
1.0
 30
0.0
  9
$PUCSNAME
  2

  9
$PUCSORG
 10
0.0
 20
0.0
 30
0.0
  9
$PUCSXDIR
 10
1.0
 20
0.0
 30
0.0
  9
$PUCSYDIR
 10
0.0
 20
1.0
 30
0.0
  9
$USERI1
 70
     1
  9
$USERI2
 70
     0
  9
$USERI3
 70
     0
  9
$USERI4
 70
     0
  9
$USERI5
 70
     0
  9
$USERR1
 40
0.0
  9
$USERR2
 40
0.0
  9
$USERR3
 40
0.0
  9
$USERR4
 40
0.0
  9
$USERR5
 40
0.0
  9
$WORLDVIEW
 70
     1
  9
$SHADEDGE
 70
     3
  9
$SHADEDIF
 70
    70
  9
$TILEMODE
 70
     1
  9
$MAXACTVP
 70
    16
  9
$PINSBASE
 10
0.0
 20
0.0
 30
0.0
  9
$PLIMCHECK
 70
     0
  9
$PEXTMIN
 10
1.00000000E+20
 20
1.00000000E+20
 30
1.00000000E+20
  9
$PEXTMAX
 10
-1.00000000E+20
 20
-1.00000000E+20
 30
-1.00000000E+20
  9
$PLIMMIN
 10
0.0
 20
0.0
  9
$PLIMMAX
 10
420.0
 20
297.0
  9
$UNITMODE
 70
     0
  9
$VISRETAIN
 70
     0
  9
$PLINEGEN
 70
     0
  9
$PSLTSCALE
 70
     1
  9
$TREEDEPTH
 70
  3020
  9
$PICKSTYLE
 70
     0
  9
$CMLSTYLE
  2
STANDARD
  9
$CMLJUST
 70
     0
  9
$CMLSCALE
 40
1.0
  9
$PROXYGRAPHICS
 70
     1
  9
$MEASUREMENT
 70
     1
  0
ENDSEC
  0
SECTION
  2
CLASSES
  0
CLASS
  1
XRECORD
  2
AcDbXrecord
  3
AutoCAD 2000
 90
        0
280
     0
281
     0
  0
CLASS
  1
ACDBDICTIONARYWDFLT
  2
AcDbDictionaryWithDefault
  3
AutoCAD 2000
 90
        0
280
     0
281
     0
  0
CLASS
  1
ACDBPLACEHOLDER
  2
AcDbPlaceHolder
  3
AutoCAD 2000
 90
        0
280
     0
281
     0
  0
CLASS
  1
LAYOUT
  2
AcDbLayout
  3
AutoCAD 2000
 90
        0
280
     0
281
     0
  0
CLASS
  1
PLOTSETTINGS
  2
AcDbPlotSettings
  3
AutoCAD 2000
 90
        0
280
     0
281
     0
  0
CLASS
  1
LONG_TRANSACTION
  2
AcDbLongTransaction
  3
AutoCAD 2000
 90
        0
280
     0
281
     0
  0
CLASS
  1
LWPOLYLINE
  2
AcDbPolyline
  3
AutoCAD 2000
 90
        0
280
     0
281
     1
  0
CLASS
  1
HATCH
  2
AcDbHatch
  3
AutoCAD 2000
 90
        0
280
     0
281
     1
  0
CLASS
  1
XRECORD
  2
AcDbXrecord
  3
AutoCAD 2000
 90
        0
280
     0
281
     0
  0
CLASS
  1
LONG_TRANSACTION
  2
AcDbLongTransaction
  3
AutoCAD 2000
 90
        0
280
     0
281
     0
  0
CLASS
  1
LWPOLYLINE
  2
AcDbPolyline
  3
AutoCAD 2000
 90
        0
280
     0
281
     1
  0
CLASS
  1
HATCH
  2
AcDbHatch
  3
AutoCAD 2000
 90
        0
280
     0
281
     1
  0
CLASS
  1
XRECORD
  2
AcDbXrecord
  3
AutoCAD 2000
 90
        0
280
     0
281
     0
  0
CLASS
  1
LONG_TRANSACTION
  2
AcDbLongTransaction
  3
AutoCAD 2000
 90
        0
280
     0
281
     0
  0
CLASS
  1
LWPOLYLINE
  2
AcDbPolyline
  3
AutoCAD 2000
 90
        0
280
     0
281
     1
  0
CLASS
  1
HATCH
  2
AcDbHatch
  3
AutoCAD 2000
 90
        0
280
     0
281
     1
  0
CLASS
  1
XRECORD
  2
AcDbXrecord
  3
AutoCAD 2000
 90
        0
280
     0
281
     0
  0
ENDSEC
  0
SECTION
  2
TABLES
  0
TABLE
  2
VPORT
  5
8
330
0
100
AcDbSymbolTable
 70
     2
  0
VPORT
  5
D67
330
8
100
AcDbSymbolTableRecord
100
AcDbViewportTableRecord
  2
*ACTIVE
 70
     0
 10
0.0
 20
0.0
 11
1.0
 21
1.0
 12
20.12870266
 22
21.50712647
 13
0.0
 23
0.0
 14
7.0
 24
7.0
 15
7.0
 25
7.0
 16
0.0
 26
0.0
 36
1.0
 17
0.0
 27
0.0
 37
0.0
 40
93.7560308
 41
1.45595855
 42
50.0
 43
0.0
 44
0.0
 50
0.0
 51
0.0
 71
     0
 72
  2000
 73
     1
 74
     0
 75
     0
 76
     0
 77
     0
 78
     0
  0
ENDTAB
  0
TABLE
  2
LTYPE
  5
5
330
0
100
AcDbSymbolTable
 70
     4
  0
LTYPE
  5
14
330
5
100
AcDbSymbolTableRecord
100
AcDbLinetypeTableRecord
  2
BYBLOCK
 70
     0
  3

 72
    65
 73
     0
 40
0.0
  0
LTYPE
  5
15
330
5
100
AcDbSymbolTableRecord
100
AcDbLinetypeTableRecord
  2
BYLAYER
 70
     0
  3

 72
    65
 73
     0
 40
0.0
  0
LTYPE
  5
16
330
5
100
AcDbSymbolTableRecord
100
AcDbLinetypeTableRecord
  2
CONTINUOUS
 70
     0
  3
Solid line
 72
    65
 73
     0
 40
0.0
  0
LTYPE
  5
258
330
5
100
AcDbSymbolTableRecord
100
AcDbLinetypeTableRecord
  2
CENTER2
 70
     0
  3
___ _ ___ _ ___ _ ___ _ ___ _ ___ _ ___ _ ___ _
 72
    65
 73
     4
 40
1.125
 49
0.75
 74
     0
 49
-0.125
 74
     0
 49
0.125
 74
     0
 49
-0.125
 74
     0
  0
LTYPE
  5
25C
330
5
100
AcDbSymbolTableRecord
100
AcDbLinetypeTableRecord
  2
HIDDEN2
 70
     0
  3
_ _ _ _ _ _ _ _ _ _ _ _ _ _ _ _ _ _ _ _ _ _ _ _
 72
    65
 73
     2
 40
0.1875
 49
0.125
 74
     0
 49
-0.0625
 74
     0
  0
LTYPE
  5
25D
330
5
100
AcDbSymbolTableRecord
100
AcDbLinetypeTableRecord
  2
PHANTOM2
 70
     0
  3
___ _ _ ___ _ _ ___ _ _ ___ _ _ ___ _ _ ___ _ _
 72
    65
 73
     6
 40
1.25
 49
0.625
 74
     0
 49
-0.125
 74
     0
 49
0.125
 74
     0
 49
-0.125
 74
     0
 49
0.125
 74
     0
 49
-0.125
 74
     0
  0
ENDTAB
  0
TABLE
  2
LAYER
  5
2
330
0
100
AcDbSymbolTable
 70
    10
  0
LAYER
  5
F
330
2
100
AcDbSymbolTableRecord
100
AcDbLayerTableRecord
  2
0
 70
     0
 62
     7
  6
CONTINUOUS
  0
LAYER
  5
1AA
330
2
100
AcDbSymbolTableRecord
100
AcDbLayerTableRecord
  2
240
 70
     0
 62
     4
  6
CONTINUOUS
  0
LAYER
  5
1AB
330
2
100
AcDbSymbolTableRecord
100
AcDbLayerTableRecord
  2
241
 70
     0
 62
   211
  6
CONTINUOUS
  0
LAYER
  5
1AC
330
2
100
AcDbSymbolTableRecord
100
AcDbLayerTableRecord
  2
242
 70
     0
 62
     3
  6
CONTINUOUS
  0
LAYER
  5
1AF
330
2
100
AcDbSymbolTableRecord
100
AcDbLayerTableRecord
  2
245
 70
     0
 62
     2
  6
CENTER2
  0
LAYER
  5
21A
330
2
100
AcDbSymbolTableRecord
100
AcDbLayerTableRecord
  2
246
 70
     0
 62
     3
  6
PHANTOM2
  0
LAYER
  5
21E
330
2
100
AcDbSymbolTableRecord
100
AcDbLayerTableRecord
  2
250
 70
     0
 62
     3
  6
CONTINUOUS
  0
LAYER
  5
21F
330
2
100
AcDbSymbolTableRecord
100
AcDbLayerTableRecord
  2
251
 70
     0
 62
    40
  6
CONTINUOUS
  0
LAYER
  5
5C4
330
2
100
AcDbSymbolTableRecord
100
AcDbLayerTableRecord
  2
DEFPOINTS
 70
     0
 62
     7
  6
CONTINUOUS
  0
ENDTAB
  0
TABLE
  2
STYLE
  5
3
330
0
100
AcDbSymbolTable
 70
     2
  0
STYLE
  5
10
330
3
100
AcDbSymbolTableRecord
100
AcDbTextStyleTableRecord
  2
STANDARD
 70
     0
 40
0.0
 41
1.0
 50
0.0
 71
     0
 42
3.0
  3
romans.shx
  4
BIGFONT.SHX
  0
STYLE
  5
339
330
3
100
AcDbSymbolTableRecord
100
AcDbTextStyleTableRecord
  2
YOKO
 70
     0
 40
0.0
 41
1.0
 50
0.0
 71
     0
 42
3.0
  3
romans.shx
  4
extfont.shx
  0
ENDTAB
  0
TABLE
  2
VIEW
  5
6
330
0
100
AcDbSymbolTable
 70
     0
  0
ENDTAB
  0
TABLE
  2
UCS
  5
7
330
0
100
AcDbSymbolTable
 70
     0
  0
ENDTAB
  0
TABLE
  2
APPID
  5
9
330
0
100
AcDbSymbolTable
 70
     9
  0
APPID
  5
11
330
9
100
AcDbSymbolTableRecord
100
AcDbRegAppTableRecord
  2
ACAD
 70
     0
  0
APPID
  5
1B1
330
9
100
AcDbSymbolTableRecord
100
AcDbRegAppTableRecord
  2
GLOBAL
 70
     0
  0
APPID
  5
2A4
330
9
100
AcDbSymbolTableRecord
100
AcDbRegAppTableRecord
  2
DETAIL
 70
     0
  0
APPID
  5
5FD
330
9
100
AcDbSymbolTableRecord
100
AcDbRegAppTableRecord
  2
GRPNAME
 70
     0
  0
APPID
  5
5FE
330
9
100
AcDbSymbolTableRecord
100
AcDbRegAppTableRecord
  2
GPARA
 70
     0
  0
APPID
  5
6C4
330
9
100
AcDbSymbolTableRecord
100
AcDbRegAppTableRecord
  2
DCO15
 70
     0
  0
APPID
  5
6C5
330
9
100
AcDbSymbolTableRecord
100
AcDbRegAppTableRecord
  2
ITEMNAME
 70
     0
  0
APPID
  5
6C6
330
9
100
AcDbSymbolTableRecord
100
AcDbRegAppTableRecord
  2
GRADE_0
 70
     0
  0
APPID
  5
AE0
330
9
100
AcDbSymbolTableRecord
100
AcDbRegAppTableRecord
  2
CONTENTBLOCKICON
 70
     0
  0
ENDTAB
  0
TABLE
  2
DIMSTYLE
  5
A
330
0
100
AcDbSymbolTable
 70
     1
  0
DIMSTYLE
105
725
102
{ACAD_REACTORS
330
929
330
92C
330
875
330
876
102
}
330
A
100
AcDbSymbolTableRecord
100
AcDbDimStyleTableRecord
  2
BIGT
 70
     0
  3

  4

  5

  6
OPEN
  7
OPEN
 40
1.0
 41
2.23
 42
0.5
 43
2.5
 44
1.0
 45
0.0
 46
0.0
 47
0.0
 48
0.0
140
2.8
141
0.0
142
0.0
143
25.4
144
1.0
145
0.0
146
1.0
147
1.0
 71
     0
 72
     0
 73
     0
 74
     0
 75
     0
 76
     0
 77
     3
 78
     8
170
     0
171
     2
172
     1
173
     1
174
     1
175
     0
176
   256
177
   256
178
    40
270
     2
271
     3
272
     3
273
     2
274
     2
340
10
275
     0
280
     0
281
     0
282
     0
283
     1
284
     8
285
     0
286
     0
287
     3
288
     0
  0
ENDTAB
  0
TABLE
  2
BLOCK_RECORD
  5
1
330
0
100
AcDbSymbolTable
 70
     7
  0
BLOCK_RECORD
  5
1A
102
{ACAD_XDICTIONARY
360
ADE
102
}
330
1
100
AcDbSymbolTableRecord
100
AcDbBlockTableRecord
  2
*MODEL_SPACE
  0
BLOCK_RECORD
  5
17
102
{ACAD_XDICTIONARY
360
ADC
102
}
330
1
100
AcDbSymbolTableRecord
100
AcDbBlockTableRecord
  2
*PAPER_SPACE
  0
BLOCK_RECORD
  5
594
330
1
100
AcDbSymbolTableRecord
100
AcDbBlockTableRecord
  2
_OPEN
  0
BLOCK_RECORD
  5
6E3
330
1
100
AcDbSymbolTableRecord
100
AcDbBlockTableRecord
  2
矢印なし
  0
BLOCK_RECORD
  5
946
330
1
100
AcDbSymbolTableRecord
100
AcDbBlockTableRecord
  2
*D2
  0
BLOCK_RECORD
  5
952
330
1
100
AcDbSymbolTableRecord
100
AcDbBlockTableRecord
  2
*D3
  0
BLOCK_RECORD
  5
95E
330
1
100
AcDbSymbolTableRecord
100
AcDbBlockTableRecord
  2
*D4
  0
BLOCK_RECORD
  5
96A
330
1
100
AcDbSymbolTableRecord
100
AcDbBlockTableRecord
  2
*D5
  0
BLOCK_RECORD
  5
9BF
330
1
100
AcDbSymbolTableRecord
100
AcDbBlockTableRecord
  2
1
1001
CONTENTBLOCKICON
1071
        0
1004
2800000020000000200000000100080000000000000400000000000000000000000000000000000000000000000080000080000000808000800000008000800080800000C0C0C000C0DCC000F0CAA6000020400000206000002080000020A0000020C0000020E00000400000004020000040400000406000004080000040A0
1004
000040C0000040E00000600000006020000060400000606000006080000060A0000060C0000060E00000800000008020000080400000806000008080000080A0000080C0000080E00000A0000000A0200000A0400000A0600000A0800000A0A00000A0C00000A0E00000C0000000C0200000C0400000C0600000C0800000C0
1004
A00000C0C00000C0E00000E0000000E0200000E0400000E0600000E0800000E0A00000E0C00000E0E00040000000400020004000400040006000400080004000A0004000C0004000E00040200000402020004020400040206000402080004020A0004020C0004020E000404000004040200040404000404060004040800040
1004
40A0004040C0004040E00040600000406020004060400040606000406080004060A0004060C0004060E00040800000408020004080400040806000408080004080A0004080C0004080E00040A0000040A0200040A0400040A0600040A0800040A0A00040A0C00040A0E00040C0000040C0200040C0400040C0600040C08000
1004
40C0A00040C0C00040C0E00040E0000040E0200040E0400040E0600040E0800040E0A00040E0C00040E0E00080000000800020008000400080006000800080008000A0008000C0008000E00080200000802020008020400080206000802080008020A0008020C0008020E00080400000804020008040400080406000804080
1004
008040A0008040C0008040E00080600000806020008060400080606000806080008060A0008060C0008060E00080800000808020008080400080806000808080008080A0008080C0008080E00080A0000080A0200080A0400080A0600080A0800080A0A00080A0C00080A0E00080C0000080C0200080C0400080C0600080C0
1004
800080C0A00080C0C00080C0E00080E0000080E0200080E0400080E0600080E0800080E0A00080E0C00080E0E000C0000000C0002000C0004000C0006000C0008000C000A000C000C000C000E000C0200000C0202000C0204000C0206000C0208000C020A000C020C000C020E000C0400000C0402000C0404000C0406000C0
1004
408000C040A000C040C000C040E000C0600000C0602000C0604000C0606000C0608000C060A000C060C000C060E000C0800000C0802000C0804000C0806000C0808000C080A000C080C000C080E000C0A00000C0A02000C0A04000C0A06000C0A08000C0A0A000C0A0C000C0A0E000C0C00000C0C02000C0C04000C0C06000
1004
C0C08000C0C0A000F0FBFF00A4A0A000808080000000FF0000FF000000FFFF00FF000000FF00FF00FFFF0000FFFFFF0000000000000000000000000000000000000000000000000000000000000000000000000000000000000000000000000000000000000000000000000000000000000000000000000000000000000000
1004
00000000000000000000000000000000000000000000000000000000000000000000000000000000000000000000000000000000000000000000000000000000000000000000000000000000000000000000000000000000000000000000000000000000000000000000000000000000000000000000000000000000000000
1004
00000000000000000000000000000000000000000000000000000000000000000000000000000000000000FEFAFAFAFA000000000000000000000000000000000000000000FEFEFEFEFEFEFE00FEFEFE00000000000000000000FEFEFEFEFEE7FEFE000000FEE70000000000000000FA00000000000000000000FE0000E7E7
1004
FEFEFEFEFEFEFEE7000000000000E7E7FA000000FEFEFEFEFEFEFEFE0000E700E7E7E7E7E7E7E7E700000000E7E70000FA000000FE0000000000E7E7000000E7E7E7E7000000E7E70000E7E700000000FA000000FE0000000000E7E700000000E7E7E7000000E7E7E7E7000000000000FA000000FEFEE70000FBE7E70000E7
1004
E7E7E7E7000000E7E7E700000000000000FE0000000000E700E7E7E7E70000E700FB00E7000000E7E7E70000000000E7E7FE000000FBFBFEFBE7E7E7E7FBFBE7FBFBFBE7FBFBFBE7E7E7E7E7E7E7E7FBE7FEFB0000FEFEE70000FBE7E70000E7E7E7E7E7000000E7E70000000000E7E700FE000000FE0000000000E7E70000
1004
0000E7E7E7000000E7E70000000000000000FE000000FE0000000000E7E700000000E7E7E7000000E7E7000000000000E7E7FE000000FEFEFEFEFEFEFEFE00000000E7E7E7000000E7E7000000000000E7E7FE00000000000000000000FE00000000FEFEFEFEFEFEFEE7000000000000E7E7FE00000000000000000000FEFE
1004
FEFEFEFEFEFE000000FEE70000000000000000FE000000000000000000000000000000000000000000FEFEFEFEFEFEFE0000FEFE000000000000000000000000000000000000000000000000000000FEFAFAFAFA00000000000000000000000000000000000000000000000000000000000000000000000000000000000000
1004
00000000000000000000000000000000000000000000000000000000000000000000000000000000000000000000000000000000000000000000000000000000000000000000000000000000000000000000000000000000000000000000000000000000000000000000000000000000000000000000000000000000000000
1004
0000000000000000000000000000000000000000000000000000000000000000000000000000000000000000000000000000000000000000
  0
ENDTAB
  0
ENDSEC
  0
SECTION
  2
BLOCKS
  0
BLOCK
  5
1B
330
1A
100
AcDbEntity
  8
0
100
AcDbBlockBegin
  2
*MODEL_SPACE
 70
     0
 10
0.0
 20
0.0
 30
0.0
  3
*MODEL_SPACE
  1

  0
ENDBLK
  5
1C
330
1A
100
AcDbEntity
  8
0
100
AcDbBlockEnd
  0
BLOCK
  5
18
330
17
100
AcDbEntity
 67
     1
  8
0
100
AcDbBlockBegin
  2
*PAPER_SPACE
 70
     0
 10
0.0
 20
0.0
 30
0.0
  3
*PAPER_SPACE
  1

  0
ENDBLK
  5
19
330
17
100
AcDbEntity
 67
     1
  8
0
100
AcDbBlockEnd
  0
BLOCK
  5
598
330
594
100
AcDbEntity
  8
0
100
AcDbBlockBegin
  2
_OPEN
 70
     0
 10
0.0
 20
0.0
 30
0.0
  3
_OPEN
  1

  0
LINE
  5
595
330
594
100
AcDbEntity
  8
0
  6
BYBLOCK
 62
     0
100
AcDbLine
 10
-1.0
 20
0.16666667
 30
0.0
 11
0.0
 21
0.0
 31
0.0
  0
LINE
  5
596
330
594
100
AcDbEntity
  8
0
  6
BYBLOCK
 62
     0
100
AcDbLine
 10
-1.0
 20
-0.16666667
 30
0.0
 11
0.0
 21
0.0
 31
0.0
  0
LINE
  5
597
330
594
100
AcDbEntity
  8
0
  6
BYBLOCK
 62
     0
100
AcDbLine
 10
0.0
 20
0.0
 30
0.0
 11
-1.0
 21
0.0
 31
0.0
  0
ENDBLK
  5
599
330
594
100
AcDbEntity
  8
0
100
AcDbBlockEnd
  0
BLOCK
  5
6E4
330
6E3
100
AcDbEntity
  8
0
100
AcDbBlockBegin
  2
矢印なし
 70
     0
 10
0.0
 20
0.0
 30
0.0
  3
矢印なし
  1

  0
ENDBLK
  5
6E5
330
6E3
100
AcDbEntity
  8
0
100
AcDbBlockEnd
  0
BLOCK
  5
950
330
946
100
AcDbEntity
  8
0
100
AcDbBlockBegin
  2
*D2
 70
     1
 10
0.0
 20
0.0
 30
0.0
  3
*D2
  1

  0
LINE
  5
9AD
330
946
100
AcDbEntity
  8
250
  6
CONTINUOUS
100
AcDbLine
 10
54.0
 20
25.5
 30
0.0
 11
54.0
 21
36.0
 31
0.0
  0
LINE
  5
9AE
330
946
100
AcDbEntity
  8
250
  6
CONTINUOUS
100
AcDbLine
 10
65.0
 20
25.5
 30
0.0
 11
65.0
 21
36.0
 31
0.0
  0
LINE
  5
9AF
330
946
100
AcDbEntity
  8
250
  6
CONTINUOUS
100
AcDbLine
 10
56.23
 20
35.0
 30
0.0
 11
62.77
 21
35.0
 31
0.0
  0
INSERT
  5
9B0
330
946
100
AcDbEntity
  8
250
  6
CONTINUOUS
100
AcDbBlockReference
  2
_OPEN
 10
54.0
 20
35.0
 30
0.0
 41
2.23
 42
2.23
 43
2.23
 50
180.0
  0
INSERT
  5
9B1
330
946
100
AcDbEntity
  8
250
  6
CONTINUOUS
100
AcDbBlockReference
  2
_OPEN
 10
65.0
 20
35.0
 30
0.0
 41
2.23
 42
2.23
 43
2.23
  0
MTEXT
  5
9B2
330
946
100
AcDbEntity
  8
250
  6
CONTINUOUS
 62
    40
100
AcDbMText
 10
59.5
 20
37.4
 30
0.0
 40
2.8
 41
0.0
 71
     5
 72
     1
  1
\A1;11
1001
ACAD
1000
MTEXTBEGIN
1070
    73
1070
     1
1070
    44
1040
1.0
1070
    74
1070
     0
1000
MTEXTEND
1000
MTEXTBEGIN
1070
    73
1070
     1
1070
    44
1040
1.0
1070
    74
1070
     0
1000
MTEXTEND
1000
MTEXTBEGIN
1070
    73
1070
     1
1070
    44
1040
1.0
1070
    74
1070
     0
1000
MTEXTEND
  0
POINT
  5
9B3
330
946
100
AcDbEntity
  8
DEFPOINTS
  6
CONTINUOUS
 62
     0
100
AcDbPoint
 10
54.0
 20
25.0
 30
0.0
  0
POINT
  5
9B4
330
946
100
AcDbEntity
  8
DEFPOINTS
  6
CONTINUOUS
 62
     0
100
AcDbPoint
 10
65.0
 20
25.0
 30
0.0
  0
POINT
  5
9B5
330
946
100
AcDbEntity
  8
DEFPOINTS
  6
CONTINUOUS
 62
     0
100
AcDbPoint
 10
65.0
 20
35.0
 30
0.0
  0
ENDBLK
  5
951
330
946
100
AcDbEntity
  8
0
100
AcDbBlockEnd
  0
BLOCK
  5
95C
330
952
100
AcDbEntity
  8
0
100
AcDbBlockBegin
  2
*D3
 70
     1
 10
0.0
 20
0.0
 30
0.0
  3
*D3
  1

  0
LINE
  5
9B6
330
952
100
AcDbEntity
  8
250
  6
CONTINUOUS
100
AcDbLine
 10
65.5
 20
-25.0
 30
0.0
 11
78.0
 21
-25.0
 31
0.0
  0
LINE
  5
9B7
330
952
100
AcDbEntity
  8
250
  6
CONTINUOUS
100
AcDbLine
 10
65.5
 20
25.0
 30
0.0
 11
78.0
 21
25.0
 31
0.0
  0
LINE
  5
9B8
330
952
100
AcDbEntity
  8
250
  6
CONTINUOUS
100
AcDbLine
 10
77.0
 20
-22.77
 30
0.0
 11
77.0
 21
22.77
 31
0.0
  0
INSERT
  5
9B9
330
952
100
AcDbEntity
  8
250
  6
CONTINUOUS
100
AcDbBlockReference
  2
_OPEN
 10
77.0
 20
-25.0
 30
0.0
 41
2.23
 42
2.23
 43
2.23
 50
270.0
  0
INSERT
  5
9BA
330
952
100
AcDbEntity
  8
250
  6
CONTINUOUS
100
AcDbBlockReference
  2
_OPEN
 10
77.0
 20
25.0
 30
0.0
 41
2.23
 42
2.23
 43
2.23
 50
90.0
  0
MTEXT
  5
9BB
330
952
100
AcDbEntity
  8
250
  6
CONTINUOUS
 62
    40
100
AcDbMText
 10
74.6
 20
0.0
 30
0.0
 40
2.8
 41
0.0
 71
     5
 72
     1
  1
\A1;{\H2.8;\U+2205}50
 11
0.0
 21
1.0
 31
0.0
1001
ACAD
1000
MTEXTBEGIN
1070
    73
1070
     1
1070
    44
1040
1.0
1070
    74
1070
     0
1000
MTEXTEND
1000
MTEXTBEGIN
1070
    73
1070
     1
1070
    44
1040
1.0
1070
    74
1070
     0
1000
MTEXTEND
1000
MTEXTBEGIN
1070
    73
1070
     1
1070
    44
1040
1.0
1070
    74
1070
     0
1000
MTEXTEND
  0
POINT
  5
9BC
330
952
100
AcDbEntity
  8
DEFPOINTS
  6
CONTINUOUS
 62
     0
100
AcDbPoint
 10
65.0
 20
-25.0
 30
0.0
  0
POINT
  5
9BD
330
952
100
AcDbEntity
  8
DEFPOINTS
  6
CONTINUOUS
 62
     0
100
AcDbPoint
 10
65.0
 20
25.0
 30
0.0
  0
POINT
  5
9BE
330
952
100
AcDbEntity
  8
DEFPOINTS
  6
CONTINUOUS
 62
     0
100
AcDbPoint
 10
77.0
 20
25.0
 30
0.0
  0
ENDBLK
  5
95D
330
952
100
AcDbEntity
  8
0
100
AcDbBlockEnd
  0
BLOCK
  5
968
330
95E
100
AcDbEntity
  8
0
100
AcDbBlockBegin
  2
*D4
 70
     1
 10
0.0
 20
0.0
 30
0.0
  3
*D4
  1

  0
LINE
  5
C9F
330
95E
100
AcDbEntity
  8
250
  6
CONTINUOUS
100
AcDbLine
 10
0.0
 20
20.5
 30
0.0
 11
0.0
 21
50.0
 31
0.0
  0
LINE
  5
CA0
330
95E
100
AcDbEntity
  8
250
  6
CONTINUOUS
100
AcDbLine
 10
65.0
 20
25.5
 30
0.0
 11
65.0
 21
50.0
 31
0.0
  0
LINE
  5
CA1
330
95E
100
AcDbEntity
  8
250
  6
CONTINUOUS
100
AcDbLine
 10
2.23
 20
49.0
 30
0.0
 11
62.77
 21
49.0
 31
0.0
  0
INSERT
  5
CA2
330
95E
100
AcDbEntity
  8
250
  6
CONTINUOUS
100
AcDbBlockReference
  2
_OPEN
 10
0.0
 20
49.0
 30
0.0
 41
2.23
 42
2.23
 43
2.23
 50
180.0
  0
INSERT
  5
CA3
330
95E
100
AcDbEntity
  8
250
  6
CONTINUOUS
100
AcDbBlockReference
  2
_OPEN
 10
65.0
 20
49.0
 30
0.0
 41
2.23
 42
2.23
 43
2.23
  0
MTEXT
  5
CA4
330
95E
100
AcDbEntity
  8
250
  6
CONTINUOUS
 62
    40
100
AcDbMText
 10
32.5
 20
51.4
 30
0.0
 40
2.8
 41
0.0
 71
     5
 72
     1
  1
\A1;65
1001
ACAD
1000
MTEXTBEGIN
1070
    73
1070
     1
1070
    44
1040
1.0
1070
    74
1070
     0
1000
MTEXTEND
1000
MTEXTBEGIN
1070
    73
1070
     1
1070
    44
1040
1.0
1070
    74
1070
     0
1000
MTEXTEND
  0
POINT
  5
CA5
330
95E
100
AcDbEntity
  8
DEFPOINTS
  6
CONTINUOUS
 62
     0
100
AcDbPoint
 10
0.0
 20
20.0
 30
0.0
  0
POINT
  5
CA6
330
95E
100
AcDbEntity
  8
DEFPOINTS
  6
CONTINUOUS
 62
     0
100
AcDbPoint
 10
65.0
 20
25.0
 30
0.0
  0
POINT
  5
CA7
330
95E
100
AcDbEntity
  8
DEFPOINTS
  6
CONTINUOUS
 62
     0
100
AcDbPoint
 10
65.0
 20
49.0
 30
0.0
  0
ENDBLK
  5
969
330
95E
100
AcDbEntity
  8
0
100
AcDbBlockEnd
  0
BLOCK
  5
974
330
96A
100
AcDbEntity
  8
0
100
AcDbBlockBegin
  2
*D5
 70
     1
 10
0.0
 20
0.0
 30
0.0
  3
*D5
  1

  0
LINE
  5
CA8
330
96A
100
AcDbEntity
  8
250
  6
CONTINUOUS
100
AcDbLine
 10
20.0
 20
20.5
 30
0.0
 11
20.0
 21
43.0
 31
0.0
  0
LINE
  5
CA9
330
96A
100
AcDbEntity
  8
250
  6
CONTINUOUS
100
AcDbLine
 10
65.0
 20
25.5
 30
0.0
 11
65.0
 21
43.0
 31
0.0
  0
LINE
  5
CAA
330
96A
100
AcDbEntity
  8
250
  6
CONTINUOUS
100
AcDbLine
 10
22.23
 20
42.0
 30
0.0
 11
62.77
 21
42.0
 31
0.0
  0
INSERT
  5
CAB
330
96A
100
AcDbEntity
  8
250
  6
CONTINUOUS
100
AcDbBlockReference
  2
_OPEN
 10
20.0
 20
42.0
 30
0.0
 41
2.23
 42
2.23
 43
2.23
 50
180.0
  0
INSERT
  5
CAC
330
96A
100
AcDbEntity
  8
250
  6
CONTINUOUS
100
AcDbBlockReference
  2
_OPEN
 10
65.0
 20
42.0
 30
0.0
 41
2.23
 42
2.23
 43
2.23
  0
MTEXT
  5
CAD
330
96A
100
AcDbEntity
  8
250
  6
CONTINUOUS
 62
    40
100
AcDbMText
 10
42.5
 20
44.4
 30
0.0
 40
2.8
 41
0.0
 71
     5
 72
     1
  1
\A1;45
1001
ACAD
1000
MTEXTBEGIN
1070
    73
1070
     1
1070
    44
1040
1.0
1070
    74
1070
     0
1000
MTEXTEND
1000
MTEXTBEGIN
1070
    73
1070
     1
1070
    44
1040
1.0
1070
    74
1070
     0
1000
MTEXTEND
  0
POINT
  5
CAE
330
96A
100
AcDbEntity
  8
DEFPOINTS
  6
CONTINUOUS
 62
     0
100
AcDbPoint
 10
20.0
 20
20.0
 30
0.0
  0
POINT
  5
CAF
330
96A
100
AcDbEntity
  8
DEFPOINTS
  6
CONTINUOUS
 62
     0
100
AcDbPoint
 10
65.0
 20
25.0
 30
0.0
  0
POINT
  5
CB0
330
96A
100
AcDbEntity
  8
DEFPOINTS
  6
CONTINUOUS
 62
     0
100
AcDbPoint
 10
65.0
 20
42.0
 30
0.0
  0
ENDBLK
  5
975
330
96A
100
AcDbEntity
  8
0
100
AcDbBlockEnd
  0
BLOCK
  5
9C0
330
9BF
100
AcDbEntity
  8
0
100
AcDbBlockBegin
  2
1
 70
     0
 10
0.0
 20
0.0
 30
0.0
  3
1
  1

  0
LINE
  5
CC6
330
9BF
100
AcDbEntity
  8
240
  6
CONTINUOUS
100
AcDbLine
 10
52.35358983
 20
24.4
 30
0.0
 11
38.0
 21
24.4
 31
0.0
1001
GRPNAME
1000
PASTMD4P
  0
LINE
  5
CC7
330
9BF
100
AcDbEntity
  8
240
  6
CONTINUOUS
100
AcDbLine
 10
52.35358983
 20
-24.4
 30
0.0
 11
38.0
 21
-24.4
 31
0.0
1001
GRPNAME
1000
PASTMD4P
  0
LINE
  5
CC8
330
9BF
100
AcDbEntity
  8
241
  6
CONTINUOUS
100
AcDbLine
 10
40.90616721
 20
-7.03115464
 30
0.0
 11
64.4
 21
-19.65797904
 31
0.0
1001
GRPNAME
1000
PASTMD4P
  0
LINE
  5
CC9
330
9BF
100
AcDbEntity
  8
245
100
AcDbLine
 10
66.0
 20
0.0
 30
0.0
 11
-19.9
 21
0.0
 31
0.0
  0
LINE
  5
CCA
330
9BF
100
AcDbEntity
  8
245
100
AcDbLine
 10
66.0
 20
0.0
 30
0.0
 11
-19.9
 21
0.0
 31
0.0
  0
LINE
  5
CCB
330
9BF
100
AcDbEntity
  8
241
  6
CONTINUOUS
100
AcDbLine
 10
43.98567969
 20
1.84792923
 30
0.0
 11
52.07193983
 21
0.42210339
 31
0.0
1001
GRPNAME
1000
PASTMD4P
  0
LINE
  5
CCC
330
9BF
100
AcDbEntity
  8
241
100
AcDbLine
 10
38.0
 20
-24.4
 30
0.0
 11
38.0
 21
0.0
 31
0.0
  0
LINE
  5
CCD
330
9BF
100
AcDbEntity
  8
242
  6
CONTINUOUS
100
AcDbLine
 10
35.0
 20
-15.66633805
 30
0.0
 11
20.5
 21
-12.90954189
 31
0.0
  0
LINE
  5
CCE
330
9BF
100
AcDbEntity
  8
242
  6
CONTINUOUS
100
AcDbLine
 10
35.0
 20
-12.91300349
 30
0.0
 11
20.5
 21
-15.66633805
 31
0.0
  0
LINE
  5
CCF
330
9BF
100
AcDbEntity
  8
241
  6
CONTINUOUS
100
AcDbLine
 10
35.0
 20
0.0
 30
0.0
 11
35.0
 21
-15.66633805
 31
0.0
1001
GRPNAME
1000
PASTMD05
  0
LINE
  5
CD0
330
9BF
100
AcDbEntity
  8
241
  6
CONTINUOUS
100
AcDbLine
 10
20.5
 20
-12.91300349
 30
0.0
 11
20.5
 21
-15.66633805
 31
0.0
  0
LINE
  5
CD1
330
9BF
100
AcDbEntity
  8
241
100
AcDbLine
 10
20.0
 20
-16.8
 30
0.0
 11
20.0
 21
0.0
 31
0.0
  0
ARC
  5
CD2
330
9BF
100
AcDbEntity
  8
241
  6
CONTINUOUS
100
AcDbCircle
 10
12.47213595
 20
-16.5
 30
0.0
 40
4.5
100
AcDbArc
 50
90.0
 51
173.62062979
1001
GRPNAME
1000
PASTMD0J
  0
LINE
  5
CD3
330
9BF
100
AcDbEntity
  8
241
  6
CONTINUOUS
100
AcDbLine
 10
15.0
 20
-12.6
 30
0.0
 11
15.0
 21
-17.4
 31
0.0
1001
GRPNAME
1000
PASTMD0J
  0
LINE
  5
CD4
330
9BF
100
AcDbEntity
  8
241
  6
CONTINUOUS
100
AcDbLine
 10
17.0
 20
-12.6
 30
0.0
 11
17.0
 21
-17.4
 31
0.0
1001
GRPNAME
1000
PASTMD0J
  0
LINE
  5
CD5
330
9BF
100
AcDbEntity
  8
241
  6
CONTINUOUS
100
AcDbLine
 10
15.0
 20
-13.72616759
 30
0.0
 11
13.97927406
 21
-16.0
 31
0.0
1001
GRPNAME
1000
PASTMD0J
  0
LINE
  5
CD6
330
9BF
100
AcDbEntity
  8
241
  6
CONTINUOUS
100
AcDbLine
 10
18.02072594
 20
-16.0
 30
0.0
 11
17.0
 21
-13.72616759
 31
0.0
1001
GRPNAME
1000
PASTMD0J
  0
LINE
  5
CD7
330
9BF
100
AcDbEntity
  8
240
  6
CONTINUOUS
100
AcDbLine
 10
-2.0
 20
-15.1
 30
0.0
 11
-19.23995009
 21
-14.2380025
 31
0.0
1001
GRPNAME
1000
PASTMD0J
  0
LINE
  5
CD8
330
9BF
100
AcDbEntity
  8
241
100
AcDbLine
 10
-2.0
 20
-15.1
 30
0.0
 11
-2.0
 21
0.0
 31
0.0
  0
LINE
  5
CD9
330
9BF
100
AcDbEntity
  8
245
  6
CENTER2
100
AcDbLine
 10
16.0
 20
-20.0
 30
0.0
 11
16.0
 21
20.0
 31
0.0
1001
GRPNAME
1000
PASTMD0J
  0
LINE
  5
CDA
330
9BF
100
AcDbEntity
  8
241
  6
CONTINUOUS
100
AcDbLine
 10
0.0
 20
-15.1
 30
0.0
 11
0.0
 21
0.0
 31
0.0
1001
GRPNAME
1000
PASTMD0J
  0
LINE
  5
CDB
330
9BF
100
AcDbEntity
  8
240
  6
CONTINUOUS
100
AcDbLine
 10
15.0
 20
-18.23205081
 30
0.0
 11
13.97927406
 21
-20.0
 31
0.0
1001
GRPNAME
1000
PASTMD0J
  0
LINE
  5
CDC
330
9BF
100
AcDbEntity
  8
240
  6
CONTINUOUS
100
AcDbLine
 10
0.0
 20
-20.0
 30
0.0
 11
13.97927406
 21
-20.0
 31
0.0
1001
GRPNAME
1000
PASTMD0J
  0
LINE
  5
CDD
330
9BF
100
AcDbEntity
  8
240
100
AcDbLine
 10
-2.0
 20
-15.1
 30
0.0
 11
0.0
 21
-15.1
 31
0.0
  0
LINE
  5
CDE
330
9BF
100
AcDbEntity
  8
240
  6
CONTINUOUS
100
AcDbLine
 10
0.0
 20
-20.0
 30
0.0
 11
0.0
 21
-15.1
 31
0.0
1001
GRPNAME
1000
PASTMD0J
  0
LINE
  5
CDF
330
9BF
100
AcDbEntity
  8
241
  6
CONTINUOUS
100
AcDbLine
 10
8.0
 20
-16.0
 30
0.0
 11
13.97927406
 21
-16.0
 31
0.0
1001
GRPNAME
1000
PASTMD0J
  0
LINE
  5
CE0
330
9BF
100
AcDbEntity
  8
241
  6
CONTINUOUS
100
AcDbLine
 10
13.97927406
 20
-20.0
 30
0.0
 11
13.97927406
 21
-16.0
 31
0.0
1001
GRPNAME
1000
PASTMD0J
  0
LINE
  5
CE1
330
9BF
100
AcDbEntity
  8
240
  6
CONTINUOUS
100
AcDbLine
 10
20.5
 20
-15.66633805
 30
0.0
 11
35.0
 21
-15.66633805
 31
0.0
  0
LINE
  5
CE2
330
9BF
100
AcDbEntity
  8
240
  6
CONTINUOUS
100
AcDbLine
 10
18.02072594
 20
-20.0
 30
0.0
 11
20.0
 21
-20.0
 31
0.0
1001
GRPNAME
1000
PASTMD0J
  0
LINE
  5
CE3
330
9BF
100
AcDbEntity
  8
241
  6
CONTINUOUS
100
AcDbLine
 10
18.02072594
 20
-16.0
 30
0.0
 11
20.0
 21
-16.0
 31
0.0
1001
GRPNAME
1000
PASTMD0J
  0
LINE
  5
CE4
330
9BF
100
AcDbEntity
  8
241
  6
CONTINUOUS
100
AcDbLine
 10
18.02072594
 20
-20.0
 30
0.0
 11
18.02072594
 21
-16.0
 31
0.0
1001
GRPNAME
1000
PASTMD0J
  0
LINE
  5
CE5
330
9BF
100
AcDbEntity
  8
240
  6
CONTINUOUS
100
AcDbLine
 10
17.0
 20
-18.23205081
 30
0.0
 11
18.02072594
 21
-20.0
 31
0.0
1001
GRPNAME
1000
PASTMD0J
  0
LINE
  5
CE6
330
9BF
100
AcDbEntity
  8
240
  6
CONTINUOUS
100
AcDbLine
 10
15.0
 20
-17.4
 30
0.0
 11
15.0
 21
-18.23205081
 31
0.0
1001
GRPNAME
1000
PASTMD0J
  0
LINE
  5
CE7
330
9BF
100
AcDbEntity
  8
240
  6
CONTINUOUS
100
AcDbLine
 10
15.0
 20
-17.4
 30
0.0
 11
17.0
 21
-17.4
 31
0.0
1001
GRPNAME
1000
PASTMD0J
  0
LINE
  5
CE8
330
9BF
100
AcDbEntity
  8
240
  6
CONTINUOUS
100
AcDbLine
 10
17.0
 20
-18.23205081
 30
0.0
 11
17.0
 21
-17.4
 31
0.0
1001
GRPNAME
1000
PASTMD0J
  0
LINE
  5
CE9
330
9BF
100
AcDbEntity
  8
240
  6
CONTINUOUS
100
AcDbLine
 10
20.0
 20
-16.8
 30
0.0
 11
20.5
 21
-16.8
 31
0.0
  0
LINE
  5
CEA
330
9BF
100
AcDbEntity
  8
240
  6
CONTINUOUS
100
AcDbLine
 10
20.5
 20
-16.8
 30
0.0
 11
20.5
 21
-15.66633805
 31
0.0
  0
LINE
  5
CEB
330
9BF
100
AcDbEntity
  8
240
  6
CONTINUOUS
100
AcDbLine
 10
20.0
 20
-16.8
 30
0.0
 11
20.0
 21
-20.0
 31
0.0
1001
GRPNAME
1000
PASTMD0J
  0
LINE
  5
CEC
330
9BF
100
AcDbEntity
  8
240
100
AcDbLine
 10
35.0
 20
-15.66633805
 30
0.0
 11
35.0
 21
-21.4
 31
0.0
  0
LINE
  5
CED
330
9BF
100
AcDbEntity
  8
240
  6
CONTINUOUS
100
AcDbLine
 10
35.0
 20
-21.4
 30
0.0
 11
38.0
 21
-24.4
 31
0.0
  0
LINE
  5
CEE
330
9BF
100
AcDbEntity
  8
240
  6
CONTINUOUS
100
AcDbLine
 10
15.0
 20
18.23205081
 30
0.0
 11
13.97927406
 21
20.0
 31
0.0
1001
GRPNAME
1000
PASTMD0J
  0
LINE
  5
CEF
330
9BF
100
AcDbEntity
  8
241
  6
CONTINUOUS
100
AcDbLine
 10
12.47213595
 20
-12.0
 30
0.0
 11
20.0
 21
-12.0
 31
0.0
1001
GRPNAME
1000
PASTMD0J
  0
LINE
  5
CF0
330
9BF
100
AcDbEntity
  8
241
  6
CONTINUOUS
100
AcDbLine
 10
12.5
 20
-4.5
 30
0.0
 11
20.0
 21
-4.5
 31
0.0
1001
GRPNAME
1000
PASTMD0J
  0
LINE
  5
CF1
330
9BF
100
AcDbEntity
  8
241
  6
CONTINUOUS
100
AcDbLine
 10
12.5
 20
4.5
 30
0.0
 11
20.0
 21
4.5
 31
0.0
1001
GRPNAME
1000
PASTMD0J
  0
LINE
  5
CF2
330
9BF
100
AcDbEntity
  8
241
100
AcDbLine
 10
-2.0
 20
15.1
 30
0.0
 11
-2.0
 21
0.0
 31
0.0
  0
LINE
  5
CF3
330
9BF
100
AcDbEntity
  8
241
  6
CONTINUOUS
100
AcDbLine
 10
0.0
 20
15.1
 30
0.0
 11
0.0
 21
0.0
 31
0.0
1001
GRPNAME
1000
PASTMD0J
  0
LINE
  5
CF4
330
9BF
100
AcDbEntity
  8
240
  6
CONTINUOUS
100
AcDbLine
 10
-20.0
 20
4.825
 30
0.0
 11
-20.0
 21
13.43900062
 31
0.0
1001
GRPNAME
1000
PASTMD0J
  0
LINE
  5
CF5
330
9BF
100
AcDbEntity
  8
241
  6
CONTINUOUS
100
AcDbLine
 10
13.97927406
 20
4.5
 30
0.0
 11
13.97927406
 21
20.0
 31
0.0
1001
GRPNAME
1000
PASTMD0J
  0
LINE
  5
CF6
330
9BF
100
AcDbEntity
  8
241
  6
HIDDEN2
100
AcDbLine
 10
-14.0
 20
-3.025
 30
0.0
 11
-14.0
 21
0.0
 31
0.0
1001
GRPNAME
1000
PASTMD0J
  0
LINE
  5
CF7
330
9BF
100
AcDbEntity
  8
245
  6
CENTER2
100
AcDbLine
 10
-6.0
 20
-3.3
 30
0.0
 11
-6.0
 21
3.3
 31
0.0
1001
GRPNAME
1000
PASTMD0J
  0
LINE
  5
CF8
330
9BF
100
AcDbEntity
  8
240
  6
CONTINUOUS
100
AcDbLine
 10
-16.5
 20
-3.025
 30
0.0
 11
-16.5
 21
0.0
 31
0.0
1001
GRPNAME
1000
PASTMD0J
  0
LINE
  5
CF9
330
9BF
100
AcDbEntity
  8
240
  6
CONTINUOUS
100
AcDbLine
 10
-20.0
 20
-13.43900062
 30
0.0
 11
-20.0
 21
-4.825
 31
0.0
1001
GRPNAME
1000
PASTMD0J
  0
ARC
  5
CFA
330
9BF
100
AcDbEntity
  8
240
  6
CONTINUOUS
100
AcDbCircle
 10
-19.2
 20
-13.43900062
 30
0.0
 40
0.8000000000000111
100
AcDbArc
 50
179.99999999
 51
267.13759477
1001
GRPNAME
1000
PASTMD0J
  0
LINE
  5
CFB
330
9BF
100
AcDbEntity
  8
241
  6
HIDDEN2
100
AcDbLine
 10
-17.5
 20
-4.025
 30
0.0
 11
-15.0
 21
-4.025
 31
0.0
1001
GRPNAME
1000
PASTMD0J
  0
ARC
  5
CFC
330
9BF
100
AcDbEntity
  8
240
  6
CONTINUOUS
100
AcDbCircle
 10
-17.5
 20
-3.025
 30
0.0
 40
1.0
100
AcDbArc
 50
269.99999999
 51
359.99999999
1001
GRPNAME
1000
PASTMD0J
  0
LINE
  5
CFD
330
9BF
100
AcDbEntity
  8
240
  6
CONTINUOUS
100
AcDbLine
 10
-19.2
 20
-4.025
 30
0.0
 11
-17.5
 21
-4.025
 31
0.0
1001
GRPNAME
1000
PASTMD0J
  0
LINE
  5
CFE
330
9BF
100
AcDbEntity
  8
240
  6
CONTINUOUS
100
AcDbLine
 10
-20.0
 20
-4.825
 30
0.0
 11
-19.2
 21
-4.025
 31
0.0
1001
GRPNAME
1000
PASTMD0J
  0
ARC
  5
CFF
330
9BF
100
AcDbEntity
  8
241
  6
HIDDEN2
100
AcDbCircle
 10
-15.0
 20
-3.025
 30
0.0
 40
1.0
100
AcDbArc
 50
269.99999999
 51
359.99999999
1001
GRPNAME
1000
PASTMD0J
  0
ARC
  5
D00
330
9BF
100
AcDbEntity
  8
241
  6
HIDDEN2
100
AcDbCircle
 10
-15.0
 20
3.025
 30
0.0
 40
1.0
100
AcDbArc
 50
0.0
 51
90.0
1001
GRPNAME
1000
PASTMD0J
  0
ARC
  5
D01
330
9BF
100
AcDbEntity
  8
240
  6
CONTINUOUS
100
AcDbCircle
 10
-17.5
 20
3.025
 30
0.0
 40
1.0
100
AcDbArc
 50
0.0
 51
90.0
1001
GRPNAME
1000
PASTMD0J
  0
LINE
  5
D02
330
9BF
100
AcDbEntity
  8
241
  6
HIDDEN2
100
AcDbLine
 10
-14.0
 20
3.025
 30
0.0
 11
-14.0
 21
0.0
 31
0.0
1001
GRPNAME
1000
PASTMD0J
  0
LINE
  5
D03
330
9BF
100
AcDbEntity
  8
240
  6
CONTINUOUS
100
AcDbLine
 10
-16.5
 20
3.025
 30
0.0
 11
-16.5
 21
0.0
 31
0.0
1001
GRPNAME
1000
PASTMD0J
  0
LINE
  5
D04
330
9BF
100
AcDbEntity
  8
241
  6
HIDDEN2
100
AcDbLine
 10
-17.5
 20
4.025
 30
0.0
 11
-15.0
 21
4.025
 31
0.0
1001
GRPNAME
1000
PASTMD0J
  0
LINE
  5
D05
330
9BF
100
AcDbEntity
  8
240
  6
CONTINUOUS
100
AcDbLine
 10
-19.2
 20
4.025
 30
0.0
 11
-17.5
 21
4.025
 31
0.0
1001
GRPNAME
1000
PASTMD0J
  0
LINE
  5
D06
330
9BF
100
AcDbEntity
  8
240
  6
CONTINUOUS
100
AcDbLine
 10
-19.2
 20
4.025
 30
0.0
 11
-20.0
 21
4.825
 31
0.0
1001
GRPNAME
1000
PASTMD0J
  0
CIRCLE
  5
D07
330
9BF
100
AcDbEntity
  8
241
  6
CONTINUOUS
100
AcDbCircle
 10
-6.0
 20
0.0
 30
0.0
 40
2.299999999999998
1001
GRPNAME
1000
PASTMD0J
  0
ARC
  5
D08
330
9BF
100
AcDbEntity
  8
241
  6
CONTINUOUS
100
AcDbCircle
 10
12.5
 20
0.0
 30
0.0
 40
4.5
100
AcDbArc
 50
179.99999999
 51
269.99999999
1001
GRPNAME
1000
PASTMD0J
  0
LINE
  5
D09
330
9BF
100
AcDbEntity
  8
241
  6
CONTINUOUS
100
AcDbLine
 10
13.97927406
 20
-12.0
 30
0.0
 11
13.97927406
 21
-4.5
 31
0.0
1001
GRPNAME
1000
PASTMD0J
  0
ARC
  5
D0A
330
9BF
100
AcDbEntity
  8
241
  6
CONTINUOUS
100
AcDbCircle
 10
12.5
 20
0.0
 30
0.0
 40
4.5
100
AcDbArc
 50
90.00000001
 51
180.00000001
1001
GRPNAME
1000
PASTMD0J
  0
LINE
  5
D0B
330
9BF
100
AcDbEntity
  8
240
  6
CONTINUOUS
100
AcDbLine
 10
-2.0
 20
15.1
 30
0.0
 11
-19.23995009
 21
14.2380025
 31
0.0
1001
GRPNAME
1000
PASTMD0J
  0
ARC
  5
D0C
330
9BF
100
AcDbEntity
  8
240
  6
CONTINUOUS
100
AcDbCircle
 10
-19.2
 20
13.43900062
 30
0.0
 40
0.8000000000000191
100
AcDbArc
 50
92.86240523
 51
180.0
1001
GRPNAME
1000
PASTMD0J
  0
LINE
  5
D0D
330
9BF
100
AcDbEntity
  8
240
  6
CONTINUOUS
100
AcDbLine
 10
0.0
 20
20.0
 30
0.0
 11
13.97927406
 21
20.0
 31
0.0
1001
GRPNAME
1000
PASTMD0J
  0
LINE
  5
D0E
330
9BF
100
AcDbEntity
  8
240
  6
CONTINUOUS
100
AcDbLine
 10
0.0
 20
15.1
 30
0.0
 11
0.0
 21
20.0
 31
0.0
1001
GRPNAME
1000
PASTMD0J
  0
LINE
  5
D0F
330
9BF
100
AcDbEntity
  8
240
100
AcDbLine
 10
-2.0
 20
15.1
 30
0.0
 11
0.0
 21
15.1
 31
0.0
  0
LINE
  5
D10
330
9BF
100
AcDbEntity
  8
241
  6
CONTINUOUS
100
AcDbLine
 10
35.0
 20
0.0
 30
0.0
 11
35.0
 21
16.8
 31
0.0
1001
GRPNAME
1000
PASTMD05
  0
LINE
  5
D11
330
9BF
100
AcDbEntity
  8
241
100
AcDbLine
 10
38.0
 20
24.4
 30
0.0
 11
38.0
 21
0.0
 31
0.0
  0
LINE
  5
D12
330
9BF
100
AcDbEntity
  8
241
100
AcDbLine
 10
20.0
 20
16.8
 30
0.0
 11
20.0
 21
0.0
 31
0.0
  0
LINE
  5
D13
330
9BF
100
AcDbEntity
  8
241
  6
CONTINUOUS
100
AcDbLine
 10
15.0
 20
4.5
 30
0.0
 11
15.0
 21
17.4
 31
0.0
1001
GRPNAME
1000
PASTMD0J
  0
LINE
  5
D14
330
9BF
100
AcDbEntity
  8
241
  6
CONTINUOUS
100
AcDbLine
 10
17.0
 20
4.5
 30
0.0
 11
17.0
 21
17.4
 31
0.0
1001
GRPNAME
1000
PASTMD0J
  0
LINE
  5
D15
330
9BF
100
AcDbEntity
  8
241
  6
CONTINUOUS
100
AcDbLine
 10
18.02072594
 20
4.5
 30
0.0
 11
18.02072594
 21
20.0
 31
0.0
1001
GRPNAME
1000
PASTMD0J
  0
LINE
  5
D16
330
9BF
100
AcDbEntity
  8
241
  6
CONTINUOUS
100
AcDbLine
 10
20.5
 20
-12.91300349
 30
0.0
 11
35.0
 21
-12.91300349
 31
0.0
  0
LINE
  5
D17
330
9BF
100
AcDbEntity
  8
241
  6
CONTINUOUS
100
AcDbLine
 10
18.02072594
 20
-12.0
 30
0.0
 11
18.02072594
 21
-4.5
 31
0.0
1001
GRPNAME
1000
PASTMD0J
  0
LINE
  5
D18
330
9BF
100
AcDbEntity
  8
241
  6
CONTINUOUS
100
AcDbLine
 10
17.0
 20
-4.5
 30
0.0
 11
17.0
 21
-12.0
 31
0.0
1001
GRPNAME
1000
PASTMD0J
  0
LINE
  5
D19
330
9BF
100
AcDbEntity
  8
241
  6
CONTINUOUS
100
AcDbLine
 10
15.0
 20
-4.5
 30
0.0
 11
15.0
 21
-12.0
 31
0.0
1001
GRPNAME
1000
PASTMD0J
  0
LINE
  5
D1A
330
9BF
100
AcDbEntity
  8
241
  6
CONTINUOUS
100
AcDbLine
 10
15.0
 20
-12.6
 30
0.0
 11
17.0
 21
-12.6
 31
0.0
1001
GRPNAME
1000
PASTMD0J
  0
ARC
  5
D1B
330
9BF
100
AcDbEntity
  8
241
  6
CONTINUOUS
100
AcDbCircle
 10
43.1592454
 20
-2.83901254
 30
0.0
 40
4.759245396937231
100
AcDbArc
 50
79.99999995
 51
241.74405444
1001
GRPNAME
1000
PASTMD4P
  0
LINE
  5
D1C
330
9BF
100
AcDbEntity
  8
240
  6
CONTINUOUS
100
AcDbLine
 10
20.0
 20
16.8
 30
0.0
 11
35.0
 21
16.8
 31
0.0
  0
LINE
  5
D1D
330
9BF
100
AcDbEntity
  8
240
  6
CONTINUOUS
100
AcDbLine
 10
18.02072594
 20
20.0
 30
0.0
 11
20.0
 21
20.0
 31
0.0
1001
GRPNAME
1000
PASTMD0J
  0
LINE
  5
D1E
330
9BF
100
AcDbEntity
  8
240
  6
CONTINUOUS
100
AcDbLine
 10
15.0
 20
17.4
 30
0.0
 11
15.0
 21
18.23205081
 31
0.0
1001
GRPNAME
1000
PASTMD0J
  0
LINE
  5
D1F
330
9BF
100
AcDbEntity
  8
240
  6
CONTINUOUS
100
AcDbLine
 10
15.0
 20
17.4
 30
0.0
 11
17.0
 21
17.4
 31
0.0
1001
GRPNAME
1000
PASTMD0J
  0
LINE
  5
D20
330
9BF
100
AcDbEntity
  8
240
  6
CONTINUOUS
100
AcDbLine
 10
17.0
 20
17.4
 30
0.0
 11
17.0
 21
18.23205081
 31
0.0
1001
GRPNAME
1000
PASTMD0J
  0
LINE
  5
D21
330
9BF
100
AcDbEntity
  8
240
  6
CONTINUOUS
100
AcDbLine
 10
17.0
 20
18.23205081
 30
0.0
 11
18.02072594
 21
20.0
 31
0.0
1001
GRPNAME
1000
PASTMD0J
  0
LINE
  5
D22
330
9BF
100
AcDbEntity
  8
240
  6
CONTINUOUS
100
AcDbLine
 10
20.0
 20
16.8
 30
0.0
 11
20.0
 21
20.0
 31
0.0
1001
GRPNAME
1000
PASTMD0J
  0
LINE
  5
D23
330
9BF
100
AcDbEntity
  8
240
  6
CONTINUOUS
100
AcDbLine
 10
35.0
 20
21.4
 30
0.0
 11
38.0
 21
24.4
 31
0.0
  0
LINE
  5
D24
330
9BF
100
AcDbEntity
  8
240
  6
CONTINUOUS
100
AcDbLine
 10
35.0
 20
16.8
 30
0.0
 11
35.0
 21
21.4
 31
0.0
1001
GRPNAME
1000
PASTMD05
  0
LINE
  5
D25
330
9BF
100
AcDbEntity
  8
240
  6
CONTINUOUS
100
AcDbLine
 10
64.4
 20
-3.93161786
 30
0.0
 11
64.4
 21
-24.3
 31
0.0
1001
GRPNAME
1000
PASTMD4P
  0
LINE
  5
D26
330
9BF
100
AcDbEntity
  8
246
100
AcDbLine
 10
65.0
 20
25.0
 30
0.0
 11
65.0
 21
-25.0
 31
0.0
1001
GRPNAME
1000
PASTMD1O
  0
LINE
  5
D27
330
9BF
100
AcDbEntity
  8
240
  6
CONTINUOUS
100
AcDbLine
 10
64.4
 20
-24.3
 30
0.0
 11
53.10000001
 21
-24.55
 31
0.0
1001
GRPNAME
1000
PASTMD4P
  0
LINE
  5
D28
330
9BF
100
AcDbEntity
  8
246
100
AcDbLine
 10
54.0
 20
-25.0
 30
0.0
 11
65.0
 21
-25.0
 31
0.0
  0
LINE
  5
D29
330
9BF
100
AcDbEntity
  8
240
  6
CONTINUOUS
100
AcDbLine
 10
53.10000001
 20
-24.55
 30
0.0
 11
52.35358983
 21
-24.4
 31
0.0
1001
GRPNAME
1000
PASTMD4P
  0
LINE
  5
D2A
330
9BF
100
AcDbEntity
  8
240
  6
CONTINUOUS
100
AcDbLine
 10
64.4
 20
24.3
 30
0.0
 11
64.4
 21
1.70311081
 31
0.0
1001
GRPNAME
1000
PASTMD4P
  0
LINE
  5
D2B
330
9BF
100
AcDbEntity
  8
241
100
AcDbLine
 10
52.12716376
 20
0.53532922
 30
0.0
 11
64.4
 21
-3.93161786
 31
0.0
1001
GRPNAME
1000
PASTMD4P
  0
LINE
  5
D2C
330
9BF
100
AcDbEntity
  8
240
100
AcDbLine
 10
64.3845265
 20
1.70583921
 30
0.0
 11
65.0
 21
-4.15
 31
0.0
1001
GRPNAME
1000
PASTMD4P
  0
LINE
  5
D2D
330
9BF
100
AcDbEntity
  8
240
100
AcDbLine
 10
64.4
 20
-3.93161786
 30
0.0
 11
65.0
 21
-4.15
 31
0.0
1001
GRPNAME
1000
PASTMD4P
  0
LINE
  5
D2E
330
9BF
100
AcDbEntity
  8
241
100
AcDbLine
 10
64.3845265
 20
1.70583921
 30
0.0
 11
53.62351139
 21
3.60329651
 31
0.0
1001
GRPNAME
1000
PASTMD4P
  0
LINE
  5
D2F
330
9BF
100
AcDbEntity
  8
241
100
AcDbLine
 10
53.62351139
 20
3.60329651
 30
0.0
 11
52.07193983
 21
0.42210339
 31
0.0
1001
GRPNAME
1000
PASTMD4P
  0
LINE
  5
D30
330
9BF
100
AcDbEntity
  8
240
100
AcDbLine
 10
64.4
 20
1.70311081
 30
0.0
 11
64.3845265
 21
1.70583921
 31
0.0
1001
GRPNAME
1000
PASTMD4P
  0
LWPOLYLINE
  5
D31
330
9BF
100
AcDbEntity
  8
241
  6
CONTINUOUS
100
AcDbPolyline
 90
       70
 70
     0
 43
0.0
 10
58.74556821
 20
14.16627101
 10
58.72222794
 20
14.02283172
 10
58.70271196
 20
13.87902433
 10
58.68706073
 20
13.73514687
 10
58.67530669
 20
13.59149753
 10
58.66747418
 20
13.44837402
 10
58.66357946
 20
13.30607297
 10
58.66363058
 20
13.16488929
 10
58.66762744
 20
13.02511558
 10
58.67556176
 20
12.88704152
 10
58.68741709
 20
12.75095327
 10
58.70316887
 20
12.61713287
 10
58.72278445
 20
12.48585766
 10
58.74622317
 20
12.35739971
 10
58.77343646
 20
12.23202524
 10
58.80436792
 20
12.1099941
 10
58.83895345
 20
11.99155919
 10
58.87712136
 20
11.87696596
 10
58.91879256
 20
11.76645191
 10
58.96388068
 20
11.66024608
 10
59.01229228
 20
11.55856858
 10
59.06392702
 20
11.46163013
 10
59.11867789
 20
11.36963164
 10
59.17643143
 20
11.28276377
 10
59.23706793
 20
11.20120656
 10
59.30046173
 20
11.12512903
 10
59.36648144
 20
11.05468885
 10
59.43499025
 20
10.99003202
 10
59.50584617
 20
10.93129252
 10
59.57890234
 20
10.8785921
 10
59.65400737
 20
10.83203997
 10
59.73100559
 20
10.79173262
 10
59.80973743
 20
10.75775358
 10
59.89003972
 20
10.73017328
 10
59.97174603
 20
10.70904887
 10
60.05468703
 20
10.69442413
 10
60.13869082
 20
10.68632938
 10
60.22358331
 20
10.68478139
 10
60.30918856
 20
10.68978336
 10
60.39532915
 20
10.70132494
 10
60.48182655
 20
10.7193822
 10
60.5685015
 20
10.74391771
 10
60.65517438
 20
10.77488063
 10
60.74166554
 20
10.8122068
 10
60.82779574
 20
10.85581884
 10
60.91338647
 20
10.90562637
 10
60.99826035
 20
10.96152618
 10
61.08224148
 20
11.0234024
 10
61.16515581
 20
11.0911268
 10
61.2468315
 20
11.16455903
 10
61.32709927
 20
11.24354688
 10
61.40579278
 20
11.32792667
 10
61.48274893
 20
11.41752352
 10
61.55780823
 20
11.51215173
 10
61.63081512
 20
11.6116152
 10
61.70161829
 20
11.71570778
 10
61.77007102
 20
11.82421375
 10
61.83603142
 20
11.93690822
 10
61.8993628
 20
12.05355764
 10
61.9599339
 20
12.17392026
 10
62.01761919
 20
12.29774662
 10
62.07229912
 20
12.4247801
 10
62.12386037
 20
12.55475742
 10
62.17219607
 20
12.6874092
 10
62.21720605
 20
12.82246052
 10
62.25879702
 20
12.9596315
 10
62.2968828
 20
13.09863784
 10
62.33138445
 20
13.23919147
 10
62.36223045
 20
13.38100107
 10
62.3893569
 20
13.52377276
1001
GRPNAME
1000
PASTMD4P
  0
LWPOLYLINE
  5
D32
330
9BF
100
AcDbEntity
  8
241
  6
CONTINUOUS
100
AcDbPolyline
 90
       70
 70
     0
 43
0.0
 10
62.3893569
 20
13.52377276
 10
62.40622712
 20
13.630509
 10
62.4192864
 20
13.73768963
 10
62.42850766
 20
13.8450925
 10
62.43387178
 20
13.95249503
 10
62.43536766
 20
14.05967461
 10
62.43299219
 20
14.16640911
 10
62.42675029
 20
14.27247732
 10
62.41665491
 20
14.3776594
 10
62.40272696
 20
14.48173737
 10
62.38499531
 20
14.58449552
 10
62.36349671
 20
14.68572088
 10
62.33827572
 20
14.78520365
 10
62.30938461
 20
14.88273765
 10
62.27688325
 20
14.97812073
 10
62.24083902
 20
15.07115522
 10
62.2013266
 20
15.1616483
 10
62.1584279
 20
15.2494124
 10
62.11223181
 20
15.33426565
 10
62.06283409
 20
15.41603217
 10
62.01033712
 20
15.4945425
 10
61.95484969
 20
15.56963393
 10
61.8964868
 20
15.64115083
 10
61.83536942
 20
15.70894497
 10
61.77162422
 20
15.77287585
 10
61.7053833
 20
15.83281096
 10
61.63678396
 20
15.8886261
 10
61.56596837
 20
15.94020557
 10
61.49308329
 20
15.98744249
 10
61.4182798
 20
16.03023895
 10
61.34171291
 20
16.06850625
 10
61.26354132
 20
16.10216508
 10
61.18392704
 20
16.13114569
 10
61.10303508
 20
16.155388
 10
61.02103308
 20
16.17484178
 10
60.93809101
 20
16.1894667
 10
60.85438075
 20
16.19923246
 10
60.77007581
 20
16.20411882
 10
60.68535091
 20
16.20411565
 10
60.60038165
 20
16.19922295
 10
60.51534412
 20
16.18945087
 10
60.43041458
 20
16.17481966
 10
60.34576903
 20
16.15535964
 10
60.26158293
 20
16.13111114
 10
60.17803073
 20
16.10212443
 10
60.09528561
 20
16.06845957
 10
60.01351906
 20
16.03018634
 10
59.93290055
 20
15.98738406
 10
59.85359716
 20
15.94014145
 10
59.77577325
 20
15.8885564
 10
59.69959012
 20
15.83273585
 10
59.62520565
 20
15.77279546
 10
59.55277401
 20
15.70885949
 10
59.48244532
 20
15.64106042
 10
59.41436534
 20
15.56953879
 10
59.34867517
 20
15.49444283
 10
59.28551095
 20
15.41592816
 10
59.22500359
 20
15.33415752
 10
59.1672785
 20
15.24930039
 10
59.11245532
 20
15.16153262
 10
59.06064766
 20
15.07103613
 10
59.01196291
 20
14.97799846
 10
58.96650196
 20
14.88261246
 10
58.92435903
 20
14.7850758
 10
58.88562147
 20
14.68559063
 10
58.85036955
 20
14.58436315
 10
58.81867636
 20
14.48160315
 10
58.79060756
 20
14.37752361
 10
58.76622133
 20
14.27234023
 10
58.74556821
 20
14.16627101
1001
GRPNAME
1000
PASTMD4P
  0
LINE
  5
D33
330
9BF
100
AcDbEntity
  8
240
  6
CONTINUOUS
100
AcDbLine
 10
64.4
 20
24.3
 30
0.0
 11
53.10000001
 21
24.55
 31
0.0
1001
GRPNAME
1000
PASTMD4P
  0
LINE
  5
D34
330
9BF
100
AcDbEntity
  8
246
100
AcDbLine
 10
54.0
 20
25.0
 30
0.0
 11
65.0
 21
25.0
 31
0.0
  0
LINE
  5
D35
330
9BF
100
AcDbEntity
  8
240
  6
CONTINUOUS
100
AcDbLine
 10
53.10000001
 20
24.55
 30
0.0
 11
52.35358983
 21
24.4
 31
0.0
1001
GRPNAME
1000
PASTMD4P
  0
ENDBLK
  5
9C1
330
9BF
100
AcDbEntity
  8
0
100
AcDbBlockEnd
  0
ENDSEC
  0
SECTION
  2
ENTITIES
  0
INSERT
  5
6E6
330
1A
100
AcDbEntity
  8
245
100
AcDbBlockReference
  2
矢印なし
 10
175.62382697
 20
90.55123572
 30
0.0
  0
DIMENSION
  5
875
330
1A
100
AcDbEntity
  8
250
  6
CONTINUOUS
100
AcDbDimension
  2
*D4
 10
65.0
 20
49.0
 30
0.0
 11
32.5
 21
51.4
 31
0.0
 70
    32
  3
BIGT
100
AcDbAlignedDimension
 13
0.0
 23
20.0
 33
0.0
 14
65.0
 24
25.0
 34
0.0
100
AcDbRotatedDimension
  0
DIMENSION
  5
876
330
1A
100
AcDbEntity
  8
250
  6
CONTINUOUS
100
AcDbDimension
  2
*D5
 10
65.0
 20
42.0
 30
0.0
 11
42.5
 21
44.4
 31
0.0
 70
    32
  3
BIGT
100
AcDbAlignedDimension
 13
20.0
 23
20.0
 33
0.0
 14
65.0
 24
25.0
 34
0.0
100
AcDbRotatedDimension
  0
TEXT
  5
877
330
1A
100
AcDbEntity
  8
241
100
AcDbText
 10
-19.9
 20
63.0
 30
0.0
 40
5.0
  1
HSK-A40-FCM50115-65
  7
YOKO
 11
-19.9
 21
63.0
 31
0.0
100
AcDbText
 73
     1
  0
DIMENSION
  5
929
330
1A
100
AcDbEntity
  8
250
  6
CONTINUOUS
100
AcDbDimension
  2
*D2
 10
65.0
 20
35.0
 30
0.0
 11
59.5
 21
37.4
 31
0.0
 70
    32
  3
BIGT
100
AcDbAlignedDimension
 13
54.0
 23
25.0
 33
0.0
 14
65.0
 24
25.0
 34
0.0
100
AcDbRotatedDimension
  0
DIMENSION
  5
92C
330
1A
100
AcDbEntity
  8
250
  6
CONTINUOUS
100
AcDbDimension
  2
*D3
 10
77.0
 20
25.0
 30
0.0
 11
74.6
 21
0.0
 31
0.0
 70
    32
  1
{\H2.8;\U+2205}<>
  3
BIGT
100
AcDbAlignedDimension
 13
65.0
 23
-25.0
 33
0.0
 14
65.0
 24
25.0
 34
0.0
 50
90.0
100
AcDbRotatedDimension
  0
LINE
  5
C1A
330
1A
100
AcDbEntity
  8
250
  6
CONTINUOUS
100
AcDbLine
 10
-13.49544553
 20
-22.86001894
 30
0.0
 11
-37.7621122
 21
-22.86001894
 31
0.0
1001
ITEMNAME
1000
LNSP2
  0
MTEXT
  5
C1B
330
1A
100
AcDbEntity
  8
251
  6
CONTINUOUS
100
AcDbMText
 10
-34.9621122
 20
-21.86001894
 30
0.0
 40
2.8
 41
0.0
 71
     7
 72
     1
  1
HSK-A40
  7
YOKO
1001
ITEMNAME
1000
LNSP3
1001
ACAD
1000
MTEXTBEGIN
1070
    73
1070
     1
1070
    44
1040
1.0
1070
    74
1070
     0
1000
MTEXTEND
1000
MTEXTBEGIN
1070
    73
1070
     1
1070
    44
1040
1.0
1070
    74
1070
     0
1000
MTEXTEND
1000
MTEXTBEGIN
1070
    73
1070
     1
1070
    44
1040
1.0
1070
    74
1070
     0
1000
MTEXTEND
1000
MTEXTBEGIN
1070
    73
1070
     1
1070
    44
1040
1.0
1070
    74
1070
     0
1000
MTEXTEND
1000
MTEXTBEGIN
1070
    73
1070
     1
1070
    44
1040
1.0
1070
    74
1070
     0
1000
MTEXTEND
1000
MTEXTBEGIN
1070
    73
1070
     1
1070
    44
1040
1.0
1070
    74
1070
     0
1000
MTEXTEND
1000
MTEXTBEGIN
1070
    73
1070
     1
1070
    44
1040
1.0
1070
    74
1070
     0
1000
MTEXTEND
1000
MTEXTBEGIN
1070
    73
1070
     1
1070
    44
1040
1.0
1070
    74
1070
     0
1000
MTEXTEND
  0
LEADER
  5
C1D
330
1A
100
AcDbEntity
  8
250
  6
CONTINUOUS
100
AcDbLeader
  3
BIGT
 76
     2
 10
-8.8183672
 20
-14.75908164
 30
0.0
 10
-13.49544553
 20
-22.86001894
 30
0.0
1001
ACAD
1000
DSTYLE
1002
{
1070
     6
1000
OPEN
1070
   343
1005
594
1002
}
  0
INSERT
  5
D36
330
1A
100
AcDbEntity
  8
245
100
AcDbBlockReference
  2
1
 10
0.0
 20
0.0
 30
0.0
  0
VIEWPORT
  5
22
330
17
100
AcDbEntity
 67
     1
  8
0
100
AcDbViewport
 10
261.51769912
 20
148.5
 30
0.0
 40
523.03539823
 41
297.0
 68
     1
 69
     1
1001
ACAD
1000
MVIEW
1002
{
1070
    16
1010
0.0
1020
0.0
1030
0.0
1010
0.0
1020
0.0
1030
1.0
1040
0.0
1040
297.0
1040
261.51769912
1040
148.5
1040
50.0
1040
0.0
1040
0.0
1070
     0
1070
   100
1070
     1
1070
     1
1070
     0
1070
     0
1070
     0
1070
     0
1040
0.0
1040
0.0
1040
0.0
1040
1.0
1040
1.0
1040
10.0
1040
10.0
1070
     0
1002
{
1002
}
1002
}
  0
ENDSEC
  0
SECTION
  2
OBJECTS
  0
DICTIONARY
  5
C
330
0
100
AcDbDictionary
  3
ACAD_GROUP
350
D
  3
ACAD_LAYOUT
350
565
  3
ACAD_MLINESTYLE
350
E
  3
ACAD_PLOTSETTINGS
350
566
  3
ACAD_PLOTSTYLENAME
350
563
  3
ACDBHEADERROUNDTRIPXREC
350
D68
  3
GRADE_DWG
350
540
  0
DICTIONARY
  5
ADE
330
1A
100
AcDbDictionary
280
     1
  3
ACAD_LAYOUTSELFREF
360
D8A
  0
DICTIONARY
  5
ADC
330
17
100
AcDbDictionary
280
     1
  3
ACAD_LAYOUTSELFREF
360
D89
  0
DICTIONARY
  5
D
102
{ACAD_REACTORS
330
C
102
}
330
C
100
AcDbDictionary
  3
*A1
350
6C7
  3
*A2
350
6C8
  3
*A3
350
6D4
  3
*A4
350
6D5
  3
DREC-1
350
5FC
  3
DREC-2
350
654
  3
DREC-3
350
673
  0
DICTIONARY
  5
565
102
{ACAD_REACTORS
330
C
102
}
330
C
100
AcDbDictionary
  0
DICTIONARY
  5
E
102
{ACAD_REACTORS
330
C
102
}
330
C
100
AcDbDictionary
  3
STANDARD
350
13
  0
DICTIONARY
  5
566
102
{ACAD_REACTORS
330
C
102
}
330
C
100
AcDbDictionary
  3
A3_0_5倍_
350
758
  3
A3_1倍_
350
757
  3
A3_1倍__2000_
350
707
  3
A3_2倍_
350
759
  3
A4_0_5倍_
350
755
  3
A4_1倍_
350
754
  3
A4_1倍__2000_
350
708
  3
A4_2倍_
350
756
  0
ACDBDICTIONARYWDFLT
  5
563
102
{ACAD_REACTORS
330
C
102
}
330
C
100
AcDbDictionary
281
     1
  3
Normal
350
564
100
AcDbDictionaryWithDefault
340
564
  0
DICTIONARY
  5
D68
102
{ACAD_REACTORS
330
C
102
}
330
C
100
AcDbDictionary
  3
CEPSNTYPE
350
D72
  3
DIMSTYLEDATA
350
D76
  3
FINGERPRINTGUID
350
D73
  3
HYPERLINKBASE
350
D6B
  3
INSUNITS
350
D71
  3
LAYOUTDICT
350
D6D
  3
LWETCUNION
350
D70
  3
PLOTSETDICT
350
D6E
  3
PLOTSTYLNAMDICT
350
D6F
  3
PSVPSCALE
350
D75
  3
PUCSBASE
350
D79
  3
PUCSORGBACK
350
D7F
  3
PUCSORGBOTTOM
350
D7B
  3
PUCSORGFRONT
350
D7E
  3
PUCSORGLEFT
350
D7C
  3
PUCSORGRIGHT
350
D7D
  3
PUCSORGTOP
350
D7A
  3
PUCSORTHOREF
350
D77
  3
PUCSORTHOVIEW
350
D78
  3
STYLESHEET
350
D6C
  3
TSTACKALIGN
350
D69
  3
TSTACKSIZE
350
D6A
  3
UCSBASE
350
D82
  3
UCSORGBACK
350
D88
  3
UCSORGBOTTOM
350
D84
  3
UCSORGFRONT
350
D87
  3
UCSORGLEFT
350
D85
  3
UCSORGRIGHT
350
D86
  3
UCSORGTOP
350
D83
  3
UCSORTHOREF
350
D80
  3
UCSORTHOVIEW
350
D81
  3
VERSIONGUID
350
D74
  0
DICTIONARY
  5
540
102
{ACAD_REACTORS
330
C
102
}
330
C
100
AcDbDictionary
  3
VERSION
350
560
  0
XRECORD
  5
D8A
102
{ACAD_REACTORS
330
ADE
102
}
330
ADE
100
AcDbXrecord
340
1A
  0
XRECORD
  5
D89
102
{ACAD_REACTORS
330
ADC
102
}
330
ADC
100
AcDbXrecord
340
17
  0
GROUP
  5
6C7
102
{ACAD_REACTORS
330
D
102
}
330
D
100
AcDbGroup
300

 70
     0
 71
     1
1001
GRPNAME
1000
DMA00
  0
GROUP
  5
6C8
102
{ACAD_REACTORS
330
D
102
}
330
D
100
AcDbGroup
300

 70
     0
 71
     1
1001
GRPNAME
1000
DMA00
  0
GROUP
  5
6D4
102
{ACAD_REACTORS
330
D
102
}
330
D
100
AcDbGroup
300

 70
     0
 71
     1
1001
GRPNAME
1000
DMA00
  0
GROUP
  5
6D5
102
{ACAD_REACTORS
330
D
102
}
330
D
100
AcDbGroup
300

 70
     0
 71
     1
1001
GRPNAME
1000
DMA00
  0
GROUP
  5
5FC
102
{ACAD_REACTORS
330
D
102
}
330
D
100
AcDbGroup
300

 70
     0
 71
     1
1001
GRPNAME
1000
DREC-
1001
GPARA
1000
xsiz
1000
44.182
1000
ysiz
1000
40.677
1000
angl
1000
0
1000
ctyp
1000
0
1000
csiz
1000
5
1000
lfnt
1000
cont
1000
hcnt
1000
hoff
1000
vcnt
1000
voff
1000
opnt
1000
4
1000
dxpt
1000
0
1000
dypt
1000
0
  0
GROUP
  5
654
102
{ACAD_REACTORS
330
D
102
}
330
D
100
AcDbGroup
300

 70
     0
 71
     1
1001
GRPNAME
1000
DREC-
1001
GPARA
1000
xsiz
1000
54.592
1000
ysiz
1000
53.036
1000
angl
1000
0
1000
ctyp
1000
0
1000
csiz
1000
5
1000
lfnt
1000
cont
1000
hcnt
1000
hoff
1000
vcnt
1000
voff
1000
opnt
1000
4
1000
dxpt
1000
0
1000
dypt
1000
0
  0
GROUP
  5
673
102
{ACAD_REACTORS
330
D
102
}
330
D
100
AcDbGroup
300

 70
     0
 71
     1
1001
GRPNAME
1000
DREC-
1001
GPARA
1000
xsiz
1000
30.363
1000
ysiz
1000
36.175
1000
angl
1000
0
1000
ctyp
1000
0
1000
csiz
1000
5
1000
lfnt
1000
cont
1000
hcnt
1000
hoff
1000
vcnt
1000
voff
1000
opnt
1000
4
1000
dxpt
1000
0
1000
dypt
1000
0
  0
MLINESTYLE
  5
13
102
{ACAD_REACTORS
330
E
102
}
330
E
100
AcDbMlineStyle
  2
STANDARD
 70
     0
  3

 62
     0
 51
90.0
 52
90.0
 71
     2
 49
0.5
 62
   256
  6
BYLAYER
 49
-0.5
 62
   256
  6
BYLAYER
  0
PLOTSETTINGS
  5
758
102
{ACAD_REACTORS
330
566
102
}
330
566
100
AcDbPlotSettings
  1
A3(0.5倍)
  2
\\AWTECPC05\HP DeskJet 1120C
  4
A3
  6

 40
5.95841646
 41
13.49375153
 42
6.04309082
 43
3.67242432
 44
296.92599487
 45
419.94665527
 46
89.96
 47
127.14
 48
0.0
 49
0.0
140
0.0
141
0.0
142
1.0
143
2.0
 70
  1716
 72
     1
 73
     1
 74
     2
  7
big.ctb
 75
    17
147
0.5
148
0.0
149
0.0
  0
PLOTSETTINGS
  5
757
102
{ACAD_REACTORS
330
566
102
}
330
566
100
AcDbPlotSettings
  1
A3(1倍)
  2
\\AWTECPC05\HP DeskJet 1120C
  4
A3
  6

 40
5.95841646
 41
13.49375153
 42
6.04309082
 43
3.67242432
 44
296.92599487
 45
419.94665527
 46
37.46
 47
52.89
 48
0.0
 49
0.0
140
0.0
141
0.0
142
1.0
143
1.0
 70
  1716
 72
     1
 73
     1
 74
     2
  7
big.ctb
 75
    16
147
1.0
148
0.0
149
0.0
  0
PLOTSETTINGS
  5
707
102
{ACAD_REACTORS
330
566
102
}
330
566
100
AcDbPlotSettings
  1
A3(1倍)(2000)
  2
SII LS-1300 (D-SCAN)
  4
User258
  6

 40
3.17499995
 41
3.17499995
 42
3.17498779
 43
3.17498779
 44
419.98898315
 45
296.98950195
 46
58.32
 47
40.32
 48
0.0
 49
0.0
140
0.0
141
0.0
142
1.0
143
1.0
 70
  1716
 72
     1
 73
     0
 74
     2
  7
big.ctb
 75
    16
147
1.0
148
0.0
149
0.0
  0
PLOTSETTINGS
  5
759
102
{ACAD_REACTORS
330
566
102
}
330
566
100
AcDbPlotSettings
  1
A3(2倍)
  2
\\AWTECPC05\HP DeskJet 1120C
  4
A3
  6

 40
5.95841646
 41
13.49375153
 42
6.04309082
 43
3.67242432
 44
296.92599487
 45
419.94665527
 46
-67.54
 47
-95.61
 48
0.0
 49
0.0
140
0.0
141
0.0
142
1.0
143
0.5
 70
  1716
 72
     1
 73
     1
 74
     2
  7
big.ctb
 75
    27
147
2.0
148
0.0
149
0.0
  0
PLOTSETTINGS
  5
755
102
{ACAD_REACTORS
330
566
102
}
330
566
100
AcDbPlotSettings
  1
A4(0.5倍)
  2
\\AWTECPC05\HP DeskJet 1120C
  4
A4
  6

 40
4.18041658
 41
13.49374962
 42
4.18040466
 43
3.92642212
 44
209.97332764
 45
296.92599487
 46
48.31
 47
65.5
 48
0.0
 49
0.0
140
0.0
141
0.0
142
1.0
143
2.0
 70
  1716
 72
     1
 73
     1
 74
     2
  7
big.ctb
 75
    17
147
0.5
148
0.0
149
0.0
  0
PLOTSETTINGS
  5
754
102
{ACAD_REACTORS
330
566
102
}
330
566
100
AcDbPlotSettings
  1
A4(1倍)
  2
\\AWTECPC05\HP DeskJet 1120C
  4
A4
  6

 40
4.18041658
 41
13.49374962
 42
4.18040466
 43
3.92642212
 44
209.97332764
 45
296.92599487
 46
-4.19
 47
-8.75
 48
0.0
 49
0.0
140
0.0
141
0.0
142
1.0
143
1.0
 70
  1716
 72
     1
 73
     1
 74
     2
  7
big.ctb
 75
    16
147
1.0
148
0.0
149
0.0
  0
PLOTSETTINGS
  5
708
102
{ACAD_REACTORS
330
566
102
}
330
566
100
AcDbPlotSettings
  1
A4(1倍)(2000)
  2
SII LS-1300 (D-SCAN)
  4
User259
  6

 40
3.17499995
 41
3.17499995
 42
3.17498779
 43
3.17500305
 44
296.98950195
 45
209.99449158
 46
-3.18
 47
-3.18
 48
0.0
 49
0.0
140
0.0
141
0.0
142
1.0
143
1.0
 70
  1716
 72
     1
 73
     0
 74
     2
  7
big.ctb
 75
    16
147
1.0
148
0.0
149
0.0
  0
PLOTSETTINGS
  5
756
102
{ACAD_REACTORS
330
566
102
}
330
566
100
AcDbPlotSettings
  1
A4(2倍)
  2
\\AWTECPC05\HP DeskJet 1120C
  4
A4
  6

 40
4.18041658
 41
13.49374962
 42
4.18040466
 43
3.92642212
 44
209.97332764
 45
296.92599487
 46
-109.19
 47
-157.25
 48
0.0
 49
0.0
140
0.0
141
0.0
142
1.0
143
0.5
 70
  1716
 72
     1
 73
     1
 74
     2
  7
big.ctb
 75
    27
147
2.0
148
0.0
149
0.0
  0
ACDBPLACEHOLDER
  5
564
102
{ACAD_REACTORS
330
563
102
}
330
563
100
AcDbPlaceHolder
280
     0
  0
XRECORD
  5
D72
102
{ACAD_REACTORS
330
D68
102
}
330
D68
100
AcDbXrecord
 90
        0
  0
XRECORD
  5
D76
102
{ACAD_REACTORS
330
D68
102
}
330
D68
100
AcDbXrecord
1000
DSTYLE
1002
{
1070
    79
 70
     2
1070
   179
 70
     3
1070
   341
340
594
1070
   343
340
594
1070
   344
340
594
1070
   371
 70
    -1
1070
   372
 70
    -1
1002
}
  0
XRECORD
  5
D73
102
{ACAD_REACTORS
330
D68
102
}
330
D68
100
AcDbXrecord
  1
{51294030-9CB4-11D3-8E18-00A0C925D94D}
  0
XRECORD
  5
D6B
102
{ACAD_REACTORS
330
D68
102
}
330
D68
100
AcDbXrecord
  1

  0
XRECORD
  5
D71
102
{ACAD_REACTORS
330
D68
102
}
330
D68
100
AcDbXrecord
 90
        0
  0
XRECORD
  5
D6D
102
{ACAD_REACTORS
330
D68
102
}
330
D68
100
AcDbXrecord
340
565
  0
XRECORD
  5
D70
102
{ACAD_REACTORS
330
D68
102
}
330
D68
100
AcDbXrecord
 90
    10781
  0
XRECORD
  5
D6E
102
{ACAD_REACTORS
330
D68
102
}
330
D68
100
AcDbXrecord
340
566
  0
XRECORD
  5
D6F
102
{ACAD_REACTORS
330
D68
102
}
330
D68
100
AcDbXrecord
340
563
  0
XRECORD
  5
D75
102
{ACAD_REACTORS
330
D68
102
}
330
D68
100
AcDbXrecord
 40
0.0
  0
XRECORD
  5
D79
102
{ACAD_REACTORS
330
D68
102
}
330
D68
100
AcDbXrecord
340
0
  0
XRECORD
  5
D7F
102
{ACAD_REACTORS
330
D68
102
}
330
D68
100
AcDbXrecord
 10
0.0
 20
0.0
 30
0.0
  0
XRECORD
  5
D7B
102
{ACAD_REACTORS
330
D68
102
}
330
D68
100
AcDbXrecord
 10
0.0
 20
0.0
 30
0.0
  0
XRECORD
  5
D7E
102
{ACAD_REACTORS
330
D68
102
}
330
D68
100
AcDbXrecord
 10
0.0
 20
0.0
 30
0.0
  0
XRECORD
  5
D7C
102
{ACAD_REACTORS
330
D68
102
}
330
D68
100
AcDbXrecord
 10
0.0
 20
0.0
 30
0.0
  0
XRECORD
  5
D7D
102
{ACAD_REACTORS
330
D68
102
}
330
D68
100
AcDbXrecord
 10
0.0
 20
0.0
 30
0.0
  0
XRECORD
  5
D7A
102
{ACAD_REACTORS
330
D68
102
}
330
D68
100
AcDbXrecord
 10
0.0
 20
0.0
 30
0.0
  0
XRECORD
  5
D77
102
{ACAD_REACTORS
330
D68
102
}
330
D68
100
AcDbXrecord
340
0
  0
XRECORD
  5
D78
102
{ACAD_REACTORS
330
D68
102
}
330
D68
100
AcDbXrecord
 70
     0
  0
XRECORD
  5
D6C
102
{ACAD_REACTORS
330
D68
102
}
330
D68
100
AcDbXrecord
  1
big.ctb
  0
XRECORD
  5
D69
102
{ACAD_REACTORS
330
D68
102
}
330
D68
100
AcDbXrecord
 90
        1
  0
XRECORD
  5
D6A
102
{ACAD_REACTORS
330
D68
102
}
330
D68
100
AcDbXrecord
 90
       70
  0
XRECORD
  5
D82
102
{ACAD_REACTORS
330
D68
102
}
330
D68
100
AcDbXrecord
340
0
  0
XRECORD
  5
D88
102
{ACAD_REACTORS
330
D68
102
}
330
D68
100
AcDbXrecord
 10
0.0
 20
0.0
 30
0.0
  0
XRECORD
  5
D84
102
{ACAD_REACTORS
330
D68
102
}
330
D68
100
AcDbXrecord
 10
0.0
 20
0.0
 30
0.0
  0
XRECORD
  5
D87
102
{ACAD_REACTORS
330
D68
102
}
330
D68
100
AcDbXrecord
 10
0.0
 20
0.0
 30
0.0
  0
XRECORD
  5
D85
102
{ACAD_REACTORS
330
D68
102
}
330
D68
100
AcDbXrecord
 10
0.0
 20
0.0
 30
0.0
  0
XRECORD
  5
D86
102
{ACAD_REACTORS
330
D68
102
}
330
D68
100
AcDbXrecord
 10
0.0
 20
0.0
 30
0.0
  0
XRECORD
  5
D83
102
{ACAD_REACTORS
330
D68
102
}
330
D68
100
AcDbXrecord
 10
0.0
 20
0.0
 30
0.0
  0
XRECORD
  5
D80
102
{ACAD_REACTORS
330
D68
102
}
330
D68
100
AcDbXrecord
340
0
  0
XRECORD
  5
D81
102
{ACAD_REACTORS
330
D68
102
}
330
D68
100
AcDbXrecord
 70
     0
  0
XRECORD
  5
D74
102
{ACAD_REACTORS
330
D68
102
}
330
D68
100
AcDbXrecord
  1
{6847EF28-954A-4377-A6EB-9A0F695EEB1E}
  0
XRECORD
  5
560
102
{ACAD_REACTORS
330
540
102
}
330
540
100
AcDbXrecord
  1
2.0.0
  0
ENDSEC
  0
EOF
