  0
SECTION
  2
HEADER
  9
$ACADVER
  1
AC1014
  9
$ACADMAINTVER
 70
     9
  9
$DWGCODEPAGE
  3
ANSI_932
  9
$INSBASE
 10
0.0
 20
0.0
 30
0.0
  9
$EXTMIN
 10
-37.76729807
 20
-22.8601197
 30
-0.00152582
  9
$EXTMAX
 10
78.02503127
 20
54.00180404
 30
0.00000003
  9
$LIMMIN
 10
0.0
 20
0.0
  9
$LIMMAX
 10
420.0
 20
297.0
  9
$ORTHOMODE
 70
     0
  9
$REGENMODE
 70
     1
  9
$FILLMODE
 70
     1
  9
$QTEXTMODE
 70
     0
  9
$MIRRTEXT
 70
     1
  9
$DRAGMODE
 70
     2
  9
$LTSCALE
 40
10.0
  9
$OSMODE
 70
   549
  9
$ATTMODE
 70
     1
  9
$TEXTSIZE
 40
3.0
  9
$TRACEWID
 40
1.0
  9
$TEXTSTYLE
  7
YOKO
  9
$CLAYER
  8
245
  9
$CELTYPE
  6
BYLAYER
  9
$CECOLOR
 62
   256
  9
$CELTSCALE
 40
1.0
  9
$DELOBJ
 70
     1
  9
$DISPSILH
 70
     0
  9
$DIMSCALE
 40
1.0
  9
$DIMASZ
 40
2.0
  9
$DIMEXO
 40
2.0
  9
$DIMDLI
 40
2.5
  9
$DIMRND
 40
0.0
  9
$DIMDLE
 40
0.0
  9
$DIMEXE
 40
2.0
  9
$DIMTP
 40
0.0
  9
$DIMTM
 40
0.0
  9
$DIMTXT
 40
4.0
  9
$DIMCEN
 40
0.0
  9
$DIMTSZ
 40
0.0
  9
$DIMTOL
 70
     0
  9
$DIMLIM
 70
     0
  9
$DIMTIH
 70
     0
  9
$DIMTOH
 70
     0
  9
$DIMSE1
 70
     0
  9
$DIMSE2
 70
     0
  9
$DIMTAD
 70
     3
  9
$DIMZIN
 70
     8
  9
$DIMBLK
  1

  9
$DIMASO
 70
     1
  9
$DIMSHO
 70
     1
  9
$DIMPOST
  1

  9
$DIMAPOST
  1

  9
$DIMALT
 70
     0
  9
$DIMALTD
 70
     2
  9
$DIMALTF
 40
25.4
  9
$DIMLFAC
 40
1.0
  9
$DIMTOFL
 70
     1
  9
$DIMTVP
 40
0.0
  9
$DIMTIX
 70
     1
  9
$DIMSOXD
 70
     0
  9
$DIMSAH
 70
     1
  9
$DIMBLK1
  1
OPEN
  9
$DIMBLK2
  1
OPEN
  9
$DIMSTYLE
  2
BIGT
  9
$DIMCLRD
 70
   256
  9
$DIMCLRE
 70
   256
  9
$DIMCLRT
 70
    40
  9
$DIMTFAC
 40
1.0
  9
$DIMGAP
 40
1.0
  9
$DIMJUST
 70
     0
  9
$DIMSD1
 70
     0
  9
$DIMSD2
 70
     0
  9
$DIMTOLJ
 70
     1
  9
$DIMTZIN
 70
     8
  9
$DIMALTZ
 70
     0
  9
$DIMALTTZ
 70
     0
  9
$DIMFIT
 70
     3
  9
$DIMUPT
 70
     0
  9
$DIMUNIT
 70
     2
  9
$DIMDEC
 70
     3
  9
$DIMTDEC
 70
     3
  9
$DIMALTU
 70
     2
  9
$DIMALTTD
 70
     2
  9
$DIMTXSTY
  7
STANDARD
  9
$DIMAUNIT
 70
     0
  9
$LUNITS
 70
     2
  9
$LUPREC
 70
     3
  9
$SKETCHINC
 40
1.0
  9
$FILLETRAD
 40
0.6
  9
$AUNITS
 70
     0
  9
$AUPREC
 70
     3
  9
$MENU
  1
.
  9
$ELEVATION
 40
0.0
  9
$PELEVATION
 40
0.0
  9
$THICKNESS
 40
0.0
  9
$LIMCHECK
 70
     0
  9
$BLIPMODE
 70
     0
  9
$CHAMFERA
 40
10.0
  9
$CHAMFERB
 40
10.0
  9
$CHAMFERC
 40
0.0
  9
$CHAMFERD
 40
0.0
  9
$SKPOLY
 70
     0
  9
$TDCREATE
 40
2455141.554684965
  9
$TDUPDATE
 40
2455371.689104456
  9
$TDINDWG
 40
0.0189736921
  9
$TDUSRTIMER
 40
0.0189736921
  9
$USRTIMER
 70
     1
  9
$ANGBASE
 50
0.0
  9
$ANGDIR
 70
     0
  9
$PDMODE
 70
     1
  9
$PDSIZE
 40
-5.0
  9
$PLINEWID
 40
0.0
  9
$COORDS
 70
     0
  9
$SPLFRAME
 70
     0
  9
$SPLINETYPE
 70
     6
  9
$SPLINESEGS
 70
     8
  9
$ATTDIA
 70
     0
  9
$ATTREQ
 70
     1
  9
$HANDLING
 70
-16383
  9
$HANDSEED
  5
10DB
  9
$SURFTAB1
 70
     6
  9
$SURFTAB2
 70
     6
  9
$SURFTYPE
 70
     6
  9
$SURFU
 70
     6
  9
$SURFV
 70
     6
  9
$UCSNAME
  2

  9
$UCSORG
 10
0.0
 20
0.0
 30
0.0
  9
$UCSXDIR
 10
1.0
 20
0.0
 30
0.0
  9
$UCSYDIR
 10
0.0
 20
1.0
 30
0.0
  9
$PUCSNAME
  2

  9
$PUCSORG
 10
0.0
 20
0.0
 30
0.0
  9
$PUCSXDIR
 10
1.0
 20
0.0
 30
0.0
  9
$PUCSYDIR
 10
0.0
 20
1.0
 30
0.0
  9
$USERI1
 70
     1
  9
$USERI2
 70
     0
  9
$USERI3
 70
     0
  9
$USERI4
 70
     0
  9
$USERI5
 70
     0
  9
$USERR1
 40
0.0
  9
$USERR2
 40
0.0
  9
$USERR3
 40
0.0
  9
$USERR4
 40
0.0
  9
$USERR5
 40
0.0
  9
$WORLDVIEW
 70
     1
  9
$SHADEDGE
 70
     3
  9
$SHADEDIF
 70
    70
  9
$TILEMODE
 70
     1
  9
$MAXACTVP
 70
    16
  9
$PINSBASE
 10
0.0
 20
0.0
 30
0.0
  9
$PLIMCHECK
 70
     0
  9
$PEXTMIN
 10
1.00000000E+20
 20
1.00000000E+20
 30
1.00000000E+20
  9
$PEXTMAX
 10
-1.00000000E+20
 20
-1.00000000E+20
 30
-1.00000000E+20
  9
$PLIMMIN
 10
0.0
 20
0.0
  9
$PLIMMAX
 10
420.0
 20
297.0
  9
$UNITMODE
 70
     0
  9
$VISRETAIN
 70
     0
  9
$PLINEGEN
 70
     0
  9
$PSLTSCALE
 70
     1
  9
$TREEDEPTH
 70
  3020
  9
$PICKSTYLE
 70
     0
  9
$CMLSTYLE
  2
STANDARD
  9
$CMLJUST
 70
     0
  9
$CMLSCALE
 40
1.0
  9
$PROXYGRAPHICS
 70
     1
  9
$MEASUREMENT
 70
     1
  0
ENDSEC
  0
SECTION
  2
CLASSES
  0
CLASS
  1
XRECORD
  2
AcDbXrecord
  3
AutoCAD 2000
 90
        0
280
     0
281
     0
  0
CLASS
  1
ACDBDICTIONARYWDFLT
  2
AcDbDictionaryWithDefault
  3
AutoCAD 2000
 90
        0
280
     0
281
     0
  0
CLASS
  1
ACDBPLACEHOLDER
  2
AcDbPlaceHolder
  3
AutoCAD 2000
 90
        0
280
     0
281
     0
  0
CLASS
  1
LAYOUT
  2
AcDbLayout
  3
AutoCAD 2000
 90
        0
280
     0
281
     0
  0
CLASS
  1
PLOTSETTINGS
  2
AcDbPlotSettings
  3
AutoCAD 2000
 90
        0
280
     0
281
     0
  0
CLASS
  1
LONG_TRANSACTION
  2
AcDbLongTransaction
  3
AutoCAD 2000
 90
        0
280
     0
281
     0
  0
CLASS
  1
LWPOLYLINE
  2
AcDbPolyline
  3
AutoCAD 2000
 90
        0
280
     0
281
     1
  0
CLASS
  1
HATCH
  2
AcDbHatch
  3
AutoCAD 2000
 90
        0
280
     0
281
     1
  0
CLASS
  1
XRECORD
  2
AcDbXrecord
  3
AutoCAD 2000
 90
        0
280
     0
281
     0
  0
CLASS
  1
LONG_TRANSACTION
  2
AcDbLongTransaction
  3
AutoCAD 2000
 90
        0
280
     0
281
     0
  0
CLASS
  1
LWPOLYLINE
  2
AcDbPolyline
  3
AutoCAD 2000
 90
        0
280
     0
281
     1
  0
CLASS
  1
HATCH
  2
AcDbHatch
  3
AutoCAD 2000
 90
        0
280
     0
281
     1
  0
CLASS
  1
XRECORD
  2
AcDbXrecord
  3
AutoCAD 2000
 90
        0
280
     0
281
     0
  0
CLASS
  1
LONG_TRANSACTION
  2
AcDbLongTransaction
  3
AutoCAD 2000
 90
        0
280
     0
281
     0
  0
CLASS
  1
LWPOLYLINE
  2
AcDbPolyline
  3
AutoCAD 2000
 90
        0
280
     0
281
     1
  0
CLASS
  1
HATCH
  2
AcDbHatch
  3
AutoCAD 2000
 90
        0
280
     0
281
     1
  0
CLASS
  1
XRECORD
  2
AcDbXrecord
  3
AutoCAD 2000
 90
        0
280
     0
281
     0
  0
CLASS
  1
LONG_TRANSACTION
  2
AcDbLongTransaction
  3
AutoCAD 2000
 90
        0
280
     0
281
     0
  0
CLASS
  1
LWPOLYLINE
  2
AcDbPolyline
  3
AutoCAD 2000
 90
        0
280
     0
281
     1
  0
CLASS
  1
HATCH
  2
AcDbHatch
  3
AutoCAD 2000
 90
        0
280
     0
281
     1
  0
CLASS
  1
XRECORD
  2
AcDbXrecord
  3
AutoCAD 2000
 90
        0
280
     0
281
     0
  0
CLASS
  1
LONG_TRANSACTION
  2
AcDbLongTransaction
  3
AutoCAD 2000
 90
        0
280
     0
281
     0
  0
CLASS
  1
LWPOLYLINE
  2
AcDbPolyline
  3
AutoCAD 2000
 90
        0
280
     0
281
     1
  0
CLASS
  1
HATCH
  2
AcDbHatch
  3
AutoCAD 2000
 90
        0
280
     0
281
     1
  0
CLASS
  1
XRECORD
  2
AcDbXrecord
  3
AutoCAD 2000
 90
        0
280
     0
281
     0
  0
CLASS
  1
LONG_TRANSACTION
  2
AcDbLongTransaction
  3
AutoCAD 2000
 90
        0
280
     0
281
     0
  0
CLASS
  1
LWPOLYLINE
  2
AcDbPolyline
  3
AutoCAD 2000
 90
        0
280
     0
281
     1
  0
CLASS
  1
HATCH
  2
AcDbHatch
  3
AutoCAD 2000
 90
        0
280
     0
281
     1
  0
CLASS
  1
XRECORD
  2
AcDbXrecord
  3
AutoCAD 2000
 90
        0
280
     0
281
     0
  0
ENDSEC
  0
SECTION
  2
TABLES
  0
TABLE
  2
VPORT
  5
8
330
0
100
AcDbSymbolTable
 70
     4
  0
VPORT
  5
10B6
330
8
100
AcDbSymbolTableRecord
100
AcDbViewportTableRecord
  2
*ACTIVE
 70
     0
 10
0.0
 20
0.0
 11
1.0
 21
1.0
 12
20.1288666
 22
15.57084217
 13
0.0
 23
0.0
 14
7.0
 24
7.0
 15
7.0
 25
7.0
 16
0.0
 26
0.0
 36
1.0
 17
0.0
 27
0.0
 37
0.0
 40
79.95395082
 41
1.45595855
 42
50.0
 43
0.0
 44
0.0
 50
0.0
 51
0.0
 71
     0
 72
  2000
 73
     1
 74
     0
 75
     0
 76
     0
 77
     0
 78
     0
  0
ENDTAB
  0
TABLE
  2
LTYPE
  5
5
330
0
100
AcDbSymbolTable
 70
     4
  0
LTYPE
  5
14
330
5
100
AcDbSymbolTableRecord
100
AcDbLinetypeTableRecord
  2
BYBLOCK
 70
     0
  3

 72
    65
 73
     0
 40
0.0
  0
LTYPE
  5
15
330
5
100
AcDbSymbolTableRecord
100
AcDbLinetypeTableRecord
  2
BYLAYER
 70
     0
  3

 72
    65
 73
     0
 40
0.0
  0
LTYPE
  5
16
330
5
100
AcDbSymbolTableRecord
100
AcDbLinetypeTableRecord
  2
CONTINUOUS
 70
     0
  3
Solid line
 72
    65
 73
     0
 40
0.0
  0
LTYPE
  5
258
330
5
100
AcDbSymbolTableRecord
100
AcDbLinetypeTableRecord
  2
CENTER2
 70
     0
  3
___ _ ___ _ ___ _ ___ _ ___ _ ___ _ ___ _ ___ _
 72
    65
 73
     4
 40
1.125
 49
0.75
 74
     0
 49
-0.125
 74
     0
 49
0.125
 74
     0
 49
-0.125
 74
     0
  0
LTYPE
  5
25C
330
5
100
AcDbSymbolTableRecord
100
AcDbLinetypeTableRecord
  2
HIDDEN2
 70
     0
  3
_ _ _ _ _ _ _ _ _ _ _ _ _ _ _ _ _ _ _ _ _ _ _ _
 72
    65
 73
     2
 40
0.1875
 49
0.125
 74
     0
 49
-0.0625
 74
     0
  0
LTYPE
  5
25D
330
5
100
AcDbSymbolTableRecord
100
AcDbLinetypeTableRecord
  2
PHANTOM2
 70
     0
  3
___ _ _ ___ _ _ ___ _ _ ___ _ _ ___ _ _ ___ _ _
 72
    65
 73
     6
 40
1.25
 49
0.625
 74
     0
 49
-0.125
 74
     0
 49
0.125
 74
     0
 49
-0.125
 74
     0
 49
0.125
 74
     0
 49
-0.125
 74
     0
  0
ENDTAB
  0
TABLE
  2
LAYER
  5
2
330
0
100
AcDbSymbolTable
 70
    12
  0
LAYER
  5
F
330
2
100
AcDbSymbolTableRecord
100
AcDbLayerTableRecord
  2
0
 70
     0
 62
     7
  6
CONTINUOUS
  0
LAYER
  5
1AA
330
2
100
AcDbSymbolTableRecord
100
AcDbLayerTableRecord
  2
240
 70
     0
 62
     4
  6
CONTINUOUS
  0
LAYER
  5
1AB
330
2
100
AcDbSymbolTableRecord
100
AcDbLayerTableRecord
  2
241
 70
     0
 62
   211
  6
CONTINUOUS
  0
LAYER
  5
1AC
330
2
100
AcDbSymbolTableRecord
100
AcDbLayerTableRecord
  2
242
 70
     0
 62
     3
  6
CONTINUOUS
  0
LAYER
  5
1AF
330
2
100
AcDbSymbolTableRecord
100
AcDbLayerTableRecord
  2
245
 70
     0
 62
     2
  6
CENTER2
  0
LAYER
  5
21A
330
2
100
AcDbSymbolTableRecord
100
AcDbLayerTableRecord
  2
246
 70
     0
 62
     3
  6
PHANTOM2
  0
LAYER
  5
21E
330
2
100
AcDbSymbolTableRecord
100
AcDbLayerTableRecord
  2
250
 70
     0
 62
     3
  6
CONTINUOUS
  0
LAYER
  5
5C4
330
2
100
AcDbSymbolTableRecord
100
AcDbLayerTableRecord
  2
DEFPOINTS
 70
     0
 62
     7
  6
CONTINUOUS
  0
LAYER
  5
AF0
330
2
100
AcDbSymbolTableRecord
100
AcDbLayerTableRecord
  2
251
 70
     0
 62
    40
  6
CONTINUOUS
  0
ENDTAB
  0
TABLE
  2
STYLE
  5
3
330
0
100
AcDbSymbolTable
 70
     2
  0
STYLE
  5
10
330
3
100
AcDbSymbolTableRecord
100
AcDbTextStyleTableRecord
  2
STANDARD
 70
     0
 40
0.0
 41
1.0
 50
0.0
 71
     0
 42
3.0
  3
romans.shx
  4
BIGFONT.SHX
  0
STYLE
  5
339
330
3
100
AcDbSymbolTableRecord
100
AcDbTextStyleTableRecord
  2
YOKO
 70
     0
 40
0.0
 41
1.0
 50
0.0
 71
     0
 42
3.0
  3
romans.shx
  4
extfont.shx
  0
ENDTAB
  0
TABLE
  2
VIEW
  5
6
330
0
100
AcDbSymbolTable
 70
     0
  0
ENDTAB
  0
TABLE
  2
UCS
  5
7
330
0
100
AcDbSymbolTable
 70
     0
  0
ENDTAB
  0
TABLE
  2
APPID
  5
9
330
0
100
AcDbSymbolTable
 70
    12
  0
APPID
  5
11
330
9
100
AcDbSymbolTableRecord
100
AcDbRegAppTableRecord
  2
ACAD
 70
     0
  0
APPID
  5
1B1
330
9
100
AcDbSymbolTableRecord
100
AcDbRegAppTableRecord
  2
GLOBAL
 70
     0
  0
APPID
  5
2A4
330
9
100
AcDbSymbolTableRecord
100
AcDbRegAppTableRecord
  2
DETAIL
 70
     0
  0
APPID
  5
5FD
330
9
100
AcDbSymbolTableRecord
100
AcDbRegAppTableRecord
  2
GRPNAME
 70
     0
  0
APPID
  5
5FE
330
9
100
AcDbSymbolTableRecord
100
AcDbRegAppTableRecord
  2
GPARA
 70
     0
  0
APPID
  5
6C4
330
9
100
AcDbSymbolTableRecord
100
AcDbRegAppTableRecord
  2
DCO15
 70
     0
  0
APPID
  5
6C5
330
9
100
AcDbSymbolTableRecord
100
AcDbRegAppTableRecord
  2
ITEMNAME
 70
     0
  0
APPID
  5
6C6
330
9
100
AcDbSymbolTableRecord
100
AcDbRegAppTableRecord
  2
GRADE_0
 70
     0
  0
APPID
  5
879
330
9
100
AcDbSymbolTableRecord
100
AcDbRegAppTableRecord
  2
HATCH_TYPE
 70
     0
  0
APPID
  5
87A
330
9
100
AcDbSymbolTableRecord
100
AcDbRegAppTableRecord
  2
HATCH_DISPLAY
 70
     0
  0
APPID
  5
87B
330
9
100
AcDbSymbolTableRecord
100
AcDbRegAppTableRecord
  2
HATCH_DISTANCE
 70
     0
  0
APPID
  5
AE4
330
9
100
AcDbSymbolTableRecord
100
AcDbRegAppTableRecord
  2
CONTENTBLOCKICON
 70
     0
  0
ENDTAB
  0
TABLE
  2
DIMSTYLE
  5
A
330
0
100
AcDbSymbolTable
 70
     4
  0
DIMSTYLE
105
725
102
{ACAD_REACTORS
330
9A3
330
9B2
330
9C1
330
9D0
102
}
330
A
100
AcDbSymbolTableRecord
100
AcDbDimStyleTableRecord
  2
BIGT
 70
     0
  3

  4

  5

  6
OPEN
  7
OPEN
 40
1.0
 41
2.23
 42
0.5
 43
2.5
 44
1.0
 45
0.0
 46
0.0
 47
0.0
 48
0.0
140
2.8
141
0.0
142
0.0
143
25.4
144
1.0
145
0.0
146
1.0
147
1.0
 71
     0
 72
     0
 73
     0
 74
     0
 75
     0
 76
     0
 77
     3
 78
     8
170
     0
171
     2
172
     1
173
     1
174
     1
175
     0
176
   256
177
   256
178
    40
270
     2
271
     3
272
     3
273
     2
274
     2
340
10
275
     0
280
     0
281
     0
282
     0
283
     1
284
     8
285
     0
286
     0
287
     3
288
     0
  0
ENDTAB
  0
TABLE
  2
BLOCK_RECORD
  5
1
330
0
100
AcDbSymbolTable
 70
     9
  0
BLOCK_RECORD
  5
1A
102
{ACAD_XDICTIONARY
360
AE2
102
}
330
1
100
AcDbSymbolTableRecord
100
AcDbBlockTableRecord
  2
*MODEL_SPACE
  0
BLOCK_RECORD
  5
17
102
{ACAD_XDICTIONARY
360
AE0
102
}
330
1
100
AcDbSymbolTableRecord
100
AcDbBlockTableRecord
  2
*PAPER_SPACE
  0
BLOCK_RECORD
  5
594
330
1
100
AcDbSymbolTableRecord
100
AcDbBlockTableRecord
  2
_OPEN
  0
BLOCK_RECORD
  5
6E3
330
1
100
AcDbSymbolTableRecord
100
AcDbBlockTableRecord
  2
矢印なし
  0
BLOCK_RECORD
  5
9A4
330
1
100
AcDbSymbolTableRecord
100
AcDbBlockTableRecord
  2
*D2
  0
BLOCK_RECORD
  5
9B3
330
1
100
AcDbSymbolTableRecord
100
AcDbBlockTableRecord
  2
*D3
  0
BLOCK_RECORD
  5
9C2
330
1
100
AcDbSymbolTableRecord
100
AcDbBlockTableRecord
  2
*D4
  0
BLOCK_RECORD
  5
9D1
330
1
100
AcDbSymbolTableRecord
100
AcDbBlockTableRecord
  2
*D5
  0
BLOCK_RECORD
  5
A18
330
1
100
AcDbSymbolTableRecord
100
AcDbBlockTableRecord
  2
1
1001
CONTENTBLOCKICON
1071
        0
1004
2800000020000000200000000100080000000000000400000000000000000000000000000000000000000000000080000080000000808000800000008000800080800000C0C0C000C0DCC000F0CAA6000020400000206000002080000020A0000020C0000020E00000400000004020000040400000406000004080000040A0
1004
000040C0000040E00000600000006020000060400000606000006080000060A0000060C0000060E00000800000008020000080400000806000008080000080A0000080C0000080E00000A0000000A0200000A0400000A0600000A0800000A0A00000A0C00000A0E00000C0000000C0200000C0400000C0600000C0800000C0
1004
A00000C0C00000C0E00000E0000000E0200000E0400000E0600000E0800000E0A00000E0C00000E0E00040000000400020004000400040006000400080004000A0004000C0004000E00040200000402020004020400040206000402080004020A0004020C0004020E000404000004040200040404000404060004040800040
1004
40A0004040C0004040E00040600000406020004060400040606000406080004060A0004060C0004060E00040800000408020004080400040806000408080004080A0004080C0004080E00040A0000040A0200040A0400040A0600040A0800040A0A00040A0C00040A0E00040C0000040C0200040C0400040C0600040C08000
1004
40C0A00040C0C00040C0E00040E0000040E0200040E0400040E0600040E0800040E0A00040E0C00040E0E00080000000800020008000400080006000800080008000A0008000C0008000E00080200000802020008020400080206000802080008020A0008020C0008020E00080400000804020008040400080406000804080
1004
008040A0008040C0008040E00080600000806020008060400080606000806080008060A0008060C0008060E00080800000808020008080400080806000808080008080A0008080C0008080E00080A0000080A0200080A0400080A0600080A0800080A0A00080A0C00080A0E00080C0000080C0200080C0400080C0600080C0
1004
800080C0A00080C0C00080C0E00080E0000080E0200080E0400080E0600080E0800080E0A00080E0C00080E0E000C0000000C0002000C0004000C0006000C0008000C000A000C000C000C000E000C0200000C0202000C0204000C0206000C0208000C020A000C020C000C020E000C0400000C0402000C0404000C0406000C0
1004
408000C040A000C040C000C040E000C0600000C0602000C0604000C0606000C0608000C060A000C060C000C060E000C0800000C0802000C0804000C0806000C0808000C080A000C080C000C080E000C0A00000C0A02000C0A04000C0A06000C0A08000C0A0A000C0A0C000C0A0E000C0C00000C0C02000C0C04000C0C06000
1004
C0C08000C0C0A000F0FBFF00A4A0A000808080000000FF0000FF000000FFFF00FF000000FF00FF00FFFF0000FFFFFF0000000000000000000000000000000000000000000000000000000000000000000000000000000000000000000000000000000000000000000000000000000000000000000000000000000000000000
1004
00000000000000000000000000000000000000000000000000000000000000000000000000000000000000000000000000000000000000000000000000000000000000000000000000000000000000000000000000000000000000000000000000000000000000000000000000000000000000000000000000000000000000
1004
000000000000000000000000000000000000000000000000000000000000000000000000000000000000000000000000000000000000000000000000000000000000000000000000000000000000000000000000000000000000FEFEFEFEFEE7FEFE000000000000000000000000000000000000000000000000FE0000E7E7
1004
FEE7FE0000000000000000000000000000000000FEFEFEFEFEFEFEFE0000E700E7E7FEFEFE0000000000000000FAFAFAFA000000FE0000000000E7E7000000E7E7E7E7E7E7FEFEFEFEFEFEFEFEFEFEFEFE000000FE0000000000E7E700000000FBE7E700E700000000000000E7E7E700FA000000FEFEE70000FBE7E70000E7
1004
E7E7E7E700E70000000000E7E700000000FE0000000000E700E7E7E7E70000E700FB00E700E70000000000E7000000E7E7FE000000FBFBE7FBE7E7E7E7FBFBE7FBFBFBE7FBE7FBFBFBFBFBE7E7FBE7E7E7FEFB0000FEFEE70000FBE7E70000E7E7E7E7E700E7000000000000000000E7E7FE000000FE0000000000E7E70000
1004
0000E7E7E700E7000000000000000000E7E7FE000000FE0000000000E7E700000000E7E7E700E7FEFEFEFEFEFEFEFEFEFEE7FE000000FEFEFEFEFEFEFEFE00000000E7E7E700FE0000000000000000FAFAFAFA00000000000000000000FE00000000FEFEFEFEFE00000000000000000000000000000000000000000000FEFE
1004
FEFEFEFEFEFE00000000000000000000000000000000000000000000000000000000000000000000000000000000000000000000000000000000000000000000000000000000000000000000000000000000000000000000000000000000000000000000000000000000000000000000000000000000000000000000000000
1004
00000000000000000000000000000000000000000000000000000000000000000000000000000000000000000000000000000000000000000000000000000000000000000000000000000000000000000000000000000000000000000000000000000000000000000000000000000000000000000000000000000000000000
1004
0000000000000000000000000000000000000000000000000000000000000000000000000000000000000000000000000000000000000000
  0
ENDTAB
  0
ENDSEC
  0
SECTION
  2
BLOCKS
  0
BLOCK
  5
1B
330
1A
100
AcDbEntity
  8
0
100
AcDbBlockBegin
  2
*MODEL_SPACE
 70
     0
 10
0.0
 20
0.0
 30
0.0
  3
*MODEL_SPACE
  1

  0
ENDBLK
  5
1C
330
1A
100
AcDbEntity
  8
0
100
AcDbBlockEnd
  0
BLOCK
  5
18
330
17
100
AcDbEntity
 67
     1
  8
0
100
AcDbBlockBegin
  2
*PAPER_SPACE
 70
     0
 10
0.0
 20
0.0
 30
0.0
  3
*PAPER_SPACE
  1

  0
ENDBLK
  5
19
330
17
100
AcDbEntity
 67
     1
  8
0
100
AcDbBlockEnd
  0
BLOCK
  5
598
330
594
100
AcDbEntity
  8
0
100
AcDbBlockBegin
  2
_OPEN
 70
     0
 10
0.0
 20
0.0
 30
0.0
  3
_OPEN
  1

  0
LINE
  5
595
330
594
100
AcDbEntity
  8
0
  6
BYBLOCK
 62
     0
100
AcDbLine
 10
-1.0
 20
0.16666667
 30
0.0
 11
0.0
 21
0.0
 31
0.0
  0
LINE
  5
596
330
594
100
AcDbEntity
  8
0
  6
BYBLOCK
 62
     0
100
AcDbLine
 10
-1.0
 20
-0.16666667
 30
0.0
 11
0.0
 21
0.0
 31
0.0
  0
LINE
  5
597
330
594
100
AcDbEntity
  8
0
  6
BYBLOCK
 62
     0
100
AcDbLine
 10
0.0
 20
0.0
 30
0.0
 11
-1.0
 21
0.0
 31
0.0
  0
ENDBLK
  5
599
330
594
100
AcDbEntity
  8
0
100
AcDbBlockEnd
  0
BLOCK
  5
6E4
330
6E3
100
AcDbEntity
  8
0
100
AcDbBlockBegin
  2
矢印なし
 70
     0
 10
0.0
 20
0.0
 30
0.0
  3
矢印なし
  1

  0
ENDBLK
  5
6E5
330
6E3
100
AcDbEntity
  8
0
100
AcDbBlockEnd
  0
BLOCK
  5
9AE
330
9A4
100
AcDbEntity
  8
0
100
AcDbBlockBegin
  2
*D2
 70
     1
 10
0.0
 20
0.0
 30
0.0
  3
*D2
  1

  0
LINE
  5
A0F
330
9A4
100
AcDbEntity
  8
250
  6
CONTINUOUS
100
AcDbLine
 10
65.5
 20
-12.5
 30
0.0
 11
78.0
 21
-12.5
 31
0.0
  0
LINE
  5
A10
330
9A4
100
AcDbEntity
  8
250
  6
CONTINUOUS
100
AcDbLine
 10
65.5
 20
12.5
 30
0.0
 11
78.0
 21
12.5
 31
0.0
  0
LINE
  5
A11
330
9A4
100
AcDbEntity
  8
250
  6
CONTINUOUS
100
AcDbLine
 10
77.0
 20
-10.27
 30
0.0
 11
77.0
 21
10.27
 31
0.0
  0
INSERT
  5
A12
330
9A4
100
AcDbEntity
  8
250
  6
CONTINUOUS
100
AcDbBlockReference
  2
_OPEN
 10
77.0
 20
-12.5
 30
0.0
 41
2.23
 42
2.23
 43
2.23
 50
270.0
  0
INSERT
  5
A13
330
9A4
100
AcDbEntity
  8
250
  6
CONTINUOUS
100
AcDbBlockReference
  2
_OPEN
 10
77.0
 20
12.5
 30
0.0
 41
2.23
 42
2.23
 43
2.23
 50
90.0
  0
MTEXT
  5
A14
330
9A4
100
AcDbEntity
  8
250
  6
CONTINUOUS
 62
    40
100
AcDbMText
 10
74.6
 20
0.0
 30
0.0
 40
2.8
 41
0.0
 71
     5
 72
     1
  1
\A1;{\H2.8;\U+2205}25
 11
0.0
 21
1.0
 31
0.0
1001
ACAD
1000
MTEXTBEGIN
1070
    73
1070
     1
1070
    44
1040
1.0
1070
    74
1070
     0
1000
MTEXTEND
1000
MTEXTBEGIN
1070
    73
1070
     1
1070
    44
1040
1.0
1070
    74
1070
     0
1000
MTEXTEND
1000
MTEXTBEGIN
1070
    73
1070
     1
1070
    44
1040
1.0
1070
    74
1070
     0
1000
MTEXTEND
1000
MTEXTBEGIN
1070
    73
1070
     1
1070
    44
1040
1.0
1070
    74
1070
     0
1000
MTEXTEND
1000
MTEXTBEGIN
1070
    73
1070
     1
1070
    44
1040
1.0
1070
    74
1070
     0
1000
MTEXTEND
1000
MTEXTBEGIN
1070
    73
1070
     1
1070
    44
1040
1.0
1070
    74
1070
     0
1000
MTEXTEND
  0
POINT
  5
A15
330
9A4
100
AcDbEntity
  8
DEFPOINTS
  6
CONTINUOUS
 62
     0
100
AcDbPoint
 10
65.0
 20
-12.5
 30
0.0
  0
POINT
  5
A16
330
9A4
100
AcDbEntity
  8
DEFPOINTS
  6
CONTINUOUS
 62
     0
100
AcDbPoint
 10
65.0
 20
12.5
 30
0.0
  0
POINT
  5
A17
330
9A4
100
AcDbEntity
  8
DEFPOINTS
  6
CONTINUOUS
 62
     0
100
AcDbPoint
 10
77.0
 20
12.5
 30
0.0
  0
ENDBLK
  5
9AF
330
9A4
100
AcDbEntity
  8
0
100
AcDbBlockEnd
  0
BLOCK
  5
9BD
330
9B3
100
AcDbEntity
  8
0
100
AcDbBlockBegin
  2
*D3
 70
     1
 10
0.0
 20
0.0
 30
0.0
  3
*D3
  1

  0
LINE
  5
A06
330
9B3
100
AcDbEntity
  8
250
  6
CONTINUOUS
100
AcDbLine
 10
56.0
 20
13.0
 30
0.0
 11
56.0
 21
22.0
 31
0.0
  0
LINE
  5
A07
330
9B3
100
AcDbEntity
  8
250
  6
CONTINUOUS
100
AcDbLine
 10
65.0
 20
13.0
 30
0.0
 11
65.0
 21
22.0
 31
0.0
  0
LINE
  5
A08
330
9B3
100
AcDbEntity
  8
250
  6
CONTINUOUS
100
AcDbLine
 10
58.23
 20
21.0
 30
0.0
 11
62.77
 21
21.0
 31
0.0
  0
INSERT
  5
A09
330
9B3
100
AcDbEntity
  8
250
  6
CONTINUOUS
100
AcDbBlockReference
  2
_OPEN
 10
56.0
 20
21.0
 30
0.0
 41
2.23
 42
2.23
 43
2.23
 50
180.0
  0
INSERT
  5
A0A
330
9B3
100
AcDbEntity
  8
250
  6
CONTINUOUS
100
AcDbBlockReference
  2
_OPEN
 10
65.0
 20
21.0
 30
0.0
 41
2.23
 42
2.23
 43
2.23
  0
MTEXT
  5
A0B
330
9B3
100
AcDbEntity
  8
250
  6
CONTINUOUS
 62
    40
100
AcDbMText
 10
60.5
 20
23.4
 30
0.0
 40
2.8
 41
0.0
 71
     5
 72
     1
  1
\A1;9
1001
ACAD
1000
MTEXTBEGIN
1070
    73
1070
     1
1070
    44
1040
1.0
1070
    74
1070
     0
1000
MTEXTEND
1000
MTEXTBEGIN
1070
    73
1070
     1
1070
    44
1040
1.0
1070
    74
1070
     0
1000
MTEXTEND
1000
MTEXTBEGIN
1070
    73
1070
     1
1070
    44
1040
1.0
1070
    74
1070
     0
1000
MTEXTEND
1000
MTEXTBEGIN
1070
    73
1070
     1
1070
    44
1040
1.0
1070
    74
1070
     0
1000
MTEXTEND
1000
MTEXTBEGIN
1070
    73
1070
     1
1070
    44
1040
1.0
1070
    74
1070
     0
1000
MTEXTEND
1000
MTEXTBEGIN
1070
    73
1070
     1
1070
    44
1040
1.0
1070
    74
1070
     0
1000
MTEXTEND
  0
POINT
  5
A0C
330
9B3
100
AcDbEntity
  8
DEFPOINTS
  6
CONTINUOUS
 62
     0
100
AcDbPoint
 10
56.0
 20
12.5
 30
0.0
  0
POINT
  5
A0D
330
9B3
100
AcDbEntity
  8
DEFPOINTS
  6
CONTINUOUS
 62
     0
100
AcDbPoint
 10
65.0
 20
12.5
 30
0.0
  0
POINT
  5
A0E
330
9B3
100
AcDbEntity
  8
DEFPOINTS
  6
CONTINUOUS
 62
     0
100
AcDbPoint
 10
65.0
 20
21.0
 30
0.0
  0
ENDBLK
  5
9BE
330
9B3
100
AcDbEntity
  8
0
100
AcDbBlockEnd
  0
BLOCK
  5
9CC
330
9C2
100
AcDbEntity
  8
0
100
AcDbBlockBegin
  2
*D4
 70
     1
 10
0.0
 20
0.0
 30
0.0
  3
*D4
  1

  0
LINE
  5
9F4
330
9C2
100
AcDbEntity
  8
250
  6
CONTINUOUS
100
AcDbLine
 10
30.0
 20
12.4
 30
0.0
 11
30.0
 21
29.0
 31
0.0
  0
LINE
  5
9F5
330
9C2
100
AcDbEntity
  8
250
  6
CONTINUOUS
100
AcDbLine
 10
65.0
 20
13.0
 30
0.0
 11
65.0
 21
29.0
 31
0.0
  0
LINE
  5
9F6
330
9C2
100
AcDbEntity
  8
250
  6
CONTINUOUS
100
AcDbLine
 10
32.23
 20
28.0
 30
0.0
 11
62.77
 21
28.0
 31
0.0
  0
INSERT
  5
9F7
330
9C2
100
AcDbEntity
  8
250
  6
CONTINUOUS
100
AcDbBlockReference
  2
_OPEN
 10
30.0
 20
28.0
 30
0.0
 41
2.23
 42
2.23
 43
2.23
 50
180.0
  0
INSERT
  5
9F8
330
9C2
100
AcDbEntity
  8
250
  6
CONTINUOUS
100
AcDbBlockReference
  2
_OPEN
 10
65.0
 20
28.0
 30
0.0
 41
2.23
 42
2.23
 43
2.23
  0
MTEXT
  5
9F9
330
9C2
100
AcDbEntity
  8
250
  6
CONTINUOUS
 62
    40
100
AcDbMText
 10
47.5
 20
30.4
 30
0.0
 40
2.8
 41
0.0
 71
     5
 72
     1
  1
\A1;35
1001
ACAD
1000
MTEXTBEGIN
1070
    73
1070
     1
1070
    44
1040
1.0
1070
    74
1070
     0
1000
MTEXTEND
1000
MTEXTBEGIN
1070
    73
1070
     1
1070
    44
1040
1.0
1070
    74
1070
     0
1000
MTEXTEND
1000
MTEXTBEGIN
1070
    73
1070
     1
1070
    44
1040
1.0
1070
    74
1070
     0
1000
MTEXTEND
1000
MTEXTBEGIN
1070
    73
1070
     1
1070
    44
1040
1.0
1070
    74
1070
     0
1000
MTEXTEND
1000
MTEXTBEGIN
1070
    73
1070
     1
1070
    44
1040
1.0
1070
    74
1070
     0
1000
MTEXTEND
1000
MTEXTBEGIN
1070
    73
1070
     1
1070
    44
1040
1.0
1070
    74
1070
     0
1000
MTEXTEND
  0
POINT
  5
9FA
330
9C2
100
AcDbEntity
  8
DEFPOINTS
  6
CONTINUOUS
 62
     0
100
AcDbPoint
 10
30.0
 20
11.9
 30
0.0
  0
POINT
  5
9FB
330
9C2
100
AcDbEntity
  8
DEFPOINTS
  6
CONTINUOUS
 62
     0
100
AcDbPoint
 10
65.0
 20
12.5
 30
0.0
  0
POINT
  5
9FC
330
9C2
100
AcDbEntity
  8
DEFPOINTS
  6
CONTINUOUS
 62
     0
100
AcDbPoint
 10
65.0
 20
28.0
 30
0.0
  0
ENDBLK
  5
9CD
330
9C2
100
AcDbEntity
  8
0
100
AcDbBlockEnd
  0
BLOCK
  5
9DB
330
9D1
100
AcDbEntity
  8
0
100
AcDbBlockBegin
  2
*D5
 70
     1
 10
0.0
 20
0.0
 30
0.0
  3
*D5
  1

  0
LINE
  5
FB2
330
9D1
100
AcDbEntity
  8
250
  6
CONTINUOUS
100
AcDbLine
 10
0.0
 20
20.5
 30
0.0
 11
0.0
 21
36.0
 31
0.0
  0
LINE
  5
FB3
330
9D1
100
AcDbEntity
  8
250
  6
CONTINUOUS
100
AcDbLine
 10
65.0
 20
13.0
 30
0.0
 11
65.0
 21
36.0
 31
0.0
  0
LINE
  5
FB4
330
9D1
100
AcDbEntity
  8
250
  6
CONTINUOUS
100
AcDbLine
 10
2.23
 20
35.0
 30
0.0
 11
62.77
 21
35.0
 31
0.0
  0
INSERT
  5
FB5
330
9D1
100
AcDbEntity
  8
250
  6
CONTINUOUS
100
AcDbBlockReference
  2
_OPEN
 10
0.0
 20
35.0
 30
0.0
 41
2.23
 42
2.23
 43
2.23
 50
180.0
  0
INSERT
  5
FB6
330
9D1
100
AcDbEntity
  8
250
  6
CONTINUOUS
100
AcDbBlockReference
  2
_OPEN
 10
65.0
 20
35.0
 30
0.0
 41
2.23
 42
2.23
 43
2.23
  0
MTEXT
  5
FB7
330
9D1
100
AcDbEntity
  8
250
  6
CONTINUOUS
 62
    40
100
AcDbMText
 10
32.5
 20
37.4
 30
0.0
 40
2.8
 41
0.0
 71
     5
 72
     1
  1
\A1;65
1001
ACAD
1000
MTEXTBEGIN
1070
    73
1070
     1
1070
    44
1040
1.0
1070
    74
1070
     0
1000
MTEXTEND
  0
POINT
  5
FB8
330
9D1
100
AcDbEntity
  8
DEFPOINTS
  6
CONTINUOUS
 62
     0
100
AcDbPoint
 10
0.0
 20
20.0
 30
0.0
  0
POINT
  5
FB9
330
9D1
100
AcDbEntity
  8
DEFPOINTS
  6
CONTINUOUS
 62
     0
100
AcDbPoint
 10
65.0
 20
12.5
 30
0.0
  0
POINT
  5
FBA
330
9D1
100
AcDbEntity
  8
DEFPOINTS
  6
CONTINUOUS
 62
     0
100
AcDbPoint
 10
65.0
 20
35.0
 30
0.0
  0
ENDBLK
  5
9DC
330
9D1
100
AcDbEntity
  8
0
100
AcDbBlockEnd
  0
BLOCK
  5
A19
330
A18
100
AcDbEntity
  8
0
100
AcDbBlockBegin
  2
1
 70
     0
 10
0.0
 20
0.0
 30
0.0
  3
1
  1

  0
LINE
  5
FFF
330
A18
100
AcDbEntity
  8
240
  6
CONTINUOUS
100
AcDbLine
 10
54.45050452
 20
11.9
 30
0.0
 11
27.5
 21
11.9
 31
0.0
1001
GRPNAME
1000
PASTMD3Q
  0
LINE
  5
1000
330
A18
100
AcDbEntity
  8
240
  6
CONTINUOUS
100
AcDbLine
 10
54.45050452
 20
-11.9
 30
0.0
 11
27.5
 21
-11.9
 31
0.0
1001
GRPNAME
1000
PASTMD3Q
  0
LINE
  5
1001
330
A18
100
AcDbEntity
  8
241
  6
CONTINUOUS
100
AcDbLine
 10
48.38105503
 20
1.4943155
 30
0.0
 11
53.84602145
 21
0.53069447
 31
0.0
1001
GRPNAME
1000
PASTMD3Q
  0
LINE
  5
1002
330
A18
100
AcDbEntity
  8
241
  6
CONTINUOUS
100
AcDbLine
 10
46.77939208
 20
-4.90544291
 30
0.0
 11
64.5
 21
-10.69795326
 31
0.0
1001
GRPNAME
1000
PASTMD3Q
  0
LINE
  5
1003
330
A18
100
AcDbEntity
  8
245
100
AcDbLine
 10
-19.9
 20
0.0
 30
0.0
 11
66.0
 21
0.0
 31
0.0
  0
LINE
  5
1004
330
A18
100
AcDbEntity
  8
241
100
AcDbLine
 10
27.5
 20
-11.9
 30
0.0
 11
27.5
 21
0.0
 31
0.0
  0
LINE
  5
1005
330
A18
100
AcDbEntity
  8
242
  6
CONTINUOUS
100
AcDbLine
 10
27.5
 20
-14.40612084
 30
0.0
 11
20.49999991
 21
-10.89685973
 31
0.0
  0
LINE
  5
1006
330
A18
100
AcDbEntity
  8
241
  6
CONTINUOUS
100
AcDbLine
 10
20.5
 20
-10.89685973
 30
0.0
 11
20.5
 21
-14.40612084
 31
0.0
  0
LINE
  5
1007
330
A18
100
AcDbEntity
  8
242
  6
CONTINUOUS
100
AcDbLine
 10
27.5
 20
-10.89685973
 30
0.0
 11
20.5
 21
-14.40612084
 31
0.0
  0
LINE
  5
1008
330
A18
100
AcDbEntity
  8
241
100
AcDbLine
 10
20.0
 20
-16.8
 30
0.0
 11
20.0
 21
0.0
 31
0.0
  0
LINE
  5
1009
330
A18
100
AcDbEntity
  8
241
  6
CONTINUOUS
100
AcDbLine
 10
18.02072594
 20
-12.0
 30
0.0
 11
18.02072594
 21
-4.5
 31
0.0
1001
GRPNAME
1000
PASTMD0J
  0
LINE
  5
100A
330
A18
100
AcDbEntity
  8
241
  6
CONTINUOUS
100
AcDbLine
 10
13.97927406
 20
-12.0
 30
0.0
 11
13.97927406
 21
-4.5
 31
0.0
1001
GRPNAME
1000
PASTMD0J
  0
LINE
  5
100B
330
A18
100
AcDbEntity
  8
241
  6
CONTINUOUS
100
AcDbLine
 10
17.0
 20
-4.5
 30
0.0
 11
17.0
 21
-12.0
 31
0.0
1001
GRPNAME
1000
PASTMD0J
  0
LINE
  5
100C
330
A18
100
AcDbEntity
  8
241
  6
CONTINUOUS
100
AcDbLine
 10
15.0
 20
-4.5
 30
0.0
 11
15.0
 21
-12.0
 31
0.0
1001
GRPNAME
1000
PASTMD0J
  0
LINE
  5
100D
330
A18
100
AcDbEntity
  8
240
  6
CONTINUOUS
100
AcDbLine
 10
-20.0
 20
-13.43900062
 30
0.0
 11
-20.0
 21
-4.825
 31
0.0
1001
GRPNAME
1000
PASTMD0J
  0
LINE
  5
100E
330
A18
100
AcDbEntity
  8
241
100
AcDbLine
 10
-2.0
 20
-15.1
 30
0.0
 11
-2.0
 21
0.0
 31
0.0
  0
LINE
  5
100F
330
A18
100
AcDbEntity
  8
245
  6
CENTER2
100
AcDbLine
 10
16.0
 20
-20.0
 30
0.0
 11
16.0
 21
20.0
 31
0.0
1001
GRPNAME
1000
PASTMD0J
  0
LINE
  5
1010
330
A18
100
AcDbEntity
  8
241
  6
CONTINUOUS
100
AcDbLine
 10
0.0
 20
-15.1
 30
0.0
 11
0.0
 21
0.0
 31
0.0
1001
GRPNAME
1000
PASTMD0J
  0
LINE
  5
1011
330
A18
100
AcDbEntity
  8
240
  6
CONTINUOUS
100
AcDbLine
 10
15.0
 20
-18.23205081
 30
0.0
 11
13.97927406
 21
-20.0
 31
0.0
1001
GRPNAME
1000
PASTMD0J
  0
LINE
  5
1012
330
A18
100
AcDbEntity
  8
241
  6
CONTINUOUS
100
AcDbLine
 10
15.0
 20
-13.72616759
 30
0.0
 11
13.97927406
 21
-16.0
 31
0.0
1001
GRPNAME
1000
PASTMD0J
  0
LINE
  5
1013
330
A18
100
AcDbEntity
  8
241
  6
CONTINUOUS
100
AcDbLine
 10
12.47213595
 20
-12.0
 30
0.0
 11
20.0
 21
-12.0
 31
0.0
1001
GRPNAME
1000
PASTMD0J
  0
LINE
  5
1014
330
A18
100
AcDbEntity
  8
240
  6
CONTINUOUS
100
AcDbLine
 10
-2.0
 20
-15.1
 30
0.0
 11
-19.23995009
 21
-14.2380025
 31
0.0
1001
GRPNAME
1000
PASTMD0J
  0
ARC
  5
1015
330
A18
100
AcDbEntity
  8
240
  6
CONTINUOUS
100
AcDbCircle
 10
-19.2
 20
-13.43900062
 30
0.0
 40
0.8000000000000111
100
AcDbArc
 50
179.99999999
 51
267.13759477
1001
GRPNAME
1000
PASTMD0J
  0
LINE
  5
1016
330
A18
100
AcDbEntity
  8
240
  6
CONTINUOUS
100
AcDbLine
 10
0.0
 20
-20.0
 30
0.0
 11
13.97927406
 21
-20.0
 31
0.0
1001
GRPNAME
1000
PASTMD0J
  0
LINE
  5
1017
330
A18
100
AcDbEntity
  8
240
  6
CONTINUOUS
100
AcDbLine
 10
0.0
 20
-20.0
 30
0.0
 11
0.0
 21
-15.1
 31
0.0
1001
GRPNAME
1000
PASTMD0J
  0
LINE
  5
1018
330
A18
100
AcDbEntity
  8
240
100
AcDbLine
 10
-2.0
 20
-15.1
 30
0.0
 11
0.0
 21
-15.1
 31
0.0
  0
LINE
  5
1019
330
A18
100
AcDbEntity
  8
241
  6
CONTINUOUS
100
AcDbLine
 10
13.97927406
 20
-20.0
 30
0.0
 11
13.97927406
 21
-16.0
 31
0.0
1001
GRPNAME
1000
PASTMD0J
  0
LINE
  5
101A
330
A18
100
AcDbEntity
  8
241
  6
CONTINUOUS
100
AcDbLine
 10
8.0
 20
-16.0
 30
0.0
 11
13.97927406
 21
-16.0
 31
0.0
1001
GRPNAME
1000
PASTMD0J
  0
ARC
  5
101B
330
A18
100
AcDbEntity
  8
241
  6
CONTINUOUS
100
AcDbCircle
 10
12.47213595
 20
-16.5
 30
0.0
 40
4.5
100
AcDbArc
 50
90.0
 51
173.62062979
1001
GRPNAME
1000
PASTMD0J
  0
LINE
  5
101C
330
A18
100
AcDbEntity
  8
240
  6
CONTINUOUS
100
AcDbLine
 10
20.5
 20
-14.40612084
 30
0.0
 11
27.5
 21
-14.40612084
 31
0.0
  0
LINE
  5
101D
330
A18
100
AcDbEntity
  8
240
  6
CONTINUOUS
100
AcDbLine
 10
20.0
 20
-16.8
 30
0.0
 11
20.0
 21
-20.0
 31
0.0
1001
GRPNAME
1000
PASTMD0J
  0
LINE
  5
101E
330
A18
100
AcDbEntity
  8
241
  6
CONTINUOUS
100
AcDbLine
 10
18.02072594
 20
-20.0
 30
0.0
 11
18.02072594
 21
-16.0
 31
0.0
1001
GRPNAME
1000
PASTMD0J
  0
LINE
  5
101F
330
A18
100
AcDbEntity
  8
241
  6
CONTINUOUS
100
AcDbLine
 10
15.0
 20
-12.6
 30
0.0
 11
15.0
 21
-17.4
 31
0.0
1001
GRPNAME
1000
PASTMD0J
  0
LINE
  5
1020
330
A18
100
AcDbEntity
  8
241
  6
CONTINUOUS
100
AcDbLine
 10
17.0
 20
-12.6
 30
0.0
 11
17.0
 21
-17.4
 31
0.0
1001
GRPNAME
1000
PASTMD0J
  0
LINE
  5
1021
330
A18
100
AcDbEntity
  8
240
  6
CONTINUOUS
100
AcDbLine
 10
18.02072594
 20
-20.0
 30
0.0
 11
20.0
 21
-20.0
 31
0.0
1001
GRPNAME
1000
PASTMD0J
  0
LINE
  5
1022
330
A18
100
AcDbEntity
  8
240
  6
CONTINUOUS
100
AcDbLine
 10
17.0
 20
-18.23205081
 30
0.0
 11
18.02072594
 21
-20.0
 31
0.0
1001
GRPNAME
1000
PASTMD0J
  0
LINE
  5
1023
330
A18
100
AcDbEntity
  8
240
  6
CONTINUOUS
100
AcDbLine
 10
15.0
 20
-17.4
 30
0.0
 11
15.0
 21
-18.23205081
 31
0.0
1001
GRPNAME
1000
PASTMD0J
  0
LINE
  5
1024
330
A18
100
AcDbEntity
  8
240
  6
CONTINUOUS
100
AcDbLine
 10
15.0
 20
-17.4
 30
0.0
 11
17.0
 21
-17.4
 31
0.0
1001
GRPNAME
1000
PASTMD0J
  0
LINE
  5
1025
330
A18
100
AcDbEntity
  8
240
  6
CONTINUOUS
100
AcDbLine
 10
17.0
 20
-18.23205081
 30
0.0
 11
17.0
 21
-17.4
 31
0.0
1001
GRPNAME
1000
PASTMD0J
  0
LINE
  5
1026
330
A18
100
AcDbEntity
  8
241
  6
CONTINUOUS
100
AcDbLine
 10
18.02072594
 20
-16.0
 30
0.0
 11
20.0
 21
-16.0
 31
0.0
1001
GRPNAME
1000
PASTMD0J
  0
LINE
  5
1027
330
A18
100
AcDbEntity
  8
241
  6
CONTINUOUS
100
AcDbLine
 10
15.0
 20
-12.6
 30
0.0
 11
17.0
 21
-12.6
 31
0.0
1001
GRPNAME
1000
PASTMD0J
  0
LINE
  5
1028
330
A18
100
AcDbEntity
  8
241
  6
CONTINUOUS
100
AcDbLine
 10
18.02072594
 20
-16.0
 30
0.0
 11
17.0
 21
-13.72616759
 31
0.0
1001
GRPNAME
1000
PASTMD0J
  0
LINE
  5
1029
330
A18
100
AcDbEntity
  8
240
  6
CONTINUOUS
100
AcDbLine
 10
20.5
 20
-16.8
 30
0.0
 11
20.5
 21
-14.40612084
 31
0.0
  0
LINE
  5
102A
330
A18
100
AcDbEntity
  8
240
  6
CONTINUOUS
100
AcDbLine
 10
20.0
 20
-16.8
 30
0.0
 11
20.5
 21
-16.8
 31
0.0
  0
LINE
  5
102B
330
A18
100
AcDbEntity
  8
240
100
AcDbLine
 10
27.5
 20
-14.40612084
 30
0.0
 11
27.5
 21
-11.9
 31
0.0
  0
LINE
  5
102C
330
A18
100
AcDbEntity
  8
240
  6
CONTINUOUS
100
AcDbLine
 10
15.0
 20
18.23205081
 30
0.0
 11
13.97927406
 21
20.0
 31
0.0
1001
GRPNAME
1000
PASTMD0J
  0
LINE
  5
102D
330
A18
100
AcDbEntity
  8
241
  6
CONTINUOUS
100
AcDbLine
 10
12.5
 20
-4.5
 30
0.0
 11
20.0
 21
-4.5
 31
0.0
1001
GRPNAME
1000
PASTMD0J
  0
LINE
  5
102E
330
A18
100
AcDbEntity
  8
241
  6
CONTINUOUS
100
AcDbLine
 10
12.5
 20
4.5
 30
0.0
 11
20.0
 21
4.5
 31
0.0
1001
GRPNAME
1000
PASTMD0J
  0
LINE
  5
102F
330
A18
100
AcDbEntity
  8
241
100
AcDbLine
 10
-2.0
 20
15.1
 30
0.0
 11
-2.0
 21
0.0
 31
0.0
  0
LINE
  5
1030
330
A18
100
AcDbEntity
  8
241
  6
CONTINUOUS
100
AcDbLine
 10
0.0
 20
15.1
 30
0.0
 11
0.0
 21
0.0
 31
0.0
1001
GRPNAME
1000
PASTMD0J
  0
ARC
  5
1031
330
A18
100
AcDbEntity
  8
240
  6
CONTINUOUS
100
AcDbCircle
 10
-19.2
 20
13.43900062
 30
0.0
 40
0.8000000000000191
100
AcDbArc
 50
92.86240523
 51
180.0
1001
GRPNAME
1000
PASTMD0J
  0
LINE
  5
1032
330
A18
100
AcDbEntity
  8
241
  6
CONTINUOUS
100
AcDbLine
 10
13.97927406
 20
4.5
 30
0.0
 11
13.97927406
 21
20.0
 31
0.0
1001
GRPNAME
1000
PASTMD0J
  0
LINE
  5
1033
330
A18
100
AcDbEntity
  8
245
  6
CENTER2
100
AcDbLine
 10
-6.0
 20
-3.3
 30
0.0
 11
-6.0
 21
3.3
 31
0.0
1001
GRPNAME
1000
PASTMD0J
  0
LINE
  5
1034
330
A18
100
AcDbEntity
  8
241
  6
HIDDEN2
100
AcDbLine
 10
-14.0
 20
3.025
 30
0.0
 11
-14.0
 21
0.0
 31
0.0
1001
GRPNAME
1000
PASTMD0J
  0
LINE
  5
1035
330
A18
100
AcDbEntity
  8
240
  6
CONTINUOUS
100
AcDbLine
 10
-16.5
 20
3.025
 30
0.0
 11
-16.5
 21
0.0
 31
0.0
1001
GRPNAME
1000
PASTMD0J
  0
CIRCLE
  5
1036
330
A18
100
AcDbEntity
  8
241
  6
CONTINUOUS
100
AcDbCircle
 10
-6.0
 20
0.0
 30
0.0
 40
2.299999999999998
1001
GRPNAME
1000
PASTMD0J
  0
LINE
  5
1037
330
A18
100
AcDbEntity
  8
241
  6
HIDDEN2
100
AcDbLine
 10
-17.5
 20
-4.025
 30
0.0
 11
-15.0
 21
-4.025
 31
0.0
1001
GRPNAME
1000
PASTMD0J
  0
ARC
  5
1038
330
A18
100
AcDbEntity
  8
240
  6
CONTINUOUS
100
AcDbCircle
 10
-17.5
 20
-3.025
 30
0.0
 40
1.0
100
AcDbArc
 50
269.99999999
 51
359.99999999
1001
GRPNAME
1000
PASTMD0J
  0
LINE
  5
1039
330
A18
100
AcDbEntity
  8
240
  6
CONTINUOUS
100
AcDbLine
 10
-19.2
 20
-4.025
 30
0.0
 11
-17.5
 21
-4.025
 31
0.0
1001
GRPNAME
1000
PASTMD0J
  0
LINE
  5
103A
330
A18
100
AcDbEntity
  8
240
  6
CONTINUOUS
100
AcDbLine
 10
-20.0
 20
-4.825
 30
0.0
 11
-19.2
 21
-4.025
 31
0.0
1001
GRPNAME
1000
PASTMD0J
  0
LINE
  5
103B
330
A18
100
AcDbEntity
  8
241
  6
HIDDEN2
100
AcDbLine
 10
-14.0
 20
-3.025
 30
0.0
 11
-14.0
 21
0.0
 31
0.0
1001
GRPNAME
1000
PASTMD0J
  0
LINE
  5
103C
330
A18
100
AcDbEntity
  8
240
  6
CONTINUOUS
100
AcDbLine
 10
-16.5
 20
-3.025
 30
0.0
 11
-16.5
 21
0.0
 31
0.0
1001
GRPNAME
1000
PASTMD0J
  0
ARC
  5
103D
330
A18
100
AcDbEntity
  8
241
  6
HIDDEN2
100
AcDbCircle
 10
-15.0
 20
-3.025
 30
0.0
 40
1.0
100
AcDbArc
 50
269.99999999
 51
359.99999999
1001
GRPNAME
1000
PASTMD0J
  0
LINE
  5
103E
330
A18
100
AcDbEntity
  8
240
  6
CONTINUOUS
100
AcDbLine
 10
-20.0
 20
4.825
 30
0.0
 11
-20.0
 21
13.43900062
 31
0.0
1001
GRPNAME
1000
PASTMD0J
  0
ARC
  5
103F
330
A18
100
AcDbEntity
  8
240
  6
CONTINUOUS
100
AcDbCircle
 10
-17.5
 20
3.025
 30
0.0
 40
1.0
100
AcDbArc
 50
0.0
 51
90.0
1001
GRPNAME
1000
PASTMD0J
  0
LINE
  5
1040
330
A18
100
AcDbEntity
  8
241
  6
HIDDEN2
100
AcDbLine
 10
-17.5
 20
4.025
 30
0.0
 11
-15.0
 21
4.025
 31
0.0
1001
GRPNAME
1000
PASTMD0J
  0
LINE
  5
1041
330
A18
100
AcDbEntity
  8
240
  6
CONTINUOUS
100
AcDbLine
 10
-19.2
 20
4.025
 30
0.0
 11
-17.5
 21
4.025
 31
0.0
1001
GRPNAME
1000
PASTMD0J
  0
LINE
  5
1042
330
A18
100
AcDbEntity
  8
240
  6
CONTINUOUS
100
AcDbLine
 10
-19.2
 20
4.025
 30
0.0
 11
-20.0
 21
4.825
 31
0.0
1001
GRPNAME
1000
PASTMD0J
  0
ARC
  5
1043
330
A18
100
AcDbEntity
  8
241
  6
HIDDEN2
100
AcDbCircle
 10
-15.0
 20
3.025
 30
0.0
 40
1.0
100
AcDbArc
 50
0.0
 51
90.0
1001
GRPNAME
1000
PASTMD0J
  0
ARC
  5
1044
330
A18
100
AcDbEntity
  8
241
  6
CONTINUOUS
100
AcDbCircle
 10
12.5
 20
0.0
 30
0.0
 40
4.5
100
AcDbArc
 50
90.00000001
 51
180.00000001
1001
GRPNAME
1000
PASTMD0J
  0
ARC
  5
1045
330
A18
100
AcDbEntity
  8
241
  6
CONTINUOUS
100
AcDbCircle
 10
12.5
 20
0.0
 30
0.0
 40
4.5
100
AcDbArc
 50
179.99999999
 51
269.99999999
1001
GRPNAME
1000
PASTMD0J
  0
LINE
  5
1046
330
A18
100
AcDbEntity
  8
240
  6
CONTINUOUS
100
AcDbLine
 10
-2.0
 20
15.1
 30
0.0
 11
-19.23995009
 21
14.2380025
 31
0.0
1001
GRPNAME
1000
PASTMD0J
  0
LINE
  5
1047
330
A18
100
AcDbEntity
  8
240
  6
CONTINUOUS
100
AcDbLine
 10
0.0
 20
20.0
 30
0.0
 11
13.97927406
 21
20.0
 31
0.0
1001
GRPNAME
1000
PASTMD0J
  0
LINE
  5
1048
330
A18
100
AcDbEntity
  8
240
  6
CONTINUOUS
100
AcDbLine
 10
0.0
 20
15.1
 30
0.0
 11
0.0
 21
20.0
 31
0.0
1001
GRPNAME
1000
PASTMD0J
  0
LINE
  5
1049
330
A18
100
AcDbEntity
  8
240
100
AcDbLine
 10
-2.0
 20
15.1
 30
0.0
 11
0.0
 21
15.1
 31
0.0
  0
LINE
  5
104A
330
A18
100
AcDbEntity
  8
240
  6
PHANTOM2
100
AcDbLine
 10
27.5
 20
11.9
 30
0.0
 11
27.5
 21
15.8
 31
0.0
  0
LINE
  5
104B
330
A18
100
AcDbEntity
  8
241
100
AcDbLine
 10
20.0
 20
16.8
 30
0.0
 11
20.0
 21
0.0
 31
0.0
  0
LINE
  5
104C
330
A18
100
AcDbEntity
  8
241
  6
CONTINUOUS
100
AcDbLine
 10
15.0
 20
4.5
 30
0.0
 11
15.0
 21
17.4
 31
0.0
1001
GRPNAME
1000
PASTMD0J
  0
LINE
  5
104D
330
A18
100
AcDbEntity
  8
241
  6
CONTINUOUS
100
AcDbLine
 10
17.0
 20
4.5
 30
0.0
 11
17.0
 21
17.4
 31
0.0
1001
GRPNAME
1000
PASTMD0J
  0
LINE
  5
104E
330
A18
100
AcDbEntity
  8
241
  6
CONTINUOUS
100
AcDbLine
 10
18.02072594
 20
4.5
 30
0.0
 11
18.02072594
 21
20.0
 31
0.0
1001
GRPNAME
1000
PASTMD0J
  0
LINE
  5
104F
330
A18
100
AcDbEntity
  8
241
100
AcDbLine
 10
27.5
 20
0.0
 30
0.0
 11
27.5
 21
11.9
 31
0.0
  0
LINE
  5
1050
330
A18
100
AcDbEntity
  8
241
  6
CONTINUOUS
100
AcDbLine
 10
27.5
 20
-10.89685973
 30
0.0
 11
20.49999991
 21
-10.89685973
 31
0.0
  0
ARC
  5
1051
330
A18
100
AcDbEntity
  8
241
  6
CONTINUOUS
100
AcDbCircle
 10
47.80683002
 20
-1.76227634
 30
0.0
 40
3.306830020297943
100
AcDbArc
 50
79.99999993
 51
251.89845495
1001
GRPNAME
1000
PASTMD3Q
  0
LINE
  5
1052
330
A18
100
AcDbEntity
  8
240
  6
CONTINUOUS
100
AcDbLine
 10
20.0
 20
16.8
 30
0.0
 11
26.5
 21
16.8
 31
0.0
  0
LINE
  5
1053
330
A18
100
AcDbEntity
  8
240
  6
CONTINUOUS
100
AcDbLine
 10
20.0
 20
16.8
 30
0.0
 11
20.0
 21
20.0
 31
0.0
1001
GRPNAME
1000
PASTMD0J
  0
LINE
  5
1054
330
A18
100
AcDbEntity
  8
240
  6
CONTINUOUS
100
AcDbLine
 10
17.0
 20
18.23205081
 30
0.0
 11
18.02072594
 21
20.0
 31
0.0
1001
GRPNAME
1000
PASTMD0J
  0
LINE
  5
1055
330
A18
100
AcDbEntity
  8
240
  6
CONTINUOUS
100
AcDbLine
 10
15.0
 20
17.4
 30
0.0
 11
15.0
 21
18.23205081
 31
0.0
1001
GRPNAME
1000
PASTMD0J
  0
LINE
  5
1056
330
A18
100
AcDbEntity
  8
240
  6
CONTINUOUS
100
AcDbLine
 10
15.0
 20
17.4
 30
0.0
 11
17.0
 21
17.4
 31
0.0
1001
GRPNAME
1000
PASTMD0J
  0
LINE
  5
1057
330
A18
100
AcDbEntity
  8
240
  6
CONTINUOUS
100
AcDbLine
 10
17.0
 20
17.4
 30
0.0
 11
17.0
 21
18.23205081
 31
0.0
1001
GRPNAME
1000
PASTMD0J
  0
LINE
  5
1058
330
A18
100
AcDbEntity
  8
240
  6
CONTINUOUS
100
AcDbLine
 10
18.02072594
 20
20.0
 30
0.0
 11
20.0
 21
20.0
 31
0.0
1001
GRPNAME
1000
PASTMD0J
  0
ARC
  5
1059
330
A18
100
AcDbEntity
  8
240
  6
CONTINUOUS
100
AcDbCircle
 10
26.5
 20
15.8
 30
0.0
 40
1.0
100
AcDbArc
 50
359.9999824
 51
90.0
  0
LINE
  5
105A
330
A18
100
AcDbEntity
  8
240
  6
CONTINUOUS
100
AcDbLine
 10
64.5
 20
-3.21801488
 30
0.0
 11
64.5
 21
-11.8
 31
0.0
1001
GRPNAME
1000
PASTMD3Q
  0
LINE
  5
105B
330
A18
100
AcDbEntity
  8
246
100
AcDbLine
 10
65.0
 20
12.5
 30
0.0
 11
65.0
 21
-12.5
 31
0.0
1001
GRPNAME
1000
PASTMD3Q
  0
LINE
  5
105C
330
A18
100
AcDbEntity
  8
240
  6
CONTINUOUS
100
AcDbLine
 10
64.5
 20
-11.8
 30
0.0
 11
54.99999999
 21
-12.05
 31
0.0
1001
GRPNAME
1000
PASTMD3Q
  0
LINE
  5
105D
330
A18
100
AcDbEntity
  8
246
100
AcDbLine
 10
56.0
 20
-12.5
 30
0.0
 11
65.0
 21
-12.5
 31
0.0
  0
LINE
  5
105E
330
A18
100
AcDbEntity
  8
240
  6
CONTINUOUS
100
AcDbLine
 10
54.45050452
 20
-11.9
 30
0.0
 11
54.99999999
 21
-12.05
 31
0.0
1001
GRPNAME
1000
PASTMD3Q
  0
LINE
  5
105F
330
A18
100
AcDbEntity
  8
241
100
AcDbLine
 10
54.97055901
 20
2.83633814
 30
0.0
 11
64.5
 21
1.15604058
 31
0.0
1001
GRPNAME
1000
PASTMD3Q
  0
LINE
  5
1060
330
A18
100
AcDbEntity
  8
241
100
AcDbLine
 10
54.97055901
 20
2.83633814
 30
0.0
 11
53.84602145
 21
0.53069447
 31
0.0
1001
GRPNAME
1000
PASTMD3Q
  0
LINE
  5
1061
330
A18
100
AcDbEntity
  8
240
  6
CONTINUOUS
100
AcDbLine
 10
64.5
 20
11.8
 30
0.0
 11
64.5
 21
1.15604058
 31
0.0
1001
GRPNAME
1000
PASTMD3Q
  0
LINE
  5
1062
330
A18
100
AcDbEntity
  8
241
100
AcDbLine
 10
53.89946266
 20
0.64026518
 30
0.0
 11
64.5
 21
-3.21801488
 31
0.0
1001
GRPNAME
1000
PASTMD3Q
  0
LINE
  5
1063
330
A18
100
AcDbEntity
  8
240
100
AcDbLine
 10
65.0
 20
-3.4
 30
0.0
 11
64.5
 21
-3.21801488
 31
0.0
1001
GRPNAME
1000
PASTMD3Q
  0
LINE
  5
1064
330
A18
100
AcDbEntity
  8
240
100
AcDbLine
 10
64.52154003
 20
1.15224249
 30
0.0
 11
65.0
 21
-3.4
 31
0.0
1001
GRPNAME
1000
PASTMD3Q
  0
LINE
  5
1065
330
A18
100
AcDbEntity
  8
240
100
AcDbLine
 10
64.52154003
 20
1.15224249
 30
0.0
 11
64.5
 21
1.15604058
 31
0.0
1001
GRPNAME
1000
PASTMD3Q
  0
LINE
  5
1066
330
A18
100
AcDbEntity
  8
240
  6
CONTINUOUS
100
AcDbLine
 10
64.5
 20
11.8
 30
0.0
 11
54.99999999
 21
12.05
 31
0.0
1001
GRPNAME
1000
PASTMD3Q
  0
LINE
  5
1067
330
A18
100
AcDbEntity
  8
246
100
AcDbLine
 10
56.0
 20
12.5
 30
0.0
 11
65.0
 21
12.5
 31
0.0
  0
LINE
  5
1068
330
A18
100
AcDbEntity
  8
240
  6
CONTINUOUS
100
AcDbLine
 10
54.45050452
 20
11.9
 30
0.0
 11
54.99999999
 21
12.05
 31
0.0
1001
GRPNAME
1000
PASTMD3Q
  0
LWPOLYLINE
  5
1069
330
A18
100
AcDbEntity
  8
241
  6
CONTINUOUS
100
AcDbPolyline
 90
       70
 70
     0
 43
0.0
 10
58.93306905
 20
7.95977473
 10
58.91661898
 20
7.85749977
 10
58.90326452
 20
7.75489732
 10
58.89303332
 20
7.65218002
 10
58.8859466
 20
7.54956075
 10
58.88201904
 20
7.44725217
 10
58.88125879
 20
7.34546632
 10
58.88366741
 20
7.24441413
 10
58.88923992
 20
7.14430505
 10
58.89796477
 20
7.04534653
 10
58.90982388
 20
6.94774367
 10
58.92479266
 20
6.85169874
 10
58.9428401
 20
6.75741078
 10
58.96392879
 20
6.66507521
 10
58.98801504
 20
6.57488338
 10
59.01504891
 20
6.48702222
 10
59.04497439
 20
6.40167381
 10
59.07772946
 20
6.31901502
 10
59.11324623
 20
6.23921717
 10
59.15145109
 20
6.16244564
 10
59.19226488
 20
6.08885952
 10
59.235603
 20
6.01861132
 10
59.28137564
 20
5.95184662
 10
59.32948794
 20
5.8887038
 10
59.37984019
 20
5.82931371
 10
59.43232803
 20
5.77379943
 10
59.48684269
 20
5.72227602
 10
59.54327119
 20
5.67485025
 10
59.60149659
 20
5.63162042
 10
59.66139821
 20
5.59267611
 10
59.72285191
 20
5.55809803
 10
59.78573033
 20
5.52795784
 10
59.84990316
 20
5.50231801
 10
59.91523741
 20
5.48123168
 10
59.98159768
 20
5.46474254
 10
60.04884643
 20
5.45288477
 10
60.1168443
 20
5.44568295
 10
60.18545036
 20
5.44315199
 10
60.25452243
 20
5.44529714
 10
60.32391738
 20
5.45211397
 10
60.39349136
 20
5.46358833
 10
60.46310021
 20
5.47969645
 10
60.53259966
 20
5.50040495
 10
60.60184567
 20
5.52567091
 10
60.67069474
 20
5.55544197
 10
60.73900418
 20
5.58965643
 10
60.80663242
 20
5.62824337
 10
60.87343931
 20
5.67112284
 10
60.9392864
 20
5.71820597
 10
61.00403721
 20
5.76939517
 10
61.06755756
 20
5.82458437
 10
61.1297158
 20
5.88365918
 10
61.19038312
 20
5.94649718
 10
61.24943378
 20
6.01296814
 10
61.30674541
 20
6.08293429
 10
61.36219923
 20
6.15625065
 10
61.41568032
 20
6.23276527
 10
61.46707783
 20
6.31231956
 10
61.51628526
 20
6.39474867
 10
61.56320062
 20
6.47988176
 10
61.60772668
 20
6.5675424
 10
61.64977116
 20
6.65754891
 10
61.68924693
 20
6.74971477
 10
61.72607217
 20
6.84384896
 10
61.76017058
 20
6.9397564
 10
61.79147148
 20
7.03723832
 10
61.81991
 20
7.13609269
 10
61.84542721
 20
7.23611466
 10
61.86797022
 20
7.33709692
 10
61.88749231
 20
7.4388302
1001
GRPNAME
1000
PASTMD3Q
  0
LWPOLYLINE
  5
106A
330
A18
100
AcDbEntity
  8
241
  6
CONTINUOUS
100
AcDbPolyline
 90
       70
 70
     0
 43
0.0
 10
61.88749231
 20
7.4388302
 10
61.89781979
 20
7.50637395
 10
61.90506431
 20
7.57431737
 10
61.90921086
 20
7.64251965
 10
61.91025085
 20
7.71083944
 10
61.9081821
 20
7.77913514
 10
61.90300893
 20
7.84726522
 10
61.89474204
 20
7.91508846
 10
61.88339857
 20
7.98246432
 10
61.86900203
 20
8.04925315
 10
61.85158225
 20
8.11531653
 10
61.83117535
 20
8.18051754
 10
61.8078236
 20
8.24472106
 10
61.78157541
 20
8.30779403
 10
61.75248518
 20
8.36960572
 10
61.7206132
 20
8.43002803
 10
61.68602552
 20
8.48893574
 10
61.64879383
 20
8.54620675
 10
61.60899528
 20
8.60172238
 10
61.56671236
 20
8.65536757
 10
61.5220327
 20
8.70703113
 10
61.47504891
 20
8.756606
 10
61.42585835
 20
8.80398943
 10
61.37456297
 20
8.84908322
 10
61.32126908
 20
8.89179392
 10
61.26608714
 20
8.93203299
 10
61.2091315
 20
8.96971706
 10
61.15052021
 20
9.00476801
 10
61.09037475
 20
9.03711321
 10
61.02881976
 20
9.06668562
 10
60.96598281
 20
9.09342395
 10
60.90199414
 20
9.11727279
 10
60.83698636
 20
9.1381827
 10
60.7710942
 20
9.15611035
 10
60.70445422
 20
9.1710186
 10
60.63720454
 20
9.18287653
 10
60.56948452
 20
9.19165958
 10
60.50143453
 20
9.19734954
 10
60.43319558
 20
9.19993462
 10
60.36490912
 20
9.19940946
 10
60.29671666
 20
9.19577515
 10
60.22875952
 20
9.18903922
 10
60.16117856
 20
9.17921564
 10
60.09411384
 20
9.16632476
 10
60.02770434
 20
9.15039329
 10
59.9620877
 20
9.13145427
 10
59.89739991
 20
9.10954693
 10
59.83377503
 20
9.08471668
 10
59.77134494
 20
9.05701498
 10
59.71023901
 20
9.02649924
 10
59.65058389
 20
8.99323271
 10
59.59250321
 20
8.95728434
 10
59.53611734
 20
8.91872862
 10
59.48154315
 20
8.87764546
 10
59.42889374
 20
8.83412
 10
59.37827822
 20
8.78824246
 10
59.32980151
 20
8.74010792
 10
59.28356405
 20
8.68981613
 10
59.23966169
 20
8.63747132
 10
59.19818541
 20
8.58318198
 10
59.15922117
 20
8.52706062
 10
59.12284973
 20
8.46922356
 10
59.08914645
 20
8.40979066
 10
59.0581812
 20
8.3488851
 10
59.03001815
 20
8.2866331
 10
59.00471566
 20
8.22316369
 10
58.98232618
 20
8.15860839
 10
58.96289611
 20
8.09310101
 10
58.94646571
 20
8.0267773
 10
58.93306905
 20
7.95977473
1001
GRPNAME
1000
PASTMD3Q
  0
ENDBLK
  5
A1A
330
A18
100
AcDbEntity
  8
0
100
AcDbBlockEnd
  0
ENDSEC
  0
SECTION
  2
ENTITIES
  0
INSERT
  5
6E6
330
1A
100
AcDbEntity
  8
245
100
AcDbBlockReference
  2
矢印なし
 10
175.62382697
 20
90.55123572
 30
0.0
  0
TEXT
  5
8A9
330
1A
100
AcDbEntity
  8
241
100
AcDbText
 10
-19.9
 20
49.0
 30
0.0
 40
5.0
  1
HSK-A40-FCM25093-65
  7
YOKO
 11
-19.9
 21
49.0
 31
0.0
100
AcDbText
 73
     1
  0
DIMENSION
  5
9A3
330
1A
100
AcDbEntity
  8
250
  6
CONTINUOUS
100
AcDbDimension
  2
*D2
 10
77.0
 20
12.5
 30
0.0
 11
74.6
 21
0.0
 31
0.0
 70
    32
  1
{\H2.8;\U+2205}<>
  3
BIGT
100
AcDbAlignedDimension
 13
65.0
 23
-12.5
 33
0.0
 14
65.0
 24
12.5
 34
0.0
 50
90.0
100
AcDbRotatedDimension
  0
DIMENSION
  5
9B2
330
1A
100
AcDbEntity
  8
250
  6
CONTINUOUS
100
AcDbDimension
  2
*D3
 10
65.0
 20
21.0
 30
0.0
 11
60.5
 21
23.4
 31
0.0
 70
    32
  3
BIGT
100
AcDbAlignedDimension
 13
56.0
 23
12.5
 33
0.0
 14
65.0
 24
12.5
 34
0.0
100
AcDbRotatedDimension
  0
DIMENSION
  5
9C1
330
1A
100
AcDbEntity
  8
250
  6
CONTINUOUS
100
AcDbDimension
  2
*D4
 10
65.0
 20
28.0
 30
0.0
 11
47.5
 21
30.4
 31
0.0
 70
    32
  3
BIGT
100
AcDbAlignedDimension
 13
30.0
 23
11.9
 33
0.0
 14
65.0
 24
12.5
 34
0.0
100
AcDbRotatedDimension
  0
DIMENSION
  5
9D0
330
1A
100
AcDbEntity
  8
250
  6
CONTINUOUS
100
AcDbDimension
  2
*D5
 10
65.0
 20
35.0
 30
0.0
 11
32.5
 21
37.4
 31
0.0
 70
    32
  3
BIGT
100
AcDbAlignedDimension
 13
0.0
 23
20.0
 33
0.0
 14
65.0
 24
12.5
 34
0.0
100
AcDbRotatedDimension
  0
LINE
  5
F73
330
1A
100
AcDbEntity
  8
250
  6
CONTINUOUS
100
AcDbLine
 10
-13.49544553
 20
-22.86001894
 30
0.0
 11
-37.7621122
 21
-22.86001894
 31
0.0
1001
ITEMNAME
1000
LNSP2
  0
MTEXT
  5
F74
330
1A
100
AcDbEntity
  8
251
  6
CONTINUOUS
100
AcDbMText
 10
-34.9621122
 20
-21.86001894
 30
0.0
 40
2.8
 41
0.0
 71
     7
 72
     1
  1
HSK-A40
  7
YOKO
1001
ITEMNAME
1000
LNSP3
1001
ACAD
1000
MTEXTBEGIN
1070
    73
1070
     1
1070
    44
1040
1.0
1070
    74
1070
     0
1000
MTEXTEND
1000
MTEXTBEGIN
1070
    73
1070
     1
1070
    44
1040
1.0
1070
    74
1070
     0
1000
MTEXTEND
1000
MTEXTBEGIN
1070
    73
1070
     1
1070
    44
1040
1.0
1070
    74
1070
     0
1000
MTEXTEND
1000
MTEXTBEGIN
1070
    73
1070
     1
1070
    44
1040
1.0
1070
    74
1070
     0
1000
MTEXTEND
1000
MTEXTBEGIN
1070
    73
1070
     1
1070
    44
1040
1.0
1070
    74
1070
     0
1000
MTEXTEND
1000
MTEXTBEGIN
1070
    73
1070
     1
1070
    44
1040
1.0
1070
    74
1070
     0
1000
MTEXTEND
1000
MTEXTBEGIN
1070
    73
1070
     1
1070
    44
1040
1.0
1070
    74
1070
     0
1000
MTEXTEND
  0
LEADER
  5
F76
330
1A
100
AcDbEntity
  8
250
  6
CONTINUOUS
100
AcDbLeader
  3
BIGT
 76
     2
 10
-8.8183672
 20
-14.75908164
 30
0.0
 10
-13.49544553
 20
-22.86001894
 30
0.0
1001
ACAD
1000
DSTYLE
1002
{
1070
     6
1000
OPEN
1070
   343
1005
594
1002
}
  0
INSERT
  5
106B
330
1A
100
AcDbEntity
  8
245
100
AcDbBlockReference
  2
1
 10
0.0
 20
0.0
 30
0.0
  0
VIEWPORT
  5
22
330
17
100
AcDbEntity
 67
     1
  8
0
100
AcDbViewport
 10
261.51769912
 20
148.5
 30
0.0
 40
523.03539823
 41
297.0
 68
     1
 69
     1
1001
ACAD
1000
MVIEW
1002
{
1070
    16
1010
0.0
1020
0.0
1030
0.0
1010
0.0
1020
0.0
1030
1.0
1040
0.0
1040
297.0
1040
261.51769912
1040
148.5
1040
50.0
1040
0.0
1040
0.0
1070
     0
1070
   100
1070
     1
1070
     1
1070
     0
1070
     0
1070
     0
1070
     0
1040
0.0
1040
0.0
1040
0.0
1040
1.0
1040
1.0
1040
10.0
1040
10.0
1070
     0
1002
{
1002
}
1002
}
  0
ENDSEC
  0
SECTION
  2
OBJECTS
  0
DICTIONARY
  5
C
330
0
100
AcDbDictionary
  3
ACAD_GROUP
350
D
  3
ACAD_LAYOUT
350
565
  3
ACAD_MLINESTYLE
350
E
  3
ACAD_PLOTSETTINGS
350
566
  3
ACAD_PLOTSTYLENAME
350
563
  3
ACDBHEADERROUNDTRIPXREC
350
10B7
  3
GRADE_DWG
350
540
  0
DICTIONARY
  5
AE2
330
1A
100
AcDbDictionary
280
     1
  3
ACAD_LAYOUTSELFREF
360
10D9
  0
DICTIONARY
  5
AE0
330
17
100
AcDbDictionary
280
     1
  3
ACAD_LAYOUTSELFREF
360
10D8
  0
DICTIONARY
  5
D
102
{ACAD_REACTORS
330
C
102
}
330
C
100
AcDbDictionary
  3
*A1
350
6C7
  3
*A2
350
6C8
  3
*A3
350
6D4
  3
*A4
350
6D5
  3
DREC-1
350
5FC
  3
DREC-2
350
654
  3
DREC-3
350
673
  0
DICTIONARY
  5
565
102
{ACAD_REACTORS
330
C
102
}
330
C
100
AcDbDictionary
  0
DICTIONARY
  5
E
102
{ACAD_REACTORS
330
C
102
}
330
C
100
AcDbDictionary
  3
STANDARD
350
13
  0
DICTIONARY
  5
566
102
{ACAD_REACTORS
330
C
102
}
330
C
100
AcDbDictionary
  3
A3_0_5倍_
350
758
  3
A3_1倍_
350
757
  3
A3_1倍__2000_
350
707
  3
A3_2倍_
350
759
  3
A4_0_5倍_
350
755
  3
A4_1倍_
350
754
  3
A4_1倍__2000_
350
708
  3
A4_2倍_
350
756
  0
ACDBDICTIONARYWDFLT
  5
563
102
{ACAD_REACTORS
330
C
102
}
330
C
100
AcDbDictionary
281
     1
  3
Normal
350
564
100
AcDbDictionaryWithDefault
340
564
  0
DICTIONARY
  5
10B7
102
{ACAD_REACTORS
330
C
102
}
330
C
100
AcDbDictionary
  3
CEPSNTYPE
350
10C1
  3
DIMSTYLEDATA
350
10C5
  3
FINGERPRINTGUID
350
10C2
  3
HYPERLINKBASE
350
10BA
  3
INSUNITS
350
10C0
  3
LAYOUTDICT
350
10BC
  3
LWETCUNION
350
10BF
  3
PLOTSETDICT
350
10BD
  3
PLOTSTYLNAMDICT
350
10BE
  3
PSVPSCALE
350
10C4
  3
PUCSBASE
350
10C8
  3
PUCSORGBACK
350
10CE
  3
PUCSORGBOTTOM
350
10CA
  3
PUCSORGFRONT
350
10CD
  3
PUCSORGLEFT
350
10CB
  3
PUCSORGRIGHT
350
10CC
  3
PUCSORGTOP
350
10C9
  3
PUCSORTHOREF
350
10C6
  3
PUCSORTHOVIEW
350
10C7
  3
STYLESHEET
350
10BB
  3
TSTACKALIGN
350
10B8
  3
TSTACKSIZE
350
10B9
  3
UCSBASE
350
10D1
  3
UCSORGBACK
350
10D7
  3
UCSORGBOTTOM
350
10D3
  3
UCSORGFRONT
350
10D6
  3
UCSORGLEFT
350
10D4
  3
UCSORGRIGHT
350
10D5
  3
UCSORGTOP
350
10D2
  3
UCSORTHOREF
350
10CF
  3
UCSORTHOVIEW
350
10D0
  3
VERSIONGUID
350
10C3
  0
DICTIONARY
  5
540
102
{ACAD_REACTORS
330
C
102
}
330
C
100
AcDbDictionary
  3
VERSION
350
560
  0
XRECORD
  5
10D9
102
{ACAD_REACTORS
330
AE2
102
}
330
AE2
100
AcDbXrecord
340
1A
  0
XRECORD
  5
10D8
102
{ACAD_REACTORS
330
AE0
102
}
330
AE0
100
AcDbXrecord
340
17
  0
GROUP
  5
6C7
102
{ACAD_REACTORS
330
D
102
}
330
D
100
AcDbGroup
300

 70
     0
 71
     1
1001
GRPNAME
1000
DMA00
  0
GROUP
  5
6C8
102
{ACAD_REACTORS
330
D
102
}
330
D
100
AcDbGroup
300

 70
     0
 71
     1
1001
GRPNAME
1000
DMA00
  0
GROUP
  5
6D4
102
{ACAD_REACTORS
330
D
102
}
330
D
100
AcDbGroup
300

 70
     0
 71
     1
1001
GRPNAME
1000
DMA00
  0
GROUP
  5
6D5
102
{ACAD_REACTORS
330
D
102
}
330
D
100
AcDbGroup
300

 70
     0
 71
     1
1001
GRPNAME
1000
DMA00
  0
GROUP
  5
5FC
102
{ACAD_REACTORS
330
D
102
}
330
D
100
AcDbGroup
300

 70
     0
 71
     1
1001
GRPNAME
1000
DREC-
1001
GPARA
1000
xsiz
1000
44.182
1000
ysiz
1000
40.677
1000
angl
1000
0
1000
ctyp
1000
0
1000
csiz
1000
5
1000
lfnt
1000
cont
1000
hcnt
1000
hoff
1000
vcnt
1000
voff
1000
opnt
1000
4
1000
dxpt
1000
0
1000
dypt
1000
0
  0
GROUP
  5
654
102
{ACAD_REACTORS
330
D
102
}
330
D
100
AcDbGroup
300

 70
     0
 71
     1
1001
GRPNAME
1000
DREC-
1001
GPARA
1000
xsiz
1000
54.592
1000
ysiz
1000
53.036
1000
angl
1000
0
1000
ctyp
1000
0
1000
csiz
1000
5
1000
lfnt
1000
cont
1000
hcnt
1000
hoff
1000
vcnt
1000
voff
1000
opnt
1000
4
1000
dxpt
1000
0
1000
dypt
1000
0
  0
GROUP
  5
673
102
{ACAD_REACTORS
330
D
102
}
330
D
100
AcDbGroup
300

 70
     0
 71
     1
1001
GRPNAME
1000
DREC-
1001
GPARA
1000
xsiz
1000
30.363
1000
ysiz
1000
36.175
1000
angl
1000
0
1000
ctyp
1000
0
1000
csiz
1000
5
1000
lfnt
1000
cont
1000
hcnt
1000
hoff
1000
vcnt
1000
voff
1000
opnt
1000
4
1000
dxpt
1000
0
1000
dypt
1000
0
  0
MLINESTYLE
  5
13
102
{ACAD_REACTORS
330
E
102
}
330
E
100
AcDbMlineStyle
  2
STANDARD
 70
     0
  3

 62
     0
 51
90.0
 52
90.0
 71
     2
 49
0.5
 62
   256
  6
BYLAYER
 49
-0.5
 62
   256
  6
BYLAYER
  0
PLOTSETTINGS
  5
758
102
{ACAD_REACTORS
330
566
102
}
330
566
100
AcDbPlotSettings
  1
A3(0.5倍)
  2
\\AWTECPC05\HP DeskJet 1120C
  4
A3
  6

 40
5.95841646
 41
13.49375153
 42
6.04309082
 43
3.67242432
 44
296.92599487
 45
419.94665527
 46
89.96
 47
127.14
 48
0.0
 49
0.0
140
0.0
141
0.0
142
1.0
143
2.0
 70
  1716
 72
     1
 73
     1
 74
     2
  7
big.ctb
 75
    17
147
0.5
148
0.0
149
0.0
  0
PLOTSETTINGS
  5
757
102
{ACAD_REACTORS
330
566
102
}
330
566
100
AcDbPlotSettings
  1
A3(1倍)
  2
\\AWTECPC05\HP DeskJet 1120C
  4
A3
  6

 40
5.95841646
 41
13.49375153
 42
6.04309082
 43
3.67242432
 44
296.92599487
 45
419.94665527
 46
37.46
 47
52.89
 48
0.0
 49
0.0
140
0.0
141
0.0
142
1.0
143
1.0
 70
  1716
 72
     1
 73
     1
 74
     2
  7
big.ctb
 75
    16
147
1.0
148
0.0
149
0.0
  0
PLOTSETTINGS
  5
707
102
{ACAD_REACTORS
330
566
102
}
330
566
100
AcDbPlotSettings
  1
A3(1倍)(2000)
  2
SII LS-1300 (D-SCAN)
  4
User258
  6

 40
3.17499995
 41
3.17499995
 42
3.17498779
 43
3.17498779
 44
419.98898315
 45
296.98950195
 46
58.32
 47
40.32
 48
0.0
 49
0.0
140
0.0
141
0.0
142
1.0
143
1.0
 70
  1716
 72
     1
 73
     0
 74
     2
  7
big.ctb
 75
    16
147
1.0
148
0.0
149
0.0
  0
PLOTSETTINGS
  5
759
102
{ACAD_REACTORS
330
566
102
}
330
566
100
AcDbPlotSettings
  1
A3(2倍)
  2
\\AWTECPC05\HP DeskJet 1120C
  4
A3
  6

 40
5.95841646
 41
13.49375153
 42
6.04309082
 43
3.67242432
 44
296.92599487
 45
419.94665527
 46
-67.54
 47
-95.61
 48
0.0
 49
0.0
140
0.0
141
0.0
142
1.0
143
0.5
 70
  1716
 72
     1
 73
     1
 74
     2
  7
big.ctb
 75
    27
147
2.0
148
0.0
149
0.0
  0
PLOTSETTINGS
  5
755
102
{ACAD_REACTORS
330
566
102
}
330
566
100
AcDbPlotSettings
  1
A4(0.5倍)
  2
\\AWTECPC05\HP DeskJet 1120C
  4
A4
  6

 40
4.18041658
 41
13.49374962
 42
4.18040466
 43
3.92642212
 44
209.97332764
 45
296.92599487
 46
48.31
 47
65.5
 48
0.0
 49
0.0
140
0.0
141
0.0
142
1.0
143
2.0
 70
  1716
 72
     1
 73
     1
 74
     2
  7
big.ctb
 75
    17
147
0.5
148
0.0
149
0.0
  0
PLOTSETTINGS
  5
754
102
{ACAD_REACTORS
330
566
102
}
330
566
100
AcDbPlotSettings
  1
A4(1倍)
  2
\\AWTECPC05\HP DeskJet 1120C
  4
A4
  6

 40
4.18041658
 41
13.49374962
 42
4.18040466
 43
3.92642212
 44
209.97332764
 45
296.92599487
 46
-4.19
 47
-8.75
 48
0.0
 49
0.0
140
0.0
141
0.0
142
1.0
143
1.0
 70
  1716
 72
     1
 73
     1
 74
     2
  7
big.ctb
 75
    16
147
1.0
148
0.0
149
0.0
  0
PLOTSETTINGS
  5
708
102
{ACAD_REACTORS
330
566
102
}
330
566
100
AcDbPlotSettings
  1
A4(1倍)(2000)
  2
SII LS-1300 (D-SCAN)
  4
User259
  6

 40
3.17499995
 41
3.17499995
 42
3.17498779
 43
3.17500305
 44
296.98950195
 45
209.99449158
 46
-3.18
 47
-3.18
 48
0.0
 49
0.0
140
0.0
141
0.0
142
1.0
143
1.0
 70
  1716
 72
     1
 73
     0
 74
     2
  7
big.ctb
 75
    16
147
1.0
148
0.0
149
0.0
  0
PLOTSETTINGS
  5
756
102
{ACAD_REACTORS
330
566
102
}
330
566
100
AcDbPlotSettings
  1
A4(2倍)
  2
\\AWTECPC05\HP DeskJet 1120C
  4
A4
  6

 40
4.18041658
 41
13.49374962
 42
4.18040466
 43
3.92642212
 44
209.97332764
 45
296.92599487
 46
-109.19
 47
-157.25
 48
0.0
 49
0.0
140
0.0
141
0.0
142
1.0
143
0.5
 70
  1716
 72
     1
 73
     1
 74
     2
  7
big.ctb
 75
    27
147
2.0
148
0.0
149
0.0
  0
ACDBPLACEHOLDER
  5
564
102
{ACAD_REACTORS
330
563
102
}
330
563
100
AcDbPlaceHolder
280
     0
  0
XRECORD
  5
10C1
102
{ACAD_REACTORS
330
10B7
102
}
330
10B7
100
AcDbXrecord
 90
        0
  0
XRECORD
  5
10C5
102
{ACAD_REACTORS
330
10B7
102
}
330
10B7
100
AcDbXrecord
1000
DSTYLE
1002
{
1070
    79
 70
     2
1070
   179
 70
     3
1070
   341
340
594
1070
   343
340
594
1070
   344
340
594
1070
   371
 70
    -1
1070
   372
 70
    -1
1002
}
  0
XRECORD
  5
10C2
102
{ACAD_REACTORS
330
10B7
102
}
330
10B7
100
AcDbXrecord
  1
{51294030-9CB4-11D3-8E18-00A0C925D94D}
  0
XRECORD
  5
10BA
102
{ACAD_REACTORS
330
10B7
102
}
330
10B7
100
AcDbXrecord
  1

  0
XRECORD
  5
10C0
102
{ACAD_REACTORS
330
10B7
102
}
330
10B7
100
AcDbXrecord
 90
        0
  0
XRECORD
  5
10BC
102
{ACAD_REACTORS
330
10B7
102
}
330
10B7
100
AcDbXrecord
340
565
  0
XRECORD
  5
10BF
102
{ACAD_REACTORS
330
10B7
102
}
330
10B7
100
AcDbXrecord
 90
    10781
  0
XRECORD
  5
10BD
102
{ACAD_REACTORS
330
10B7
102
}
330
10B7
100
AcDbXrecord
340
566
  0
XRECORD
  5
10BE
102
{ACAD_REACTORS
330
10B7
102
}
330
10B7
100
AcDbXrecord
340
563
  0
XRECORD
  5
10C4
102
{ACAD_REACTORS
330
10B7
102
}
330
10B7
100
AcDbXrecord
 40
0.0
  0
XRECORD
  5
10C8
102
{ACAD_REACTORS
330
10B7
102
}
330
10B7
100
AcDbXrecord
340
0
  0
XRECORD
  5
10CE
102
{ACAD_REACTORS
330
10B7
102
}
330
10B7
100
AcDbXrecord
 10
0.0
 20
0.0
 30
0.0
  0
XRECORD
  5
10CA
102
{ACAD_REACTORS
330
10B7
102
}
330
10B7
100
AcDbXrecord
 10
0.0
 20
0.0
 30
0.0
  0
XRECORD
  5
10CD
102
{ACAD_REACTORS
330
10B7
102
}
330
10B7
100
AcDbXrecord
 10
0.0
 20
0.0
 30
0.0
  0
XRECORD
  5
10CB
102
{ACAD_REACTORS
330
10B7
102
}
330
10B7
100
AcDbXrecord
 10
0.0
 20
0.0
 30
0.0
  0
XRECORD
  5
10CC
102
{ACAD_REACTORS
330
10B7
102
}
330
10B7
100
AcDbXrecord
 10
0.0
 20
0.0
 30
0.0
  0
XRECORD
  5
10C9
102
{ACAD_REACTORS
330
10B7
102
}
330
10B7
100
AcDbXrecord
 10
0.0
 20
0.0
 30
0.0
  0
XRECORD
  5
10C6
102
{ACAD_REACTORS
330
10B7
102
}
330
10B7
100
AcDbXrecord
340
0
  0
XRECORD
  5
10C7
102
{ACAD_REACTORS
330
10B7
102
}
330
10B7
100
AcDbXrecord
 70
     0
  0
XRECORD
  5
10BB
102
{ACAD_REACTORS
330
10B7
102
}
330
10B7
100
AcDbXrecord
  1
big.ctb
  0
XRECORD
  5
10B8
102
{ACAD_REACTORS
330
10B7
102
}
330
10B7
100
AcDbXrecord
 90
        1
  0
XRECORD
  5
10B9
102
{ACAD_REACTORS
330
10B7
102
}
330
10B7
100
AcDbXrecord
 90
       70
  0
XRECORD
  5
10D1
102
{ACAD_REACTORS
330
10B7
102
}
330
10B7
100
AcDbXrecord
340
0
  0
XRECORD
  5
10D7
102
{ACAD_REACTORS
330
10B7
102
}
330
10B7
100
AcDbXrecord
 10
0.0
 20
0.0
 30
0.0
  0
XRECORD
  5
10D3
102
{ACAD_REACTORS
330
10B7
102
}
330
10B7
100
AcDbXrecord
 10
0.0
 20
0.0
 30
0.0
  0
XRECORD
  5
10D6
102
{ACAD_REACTORS
330
10B7
102
}
330
10B7
100
AcDbXrecord
 10
0.0
 20
0.0
 30
0.0
  0
XRECORD
  5
10D4
102
{ACAD_REACTORS
330
10B7
102
}
330
10B7
100
AcDbXrecord
 10
0.0
 20
0.0
 30
0.0
  0
XRECORD
  5
10D5
102
{ACAD_REACTORS
330
10B7
102
}
330
10B7
100
AcDbXrecord
 10
0.0
 20
0.0
 30
0.0
  0
XRECORD
  5
10D2
102
{ACAD_REACTORS
330
10B7
102
}
330
10B7
100
AcDbXrecord
 10
0.0
 20
0.0
 30
0.0
  0
XRECORD
  5
10CF
102
{ACAD_REACTORS
330
10B7
102
}
330
10B7
100
AcDbXrecord
340
0
  0
XRECORD
  5
10D0
102
{ACAD_REACTORS
330
10B7
102
}
330
10B7
100
AcDbXrecord
 70
     0
  0
XRECORD
  5
10C3
102
{ACAD_REACTORS
330
10B7
102
}
330
10B7
100
AcDbXrecord
  1
{1EFF955E-3AE3-4F64-AFFF-E6C8751D2C05}
  0
XRECORD
  5
560
102
{ACAD_REACTORS
330
540
102
}
330
540
100
AcDbXrecord
  1
2.0.0
  0
ENDSEC
  0
EOF
