  0
SECTION
  2
HEADER
  9
$ACADVER
  1
AC1014
  9
$ACADMAINTVER
 70
     9
  9
$DWGCODEPAGE
  3
ANSI_932
  9
$INSBASE
 10
0.0
 20
0.0
 30
0.0
  9
$EXTMIN
 10
-37.76729807
 20
-22.8601197
 30
-0.00152582
  9
$EXTMAX
 10
78.02503127
 20
54.00180404
 30
0.00000003
  9
$LIMMIN
 10
0.0
 20
0.0
  9
$LIMMAX
 10
420.0
 20
297.0
  9
$ORTHOMODE
 70
     0
  9
$REGENMODE
 70
     1
  9
$FILLMODE
 70
     1
  9
$QTEXTMODE
 70
     0
  9
$MIRRTEXT
 70
     1
  9
$DRAGMODE
 70
     2
  9
$LTSCALE
 40
10.0
  9
$OSMODE
 70
   549
  9
$ATTMODE
 70
     1
  9
$TEXTSIZE
 40
3.0
  9
$TRACEWID
 40
1.0
  9
$TEXTSTYLE
  7
YOKO
  9
$CLAYER
  8
245
  9
$CELTYPE
  6
BYLAYER
  9
$CECOLOR
 62
   256
  9
$CELTSCALE
 40
1.0
  9
$DELOBJ
 70
     1
  9
$DISPSILH
 70
     0
  9
$DIMSCALE
 40
1.0
  9
$DIMASZ
 40
2.0
  9
$DIMEXO
 40
2.0
  9
$DIMDLI
 40
2.5
  9
$DIMRND
 40
0.0
  9
$DIMDLE
 40
0.0
  9
$DIMEXE
 40
2.0
  9
$DIMTP
 40
0.0
  9
$DIMTM
 40
0.0
  9
$DIMTXT
 40
4.0
  9
$DIMCEN
 40
0.0
  9
$DIMTSZ
 40
0.0
  9
$DIMTOL
 70
     0
  9
$DIMLIM
 70
     0
  9
$DIMTIH
 70
     0
  9
$DIMTOH
 70
     0
  9
$DIMSE1
 70
     0
  9
$DIMSE2
 70
     0
  9
$DIMTAD
 70
     3
  9
$DIMZIN
 70
     8
  9
$DIMBLK
  1

  9
$DIMASO
 70
     1
  9
$DIMSHO
 70
     1
  9
$DIMPOST
  1

  9
$DIMAPOST
  1

  9
$DIMALT
 70
     0
  9
$DIMALTD
 70
     2
  9
$DIMALTF
 40
25.4
  9
$DIMLFAC
 40
1.0
  9
$DIMTOFL
 70
     1
  9
$DIMTVP
 40
0.0
  9
$DIMTIX
 70
     1
  9
$DIMSOXD
 70
     0
  9
$DIMSAH
 70
     1
  9
$DIMBLK1
  1
OPEN
  9
$DIMBLK2
  1
OPEN
  9
$DIMSTYLE
  2
BIGT
  9
$DIMCLRD
 70
   256
  9
$DIMCLRE
 70
   256
  9
$DIMCLRT
 70
    40
  9
$DIMTFAC
 40
1.0
  9
$DIMGAP
 40
1.0
  9
$DIMJUST
 70
     0
  9
$DIMSD1
 70
     0
  9
$DIMSD2
 70
     0
  9
$DIMTOLJ
 70
     1
  9
$DIMTZIN
 70
     8
  9
$DIMALTZ
 70
     0
  9
$DIMALTTZ
 70
     0
  9
$DIMFIT
 70
     3
  9
$DIMUPT
 70
     0
  9
$DIMUNIT
 70
     2
  9
$DIMDEC
 70
     3
  9
$DIMTDEC
 70
     3
  9
$DIMALTU
 70
     2
  9
$DIMALTTD
 70
     2
  9
$DIMTXSTY
  7
STANDARD
  9
$DIMAUNIT
 70
     0
  9
$LUNITS
 70
     2
  9
$LUPREC
 70
     3
  9
$SKETCHINC
 40
1.0
  9
$FILLETRAD
 40
1.0
  9
$AUNITS
 70
     0
  9
$AUPREC
 70
     3
  9
$MENU
  1
.
  9
$ELEVATION
 40
0.0
  9
$PELEVATION
 40
0.0
  9
$THICKNESS
 40
0.0
  9
$LIMCHECK
 70
     0
  9
$BLIPMODE
 70
     0
  9
$CHAMFERA
 40
10.0
  9
$CHAMFERB
 40
10.0
  9
$CHAMFERC
 40
0.0
  9
$CHAMFERD
 40
0.0
  9
$SKPOLY
 70
     0
  9
$TDCREATE
 40
2455141.552058009
  9
$TDUPDATE
 40
2455371.685689560
  9
$TDINDWG
 40
0.0119759259
  9
$TDUSRTIMER
 40
0.0119755556
  9
$USRTIMER
 70
     1
  9
$ANGBASE
 50
0.0
  9
$ANGDIR
 70
     0
  9
$PDMODE
 70
     1
  9
$PDSIZE
 40
-5.0
  9
$PLINEWID
 40
0.0
  9
$COORDS
 70
     0
  9
$SPLFRAME
 70
     0
  9
$SPLINETYPE
 70
     6
  9
$SPLINESEGS
 70
     8
  9
$ATTDIA
 70
     0
  9
$ATTREQ
 70
     1
  9
$HANDLING
 70
-16383
  9
$HANDSEED
  5
1345
  9
$SURFTAB1
 70
     6
  9
$SURFTAB2
 70
     6
  9
$SURFTYPE
 70
     6
  9
$SURFU
 70
     6
  9
$SURFV
 70
     6
  9
$UCSNAME
  2

  9
$UCSORG
 10
0.0
 20
0.0
 30
0.0
  9
$UCSXDIR
 10
1.0
 20
0.0
 30
0.0
  9
$UCSYDIR
 10
0.0
 20
1.0
 30
0.0
  9
$PUCSNAME
  2

  9
$PUCSORG
 10
0.0
 20
0.0
 30
0.0
  9
$PUCSXDIR
 10
1.0
 20
0.0
 30
0.0
  9
$PUCSYDIR
 10
0.0
 20
1.0
 30
0.0
  9
$USERI1
 70
     1
  9
$USERI2
 70
     0
  9
$USERI3
 70
     0
  9
$USERI4
 70
     0
  9
$USERI5
 70
     0
  9
$USERR1
 40
0.0
  9
$USERR2
 40
0.0
  9
$USERR3
 40
0.0
  9
$USERR4
 40
0.0
  9
$USERR5
 40
0.0
  9
$WORLDVIEW
 70
     1
  9
$SHADEDGE
 70
     3
  9
$SHADEDIF
 70
    70
  9
$TILEMODE
 70
     1
  9
$MAXACTVP
 70
    16
  9
$PINSBASE
 10
0.0
 20
0.0
 30
0.0
  9
$PLIMCHECK
 70
     0
  9
$PEXTMIN
 10
1.00000000E+20
 20
1.00000000E+20
 30
1.00000000E+20
  9
$PEXTMAX
 10
-1.00000000E+20
 20
-1.00000000E+20
 30
-1.00000000E+20
  9
$PLIMMIN
 10
0.0
 20
0.0
  9
$PLIMMAX
 10
420.0
 20
297.0
  9
$UNITMODE
 70
     0
  9
$VISRETAIN
 70
     0
  9
$PLINEGEN
 70
     0
  9
$PSLTSCALE
 70
     1
  9
$TREEDEPTH
 70
  3020
  9
$PICKSTYLE
 70
     0
  9
$CMLSTYLE
  2
STANDARD
  9
$CMLJUST
 70
     0
  9
$CMLSCALE
 40
1.0
  9
$PROXYGRAPHICS
 70
     1
  9
$MEASUREMENT
 70
     1
  0
ENDSEC
  0
SECTION
  2
CLASSES
  0
CLASS
  1
XRECORD
  2
AcDbXrecord
  3
AutoCAD 2000
 90
        0
280
     0
281
     0
  0
CLASS
  1
ACDBDICTIONARYWDFLT
  2
AcDbDictionaryWithDefault
  3
AutoCAD 2000
 90
        0
280
     0
281
     0
  0
CLASS
  1
ACDBPLACEHOLDER
  2
AcDbPlaceHolder
  3
AutoCAD 2000
 90
        0
280
     0
281
     0
  0
CLASS
  1
LAYOUT
  2
AcDbLayout
  3
AutoCAD 2000
 90
        0
280
     0
281
     0
  0
CLASS
  1
PLOTSETTINGS
  2
AcDbPlotSettings
  3
AutoCAD 2000
 90
        0
280
     0
281
     0
  0
CLASS
  1
LONG_TRANSACTION
  2
AcDbLongTransaction
  3
AutoCAD 2000
 90
        0
280
     0
281
     0
  0
CLASS
  1
LWPOLYLINE
  2
AcDbPolyline
  3
AutoCAD 2000
 90
        0
280
     0
281
     1
  0
CLASS
  1
HATCH
  2
AcDbHatch
  3
AutoCAD 2000
 90
        0
280
     0
281
     1
  0
CLASS
  1
XRECORD
  2
AcDbXrecord
  3
AutoCAD 2000
 90
        0
280
     0
281
     0
  0
CLASS
  1
LONG_TRANSACTION
  2
AcDbLongTransaction
  3
AutoCAD 2000
 90
        0
280
     0
281
     0
  0
CLASS
  1
LWPOLYLINE
  2
AcDbPolyline
  3
AutoCAD 2000
 90
        0
280
     0
281
     1
  0
CLASS
  1
HATCH
  2
AcDbHatch
  3
AutoCAD 2000
 90
        0
280
     0
281
     1
  0
CLASS
  1
XRECORD
  2
AcDbXrecord
  3
AutoCAD 2000
 90
        0
280
     0
281
     0
  0
CLASS
  1
LONG_TRANSACTION
  2
AcDbLongTransaction
  3
AutoCAD 2000
 90
        0
280
     0
281
     0
  0
CLASS
  1
LWPOLYLINE
  2
AcDbPolyline
  3
AutoCAD 2000
 90
        0
280
     0
281
     1
  0
CLASS
  1
HATCH
  2
AcDbHatch
  3
AutoCAD 2000
 90
        0
280
     0
281
     1
  0
CLASS
  1
XRECORD
  2
AcDbXrecord
  3
AutoCAD 2000
 90
        0
280
     0
281
     0
  0
ENDSEC
  0
SECTION
  2
TABLES
  0
TABLE
  2
VPORT
  5
8
330
0
100
AcDbSymbolTable
 70
     2
  0
VPORT
  5
1320
330
8
100
AcDbSymbolTableRecord
100
AcDbViewportTableRecord
  2
*ACTIVE
 70
     0
 10
0.0
 20
0.0
 11
1.0
 21
1.0
 12
20.1288666
 22
15.57084217
 13
0.0
 23
0.0
 14
7.0
 24
7.0
 15
7.0
 25
7.0
 16
0.0
 26
0.0
 36
1.0
 17
0.0
 27
0.0
 37
0.0
 40
79.95395082
 41
1.45595855
 42
50.0
 43
0.0
 44
0.0
 50
0.0
 51
0.0
 71
     0
 72
  2000
 73
     1
 74
     0
 75
     0
 76
     0
 77
     0
 78
     0
  0
ENDTAB
  0
TABLE
  2
LTYPE
  5
5
330
0
100
AcDbSymbolTable
 70
     4
  0
LTYPE
  5
14
330
5
100
AcDbSymbolTableRecord
100
AcDbLinetypeTableRecord
  2
BYBLOCK
 70
     0
  3

 72
    65
 73
     0
 40
0.0
  0
LTYPE
  5
15
330
5
100
AcDbSymbolTableRecord
100
AcDbLinetypeTableRecord
  2
BYLAYER
 70
     0
  3

 72
    65
 73
     0
 40
0.0
  0
LTYPE
  5
16
330
5
100
AcDbSymbolTableRecord
100
AcDbLinetypeTableRecord
  2
CONTINUOUS
 70
     0
  3
Solid line
 72
    65
 73
     0
 40
0.0
  0
LTYPE
  5
258
330
5
100
AcDbSymbolTableRecord
100
AcDbLinetypeTableRecord
  2
CENTER2
 70
     0
  3
___ _ ___ _ ___ _ ___ _ ___ _ ___ _ ___ _ ___ _
 72
    65
 73
     4
 40
1.125
 49
0.75
 74
     0
 49
-0.125
 74
     0
 49
0.125
 74
     0
 49
-0.125
 74
     0
  0
LTYPE
  5
25C
330
5
100
AcDbSymbolTableRecord
100
AcDbLinetypeTableRecord
  2
HIDDEN2
 70
     0
  3
_ _ _ _ _ _ _ _ _ _ _ _ _ _ _ _ _ _ _ _ _ _ _ _
 72
    65
 73
     2
 40
0.1875
 49
0.125
 74
     0
 49
-0.0625
 74
     0
  0
LTYPE
  5
25D
330
5
100
AcDbSymbolTableRecord
100
AcDbLinetypeTableRecord
  2
PHANTOM2
 70
     0
  3
___ _ _ ___ _ _ ___ _ _ ___ _ _ ___ _ _ ___ _ _
 72
    65
 73
     6
 40
1.25
 49
0.625
 74
     0
 49
-0.125
 74
     0
 49
0.125
 74
     0
 49
-0.125
 74
     0
 49
0.125
 74
     0
 49
-0.125
 74
     0
  0
ENDTAB
  0
TABLE
  2
LAYER
  5
2
330
0
100
AcDbSymbolTable
 70
    12
  0
LAYER
  5
F
330
2
100
AcDbSymbolTableRecord
100
AcDbLayerTableRecord
  2
0
 70
     0
 62
     7
  6
CONTINUOUS
  0
LAYER
  5
1AA
330
2
100
AcDbSymbolTableRecord
100
AcDbLayerTableRecord
  2
240
 70
     0
 62
     4
  6
CONTINUOUS
  0
LAYER
  5
1AB
330
2
100
AcDbSymbolTableRecord
100
AcDbLayerTableRecord
  2
241
 70
     0
 62
   211
  6
CONTINUOUS
  0
LAYER
  5
1AC
330
2
100
AcDbSymbolTableRecord
100
AcDbLayerTableRecord
  2
242
 70
     0
 62
     3
  6
CONTINUOUS
  0
LAYER
  5
1AF
330
2
100
AcDbSymbolTableRecord
100
AcDbLayerTableRecord
  2
245
 70
     0
 62
     2
  6
CENTER2
  0
LAYER
  5
21A
330
2
100
AcDbSymbolTableRecord
100
AcDbLayerTableRecord
  2
246
 70
     0
 62
     3
  6
PHANTOM2
  0
LAYER
  5
21E
330
2
100
AcDbSymbolTableRecord
100
AcDbLayerTableRecord
  2
250
 70
     0
 62
     3
  6
CONTINUOUS
  0
LAYER
  5
21F
330
2
100
AcDbSymbolTableRecord
100
AcDbLayerTableRecord
  2
251
 70
     0
 62
    40
  6
CONTINUOUS
  0
LAYER
  5
5C4
330
2
100
AcDbSymbolTableRecord
100
AcDbLayerTableRecord
  2
DEFPOINTS
 70
     0
 62
     7
  6
CONTINUOUS
  0
ENDTAB
  0
TABLE
  2
STYLE
  5
3
330
0
100
AcDbSymbolTable
 70
     2
  0
STYLE
  5
10
330
3
100
AcDbSymbolTableRecord
100
AcDbTextStyleTableRecord
  2
STANDARD
 70
     0
 40
0.0
 41
1.0
 50
0.0
 71
     0
 42
3.0
  3
romans.shx
  4
BIGFONT.SHX
  0
STYLE
  5
339
330
3
100
AcDbSymbolTableRecord
100
AcDbTextStyleTableRecord
  2
YOKO
 70
     0
 40
0.0
 41
1.0
 50
0.0
 71
     0
 42
3.0
  3
romans.shx
  4
extfont.shx
  0
ENDTAB
  0
TABLE
  2
VIEW
  5
6
330
0
100
AcDbSymbolTable
 70
     0
  0
ENDTAB
  0
TABLE
  2
UCS
  5
7
330
0
100
AcDbSymbolTable
 70
     0
  0
ENDTAB
  0
TABLE
  2
APPID
  5
9
330
0
100
AcDbSymbolTable
 70
    12
  0
APPID
  5
11
330
9
100
AcDbSymbolTableRecord
100
AcDbRegAppTableRecord
  2
ACAD
 70
     0
  0
APPID
  5
1B1
330
9
100
AcDbSymbolTableRecord
100
AcDbRegAppTableRecord
  2
GLOBAL
 70
     0
  0
APPID
  5
2A4
330
9
100
AcDbSymbolTableRecord
100
AcDbRegAppTableRecord
  2
DETAIL
 70
     0
  0
APPID
  5
5FD
330
9
100
AcDbSymbolTableRecord
100
AcDbRegAppTableRecord
  2
GRPNAME
 70
     0
  0
APPID
  5
5FE
330
9
100
AcDbSymbolTableRecord
100
AcDbRegAppTableRecord
  2
GPARA
 70
     0
  0
APPID
  5
6C4
330
9
100
AcDbSymbolTableRecord
100
AcDbRegAppTableRecord
  2
DCO15
 70
     0
  0
APPID
  5
6C5
330
9
100
AcDbSymbolTableRecord
100
AcDbRegAppTableRecord
  2
ITEMNAME
 70
     0
  0
APPID
  5
6C6
330
9
100
AcDbSymbolTableRecord
100
AcDbRegAppTableRecord
  2
GRADE_0
 70
     0
  0
APPID
  5
992
330
9
100
AcDbSymbolTableRecord
100
AcDbRegAppTableRecord
  2
HATCH_TYPE
 70
     0
  0
APPID
  5
993
330
9
100
AcDbSymbolTableRecord
100
AcDbRegAppTableRecord
  2
HATCH_DISPLAY
 70
     0
  0
APPID
  5
994
330
9
100
AcDbSymbolTableRecord
100
AcDbRegAppTableRecord
  2
HATCH_DISTANCE
 70
     0
  0
APPID
  5
DF7
330
9
100
AcDbSymbolTableRecord
100
AcDbRegAppTableRecord
  2
CONTENTBLOCKICON
 70
     0
  0
ENDTAB
  0
TABLE
  2
DIMSTYLE
  5
A
330
0
100
AcDbSymbolTable
 70
     4
  0
DIMSTYLE
105
725
102
{ACAD_REACTORS
330
C24
330
C33
330
C42
330
C51
102
}
330
A
100
AcDbSymbolTableRecord
100
AcDbDimStyleTableRecord
  2
BIGT
 70
     0
  3

  4

  5

  6
OPEN
  7
OPEN
 40
1.0
 41
2.23
 42
0.5
 43
2.5
 44
1.0
 45
0.0
 46
0.0
 47
0.0
 48
0.0
140
2.8
141
0.0
142
0.0
143
25.4
144
1.0
145
0.0
146
1.0
147
1.0
 71
     0
 72
     0
 73
     0
 74
     0
 75
     0
 76
     0
 77
     3
 78
     8
170
     0
171
     2
172
     1
173
     1
174
     1
175
     0
176
   256
177
   256
178
    40
270
     2
271
     3
272
     3
273
     2
274
     2
340
10
275
     0
280
     0
281
     0
282
     0
283
     1
284
     8
285
     0
286
     0
287
     3
288
     0
  0
ENDTAB
  0
TABLE
  2
BLOCK_RECORD
  5
1
330
0
100
AcDbSymbolTable
 70
    11
  0
BLOCK_RECORD
  5
1A
102
{ACAD_XDICTIONARY
360
DF5
102
}
330
1
100
AcDbSymbolTableRecord
100
AcDbBlockTableRecord
  2
*MODEL_SPACE
  0
BLOCK_RECORD
  5
17
102
{ACAD_XDICTIONARY
360
DF3
102
}
330
1
100
AcDbSymbolTableRecord
100
AcDbBlockTableRecord
  2
*PAPER_SPACE
  0
BLOCK_RECORD
  5
594
330
1
100
AcDbSymbolTableRecord
100
AcDbBlockTableRecord
  2
_OPEN
  0
BLOCK_RECORD
  5
6E3
330
1
100
AcDbSymbolTableRecord
100
AcDbBlockTableRecord
  2
矢印なし
  0
BLOCK_RECORD
  5
C25
330
1
100
AcDbSymbolTableRecord
100
AcDbBlockTableRecord
  2
*D2
  0
BLOCK_RECORD
  5
C34
330
1
100
AcDbSymbolTableRecord
100
AcDbBlockTableRecord
  2
*D3
  0
BLOCK_RECORD
  5
C43
330
1
100
AcDbSymbolTableRecord
100
AcDbBlockTableRecord
  2
*D4
  0
BLOCK_RECORD
  5
C52
330
1
100
AcDbSymbolTableRecord
100
AcDbBlockTableRecord
  2
*D5
  0
BLOCK_RECORD
  5
CA3
330
1
100
AcDbSymbolTableRecord
100
AcDbBlockTableRecord
  2
1
1001
CONTENTBLOCKICON
1071
        0
1004
2800000020000000200000000100080000000000000400000000000000000000000000000000000000000000000080000080000000808000800000008000800080800000C0C0C000C0DCC000F0CAA6000020400000206000002080000020A0000020C0000020E00000400000004020000040400000406000004080000040A0
1004
000040C0000040E00000600000006020000060400000606000006080000060A0000060C0000060E00000800000008020000080400000806000008080000080A0000080C0000080E00000A0000000A0200000A0400000A0600000A0800000A0A00000A0C00000A0E00000C0000000C0200000C0400000C0600000C0800000C0
1004
A00000C0C00000C0E00000E0000000E0200000E0400000E0600000E0800000E0A00000E0C00000E0E00040000000400020004000400040006000400080004000A0004000C0004000E00040200000402020004020400040206000402080004020A0004020C0004020E000404000004040200040404000404060004040800040
1004
40A0004040C0004040E00040600000406020004060400040606000406080004060A0004060C0004060E00040800000408020004080400040806000408080004080A0004080C0004080E00040A0000040A0200040A0400040A0600040A0800040A0A00040A0C00040A0E00040C0000040C0200040C0400040C0600040C08000
1004
40C0A00040C0C00040C0E00040E0000040E0200040E0400040E0600040E0800040E0A00040E0C00040E0E00080000000800020008000400080006000800080008000A0008000C0008000E00080200000802020008020400080206000802080008020A0008020C0008020E00080400000804020008040400080406000804080
1004
008040A0008040C0008040E00080600000806020008060400080606000806080008060A0008060C0008060E00080800000808020008080400080806000808080008080A0008080C0008080E00080A0000080A0200080A0400080A0600080A0800080A0A00080A0C00080A0E00080C0000080C0200080C0400080C0600080C0
1004
800080C0A00080C0C00080C0E00080E0000080E0200080E0400080E0600080E0800080E0A00080E0C00080E0E000C0000000C0002000C0004000C0006000C0008000C000A000C000C000C000E000C0200000C0202000C0204000C0206000C0208000C020A000C020C000C020E000C0400000C0402000C0404000C0406000C0
1004
408000C040A000C040C000C040E000C0600000C0602000C0604000C0606000C0608000C060A000C060C000C060E000C0800000C0802000C0804000C0806000C0808000C080A000C080C000C080E000C0A00000C0A02000C0A04000C0A06000C0A08000C0A0A000C0A0C000C0A0E000C0C00000C0C02000C0C04000C0C06000
1004
C0C08000C0C0A000F0FBFF00A4A0A000808080000000FF0000FF000000FFFF00FF000000FF00FF00FFFF0000FFFFFF0000000000000000000000000000000000000000000000000000000000000000000000000000000000000000000000000000000000000000000000000000000000000000000000000000000000000000
1004
00000000000000000000000000000000000000000000000000000000000000000000000000000000000000000000000000000000000000000000000000000000000000000000000000000000000000000000000000000000000000000000000000000000000000000000000000000000000000000000000000000000000000
1004
000000000000000000000000000000000000000000000000000000000000000000000000000000000000000000000000000000000000000000000000000000000000000000000000000000000000000000000000000000000000FEFEFEFEFEE7FEFE000000000000000000000000000000000000000000000000FE0000E7E7
1004
FEE7FE0000000000000000000000000000000000FEFEFEFEFEFEFEFE0000E700E7E7FEFEFE000000000000000000000000000000FE0000000000E7E7000000E7E7E7E7E7E7FEFEFEFEFEFEFEFEFEFAFAFE000000FE0000000000E7E700000000FBE7E700E700E700000000000000E7E7FE000000FEFEE70000FBE7E70000E7
1004
E7E7E7E700E700E7000000E7E7E7E70000FE0000000000E700E7E7E7E70000E700FB00E700E700E7000000E7000000E7E7FE000000FBFBE7FBE7E7E7E7FBFBE7FBFBFBE7FBE7FBE7FBFBFBFBE7E7E7E7E7FEFB0000FEFEE70000FBE7E70000E7E7E7E7E700E700E700000000000000E7E7FA000000FE0000000000E7E70000
1004
0000E7E7E700E700E700000000000000E7E7FA000000FE0000000000E7E700000000E7E7E700FEFEFEFEFEFEFEFEFEFEFAFAFA000000FEFEFEFEFEFEFEFE00000000E7E7E700FE00000000000000000000000000000000000000000000FE00000000FEFEFEFEFE00000000000000000000000000000000000000000000FEFE
1004
FEFEFEFEFEFE00000000000000000000000000000000000000000000000000000000000000000000000000000000000000000000000000000000000000000000000000000000000000000000000000000000000000000000000000000000000000000000000000000000000000000000000000000000000000000000000000
1004
00000000000000000000000000000000000000000000000000000000000000000000000000000000000000000000000000000000000000000000000000000000000000000000000000000000000000000000000000000000000000000000000000000000000000000000000000000000000000000000000000000000000000
1004
0000000000000000000000000000000000000000000000000000000000000000000000000000000000000000000000000000000000000000
  0
ENDTAB
  0
ENDSEC
  0
SECTION
  2
BLOCKS
  0
BLOCK
  5
1B
330
1A
100
AcDbEntity
  8
0
100
AcDbBlockBegin
  2
*MODEL_SPACE
 70
     0
 10
0.0
 20
0.0
 30
0.0
  3
*MODEL_SPACE
  1

  0
ENDBLK
  5
1C
330
1A
100
AcDbEntity
  8
0
100
AcDbBlockEnd
  0
BLOCK
  5
18
330
17
100
AcDbEntity
 67
     1
  8
0
100
AcDbBlockBegin
  2
*PAPER_SPACE
 70
     0
 10
0.0
 20
0.0
 30
0.0
  3
*PAPER_SPACE
  1

  0
ENDBLK
  5
19
330
17
100
AcDbEntity
 67
     1
  8
0
100
AcDbBlockEnd
  0
BLOCK
  5
598
330
594
100
AcDbEntity
  8
0
100
AcDbBlockBegin
  2
_OPEN
 70
     0
 10
0.0
 20
0.0
 30
0.0
  3
_OPEN
  1

  0
LINE
  5
595
330
594
100
AcDbEntity
  8
0
  6
BYBLOCK
 62
     0
100
AcDbLine
 10
-1.0
 20
0.16666667
 30
0.0
 11
0.0
 21
0.0
 31
0.0
  0
LINE
  5
596
330
594
100
AcDbEntity
  8
0
  6
BYBLOCK
 62
     0
100
AcDbLine
 10
-1.0
 20
-0.16666667
 30
0.0
 11
0.0
 21
0.0
 31
0.0
  0
LINE
  5
597
330
594
100
AcDbEntity
  8
0
  6
BYBLOCK
 62
     0
100
AcDbLine
 10
0.0
 20
0.0
 30
0.0
 11
-1.0
 21
0.0
 31
0.0
  0
ENDBLK
  5
599
330
594
100
AcDbEntity
  8
0
100
AcDbBlockEnd
  0
BLOCK
  5
6E4
330
6E3
100
AcDbEntity
  8
0
100
AcDbBlockBegin
  2
矢印なし
 70
     0
 10
0.0
 20
0.0
 30
0.0
  3
矢印なし
  1

  0
ENDBLK
  5
6E5
330
6E3
100
AcDbEntity
  8
0
100
AcDbBlockEnd
  0
BLOCK
  5
C2F
330
C25
100
AcDbEntity
  8
0
100
AcDbBlockBegin
  2
*D2
 70
     1
 10
0.0
 20
0.0
 30
0.0
  3
*D2
  1

  0
LINE
  5
C91
330
C25
100
AcDbEntity
  8
250
  6
CONTINUOUS
100
AcDbLine
 10
65.5
 20
-10.0
 30
0.0
 11
78.0
 21
-10.0
 31
0.0
  0
LINE
  5
C92
330
C25
100
AcDbEntity
  8
250
  6
CONTINUOUS
100
AcDbLine
 10
65.5
 20
10.0
 30
0.0
 11
78.0
 21
10.0
 31
0.0
  0
LINE
  5
C93
330
C25
100
AcDbEntity
  8
250
  6
CONTINUOUS
100
AcDbLine
 10
77.0
 20
-7.77
 30
0.0
 11
77.0
 21
7.77
 31
0.0
  0
INSERT
  5
C94
330
C25
100
AcDbEntity
  8
250
  6
CONTINUOUS
100
AcDbBlockReference
  2
_OPEN
 10
77.0
 20
-10.0
 30
0.0
 41
2.23
 42
2.23
 43
2.23
 50
270.0
  0
INSERT
  5
C95
330
C25
100
AcDbEntity
  8
250
  6
CONTINUOUS
100
AcDbBlockReference
  2
_OPEN
 10
77.0
 20
10.0
 30
0.0
 41
2.23
 42
2.23
 43
2.23
 50
90.0
  0
MTEXT
  5
C96
330
C25
100
AcDbEntity
  8
250
  6
CONTINUOUS
 62
    40
100
AcDbMText
 10
74.6
 20
0.0
 30
0.0
 40
2.8
 41
0.0
 71
     5
 72
     1
  1
\A1;{\H2.8;\U+2205}20
 11
0.0
 21
1.0
 31
0.0
1001
ACAD
1000
MTEXTBEGIN
1070
    73
1070
     1
1070
    44
1040
1.0
1070
    74
1070
     0
1000
MTEXTEND
1000
MTEXTBEGIN
1070
    73
1070
     1
1070
    44
1040
1.0
1070
    74
1070
     0
1000
MTEXTEND
1000
MTEXTBEGIN
1070
    73
1070
     1
1070
    44
1040
1.0
1070
    74
1070
     0
1000
MTEXTEND
  0
POINT
  5
C97
330
C25
100
AcDbEntity
  8
DEFPOINTS
  6
CONTINUOUS
 62
     0
100
AcDbPoint
 10
65.0
 20
-10.0
 30
0.0
  0
POINT
  5
C98
330
C25
100
AcDbEntity
  8
DEFPOINTS
  6
CONTINUOUS
 62
     0
100
AcDbPoint
 10
65.0
 20
10.0
 30
0.0
  0
POINT
  5
C99
330
C25
100
AcDbEntity
  8
DEFPOINTS
  6
CONTINUOUS
 62
     0
100
AcDbPoint
 10
77.0
 20
10.0
 30
0.0
  0
ENDBLK
  5
C30
330
C25
100
AcDbEntity
  8
0
100
AcDbBlockEnd
  0
BLOCK
  5
C3E
330
C34
100
AcDbEntity
  8
0
100
AcDbBlockBegin
  2
*D3
 70
     1
 10
0.0
 20
0.0
 30
0.0
  3
*D3
  1

  0
LINE
  5
C9A
330
C34
100
AcDbEntity
  8
250
  6
CONTINUOUS
100
AcDbLine
 10
56.0
 20
10.5
 30
0.0
 11
56.0
 21
22.0
 31
0.0
  0
LINE
  5
C9B
330
C34
100
AcDbEntity
  8
250
  6
CONTINUOUS
100
AcDbLine
 10
65.0
 20
10.5
 30
0.0
 11
65.0
 21
22.0
 31
0.0
  0
LINE
  5
C9C
330
C34
100
AcDbEntity
  8
250
  6
CONTINUOUS
100
AcDbLine
 10
58.23
 20
21.0
 30
0.0
 11
62.77
 21
21.0
 31
0.0
  0
INSERT
  5
C9D
330
C34
100
AcDbEntity
  8
250
  6
CONTINUOUS
100
AcDbBlockReference
  2
_OPEN
 10
56.0
 20
21.0
 30
0.0
 41
2.23
 42
2.23
 43
2.23
 50
180.0
  0
INSERT
  5
C9E
330
C34
100
AcDbEntity
  8
250
  6
CONTINUOUS
100
AcDbBlockReference
  2
_OPEN
 10
65.0
 20
21.0
 30
0.0
 41
2.23
 42
2.23
 43
2.23
  0
MTEXT
  5
C9F
330
C34
100
AcDbEntity
  8
250
  6
CONTINUOUS
 62
    40
100
AcDbMText
 10
60.5
 20
23.4
 30
0.0
 40
2.8
 41
0.0
 71
     5
 72
     1
  1
\A1;9
1001
ACAD
1000
MTEXTBEGIN
1070
    73
1070
     1
1070
    44
1040
1.0
1070
    74
1070
     0
1000
MTEXTEND
1000
MTEXTBEGIN
1070
    73
1070
     1
1070
    44
1040
1.0
1070
    74
1070
     0
1000
MTEXTEND
1000
MTEXTBEGIN
1070
    73
1070
     1
1070
    44
1040
1.0
1070
    74
1070
     0
1000
MTEXTEND
  0
POINT
  5
CA0
330
C34
100
AcDbEntity
  8
DEFPOINTS
  6
CONTINUOUS
 62
     0
100
AcDbPoint
 10
56.0
 20
10.0
 30
0.0
  0
POINT
  5
CA1
330
C34
100
AcDbEntity
  8
DEFPOINTS
  6
CONTINUOUS
 62
     0
100
AcDbPoint
 10
65.0
 20
10.0
 30
0.0
  0
POINT
  5
CA2
330
C34
100
AcDbEntity
  8
DEFPOINTS
  6
CONTINUOUS
 62
     0
100
AcDbPoint
 10
65.0
 20
21.0
 30
0.0
  0
ENDBLK
  5
C3F
330
C34
100
AcDbEntity
  8
0
100
AcDbBlockEnd
  0
BLOCK
  5
C4D
330
C43
100
AcDbEntity
  8
0
100
AcDbBlockBegin
  2
*D4
 70
     1
 10
0.0
 20
0.0
 30
0.0
  3
*D4
  1

  0
LINE
  5
C7F
330
C43
100
AcDbEntity
  8
250
  6
CONTINUOUS
100
AcDbLine
 10
37.0
 20
9.9
 30
0.0
 11
37.0
 21
29.0
 31
0.0
  0
LINE
  5
C80
330
C43
100
AcDbEntity
  8
250
  6
CONTINUOUS
100
AcDbLine
 10
65.0
 20
10.5
 30
0.0
 11
65.0
 21
29.0
 31
0.0
  0
LINE
  5
C81
330
C43
100
AcDbEntity
  8
250
  6
CONTINUOUS
100
AcDbLine
 10
39.23
 20
28.0
 30
0.0
 11
62.77
 21
28.0
 31
0.0
  0
INSERT
  5
C82
330
C43
100
AcDbEntity
  8
250
  6
CONTINUOUS
100
AcDbBlockReference
  2
_OPEN
 10
37.0
 20
28.0
 30
0.0
 41
2.23
 42
2.23
 43
2.23
 50
180.0
  0
INSERT
  5
C83
330
C43
100
AcDbEntity
  8
250
  6
CONTINUOUS
100
AcDbBlockReference
  2
_OPEN
 10
65.0
 20
28.0
 30
0.0
 41
2.23
 42
2.23
 43
2.23
  0
MTEXT
  5
C84
330
C43
100
AcDbEntity
  8
250
  6
CONTINUOUS
 62
    40
100
AcDbMText
 10
51.0
 20
30.4
 30
0.0
 40
2.8
 41
0.0
 71
     5
 72
     1
  1
\A1;28
1001
ACAD
1000
MTEXTBEGIN
1070
    73
1070
     1
1070
    44
1040
1.0
1070
    74
1070
     0
1000
MTEXTEND
1000
MTEXTBEGIN
1070
    73
1070
     1
1070
    44
1040
1.0
1070
    74
1070
     0
1000
MTEXTEND
1000
MTEXTBEGIN
1070
    73
1070
     1
1070
    44
1040
1.0
1070
    74
1070
     0
1000
MTEXTEND
  0
POINT
  5
C85
330
C43
100
AcDbEntity
  8
DEFPOINTS
  6
CONTINUOUS
 62
     0
100
AcDbPoint
 10
37.0
 20
9.4
 30
0.0
  0
POINT
  5
C86
330
C43
100
AcDbEntity
  8
DEFPOINTS
  6
CONTINUOUS
 62
     0
100
AcDbPoint
 10
65.0
 20
10.0
 30
0.0
  0
POINT
  5
C87
330
C43
100
AcDbEntity
  8
DEFPOINTS
  6
CONTINUOUS
 62
     0
100
AcDbPoint
 10
65.0
 20
28.0
 30
0.0
  0
ENDBLK
  5
C4E
330
C43
100
AcDbEntity
  8
0
100
AcDbBlockEnd
  0
BLOCK
  5
C5C
330
C52
100
AcDbEntity
  8
0
100
AcDbBlockBegin
  2
*D5
 70
     1
 10
0.0
 20
0.0
 30
0.0
  3
*D5
  1

  0
LINE
  5
C88
330
C52
100
AcDbEntity
  8
250
  6
CONTINUOUS
100
AcDbLine
 10
0.0
 20
20.0
 30
0.0
 11
0.0
 21
36.0
 31
0.0
  0
LINE
  5
C89
330
C52
100
AcDbEntity
  8
250
  6
CONTINUOUS
100
AcDbLine
 10
65.0
 20
10.5
 30
0.0
 11
65.0
 21
36.0
 31
0.0
  0
LINE
  5
C8A
330
C52
100
AcDbEntity
  8
250
  6
CONTINUOUS
100
AcDbLine
 10
2.23
 20
35.0
 30
0.0
 11
62.77
 21
35.0
 31
0.0
  0
INSERT
  5
C8B
330
C52
100
AcDbEntity
  8
250
  6
CONTINUOUS
100
AcDbBlockReference
  2
_OPEN
 10
0.0
 20
35.0
 30
0.0
 41
2.23
 42
2.23
 43
2.23
 50
180.0
  0
INSERT
  5
C8C
330
C52
100
AcDbEntity
  8
250
  6
CONTINUOUS
100
AcDbBlockReference
  2
_OPEN
 10
65.0
 20
35.0
 30
0.0
 41
2.23
 42
2.23
 43
2.23
  0
MTEXT
  5
C8D
330
C52
100
AcDbEntity
  8
250
  6
CONTINUOUS
 62
    40
100
AcDbMText
 10
32.5
 20
37.4
 30
0.0
 40
2.8
 41
0.0
 71
     5
 72
     1
  1
\A1;65
1001
ACAD
1000
MTEXTBEGIN
1070
    73
1070
     1
1070
    44
1040
1.0
1070
    74
1070
     0
1000
MTEXTEND
1000
MTEXTBEGIN
1070
    73
1070
     1
1070
    44
1040
1.0
1070
    74
1070
     0
1000
MTEXTEND
1000
MTEXTBEGIN
1070
    73
1070
     1
1070
    44
1040
1.0
1070
    74
1070
     0
1000
MTEXTEND
  0
POINT
  5
C8E
330
C52
100
AcDbEntity
  8
DEFPOINTS
  6
CONTINUOUS
 62
     0
100
AcDbPoint
 10
0.0
 20
19.5
 30
0.0
  0
POINT
  5
C8F
330
C52
100
AcDbEntity
  8
DEFPOINTS
  6
CONTINUOUS
 62
     0
100
AcDbPoint
 10
65.0
 20
10.0
 30
0.0
  0
POINT
  5
C90
330
C52
100
AcDbEntity
  8
DEFPOINTS
  6
CONTINUOUS
 62
     0
100
AcDbPoint
 10
65.0
 20
35.0
 30
0.0
  0
ENDBLK
  5
C5D
330
C52
100
AcDbEntity
  8
0
100
AcDbBlockEnd
  0
BLOCK
  5
CA4
330
CA3
100
AcDbEntity
  8
0
100
AcDbBlockBegin
  2
1
 70
     0
 10
0.0
 20
0.0
 30
0.0
  3
1
  1

  0
LINE
  5
1223
330
CA3
100
AcDbEntity
  8
240
  6
CONTINUOUS
100
AcDbLine
 10
54.45050452
 20
9.4
 30
0.0
 11
36.02537543
 21
9.4
 31
0.0
1001
GRPNAME
1000
PASTMD3N
  0
LINE
  5
1224
330
CA3
100
AcDbEntity
  8
240
  6
CONTINUOUS
100
AcDbLine
 10
54.45050452
 20
-9.4
 30
0.0
 11
36.02537543
 21
-9.4
 31
0.0
1001
GRPNAME
1000
PASTMD3N
  0
ARC
  5
1225
330
CA3
100
AcDbEntity
  8
241
  6
CONTINUOUS
100
AcDbCircle
 10
49.651024
 20
-1.95412882
 30
0.0
 40
3.15102400470845
100
AcDbArc
 50
79.99999993
 51
253.30689544
1001
GRPNAME
1000
PASTMD3N
  0
LINE
  5
1226
330
CA3
100
AcDbEntity
  8
241
  6
CONTINUOUS
100
AcDbLine
 10
64.5
 20
-8.70998451
 30
0.0
 11
48.74590826
 21
-4.97235972
 31
0.0
1001
GRPNAME
1000
PASTMD3N
  0
LINE
  5
1227
330
CA3
100
AcDbEntity
  8
245
100
AcDbLine
 10
-19.9
 20
0.0
 30
0.0
 11
66.0
 21
0.0
 31
0.0
  0
LINE
  5
1228
330
CA3
100
AcDbEntity
  8
241
100
AcDbLine
 10
27.5
 20
-12.5
 30
0.0
 11
27.5
 21
0.0
 31
0.0
  0
LINE
  5
1229
330
CA3
100
AcDbEntity
  8
242
  6
CONTINUOUS
100
AcDbLine
 10
27.5
 20
-14.40612084
 30
0.0
 11
20.49999991
 21
-10.89685973
 31
0.0
  0
LINE
  5
122A
330
CA3
100
AcDbEntity
  8
241
  6
CONTINUOUS
100
AcDbLine
 10
20.5
 20
-14.40612084
 30
0.0
 11
20.5
 21
-10.89685973
 31
0.0
  0
LINE
  5
122B
330
CA3
100
AcDbEntity
  8
242
  6
CONTINUOUS
100
AcDbLine
 10
27.5
 20
-10.89685973
 30
0.0
 11
20.5
 21
-14.40612084
 31
0.0
  0
LINE
  5
122C
330
CA3
100
AcDbEntity
  8
241
  6
CONTINUOUS
100
AcDbLine
 10
18.02072594
 20
-12.0
 30
0.0
 11
18.02072594
 21
-4.5
 31
0.0
1001
GRPNAME
1000
PASTMD0J
  0
LINE
  5
122D
330
CA3
100
AcDbEntity
  8
241
  6
CONTINUOUS
100
AcDbLine
 10
13.97927406
 20
-12.0
 30
0.0
 11
13.97927406
 21
-4.5
 31
0.0
1001
GRPNAME
1000
PASTMD0J
  0
LINE
  5
122E
330
CA3
100
AcDbEntity
  8
241
  6
CONTINUOUS
100
AcDbLine
 10
17.0
 20
-4.5
 30
0.0
 11
17.0
 21
-12.0
 31
0.0
1001
GRPNAME
1000
PASTMD0J
  0
LINE
  5
122F
330
CA3
100
AcDbEntity
  8
241
  6
CONTINUOUS
100
AcDbLine
 10
15.0
 20
-4.5
 30
0.0
 11
15.0
 21
-12.0
 31
0.0
1001
GRPNAME
1000
PASTMD0J
  0
LINE
  5
1230
330
CA3
100
AcDbEntity
  8
240
  6
CONTINUOUS
100
AcDbLine
 10
-20.0
 20
-13.43900062
 30
0.0
 11
-20.0
 21
-4.825
 31
0.0
1001
GRPNAME
1000
PASTMD0J
  0
LINE
  5
1231
330
CA3
100
AcDbEntity
  8
241
100
AcDbLine
 10
-2.0
 20
-15.1
 30
0.0
 11
-2.0
 21
0.0
 31
0.0
  0
LINE
  5
1232
330
CA3
100
AcDbEntity
  8
245
  6
CENTER2
100
AcDbLine
 10
16.0
 20
-20.0
 30
0.0
 11
16.0
 21
20.0
 31
0.0
1001
GRPNAME
1000
PASTMD0J
  0
LINE
  5
1233
330
CA3
100
AcDbEntity
  8
241
  6
CONTINUOUS
100
AcDbLine
 10
0.0
 20
-15.1
 30
0.0
 11
0.0
 21
0.0
 31
0.0
1001
GRPNAME
1000
PASTMD0J
  0
LINE
  5
1234
330
CA3
100
AcDbEntity
  8
241
100
AcDbLine
 10
20.0
 20
-16.8
 30
0.0
 11
20.0
 21
0.0
 31
0.0
  0
ARC
  5
1235
330
CA3
100
AcDbEntity
  8
240
100
AcDbCircle
 10
40.53442442
 20
-38.88508346
 30
0.0
 40
30.0
100
AcDbArc
 50
103.02948522
 51
114.51806659
  0
LINE
  5
1236
330
CA3
100
AcDbEntity
  8
240
  6
CONTINUOUS
100
AcDbLine
 10
15.0
 20
-18.23205081
 30
0.0
 11
13.97927406
 21
-20.0
 31
0.0
1001
GRPNAME
1000
PASTMD0J
  0
LINE
  5
1237
330
CA3
100
AcDbEntity
  8
241
  6
CONTINUOUS
100
AcDbLine
 10
15.0
 20
-13.72616759
 30
0.0
 11
13.97927406
 21
-16.0
 31
0.0
1001
GRPNAME
1000
PASTMD0J
  0
LINE
  5
1238
330
CA3
100
AcDbEntity
  8
241
  6
CONTINUOUS
100
AcDbLine
 10
12.47213595
 20
-12.0
 30
0.0
 11
20.0
 21
-12.0
 31
0.0
1001
GRPNAME
1000
PASTMD0J
  0
LINE
  5
1239
330
CA3
100
AcDbEntity
  8
240
  6
CONTINUOUS
100
AcDbLine
 10
-2.0
 20
-15.1
 30
0.0
 11
-19.23995009
 21
-14.2380025
 31
0.0
1001
GRPNAME
1000
PASTMD0J
  0
ARC
  5
123A
330
CA3
100
AcDbEntity
  8
240
  6
CONTINUOUS
100
AcDbCircle
 10
-19.2
 20
-13.43900062
 30
0.0
 40
0.8000000000000111
100
AcDbArc
 50
179.99999999
 51
267.13759477
1001
GRPNAME
1000
PASTMD0J
  0
LINE
  5
123B
330
CA3
100
AcDbEntity
  8
240
  6
CONTINUOUS
100
AcDbLine
 10
0.0
 20
-20.0
 30
0.0
 11
13.97927406
 21
-20.0
 31
0.0
1001
GRPNAME
1000
PASTMD0J
  0
LINE
  5
123C
330
CA3
100
AcDbEntity
  8
240
  6
CONTINUOUS
100
AcDbLine
 10
0.0
 20
-20.0
 30
0.0
 11
0.0
 21
-15.1
 31
0.0
1001
GRPNAME
1000
PASTMD0J
  0
LINE
  5
123D
330
CA3
100
AcDbEntity
  8
240
100
AcDbLine
 10
-2.0
 20
-15.1
 30
0.0
 11
0.0
 21
-15.1
 31
0.0
  0
LINE
  5
123E
330
CA3
100
AcDbEntity
  8
241
  6
CONTINUOUS
100
AcDbLine
 10
13.97927406
 20
-20.0
 30
0.0
 11
13.97927406
 21
-16.0
 31
0.0
1001
GRPNAME
1000
PASTMD0J
  0
LINE
  5
123F
330
CA3
100
AcDbEntity
  8
241
  6
CONTINUOUS
100
AcDbLine
 10
8.0
 20
-16.0
 30
0.0
 11
13.97927406
 21
-16.0
 31
0.0
1001
GRPNAME
1000
PASTMD0J
  0
ARC
  5
1240
330
CA3
100
AcDbEntity
  8
241
  6
CONTINUOUS
100
AcDbCircle
 10
12.47213595
 20
-16.5
 30
0.0
 40
4.5
100
AcDbArc
 50
90.0
 51
173.62062979
1001
GRPNAME
1000
PASTMD0J
  0
LINE
  5
1241
330
CA3
100
AcDbEntity
  8
240
  6
CONTINUOUS
100
AcDbLine
 10
20.5
 20
-14.40612084
 30
0.0
 11
27.5
 21
-14.40612084
 31
0.0
  0
LINE
  5
1242
330
CA3
100
AcDbEntity
  8
241
  6
CONTINUOUS
100
AcDbLine
 10
18.02072594
 20
-20.0
 30
0.0
 11
18.02072594
 21
-16.0
 31
0.0
1001
GRPNAME
1000
PASTMD0J
  0
LINE
  5
1243
330
CA3
100
AcDbEntity
  8
241
  6
CONTINUOUS
100
AcDbLine
 10
15.0
 20
-12.6
 30
0.0
 11
15.0
 21
-17.4
 31
0.0
1001
GRPNAME
1000
PASTMD0J
  0
LINE
  5
1244
330
CA3
100
AcDbEntity
  8
241
  6
CONTINUOUS
100
AcDbLine
 10
17.0
 20
-12.6
 30
0.0
 11
17.0
 21
-17.4
 31
0.0
1001
GRPNAME
1000
PASTMD0J
  0
LINE
  5
1245
330
CA3
100
AcDbEntity
  8
240
  6
CONTINUOUS
100
AcDbLine
 10
20.0
 20
-16.8
 30
0.0
 11
20.0
 21
-20.0
 31
0.0
1001
GRPNAME
1000
PASTMD0J
  0
LINE
  5
1246
330
CA3
100
AcDbEntity
  8
240
  6
CONTINUOUS
100
AcDbLine
 10
18.02072594
 20
-20.0
 30
0.0
 11
20.0
 21
-20.0
 31
0.0
1001
GRPNAME
1000
PASTMD0J
  0
LINE
  5
1247
330
CA3
100
AcDbEntity
  8
240
  6
CONTINUOUS
100
AcDbLine
 10
17.0
 20
-18.23205081
 30
0.0
 11
18.02072594
 21
-20.0
 31
0.0
1001
GRPNAME
1000
PASTMD0J
  0
LINE
  5
1248
330
CA3
100
AcDbEntity
  8
240
  6
CONTINUOUS
100
AcDbLine
 10
15.0
 20
-17.4
 30
0.0
 11
15.0
 21
-18.23205081
 31
0.0
1001
GRPNAME
1000
PASTMD0J
  0
LINE
  5
1249
330
CA3
100
AcDbEntity
  8
240
  6
CONTINUOUS
100
AcDbLine
 10
15.0
 20
-17.4
 30
0.0
 11
17.0
 21
-17.4
 31
0.0
1001
GRPNAME
1000
PASTMD0J
  0
LINE
  5
124A
330
CA3
100
AcDbEntity
  8
240
  6
CONTINUOUS
100
AcDbLine
 10
17.0
 20
-18.23205081
 30
0.0
 11
17.0
 21
-17.4
 31
0.0
1001
GRPNAME
1000
PASTMD0J
  0
LINE
  5
124B
330
CA3
100
AcDbEntity
  8
241
  6
CONTINUOUS
100
AcDbLine
 10
18.02072594
 20
-16.0
 30
0.0
 11
20.0
 21
-16.0
 31
0.0
1001
GRPNAME
1000
PASTMD0J
  0
LINE
  5
124C
330
CA3
100
AcDbEntity
  8
241
  6
CONTINUOUS
100
AcDbLine
 10
15.0
 20
-12.6
 30
0.0
 11
17.0
 21
-12.6
 31
0.0
1001
GRPNAME
1000
PASTMD0J
  0
LINE
  5
124D
330
CA3
100
AcDbEntity
  8
241
  6
CONTINUOUS
100
AcDbLine
 10
18.02072594
 20
-16.0
 30
0.0
 11
17.0
 21
-13.72616759
 31
0.0
1001
GRPNAME
1000
PASTMD0J
  0
LINE
  5
124E
330
CA3
100
AcDbEntity
  8
240
  6
CONTINUOUS
100
AcDbLine
 10
20.5
 20
-16.8
 30
0.0
 11
20.5
 21
-14.40612084
 31
0.0
  0
LINE
  5
124F
330
CA3
100
AcDbEntity
  8
240
  6
CONTINUOUS
100
AcDbLine
 10
20.0
 20
-16.8
 30
0.0
 11
20.5
 21
-16.8
 31
0.0
  0
ARC
  5
1250
330
CA3
100
AcDbEntity
  8
240
100
AcDbCircle
 10
28.5
 20
-12.5
 30
0.0
 40
1.0
100
AcDbArc
 50
114.51806659
 51
180.0
  0
LINE
  5
1251
330
CA3
100
AcDbEntity
  8
240
100
AcDbLine
 10
27.5
 20
-14.40612084
 30
0.0
 11
27.5
 21
-12.5
 31
0.0
  0
LINE
  5
1252
330
CA3
100
AcDbEntity
  8
240
  6
CONTINUOUS
100
AcDbLine
 10
15.0
 20
18.23205081
 30
0.0
 11
13.97927406
 21
20.0
 31
0.0
1001
GRPNAME
1000
PASTMD0J
  0
LINE
  5
1253
330
CA3
100
AcDbEntity
  8
241
  6
CONTINUOUS
100
AcDbLine
 10
12.5
 20
-4.5
 30
0.0
 11
20.0
 21
-4.5
 31
0.0
1001
GRPNAME
1000
PASTMD0J
  0
LINE
  5
1254
330
CA3
100
AcDbEntity
  8
241
  6
CONTINUOUS
100
AcDbLine
 10
12.5
 20
4.5
 30
0.0
 11
20.0
 21
4.5
 31
0.0
1001
GRPNAME
1000
PASTMD0J
  0
LINE
  5
1255
330
CA3
100
AcDbEntity
  8
241
100
AcDbLine
 10
-2.0
 20
15.1
 30
0.0
 11
-2.0
 21
0.0
 31
0.0
  0
LINE
  5
1256
330
CA3
100
AcDbEntity
  8
241
  6
CONTINUOUS
100
AcDbLine
 10
0.0
 20
15.1
 30
0.0
 11
0.0
 21
0.0
 31
0.0
1001
GRPNAME
1000
PASTMD0J
  0
ARC
  5
1257
330
CA3
100
AcDbEntity
  8
240
  6
CONTINUOUS
100
AcDbCircle
 10
-19.2
 20
13.43900062
 30
0.0
 40
0.8000000000000191
100
AcDbArc
 50
92.86240523
 51
180.0
1001
GRPNAME
1000
PASTMD0J
  0
LINE
  5
1258
330
CA3
100
AcDbEntity
  8
241
  6
CONTINUOUS
100
AcDbLine
 10
13.97927406
 20
4.5
 30
0.0
 11
13.97927406
 21
20.0
 31
0.0
1001
GRPNAME
1000
PASTMD0J
  0
LINE
  5
1259
330
CA3
100
AcDbEntity
  8
245
  6
CENTER2
100
AcDbLine
 10
-6.0
 20
-3.3
 30
0.0
 11
-6.0
 21
3.3
 31
0.0
1001
GRPNAME
1000
PASTMD0J
  0
LINE
  5
125A
330
CA3
100
AcDbEntity
  8
241
  6
HIDDEN2
100
AcDbLine
 10
-14.0
 20
3.025
 30
0.0
 11
-14.0
 21
0.0
 31
0.0
1001
GRPNAME
1000
PASTMD0J
  0
LINE
  5
125B
330
CA3
100
AcDbEntity
  8
240
  6
CONTINUOUS
100
AcDbLine
 10
-16.5
 20
3.025
 30
0.0
 11
-16.5
 21
0.0
 31
0.0
1001
GRPNAME
1000
PASTMD0J
  0
CIRCLE
  5
125C
330
CA3
100
AcDbEntity
  8
241
  6
CONTINUOUS
100
AcDbCircle
 10
-6.0
 20
0.0
 30
0.0
 40
2.299999999999998
1001
GRPNAME
1000
PASTMD0J
  0
LINE
  5
125D
330
CA3
100
AcDbEntity
  8
241
  6
HIDDEN2
100
AcDbLine
 10
-17.5
 20
-4.025
 30
0.0
 11
-15.0
 21
-4.025
 31
0.0
1001
GRPNAME
1000
PASTMD0J
  0
ARC
  5
125E
330
CA3
100
AcDbEntity
  8
240
  6
CONTINUOUS
100
AcDbCircle
 10
-17.5
 20
-3.025
 30
0.0
 40
1.0
100
AcDbArc
 50
269.99999999
 51
359.99999999
1001
GRPNAME
1000
PASTMD0J
  0
LINE
  5
125F
330
CA3
100
AcDbEntity
  8
240
  6
CONTINUOUS
100
AcDbLine
 10
-19.2
 20
-4.025
 30
0.0
 11
-17.5
 21
-4.025
 31
0.0
1001
GRPNAME
1000
PASTMD0J
  0
LINE
  5
1260
330
CA3
100
AcDbEntity
  8
240
  6
CONTINUOUS
100
AcDbLine
 10
-20.0
 20
-4.825
 30
0.0
 11
-19.2
 21
-4.025
 31
0.0
1001
GRPNAME
1000
PASTMD0J
  0
LINE
  5
1261
330
CA3
100
AcDbEntity
  8
241
  6
HIDDEN2
100
AcDbLine
 10
-14.0
 20
-3.025
 30
0.0
 11
-14.0
 21
0.0
 31
0.0
1001
GRPNAME
1000
PASTMD0J
  0
LINE
  5
1262
330
CA3
100
AcDbEntity
  8
240
  6
CONTINUOUS
100
AcDbLine
 10
-16.5
 20
-3.025
 30
0.0
 11
-16.5
 21
0.0
 31
0.0
1001
GRPNAME
1000
PASTMD0J
  0
ARC
  5
1263
330
CA3
100
AcDbEntity
  8
241
  6
HIDDEN2
100
AcDbCircle
 10
-15.0
 20
-3.025
 30
0.0
 40
1.0
100
AcDbArc
 50
269.99999999
 51
359.99999999
1001
GRPNAME
1000
PASTMD0J
  0
LINE
  5
1264
330
CA3
100
AcDbEntity
  8
240
  6
CONTINUOUS
100
AcDbLine
 10
-20.0
 20
4.825
 30
0.0
 11
-20.0
 21
13.43900062
 31
0.0
1001
GRPNAME
1000
PASTMD0J
  0
ARC
  5
1265
330
CA3
100
AcDbEntity
  8
240
  6
CONTINUOUS
100
AcDbCircle
 10
-17.5
 20
3.025
 30
0.0
 40
1.0
100
AcDbArc
 50
0.0
 51
90.0
1001
GRPNAME
1000
PASTMD0J
  0
LINE
  5
1266
330
CA3
100
AcDbEntity
  8
241
  6
HIDDEN2
100
AcDbLine
 10
-17.5
 20
4.025
 30
0.0
 11
-15.0
 21
4.025
 31
0.0
1001
GRPNAME
1000
PASTMD0J
  0
LINE
  5
1267
330
CA3
100
AcDbEntity
  8
240
  6
CONTINUOUS
100
AcDbLine
 10
-19.2
 20
4.025
 30
0.0
 11
-17.5
 21
4.025
 31
0.0
1001
GRPNAME
1000
PASTMD0J
  0
LINE
  5
1268
330
CA3
100
AcDbEntity
  8
240
  6
CONTINUOUS
100
AcDbLine
 10
-19.2
 20
4.025
 30
0.0
 11
-20.0
 21
4.825
 31
0.0
1001
GRPNAME
1000
PASTMD0J
  0
ARC
  5
1269
330
CA3
100
AcDbEntity
  8
241
  6
HIDDEN2
100
AcDbCircle
 10
-15.0
 20
3.025
 30
0.0
 40
1.0
100
AcDbArc
 50
0.0
 51
90.0
1001
GRPNAME
1000
PASTMD0J
  0
ARC
  5
126A
330
CA3
100
AcDbEntity
  8
241
  6
CONTINUOUS
100
AcDbCircle
 10
12.5
 20
0.0
 30
0.0
 40
4.5
100
AcDbArc
 50
90.00000001
 51
180.00000001
1001
GRPNAME
1000
PASTMD0J
  0
ARC
  5
126B
330
CA3
100
AcDbEntity
  8
241
  6
CONTINUOUS
100
AcDbCircle
 10
12.5
 20
0.0
 30
0.0
 40
4.5
100
AcDbArc
 50
179.99999999
 51
269.99999999
1001
GRPNAME
1000
PASTMD0J
  0
LINE
  5
126C
330
CA3
100
AcDbEntity
  8
240
  6
CONTINUOUS
100
AcDbLine
 10
-2.0
 20
15.1
 30
0.0
 11
-19.23995009
 21
14.2380025
 31
0.0
1001
GRPNAME
1000
PASTMD0J
  0
LINE
  5
126D
330
CA3
100
AcDbEntity
  8
240
  6
CONTINUOUS
100
AcDbLine
 10
0.0
 20
20.0
 30
0.0
 11
13.97927406
 21
20.0
 31
0.0
1001
GRPNAME
1000
PASTMD0J
  0
LINE
  5
126E
330
CA3
100
AcDbEntity
  8
240
  6
CONTINUOUS
100
AcDbLine
 10
0.0
 20
15.1
 30
0.0
 11
0.0
 21
20.0
 31
0.0
1001
GRPNAME
1000
PASTMD0J
  0
LINE
  5
126F
330
CA3
100
AcDbEntity
  8
240
100
AcDbLine
 10
-2.0
 20
15.1
 30
0.0
 11
0.0
 21
15.1
 31
0.0
  0
LINE
  5
1270
330
CA3
100
AcDbEntity
  8
240
  6
PHANTOM2
100
AcDbLine
 10
27.5
 20
12.5
 30
0.0
 11
27.5
 21
15.8
 31
0.0
  0
LINE
  5
1271
330
CA3
100
AcDbEntity
  8
241
  6
CONTINUOUS
100
AcDbLine
 10
15.0
 20
4.5
 30
0.0
 11
15.0
 21
17.4
 31
0.0
1001
GRPNAME
1000
PASTMD0J
  0
LINE
  5
1272
330
CA3
100
AcDbEntity
  8
241
  6
CONTINUOUS
100
AcDbLine
 10
17.0
 20
4.5
 30
0.0
 11
17.0
 21
17.4
 31
0.0
1001
GRPNAME
1000
PASTMD0J
  0
LINE
  5
1273
330
CA3
100
AcDbEntity
  8
241
  6
CONTINUOUS
100
AcDbLine
 10
18.02072594
 20
4.5
 30
0.0
 11
18.02072594
 21
20.0
 31
0.0
1001
GRPNAME
1000
PASTMD0J
  0
LINE
  5
1274
330
CA3
100
AcDbEntity
  8
241
100
AcDbLine
 10
20.0
 20
16.8
 30
0.0
 11
20.0
 21
0.0
 31
0.0
  0
ARC
  5
1275
330
CA3
100
AcDbEntity
  8
240
100
AcDbCircle
 10
40.53442442
 20
38.88508346
 30
0.0
 40
30.0
100
AcDbArc
 50
245.48193341
 51
256.97051478
  0
LINE
  5
1276
330
CA3
100
AcDbEntity
  8
241
100
AcDbLine
 10
27.5
 20
0.0
 30
0.0
 11
27.5
 21
12.5
 31
0.0
  0
LINE
  5
1277
330
CA3
100
AcDbEntity
  8
241
  6
CONTINUOUS
100
AcDbLine
 10
27.5
 20
-10.89685973
 30
0.0
 11
20.5
 21
-10.89685973
 31
0.0
  0
ARC
  5
1278
330
CA3
100
AcDbEntity
  8
240
100
AcDbCircle
 10
28.5
 20
12.5
 30
0.0
 40
1.0
100
AcDbArc
 50
180.0
 51
245.48193341
  0
LINE
  5
1279
330
CA3
100
AcDbEntity
  8
241
  6
CONTINUOUS
100
AcDbLine
 10
35.0
 20
9.4
 30
0.0
 11
35.0
 21
0.0
 31
0.0
1001
GRPNAME
1000
PASTMD04
  0
LINE
  5
127A
330
CA3
100
AcDbEntity
  8
241
  6
CONTINUOUS
100
AcDbLine
 10
35.0
 20
-9.4
 30
0.0
 11
35.0
 21
0.0
 31
0.0
1001
GRPNAME
1000
PASTMD04
  0
ARC
  5
127B
330
CA3
100
AcDbEntity
  8
240
100
AcDbCircle
 10
36.02537543
 20
-19.4
 30
0.0
 40
10.0
100
AcDbArc
 50
90.0
 51
103.02948522
  0
ARC
  5
127C
330
CA3
100
AcDbEntity
  8
240
100
AcDbCircle
 10
36.02537543
 20
19.4
 30
0.0
 40
10.0
100
AcDbArc
 50
256.97051478
 51
270.0
  0
LINE
  5
127D
330
CA3
100
AcDbEntity
  8
240
  6
CONTINUOUS
100
AcDbLine
 10
20.0
 20
16.8
 30
0.0
 11
26.5
 21
16.8
 31
0.0
  0
LINE
  5
127E
330
CA3
100
AcDbEntity
  8
240
  6
CONTINUOUS
100
AcDbLine
 10
20.0
 20
16.8
 30
0.0
 11
20.0
 21
20.0
 31
0.0
1001
GRPNAME
1000
PASTMD0J
  0
LINE
  5
127F
330
CA3
100
AcDbEntity
  8
240
  6
CONTINUOUS
100
AcDbLine
 10
17.0
 20
18.23205081
 30
0.0
 11
18.02072594
 21
20.0
 31
0.0
1001
GRPNAME
1000
PASTMD0J
  0
LINE
  5
1280
330
CA3
100
AcDbEntity
  8
240
  6
CONTINUOUS
100
AcDbLine
 10
15.0
 20
17.4
 30
0.0
 11
15.0
 21
18.23205081
 31
0.0
1001
GRPNAME
1000
PASTMD0J
  0
LINE
  5
1281
330
CA3
100
AcDbEntity
  8
240
  6
CONTINUOUS
100
AcDbLine
 10
15.0
 20
17.4
 30
0.0
 11
17.0
 21
17.4
 31
0.0
1001
GRPNAME
1000
PASTMD0J
  0
LINE
  5
1282
330
CA3
100
AcDbEntity
  8
240
  6
CONTINUOUS
100
AcDbLine
 10
17.0
 20
17.4
 30
0.0
 11
17.0
 21
18.23205081
 31
0.0
1001
GRPNAME
1000
PASTMD0J
  0
LINE
  5
1283
330
CA3
100
AcDbEntity
  8
240
  6
CONTINUOUS
100
AcDbLine
 10
18.02072594
 20
20.0
 30
0.0
 11
20.0
 21
20.0
 31
0.0
1001
GRPNAME
1000
PASTMD0J
  0
ARC
  5
1284
330
CA3
100
AcDbEntity
  8
240
  6
CONTINUOUS
100
AcDbCircle
 10
26.5
 20
15.8
 30
0.0
 40
1.0
100
AcDbArc
 50
360.0
 51
90.0
  0
LINE
  5
1285
330
CA3
100
AcDbEntity
  8
241
100
AcDbLine
 10
64.5
 20
1.09511499
 30
0.0
 11
54.94044396
 21
2.78072264
 31
0.0
1001
GRPNAME
1000
PASTMD3N
  0
LINE
  5
1286
330
CA3
100
AcDbEntity
  8
240
  6
CONTINUOUS
100
AcDbLine
 10
64.5
 20
9.35
 30
0.0
 11
64.5
 21
1.09511499
 31
0.0
1001
GRPNAME
1000
PASTMD3N
  0
LINE
  5
1287
330
CA3
100
AcDbEntity
  8
241
100
AcDbLine
 10
54.94044396
 20
2.78072264
 30
0.0
 11
53.83209441
 21
0.50826929
 31
0.0
1001
GRPNAME
1000
PASTMD3N
  0
LINE
  5
1288
330
CA3
100
AcDbEntity
  8
246
100
AcDbLine
 10
65.0
 20
-10.0
 30
0.0
 11
65.0
 21
10.0
 31
0.0
1001
GRPNAME
1000
PASTMD3N
  0
LINE
  5
1289
330
CA3
100
AcDbEntity
  8
241
100
AcDbLine
 10
53.8969238
 20
0.64118924
 30
0.0
 11
64.5
 21
-3.21801488
 31
0.0
1001
GRPNAME
1000
PASTMD3N
  0
LINE
  5
128A
330
CA3
100
AcDbEntity
  8
240
  6
CONTINUOUS
100
AcDbLine
 10
64.5
 20
-9.35
 30
0.0
 11
55.0
 21
-9.6
 31
0.0
1001
GRPNAME
1000
PASTMD3N
  0
LINE
  5
128B
330
CA3
100
AcDbEntity
  8
246
100
AcDbLine
 10
65.0
 20
-10.0
 30
0.0
 11
56.0
 21
-10.0
 31
0.0
  0
LINE
  5
128C
330
CA3
100
AcDbEntity
  8
240
  6
CONTINUOUS
100
AcDbLine
 10
54.45050452
 20
-9.4
 30
0.0
 11
55.0
 21
-9.6
 31
0.0
1001
GRPNAME
1000
PASTMD3N
  0
LINE
  5
128D
330
CA3
100
AcDbEntity
  8
241
  6
CONTINUOUS
100
AcDbLine
 10
50.19819358
 20
1.14902405
 30
0.0
 11
53.83209441
 21
0.50826929
 31
0.0
1001
GRPNAME
1000
PASTMD3N
  0
LINE
  5
128E
330
CA3
100
AcDbEntity
  8
240
  6
CONTINUOUS
100
AcDbLine
 10
64.5
 20
-3.21801488
 30
0.0
 11
64.5
 21
-9.35
 31
0.0
1001
GRPNAME
1000
PASTMD3N
  0
LINE
  5
128F
330
CA3
100
AcDbEntity
  8
240
100
AcDbLine
 10
64.52806449
 20
1.09016646
 30
0.0
 11
64.5
 21
1.09511499
 31
0.0
1001
GRPNAME
1000
PASTMD3N
  0
LINE
  5
1290
330
CA3
100
AcDbEntity
  8
240
100
AcDbLine
 10
65.0
 20
-3.4
 30
0.0
 11
64.5
 21
-3.21801488
 31
0.0
1001
GRPNAME
1000
PASTMD3N
  0
LINE
  5
1291
330
CA3
100
AcDbEntity
  8
240
100
AcDbLine
 10
64.52806449
 20
1.09016646
 30
0.0
 11
65.0
 21
-3.4
 31
0.0
1001
GRPNAME
1000
PASTMD3N
  0
LINE
  5
1292
330
CA3
100
AcDbEntity
  8
240
  6
CONTINUOUS
100
AcDbLine
 10
64.5
 20
9.35
 30
0.0
 11
55.0
 21
9.6
 31
0.0
1001
GRPNAME
1000
PASTMD3N
  0
LINE
  5
1293
330
CA3
100
AcDbEntity
  8
246
100
AcDbLine
 10
65.0
 20
10.0
 30
0.0
 11
56.0
 21
10.0
 31
0.0
  0
LINE
  5
1294
330
CA3
100
AcDbEntity
  8
240
  6
CONTINUOUS
100
AcDbLine
 10
55.0
 20
9.6
 30
0.0
 11
54.45050452
 21
9.4
 31
0.0
1001
GRPNAME
1000
PASTMD3N
  0
LINE
  5
1295
330
CA3
100
AcDbEntity
  8
241
  6
CONTINUOUS
100
AcDbLine
 10
61.22026897
 20
7.53833087
 30
0.0
 11
61.16773478
 21
7.5763829
 31
0.0
1001
GRPNAME
1000
PASTMD3N
  0
LINE
  5
1296
330
CA3
100
AcDbEntity
  8
241
  6
CONTINUOUS
100
AcDbLine
 10
59.18577506
 20
7.59615896
 30
0.0
 11
59.13924943
 21
7.55909535
 31
0.0
1001
GRPNAME
1000
PASTMD3N
  0
LINE
  5
1297
330
CA3
100
AcDbEntity
  8
241
  6
CONTINUOUS
100
AcDbLine
 10
61.61672128
 20
6.02609333
 30
0.0
 11
61.64449147
 21
6.10357231
 31
0.0
1001
GRPNAME
1000
PASTMD3N
  0
LINE
  5
1298
330
CA3
100
AcDbEntity
  8
241
  6
CONTINUOUS
100
AcDbLine
 10
61.73409446
 20
6.47788445
 30
0.0
 11
61.73894859
 21
6.53231159
 31
0.0
1001
GRPNAME
1000
PASTMD3N
  0
LINE
  5
1299
330
CA3
100
AcDbEntity
  8
241
  6
CONTINUOUS
100
AcDbLine
 10
61.72616274
 20
6.42388474
 30
0.0
 11
61.73409446
 21
6.47788445
 31
0.0
1001
GRPNAME
1000
PASTMD3N
  0
LINE
  5
129A
330
CA3
100
AcDbEntity
  8
241
  6
CONTINUOUS
100
AcDbLine
 10
61.55273967
 20
5.87538623
 30
0.0
 11
61.5861162
 21
5.94997872
 31
0.0
1001
GRPNAME
1000
PASTMD3N
  0
LINE
  5
129B
330
CA3
100
AcDbEntity
  8
241
  6
CONTINUOUS
100
AcDbLine
 10
61.51666087
 20
5.80247046
 30
0.0
 11
61.55273967
 21
5.87538623
 31
0.0
1001
GRPNAME
1000
PASTMD3N
  0
LINE
  5
129C
330
CA3
100
AcDbEntity
  8
241
  6
CONTINUOUS
100
AcDbLine
 10
61.5861162
 20
5.94997872
 30
0.0
 11
61.61672128
 21
6.02609333
 31
0.0
1001
GRPNAME
1000
PASTMD3N
  0
LINE
  5
129D
330
CA3
100
AcDbEntity
  8
241
  6
CONTINUOUS
100
AcDbLine
 10
61.48969815
 20
7.27585494
 30
0.0
 11
61.45072055
 21
7.3232221
 31
0.0
1001
GRPNAME
1000
PASTMD3N
  0
LINE
  5
129E
330
CA3
100
AcDbEntity
  8
241
  6
CONTINUOUS
100
AcDbLine
 10
61.27079033
 20
7.49850881
 30
0.0
 11
61.22026897
 21
7.53833087
 31
0.0
1001
GRPNAME
1000
PASTMD3N
  0
LINE
  5
129F
330
CA3
100
AcDbEntity
  8
241
  6
CONTINUOUS
100
AcDbLine
 10
61.31919415
 20
7.45699925
 30
0.0
 11
61.27079033
 21
7.49850881
 31
0.0
1001
GRPNAME
1000
PASTMD3N
  0
LINE
  5
12A0
330
CA3
100
AcDbEntity
  8
241
  6
CONTINUOUS
100
AcDbLine
 10
61.36538013
 20
7.4138882
 30
0.0
 11
61.31919415
 21
7.45699925
 31
0.0
1001
GRPNAME
1000
PASTMD3N
  0
LINE
  5
12A1
330
CA3
100
AcDbEntity
  8
241
  6
CONTINUOUS
100
AcDbLine
 10
61.40925257
 20
7.36926499
 30
0.0
 11
61.36538013
 21
7.4138882
 31
0.0
1001
GRPNAME
1000
PASTMD3N
  0
LINE
  5
12A2
330
CA3
100
AcDbEntity
  8
241
  6
CONTINUOUS
100
AcDbLine
 10
61.45072055
 20
7.3232221
 30
0.0
 11
61.40925257
 21
7.36926499
 31
0.0
1001
GRPNAME
1000
PASTMD3N
  0
LINE
  5
12A3
330
CA3
100
AcDbEntity
  8
241
  6
CONTINUOUS
100
AcDbLine
 10
58.74246572
 20
6.69834712
 30
0.0
 11
58.73893207
 21
6.61590083
 31
0.0
1001
GRPNAME
1000
PASTMD3N
  0
LINE
  5
12A4
330
CA3
100
AcDbEntity
  8
241
  6
CONTINUOUS
100
AcDbLine
 10
58.74912178
 20
6.78076444
 30
0.0
 11
58.74246572
 21
6.69834712
 31
0.0
1001
GRPNAME
1000
PASTMD3N
  0
LINE
  5
12A5
330
CA3
100
AcDbEntity
  8
241
  6
CONTINUOUS
100
AcDbLine
 10
58.75888645
 20
6.86298196
 30
0.0
 11
58.74912178
 21
6.78076444
 31
0.0
1001
GRPNAME
1000
PASTMD3N
  0
LINE
  5
12A6
330
CA3
100
AcDbEntity
  8
241
  6
CONTINUOUS
100
AcDbLine
 10
58.77173948
 20
6.94482927
 30
0.0
 11
58.75888645
 21
6.86298196
 31
0.0
1001
GRPNAME
1000
PASTMD3N
  0
LINE
  5
12A7
330
CA3
100
AcDbEntity
  8
241
  6
CONTINUOUS
100
AcDbLine
 10
58.78275508
 20
6.99828521
 30
0.0
 11
58.77173948
 21
6.94482927
 31
0.0
1001
GRPNAME
1000
PASTMD3N
  0
LINE
  5
12A8
330
CA3
100
AcDbEntity
  8
241
  6
CONTINUOUS
100
AcDbLine
 10
58.79680887
 20
7.05109021
 30
0.0
 11
58.78275508
 21
6.99828521
 31
0.0
1001
GRPNAME
1000
PASTMD3N
  0
LINE
  5
12A9
330
CA3
100
AcDbEntity
  8
241
  6
CONTINUOUS
100
AcDbLine
 10
58.81387173
 20
7.10313484
 30
0.0
 11
58.79680887
 21
7.05109021
 31
0.0
1001
GRPNAME
1000
PASTMD3N
  0
LINE
  5
12AA
330
CA3
100
AcDbEntity
  8
241
  6
CONTINUOUS
100
AcDbLine
 10
58.83390829
 20
7.15431127
 30
0.0
 11
58.81387173
 21
7.10313484
 31
0.0
1001
GRPNAME
1000
PASTMD3N
  0
LINE
  5
12AB
330
CA3
100
AcDbEntity
  8
241
  6
CONTINUOUS
100
AcDbLine
 10
58.85687703
 20
7.20451344
 30
0.0
 11
58.83390829
 21
7.15431127
 31
0.0
1001
GRPNAME
1000
PASTMD3N
  0
LINE
  5
12AC
330
CA3
100
AcDbEntity
  8
241
  6
CONTINUOUS
100
AcDbLine
 10
58.88273037
 20
7.25363733
 30
0.0
 11
58.85687703
 21
7.20451344
 31
0.0
1001
GRPNAME
1000
PASTMD3N
  0
LINE
  5
12AD
330
CA3
100
AcDbEntity
  8
241
  6
CONTINUOUS
100
AcDbLine
 10
58.91141472
 20
7.30158113
 30
0.0
 11
58.88273037
 21
7.25363733
 31
0.0
1001
GRPNAME
1000
PASTMD3N
  0
LINE
  5
12AE
330
CA3
100
AcDbEntity
  8
241
  6
CONTINUOUS
100
AcDbLine
 10
58.94287065
 20
7.34824551
 30
0.0
 11
58.91141472
 21
7.30158113
 31
0.0
1001
GRPNAME
1000
PASTMD3N
  0
LINE
  5
12AF
330
CA3
100
AcDbEntity
  8
241
  6
CONTINUOUS
100
AcDbLine
 10
58.97703298
 20
7.39353376
 30
0.0
 11
58.94287065
 21
7.34824551
 31
0.0
1001
GRPNAME
1000
PASTMD3N
  0
LINE
  5
12B0
330
CA3
100
AcDbEntity
  8
241
  6
CONTINUOUS
100
AcDbLine
 10
59.01383091
 20
7.43735203
 30
0.0
 11
58.97703298
 21
7.39353376
 31
0.0
1001
GRPNAME
1000
PASTMD3N
  0
LINE
  5
12B1
330
CA3
100
AcDbEntity
  8
241
  6
CONTINUOUS
100
AcDbLine
 10
59.05318818
 20
7.47960953
 30
0.0
 11
59.01383091
 21
7.43735203
 31
0.0
1001
GRPNAME
1000
PASTMD3N
  0
LINE
  5
12B2
330
CA3
100
AcDbEntity
  8
241
  6
CONTINUOUS
100
AcDbLine
 10
59.09502325
 20
7.52021868
 30
0.0
 11
59.05318818
 21
7.47960953
 31
0.0
1001
GRPNAME
1000
PASTMD3N
  0
LINE
  5
12B3
330
CA3
100
AcDbEntity
  8
241
  6
CONTINUOUS
100
AcDbLine
 10
59.13924943
 20
7.55909535
 30
0.0
 11
59.09502325
 21
7.52021868
 31
0.0
1001
GRPNAME
1000
PASTMD3N
  0
LINE
  5
12B4
330
CA3
100
AcDbEntity
  8
241
  6
CONTINUOUS
100
AcDbLine
 10
61.52610459
 20
7.22726166
 30
0.0
 11
61.48969815
 21
7.27585494
 31
0.0
1001
GRPNAME
1000
PASTMD3N
  0
LINE
  5
12B5
330
CA3
100
AcDbEntity
  8
241
  6
CONTINUOUS
100
AcDbLine
 10
61.55986444
 20
7.17754295
 30
0.0
 11
61.52610459
 21
7.22726166
 31
0.0
1001
GRPNAME
1000
PASTMD3N
  0
LINE
  5
12B6
330
CA3
100
AcDbEntity
  8
241
  6
CONTINUOUS
100
AcDbLine
 10
61.59090772
 20
7.12680184
 30
0.0
 11
61.55986444
 21
7.17754295
 31
0.0
1001
GRPNAME
1000
PASTMD3N
  0
LINE
  5
12B7
330
CA3
100
AcDbEntity
  8
241
  6
CONTINUOUS
100
AcDbLine
 10
61.61917013
 20
7.07514349
 30
0.0
 11
61.59090772
 21
7.12680184
 31
0.0
1001
GRPNAME
1000
PASTMD3N
  0
LINE
  5
12B8
330
CA3
100
AcDbEntity
  8
241
  6
CONTINUOUS
100
AcDbLine
 10
61.64459309
 20
7.02267492
 30
0.0
 11
61.61917013
 21
7.07514349
 31
0.0
1001
GRPNAME
1000
PASTMD3N
  0
LINE
  5
12B9
330
CA3
100
AcDbEntity
  8
241
  6
CONTINUOUS
100
AcDbLine
 10
61.66712392
 20
6.96950488
 30
0.0
 11
61.64459309
 21
7.02267492
 31
0.0
1001
GRPNAME
1000
PASTMD3N
  0
LINE
  5
12BA
330
CA3
100
AcDbEntity
  8
241
  6
CONTINUOUS
100
AcDbLine
 10
61.68671592
 20
6.91574354
 30
0.0
 11
61.66712392
 21
6.96950488
 31
0.0
1001
GRPNAME
1000
PASTMD3N
  0
LINE
  5
12BB
330
CA3
100
AcDbEntity
  8
241
  6
CONTINUOUS
100
AcDbLine
 10
61.70332852
 20
6.86150231
 30
0.0
 11
61.68671592
 21
6.91574354
 31
0.0
1001
GRPNAME
1000
PASTMD3N
  0
LINE
  5
12BC
330
CA3
100
AcDbEntity
  8
241
  6
CONTINUOUS
100
AcDbLine
 10
61.71692727
 20
6.80689358
 30
0.0
 11
61.70332852
 21
6.86150231
 31
0.0
1001
GRPNAME
1000
PASTMD3N
  0
LINE
  5
12BD
330
CA3
100
AcDbEntity
  8
241
  6
CONTINUOUS
100
AcDbLine
 10
61.72748399
 20
6.75203051
 30
0.0
 11
61.71692727
 21
6.80689358
 31
0.0
1001
GRPNAME
1000
PASTMD3N
  0
LINE
  5
12BE
330
CA3
100
AcDbEntity
  8
241
  6
CONTINUOUS
100
AcDbLine
 10
61.73497682
 20
6.6970268
 30
0.0
 11
61.72748399
 21
6.75203051
 31
0.0
1001
GRPNAME
1000
PASTMD3N
  0
LINE
  5
12BF
330
CA3
100
AcDbEntity
  8
241
  6
CONTINUOUS
100
AcDbLine
 10
61.73939023
 20
6.64199641
 30
0.0
 11
61.73497682
 21
6.6970268
 31
0.0
1001
GRPNAME
1000
PASTMD3N
  0
LINE
  5
12C0
330
CA3
100
AcDbEntity
  8
241
  6
CONTINUOUS
100
AcDbLine
 10
61.74071507
 20
6.58705339
 30
0.0
 11
61.73939023
 21
6.64199641
 31
0.0
1001
GRPNAME
1000
PASTMD3N
  0
LINE
  5
12C1
330
CA3
100
AcDbEntity
  8
241
  6
CONTINUOUS
100
AcDbLine
 10
61.47795456
 20
5.73138255
 30
0.0
 11
61.51666087
 21
5.80247046
 31
0.0
1001
GRPNAME
1000
PASTMD3N
  0
LINE
  5
12C2
330
CA3
100
AcDbEntity
  8
241
  6
CONTINUOUS
100
AcDbLine
 10
58.78325692
 20
6.13014361
 30
0.0
 11
58.80142251
 21
6.05223804
 31
0.0
1001
GRPNAME
1000
PASTMD3N
  0
LINE
  5
12C3
330
CA3
100
AcDbEntity
  8
241
  6
CONTINUOUS
100
AcDbLine
 10
58.76812917
 20
6.20919788
 30
0.0
 11
58.78325692
 21
6.13014361
 31
0.0
1001
GRPNAME
1000
PASTMD3N
  0
LINE
  5
12C4
330
CA3
100
AcDbEntity
  8
241
  6
CONTINUOUS
100
AcDbLine
 10
58.75607064
 20
6.289237
 30
0.0
 11
58.76812917
 21
6.20919788
 31
0.0
1001
GRPNAME
1000
PASTMD3N
  0
LINE
  5
12C5
330
CA3
100
AcDbEntity
  8
241
  6
CONTINUOUS
100
AcDbLine
 10
58.74710631
 20
6.37009509
 30
0.0
 11
58.75607064
 21
6.289237
 31
0.0
1001
GRPNAME
1000
PASTMD3N
  0
LINE
  5
12C6
330
CA3
100
AcDbEntity
  8
241
  6
CONTINUOUS
100
AcDbLine
 10
58.74125477
 20
6.45160455
 30
0.0
 11
58.74710631
 21
6.37009509
 31
0.0
1001
GRPNAME
1000
PASTMD3N
  0
LINE
  5
12C7
330
CA3
100
AcDbEntity
  8
241
  6
CONTINUOUS
100
AcDbLine
 10
58.73852814
 20
6.53359644
 30
0.0
 11
58.74125477
 21
6.45160455
 31
0.0
1001
GRPNAME
1000
PASTMD3N
  0
LINE
  5
12C8
330
CA3
100
AcDbEntity
  8
241
  6
CONTINUOUS
100
AcDbLine
 10
61.43670098
 20
5.66226983
 30
0.0
 11
61.47795456
 21
5.73138255
 31
0.0
1001
GRPNAME
1000
PASTMD3N
  0
LINE
  5
12C9
330
CA3
100
AcDbEntity
  8
241
  6
CONTINUOUS
100
AcDbLine
 10
61.39298563
 20
5.59527554
 30
0.0
 11
61.43670098
 21
5.66226983
 31
0.0
1001
GRPNAME
1000
PASTMD3N
  0
LINE
  5
12CA
330
CA3
100
AcDbEntity
  8
241
  6
CONTINUOUS
100
AcDbLine
 10
61.34689911
 20
5.53053855
 30
0.0
 11
61.39298563
 21
5.59527554
 31
0.0
1001
GRPNAME
1000
PASTMD3N
  0
LINE
  5
12CB
330
CA3
100
AcDbEntity
  8
241
  6
CONTINUOUS
100
AcDbLine
 10
61.29853695
 20
5.46819303
 30
0.0
 11
61.34689911
 21
5.53053855
 31
0.0
1001
GRPNAME
1000
PASTMD3N
  0
LINE
  5
12CC
330
CA3
100
AcDbEntity
  8
241
  6
CONTINUOUS
100
AcDbLine
 10
61.24799938
 20
5.40836819
 30
0.0
 11
61.29853695
 21
5.46819303
 31
0.0
1001
GRPNAME
1000
PASTMD3N
  0
LINE
  5
12CD
330
CA3
100
AcDbEntity
  8
241
  6
CONTINUOUS
100
AcDbLine
 10
61.19539115
 20
5.35118804
 30
0.0
 11
61.24799938
 21
5.40836819
 31
0.0
1001
GRPNAME
1000
PASTMD3N
  0
LINE
  5
12CE
330
CA3
100
AcDbEntity
  8
241
  6
CONTINUOUS
100
AcDbLine
 10
61.1408213
 20
5.29677109
 30
0.0
 11
61.19539115
 21
5.35118804
 31
0.0
1001
GRPNAME
1000
PASTMD3N
  0
LINE
  5
12CF
330
CA3
100
AcDbEntity
  8
241
  6
CONTINUOUS
100
AcDbLine
 10
61.08440292
 20
5.24523012
 30
0.0
 11
61.1408213
 21
5.29677109
 31
0.0
1001
GRPNAME
1000
PASTMD3N
  0
LINE
  5
12D0
330
CA3
100
AcDbEntity
  8
241
  6
CONTINUOUS
100
AcDbLine
 10
61.02625297
 20
5.19667196
 30
0.0
 11
61.08440292
 21
5.24523012
 31
0.0
1001
GRPNAME
1000
PASTMD3N
  0
LINE
  5
12D1
330
CA3
100
AcDbEntity
  8
241
  6
CONTINUOUS
100
AcDbLine
 10
60.96649195
 20
5.15119725
 30
0.0
 11
61.02625297
 21
5.19667196
 31
0.0
1001
GRPNAME
1000
PASTMD3N
  0
LINE
  5
12D2
330
CA3
100
AcDbEntity
  8
241
  6
CONTINUOUS
100
AcDbLine
 10
60.90524373
 20
5.10890025
 30
0.0
 11
60.96649195
 21
5.15119725
 31
0.0
1001
GRPNAME
1000
PASTMD3N
  0
LINE
  5
12D3
330
CA3
100
AcDbEntity
  8
241
  6
CONTINUOUS
100
AcDbLine
 10
60.84263526
 20
5.06986862
 30
0.0
 11
60.90524373
 21
5.10890025
 31
0.0
1001
GRPNAME
1000
PASTMD3N
  0
LINE
  5
12D4
330
CA3
100
AcDbEntity
  8
241
  6
CONTINUOUS
100
AcDbLine
 10
60.7787963
 20
5.03418326
 30
0.0
 11
60.84263526
 21
5.06986862
 31
0.0
1001
GRPNAME
1000
PASTMD3N
  0
LINE
  5
12D5
330
CA3
100
AcDbEntity
  8
241
  6
CONTINUOUS
100
AcDbLine
 10
60.71385917
 20
5.00191814
 30
0.0
 11
60.7787963
 21
5.03418326
 31
0.0
1001
GRPNAME
1000
PASTMD3N
  0
LINE
  5
12D6
330
CA3
100
AcDbEntity
  8
241
  6
CONTINUOUS
100
AcDbLine
 10
60.64795845
 20
4.97314012
 30
0.0
 11
60.71385917
 21
5.00191814
 31
0.0
1001
GRPNAME
1000
PASTMD3N
  0
LINE
  5
12D7
330
CA3
100
AcDbEntity
  8
241
  6
CONTINUOUS
100
AcDbLine
 10
60.58123074
 20
4.94790885
 30
0.0
 11
60.64795845
 21
4.97314012
 31
0.0
1001
GRPNAME
1000
PASTMD3N
  0
LINE
  5
12D8
330
CA3
100
AcDbEntity
  8
241
  6
CONTINUOUS
100
AcDbLine
 10
60.51381435
 20
4.92627664
 30
0.0
 11
60.58123074
 21
4.94790885
 31
0.0
1001
GRPNAME
1000
PASTMD3N
  0
LINE
  5
12D9
330
CA3
100
AcDbEntity
  8
241
  6
CONTINUOUS
100
AcDbLine
 10
60.44584898
 20
4.90828831
 30
0.0
 11
60.51381435
 21
4.92627664
 31
0.0
1001
GRPNAME
1000
PASTMD3N
  0
LINE
  5
12DA
330
CA3
100
AcDbEntity
  8
241
  6
CONTINUOUS
100
AcDbLine
 10
60.37747553
 20
4.89398115
 30
0.0
 11
60.44584898
 21
4.90828831
 31
0.0
1001
GRPNAME
1000
PASTMD3N
  0
LINE
  5
12DB
330
CA3
100
AcDbEntity
  8
241
  6
CONTINUOUS
100
AcDbLine
 10
60.30883569
 20
4.88338481
 30
0.0
 11
60.37747553
 21
4.89398115
 31
0.0
1001
GRPNAME
1000
PASTMD3N
  0
LINE
  5
12DC
330
CA3
100
AcDbEntity
  8
241
  6
CONTINUOUS
100
AcDbLine
 10
60.24007174
 20
4.87652125
 30
0.0
 11
60.30883569
 21
4.88338481
 31
0.0
1001
GRPNAME
1000
PASTMD3N
  0
LINE
  5
12DD
330
CA3
100
AcDbEntity
  8
241
  6
CONTINUOUS
100
AcDbLine
 10
60.1713262
 20
4.8734047
 30
0.0
 11
60.24007174
 21
4.87652125
 31
0.0
1001
GRPNAME
1000
PASTMD3N
  0
LINE
  5
12DE
330
CA3
100
AcDbEntity
  8
241
  6
CONTINUOUS
100
AcDbLine
 10
60.10274155
 20
4.87404162
 30
0.0
 11
60.1713262
 21
4.8734047
 31
0.0
1001
GRPNAME
1000
PASTMD3N
  0
LINE
  5
12DF
330
CA3
100
AcDbEntity
  8
241
  6
CONTINUOUS
100
AcDbLine
 10
60.03445994
 20
4.87843069
 30
0.0
 11
60.10274155
 21
4.87404162
 31
0.0
1001
GRPNAME
1000
PASTMD3N
  0
LINE
  5
12E0
330
CA3
100
AcDbEntity
  8
241
  6
CONTINUOUS
100
AcDbLine
 10
59.9666229
 20
4.88656282
 30
0.0
 11
60.03445994
 21
4.87843069
 31
0.0
1001
GRPNAME
1000
PASTMD3N
  0
LINE
  5
12E1
330
CA3
100
AcDbEntity
  8
241
  6
CONTINUOUS
100
AcDbLine
 10
59.89937102
 20
4.89842114
 30
0.0
 11
59.9666229
 21
4.88656282
 31
0.0
1001
GRPNAME
1000
PASTMD3N
  0
LINE
  5
12E2
330
CA3
100
AcDbEntity
  8
241
  6
CONTINUOUS
100
AcDbLine
 10
59.8328437
 20
4.91398108
 30
0.0
 11
59.89937102
 21
4.89842114
 31
0.0
1001
GRPNAME
1000
PASTMD3N
  0
LINE
  5
12E3
330
CA3
100
AcDbEntity
  8
241
  6
CONTINUOUS
100
AcDbLine
 10
59.7025125
 20
4.95606921
 30
0.0
 11
59.76717883
 21
4.93321038
 31
0.0
1001
GRPNAME
1000
PASTMD3N
  0
LINE
  5
12E4
330
CA3
100
AcDbEntity
  8
241
  6
CONTINUOUS
100
AcDbLine
 10
59.63897874
 20
4.98251016
 30
0.0
 11
59.7025125
 21
4.95606921
 31
0.0
1001
GRPNAME
1000
PASTMD3N
  0
LINE
  5
12E5
330
CA3
100
AcDbEntity
  8
241
  6
CONTINUOUS
100
AcDbLine
 10
59.57670924
 20
5.01247845
 30
0.0
 11
59.63897874
 21
4.98251016
 31
0.0
1001
GRPNAME
1000
PASTMD3N
  0
LINE
  5
12E6
330
CA3
100
AcDbEntity
  8
241
  6
CONTINUOUS
100
AcDbLine
 10
59.51583305
 20
5.04591196
 30
0.0
 11
59.57670924
 21
5.01247845
 31
0.0
1001
GRPNAME
1000
PASTMD3N
  0
LINE
  5
12E7
330
CA3
100
AcDbEntity
  8
241
  6
CONTINUOUS
100
AcDbLine
 10
59.45647636
 20
5.0827414
 30
0.0
 11
59.51583305
 21
5.04591196
 31
0.0
1001
GRPNAME
1000
PASTMD3N
  0
LINE
  5
12E8
330
CA3
100
AcDbEntity
  8
241
  6
CONTINUOUS
100
AcDbLine
 10
59.39876218
 20
5.12289042
 30
0.0
 11
59.45647636
 21
5.0827414
 31
0.0
1001
GRPNAME
1000
PASTMD3N
  0
LINE
  5
12E9
330
CA3
100
AcDbEntity
  8
241
  6
CONTINUOUS
100
AcDbLine
 10
59.34281014
 20
5.16627582
 30
0.0
 11
59.39876218
 21
5.12289042
 31
0.0
1001
GRPNAME
1000
PASTMD3N
  0
LINE
  5
12EA
330
CA3
100
AcDbEntity
  8
241
  6
CONTINUOUS
100
AcDbLine
 10
59.28873621
 20
5.21280767
 30
0.0
 11
59.34281014
 21
5.16627582
 31
0.0
1001
GRPNAME
1000
PASTMD3N
  0
LINE
  5
12EB
330
CA3
100
AcDbEntity
  8
241
  6
CONTINUOUS
100
AcDbLine
 10
59.23665245
 20
5.26238953
 30
0.0
 11
59.28873621
 21
5.21280767
 31
0.0
1001
GRPNAME
1000
PASTMD3N
  0
LINE
  5
12EC
330
CA3
100
AcDbEntity
  8
241
  6
CONTINUOUS
100
AcDbLine
 10
59.18666683
 20
5.31491864
 30
0.0
 11
59.23665245
 21
5.26238953
 31
0.0
1001
GRPNAME
1000
PASTMD3N
  0
LINE
  5
12ED
330
CA3
100
AcDbEntity
  8
241
  6
CONTINUOUS
100
AcDbLine
 10
59.13888295
 20
5.37028612
 30
0.0
 11
59.18666683
 21
5.31491864
 31
0.0
1001
GRPNAME
1000
PASTMD3N
  0
LINE
  5
12EE
330
CA3
100
AcDbEntity
  8
241
  6
CONTINUOUS
100
AcDbLine
 10
59.09339983
 20
5.42837721
 30
0.0
 11
59.13888295
 21
5.37028612
 31
0.0
1001
GRPNAME
1000
PASTMD3N
  0
LINE
  5
12EF
330
CA3
100
AcDbEntity
  8
241
  6
CONTINUOUS
100
AcDbLine
 10
59.05031176
 20
5.48907152
 30
0.0
 11
59.09339983
 21
5.42837721
 31
0.0
1001
GRPNAME
1000
PASTMD3N
  0
LINE
  5
12F0
330
CA3
100
AcDbEntity
  8
241
  6
CONTINUOUS
100
AcDbLine
 10
59.00970804
 20
5.55224323
 30
0.0
 11
59.05031176
 21
5.48907152
 31
0.0
1001
GRPNAME
1000
PASTMD3N
  0
LINE
  5
12F1
330
CA3
100
AcDbEntity
  8
241
  6
CONTINUOUS
100
AcDbLine
 10
58.97167282
 20
5.61776144
 30
0.0
 11
59.00970804
 21
5.55224323
 31
0.0
1001
GRPNAME
1000
PASTMD3N
  0
LINE
  5
12F2
330
CA3
100
AcDbEntity
  8
241
  6
CONTINUOUS
100
AcDbLine
 10
58.93628494
 20
5.68549032
 30
0.0
 11
58.97167282
 21
5.61776144
 31
0.0
1001
GRPNAME
1000
PASTMD3N
  0
LINE
  5
12F3
330
CA3
100
AcDbEntity
  8
241
  6
CONTINUOUS
100
AcDbLine
 10
58.90361774
 20
5.75528952
 30
0.0
 11
58.93628494
 21
5.68549032
 31
0.0
1001
GRPNAME
1000
PASTMD3N
  0
LINE
  5
12F4
330
CA3
100
AcDbEntity
  8
241
  6
CONTINUOUS
100
AcDbLine
 10
58.87373894
 20
5.82701436
 30
0.0
 11
58.90361774
 21
5.75528952
 31
0.0
1001
GRPNAME
1000
PASTMD3N
  0
LINE
  5
12F5
330
CA3
100
AcDbEntity
  8
241
  6
CONTINUOUS
100
AcDbLine
 10
58.84671046
 20
5.90051619
 30
0.0
 11
58.87373894
 21
5.82701436
 31
0.0
1001
GRPNAME
1000
PASTMD3N
  0
LINE
  5
12F6
330
CA3
100
AcDbEntity
  8
241
  6
CONTINUOUS
100
AcDbLine
 10
58.82258832
 20
5.97564265
 30
0.0
 11
58.84671046
 21
5.90051619
 31
0.0
1001
GRPNAME
1000
PASTMD3N
  0
LINE
  5
12F7
330
CA3
100
AcDbEntity
  8
241
  6
CONTINUOUS
100
AcDbLine
 10
59.76717883
 20
4.93321038
 30
0.0
 11
59.8328437
 21
4.91398108
 31
0.0
1001
GRPNAME
1000
PASTMD3N
  0
LINE
  5
12F8
330
CA3
100
AcDbEntity
  8
241
  6
CONTINUOUS
100
AcDbLine
 10
58.80142251
 20
6.05223804
 30
0.0
 11
58.82258832
 21
5.97564265
 31
0.0
1001
GRPNAME
1000
PASTMD3N
  0
LINE
  5
12F9
330
CA3
100
AcDbEntity
  8
241
  6
CONTINUOUS
100
AcDbLine
 10
61.71024721
 20
6.34257742
 30
0.0
 11
61.72616274
 21
6.42388474
 31
0.0
1001
GRPNAME
1000
PASTMD3N
  0
LINE
  5
12FA
330
CA3
100
AcDbEntity
  8
241
  6
CONTINUOUS
100
AcDbLine
 10
61.69130294
 20
6.26197851
 30
0.0
 11
61.71024721
 21
6.34257742
 31
0.0
1001
GRPNAME
1000
PASTMD3N
  0
LINE
  5
12FB
330
CA3
100
AcDbEntity
  8
241
  6
CONTINUOUS
100
AcDbLine
 10
61.66936921
 20
6.18225506
 30
0.0
 11
61.69130294
 21
6.26197851
 31
0.0
1001
GRPNAME
1000
PASTMD3N
  0
LINE
  5
12FC
330
CA3
100
AcDbEntity
  8
241
  6
CONTINUOUS
100
AcDbLine
 10
61.64449147
 20
6.10357231
 30
0.0
 11
61.66936921
 21
6.18225506
 31
0.0
1001
GRPNAME
1000
PASTMD3N
  0
LINE
  5
12FD
330
CA3
100
AcDbEntity
  8
241
  6
CONTINUOUS
100
AcDbLine
 10
61.73894859
 20
6.53231159
 30
0.0
 11
61.74071507
 21
6.58705339
 31
0.0
1001
GRPNAME
1000
PASTMD3N
  0
LINE
  5
12FE
330
CA3
100
AcDbEntity
  8
241
  6
CONTINUOUS
100
AcDbLine
 10
58.73893207
 20
6.61590083
 30
0.0
 11
58.73852814
 21
6.53359644
 31
0.0
1001
GRPNAME
1000
PASTMD3N
  0
LINE
  5
12FF
330
CA3
100
AcDbEntity
  8
241
  6
CONTINUOUS
100
AcDbLine
 10
59.88422143
 20
7.87574398
 30
0.0
 11
59.81876757
 21
7.86521097
 31
0.0
1001
GRPNAME
1000
PASTMD3N
  0
LINE
  5
1300
330
CA3
100
AcDbEntity
  8
241
  6
CONTINUOUS
100
AcDbLine
 10
59.95043102
 20
7.88380778
 30
0.0
 11
59.88422143
 21
7.87574398
 31
0.0
1001
GRPNAME
1000
PASTMD3N
  0
LINE
  5
1301
330
CA3
100
AcDbEntity
  8
241
  6
CONTINUOUS
100
AcDbLine
 10
60.01725912
 20
7.88938565
 30
0.0
 11
59.95043102
 21
7.88380778
 31
0.0
1001
GRPNAME
1000
PASTMD3N
  0
LINE
  5
1302
330
CA3
100
AcDbEntity
  8
241
  6
CONTINUOUS
100
AcDbLine
 10
60.08456727
 20
7.89246605
 30
0.0
 11
60.01725912
 21
7.88938565
 31
0.0
1001
GRPNAME
1000
PASTMD3N
  0
LINE
  5
1303
330
CA3
100
AcDbEntity
  8
241
  6
CONTINUOUS
100
AcDbLine
 10
60.15221598
 20
7.89304258
 30
0.0
 11
60.08456727
 21
7.89246605
 31
0.0
1001
GRPNAME
1000
PASTMD3N
  0
LINE
  5
1304
330
CA3
100
AcDbEntity
  8
241
  6
CONTINUOUS
100
AcDbLine
 10
60.22006507
 20
7.89111404
 30
0.0
 11
60.15221598
 21
7.89304258
 31
0.0
1001
GRPNAME
1000
PASTMD3N
  0
LINE
  5
1305
330
CA3
100
AcDbEntity
  8
241
  6
CONTINUOUS
100
AcDbLine
 10
60.28797395
 20
7.88668445
 30
0.0
 11
60.22006507
 21
7.89111404
 31
0.0
1001
GRPNAME
1000
PASTMD3N
  0
LINE
  5
1306
330
CA3
100
AcDbEntity
  8
241
  6
CONTINUOUS
100
AcDbLine
 10
60.35580189
 20
7.87976297
 30
0.0
 11
60.28797395
 21
7.88668445
 31
0.0
1001
GRPNAME
1000
PASTMD3N
  0
LINE
  5
1307
330
CA3
100
AcDbEntity
  8
241
  6
CONTINUOUS
100
AcDbLine
 10
60.42340834
 20
7.87036395
 30
0.0
 11
60.35580189
 21
7.87976297
 31
0.0
1001
GRPNAME
1000
PASTMD3N
  0
LINE
  5
1308
330
CA3
100
AcDbEntity
  8
241
  6
CONTINUOUS
100
AcDbLine
 10
60.4906532
 20
7.85850687
 30
0.0
 11
60.42340834
 21
7.87036395
 31
0.0
1001
GRPNAME
1000
PASTMD3N
  0
LINE
  5
1309
330
CA3
100
AcDbEntity
  8
241
  6
CONTINUOUS
100
AcDbLine
 10
60.55739714
 20
7.84421629
 30
0.0
 11
60.4906532
 21
7.85850687
 31
0.0
1001
GRPNAME
1000
PASTMD3N
  0
LINE
  5
130A
330
CA3
100
AcDbEntity
  8
241
  6
CONTINUOUS
100
AcDbLine
 10
60.62350184
 20
7.82752183
 30
0.0
 11
60.55739714
 21
7.84421629
 31
0.0
1001
GRPNAME
1000
PASTMD3N
  0
LINE
  5
130B
330
CA3
100
AcDbEntity
  8
241
  6
CONTINUOUS
100
AcDbLine
 10
60.68883032
 20
7.80845808
 30
0.0
 11
60.62350184
 21
7.82752183
 31
0.0
1001
GRPNAME
1000
PASTMD3N
  0
LINE
  5
130C
330
CA3
100
AcDbEntity
  8
241
  6
CONTINUOUS
100
AcDbLine
 10
60.75324721
 20
7.78706455
 30
0.0
 11
60.68883032
 21
7.80845808
 31
0.0
1001
GRPNAME
1000
PASTMD3N
  0
LINE
  5
130D
330
CA3
100
AcDbEntity
  8
241
  6
CONTINUOUS
100
AcDbLine
 10
60.81661902
 20
7.76338557
 30
0.0
 11
60.75324721
 21
7.78706455
 31
0.0
1001
GRPNAME
1000
PASTMD3N
  0
LINE
  5
130E
330
CA3
100
AcDbEntity
  8
241
  6
CONTINUOUS
100
AcDbLine
 10
60.87881443
 20
7.73747021
 30
0.0
 11
60.81661902
 21
7.76338557
 31
0.0
1001
GRPNAME
1000
PASTMD3N
  0
LINE
  5
130F
330
CA3
100
AcDbEntity
  8
241
  6
CONTINUOUS
100
AcDbLine
 10
60.93970456
 20
7.70937216
 30
0.0
 11
60.87881443
 21
7.73747021
 31
0.0
1001
GRPNAME
1000
PASTMD3N
  0
LINE
  5
1310
330
CA3
100
AcDbEntity
  8
241
  6
CONTINUOUS
100
AcDbLine
 10
60.99916324
 20
7.67914966
 30
0.0
 11
60.93970456
 21
7.70937216
 31
0.0
1001
GRPNAME
1000
PASTMD3N
  0
LINE
  5
1311
330
CA3
100
AcDbEntity
  8
241
  6
CONTINUOUS
100
AcDbLine
 10
61.05706724
 20
7.64686532
 30
0.0
 11
60.99916324
 21
7.67914966
 31
0.0
1001
GRPNAME
1000
PASTMD3N
  0
LINE
  5
1312
330
CA3
100
AcDbEntity
  8
241
  6
CONTINUOUS
100
AcDbLine
 10
61.1132966
 20
7.61258606
 30
0.0
 11
61.05706724
 21
7.64686532
 31
0.0
1001
GRPNAME
1000
PASTMD3N
  0
LINE
  5
1313
330
CA3
100
AcDbEntity
  8
241
  6
CONTINUOUS
100
AcDbLine
 10
61.16773478
 20
7.5763829
 30
0.0
 11
61.1132966
 21
7.61258606
 31
0.0
1001
GRPNAME
1000
PASTMD3N
  0
LINE
  5
1314
330
CA3
100
AcDbEntity
  8
241
  6
CONTINUOUS
100
AcDbLine
 10
59.23450373
 20
7.63133272
 30
0.0
 11
59.18577506
 21
7.59615896
 31
0.0
1001
GRPNAME
1000
PASTMD3N
  0
LINE
  5
1315
330
CA3
100
AcDbEntity
  8
241
  6
CONTINUOUS
100
AcDbLine
 10
59.28533448
 20
7.66454373
 30
0.0
 11
59.23450373
 21
7.63133272
 31
0.0
1001
GRPNAME
1000
PASTMD3N
  0
LINE
  5
1316
330
CA3
100
AcDbEntity
  8
241
  6
CONTINUOUS
100
AcDbLine
 10
59.33816196
 20
7.69572318
 30
0.0
 11
59.28533448
 21
7.66454373
 31
0.0
1001
GRPNAME
1000
PASTMD3N
  0
LINE
  5
1317
330
CA3
100
AcDbEntity
  8
241
  6
CONTINUOUS
100
AcDbLine
 10
59.39287672
 20
7.72480646
 30
0.0
 11
59.33816196
 21
7.69572318
 31
0.0
1001
GRPNAME
1000
PASTMD3N
  0
LINE
  5
1318
330
CA3
100
AcDbEntity
  8
241
  6
CONTINUOUS
100
AcDbLine
 10
59.44936536
 20
7.7517333
 30
0.0
 11
59.39287672
 21
7.72480646
 31
0.0
1001
GRPNAME
1000
PASTMD3N
  0
LINE
  5
1319
330
CA3
100
AcDbEntity
  8
241
  6
CONTINUOUS
100
AcDbLine
 10
59.50751083
 20
7.7764479
 30
0.0
 11
59.44936536
 21
7.7517333
 31
0.0
1001
GRPNAME
1000
PASTMD3N
  0
LINE
  5
131A
330
CA3
100
AcDbEntity
  8
241
  6
CONTINUOUS
100
AcDbLine
 10
59.56719265
 20
7.79889904
 30
0.0
 11
59.50751083
 21
7.7764479
 31
0.0
1001
GRPNAME
1000
PASTMD3N
  0
LINE
  5
131B
330
CA3
100
AcDbEntity
  8
241
  6
CONTINUOUS
100
AcDbLine
 10
59.62828714
 20
7.81904022
 30
0.0
 11
59.56719265
 21
7.79889904
 31
0.0
1001
GRPNAME
1000
PASTMD3N
  0
LINE
  5
131C
330
CA3
100
AcDbEntity
  8
241
  6
CONTINUOUS
100
AcDbLine
 10
59.6906677
 20
7.83682968
 30
0.0
 11
59.62828714
 21
7.81904022
 31
0.0
1001
GRPNAME
1000
PASTMD3N
  0
LINE
  5
131D
330
CA3
100
AcDbEntity
  8
241
  6
CONTINUOUS
100
AcDbLine
 10
59.75420507
 20
7.85223057
 30
0.0
 11
59.6906677
 21
7.83682968
 31
0.0
1001
GRPNAME
1000
PASTMD3N
  0
LINE
  5
131E
330
CA3
100
AcDbEntity
  8
241
  6
CONTINUOUS
100
AcDbLine
 10
59.81876757
 20
7.86521097
 30
0.0
 11
59.75420507
 21
7.85223057
 31
0.0
1001
GRPNAME
1000
PASTMD3N
  0
ENDBLK
  5
CA5
330
CA3
100
AcDbEntity
  8
0
100
AcDbBlockEnd
  0
ENDSEC
  0
SECTION
  2
ENTITIES
  0
INSERT
  5
6E6
330
1A
100
AcDbEntity
  8
245
100
AcDbBlockReference
  2
矢印なし
 10
175.62382697
 20
90.55123572
 30
0.0
  0
TEXT
  5
9C2
330
1A
100
AcDbEntity
  8
241
100
AcDbText
 10
-19.9
 20
49.0
 30
0.0
 40
5.0
  1
HSK-A40-FCM20093-65
  7
YOKO
 11
-19.9
 21
49.0
 31
0.0
100
AcDbText
 73
     1
  0
DIMENSION
  5
C24
330
1A
100
AcDbEntity
  8
250
  6
CONTINUOUS
100
AcDbDimension
  2
*D2
 10
77.0
 20
10.0
 30
0.0
 11
74.6
 21
0.0
 31
0.0
 70
    32
  1
{\H2.8;\U+2205}<>
  3
BIGT
100
AcDbAlignedDimension
 13
65.0
 23
-10.0
 33
0.0
 14
65.0
 24
10.0
 34
0.0
 50
90.0
100
AcDbRotatedDimension
  0
DIMENSION
  5
C33
330
1A
100
AcDbEntity
  8
250
  6
CONTINUOUS
100
AcDbDimension
  2
*D3
 10
65.0
 20
21.0
 30
0.0
 11
60.5
 21
23.4
 31
0.0
 70
    32
  3
BIGT
100
AcDbAlignedDimension
 13
56.0
 23
10.0
 33
0.0
 14
65.0
 24
10.0
 34
0.0
100
AcDbRotatedDimension
  0
DIMENSION
  5
C42
330
1A
100
AcDbEntity
  8
250
  6
CONTINUOUS
100
AcDbDimension
  2
*D4
 10
65.0
 20
28.0
 30
0.0
 11
51.0
 21
30.4
 31
0.0
 70
    32
  3
BIGT
100
AcDbAlignedDimension
 13
37.0
 23
9.4
 33
0.0
 14
65.0
 24
10.0
 34
0.0
100
AcDbRotatedDimension
  0
DIMENSION
  5
C51
330
1A
100
AcDbEntity
  8
250
  6
CONTINUOUS
100
AcDbDimension
  2
*D5
 10
65.0
 20
35.0
 30
0.0
 11
32.5
 21
37.4
 31
0.0
 70
    32
  3
BIGT
100
AcDbAlignedDimension
 13
0.0
 23
19.5
 33
0.0
 14
65.0
 24
10.0
 34
0.0
100
AcDbRotatedDimension
  0
LINE
  5
11A2
330
1A
100
AcDbEntity
  8
250
  6
CONTINUOUS
100
AcDbLine
 10
-13.49544553
 20
-22.86001894
 30
0.0
 11
-37.7621122
 21
-22.86001894
 31
0.0
1001
ITEMNAME
1000
LNSP2
  0
MTEXT
  5
11A3
330
1A
100
AcDbEntity
  8
251
  6
CONTINUOUS
100
AcDbMText
 10
-34.9621122
 20
-21.86001894
 30
0.0
 40
2.8
 41
0.0
 71
     7
 72
     1
  1
HSK-A40
  7
YOKO
1001
ITEMNAME
1000
LNSP3
1001
ACAD
1000
MTEXTBEGIN
1070
    73
1070
     1
1070
    44
1040
1.0
1070
    74
1070
     0
1000
MTEXTEND
1000
MTEXTBEGIN
1070
    73
1070
     1
1070
    44
1040
1.0
1070
    74
1070
     0
1000
MTEXTEND
1000
MTEXTBEGIN
1070
    73
1070
     1
1070
    44
1040
1.0
1070
    74
1070
     0
1000
MTEXTEND
1000
MTEXTBEGIN
1070
    73
1070
     1
1070
    44
1040
1.0
1070
    74
1070
     0
1000
MTEXTEND
1000
MTEXTBEGIN
1070
    73
1070
     1
1070
    44
1040
1.0
1070
    74
1070
     0
1000
MTEXTEND
1000
MTEXTBEGIN
1070
    73
1070
     1
1070
    44
1040
1.0
1070
    74
1070
     0
1000
MTEXTEND
1000
MTEXTBEGIN
1070
    73
1070
     1
1070
    44
1040
1.0
1070
    74
1070
     0
1000
MTEXTEND
  0
LEADER
  5
11A5
330
1A
100
AcDbEntity
  8
250
  6
CONTINUOUS
100
AcDbLeader
  3
BIGT
 76
     2
 10
-8.8183672
 20
-14.75908164
 30
0.0
 10
-13.49544553
 20
-22.86001894
 30
0.0
1001
ACAD
1000
DSTYLE
1002
{
1070
     6
1000
OPEN
1070
   343
1005
594
1002
}
  0
INSERT
  5
131F
330
1A
100
AcDbEntity
  8
245
100
AcDbBlockReference
  2
1
 10
0.0
 20
0.0
 30
0.0
  0
VIEWPORT
  5
22
330
17
100
AcDbEntity
 67
     1
  8
0
100
AcDbViewport
 10
261.51769912
 20
148.5
 30
0.0
 40
523.03539823
 41
297.0
 68
     1
 69
     1
1001
ACAD
1000
MVIEW
1002
{
1070
    16
1010
0.0
1020
0.0
1030
0.0
1010
0.0
1020
0.0
1030
1.0
1040
0.0
1040
297.0
1040
261.51769912
1040
148.5
1040
50.0
1040
0.0
1040
0.0
1070
     0
1070
   100
1070
     1
1070
     1
1070
     0
1070
     0
1070
     0
1070
     0
1040
0.0
1040
0.0
1040
0.0
1040
1.0
1040
1.0
1040
10.0
1040
10.0
1070
     0
1002
{
1002
}
1002
}
  0
ENDSEC
  0
SECTION
  2
OBJECTS
  0
DICTIONARY
  5
C
330
0
100
AcDbDictionary
  3
ACAD_GROUP
350
D
  3
ACAD_LAYOUT
350
565
  3
ACAD_MLINESTYLE
350
E
  3
ACAD_PLOTSETTINGS
350
566
  3
ACAD_PLOTSTYLENAME
350
563
  3
ACDBHEADERROUNDTRIPXREC
350
1321
  3
GRADE_DWG
350
540
  0
DICTIONARY
  5
DF5
330
1A
100
AcDbDictionary
280
     1
  3
ACAD_LAYOUTSELFREF
360
1343
  0
DICTIONARY
  5
DF3
330
17
100
AcDbDictionary
280
     1
  3
ACAD_LAYOUTSELFREF
360
1342
  0
DICTIONARY
  5
D
102
{ACAD_REACTORS
330
C
102
}
330
C
100
AcDbDictionary
  3
*A1
350
6C7
  3
*A2
350
6C8
  3
*A3
350
6D4
  3
*A4
350
6D5
  3
DREC-1
350
5FC
  3
DREC-2
350
654
  3
DREC-3
350
673
  0
DICTIONARY
  5
565
102
{ACAD_REACTORS
330
C
102
}
330
C
100
AcDbDictionary
  0
DICTIONARY
  5
E
102
{ACAD_REACTORS
330
C
102
}
330
C
100
AcDbDictionary
  3
STANDARD
350
13
  0
DICTIONARY
  5
566
102
{ACAD_REACTORS
330
C
102
}
330
C
100
AcDbDictionary
  3
A3_0_5倍_
350
758
  3
A3_1倍_
350
757
  3
A3_1倍__2000_
350
707
  3
A3_2倍_
350
759
  3
A4_0_5倍_
350
755
  3
A4_1倍_
350
754
  3
A4_1倍__2000_
350
708
  3
A4_2倍_
350
756
  0
ACDBDICTIONARYWDFLT
  5
563
102
{ACAD_REACTORS
330
C
102
}
330
C
100
AcDbDictionary
281
     1
  3
Normal
350
564
100
AcDbDictionaryWithDefault
340
564
  0
DICTIONARY
  5
1321
102
{ACAD_REACTORS
330
C
102
}
330
C
100
AcDbDictionary
  3
CEPSNTYPE
350
132B
  3
DIMSTYLEDATA
350
132F
  3
FINGERPRINTGUID
350
132C
  3
HYPERLINKBASE
350
1324
  3
INSUNITS
350
132A
  3
LAYOUTDICT
350
1326
  3
LWETCUNION
350
1329
  3
PLOTSETDICT
350
1327
  3
PLOTSTYLNAMDICT
350
1328
  3
PSVPSCALE
350
132E
  3
PUCSBASE
350
1332
  3
PUCSORGBACK
350
1338
  3
PUCSORGBOTTOM
350
1334
  3
PUCSORGFRONT
350
1337
  3
PUCSORGLEFT
350
1335
  3
PUCSORGRIGHT
350
1336
  3
PUCSORGTOP
350
1333
  3
PUCSORTHOREF
350
1330
  3
PUCSORTHOVIEW
350
1331
  3
STYLESHEET
350
1325
  3
TSTACKALIGN
350
1322
  3
TSTACKSIZE
350
1323
  3
UCSBASE
350
133B
  3
UCSORGBACK
350
1341
  3
UCSORGBOTTOM
350
133D
  3
UCSORGFRONT
350
1340
  3
UCSORGLEFT
350
133E
  3
UCSORGRIGHT
350
133F
  3
UCSORGTOP
350
133C
  3
UCSORTHOREF
350
1339
  3
UCSORTHOVIEW
350
133A
  3
VERSIONGUID
350
132D
  0
DICTIONARY
  5
540
102
{ACAD_REACTORS
330
C
102
}
330
C
100
AcDbDictionary
  3
VERSION
350
560
  0
XRECORD
  5
1343
102
{ACAD_REACTORS
330
DF5
102
}
330
DF5
100
AcDbXrecord
340
1A
  0
XRECORD
  5
1342
102
{ACAD_REACTORS
330
DF3
102
}
330
DF3
100
AcDbXrecord
340
17
  0
GROUP
  5
6C7
102
{ACAD_REACTORS
330
D
102
}
330
D
100
AcDbGroup
300

 70
     0
 71
     1
1001
GRPNAME
1000
DMA00
  0
GROUP
  5
6C8
102
{ACAD_REACTORS
330
D
102
}
330
D
100
AcDbGroup
300

 70
     0
 71
     1
1001
GRPNAME
1000
DMA00
  0
GROUP
  5
6D4
102
{ACAD_REACTORS
330
D
102
}
330
D
100
AcDbGroup
300

 70
     0
 71
     1
1001
GRPNAME
1000
DMA00
  0
GROUP
  5
6D5
102
{ACAD_REACTORS
330
D
102
}
330
D
100
AcDbGroup
300

 70
     0
 71
     1
1001
GRPNAME
1000
DMA00
  0
GROUP
  5
5FC
102
{ACAD_REACTORS
330
D
102
}
330
D
100
AcDbGroup
300

 70
     0
 71
     1
1001
GRPNAME
1000
DREC-
1001
GPARA
1000
xsiz
1000
44.182
1000
ysiz
1000
40.677
1000
angl
1000
0
1000
ctyp
1000
0
1000
csiz
1000
5
1000
lfnt
1000
cont
1000
hcnt
1000
hoff
1000
vcnt
1000
voff
1000
opnt
1000
4
1000
dxpt
1000
0
1000
dypt
1000
0
  0
GROUP
  5
654
102
{ACAD_REACTORS
330
D
102
}
330
D
100
AcDbGroup
300

 70
     0
 71
     1
1001
GRPNAME
1000
DREC-
1001
GPARA
1000
xsiz
1000
54.592
1000
ysiz
1000
53.036
1000
angl
1000
0
1000
ctyp
1000
0
1000
csiz
1000
5
1000
lfnt
1000
cont
1000
hcnt
1000
hoff
1000
vcnt
1000
voff
1000
opnt
1000
4
1000
dxpt
1000
0
1000
dypt
1000
0
  0
GROUP
  5
673
102
{ACAD_REACTORS
330
D
102
}
330
D
100
AcDbGroup
300

 70
     0
 71
     1
1001
GRPNAME
1000
DREC-
1001
GPARA
1000
xsiz
1000
30.363
1000
ysiz
1000
36.175
1000
angl
1000
0
1000
ctyp
1000
0
1000
csiz
1000
5
1000
lfnt
1000
cont
1000
hcnt
1000
hoff
1000
vcnt
1000
voff
1000
opnt
1000
4
1000
dxpt
1000
0
1000
dypt
1000
0
  0
MLINESTYLE
  5
13
102
{ACAD_REACTORS
330
E
102
}
330
E
100
AcDbMlineStyle
  2
STANDARD
 70
     0
  3

 62
     0
 51
90.0
 52
90.0
 71
     2
 49
0.5
 62
   256
  6
BYLAYER
 49
-0.5
 62
   256
  6
BYLAYER
  0
PLOTSETTINGS
  5
758
102
{ACAD_REACTORS
330
566
102
}
330
566
100
AcDbPlotSettings
  1
A3(0.5倍)
  2
\\AWTECPC05\HP DeskJet 1120C
  4
A3
  6

 40
5.95841646
 41
13.49375153
 42
6.04309082
 43
3.67242432
 44
296.92599487
 45
419.94665527
 46
89.96
 47
127.14
 48
0.0
 49
0.0
140
0.0
141
0.0
142
1.0
143
2.0
 70
  1716
 72
     1
 73
     1
 74
     2
  7
big.ctb
 75
    17
147
0.5
148
0.0
149
0.0
  0
PLOTSETTINGS
  5
757
102
{ACAD_REACTORS
330
566
102
}
330
566
100
AcDbPlotSettings
  1
A3(1倍)
  2
\\AWTECPC05\HP DeskJet 1120C
  4
A3
  6

 40
5.95841646
 41
13.49375153
 42
6.04309082
 43
3.67242432
 44
296.92599487
 45
419.94665527
 46
37.46
 47
52.89
 48
0.0
 49
0.0
140
0.0
141
0.0
142
1.0
143
1.0
 70
  1716
 72
     1
 73
     1
 74
     2
  7
big.ctb
 75
    16
147
1.0
148
0.0
149
0.0
  0
PLOTSETTINGS
  5
707
102
{ACAD_REACTORS
330
566
102
}
330
566
100
AcDbPlotSettings
  1
A3(1倍)(2000)
  2
SII LS-1300 (D-SCAN)
  4
User258
  6

 40
3.17499995
 41
3.17499995
 42
3.17498779
 43
3.17498779
 44
419.98898315
 45
296.98950195
 46
58.32
 47
40.32
 48
0.0
 49
0.0
140
0.0
141
0.0
142
1.0
143
1.0
 70
  1716
 72
     1
 73
     0
 74
     2
  7
big.ctb
 75
    16
147
1.0
148
0.0
149
0.0
  0
PLOTSETTINGS
  5
759
102
{ACAD_REACTORS
330
566
102
}
330
566
100
AcDbPlotSettings
  1
A3(2倍)
  2
\\AWTECPC05\HP DeskJet 1120C
  4
A3
  6

 40
5.95841646
 41
13.49375153
 42
6.04309082
 43
3.67242432
 44
296.92599487
 45
419.94665527
 46
-67.54
 47
-95.61
 48
0.0
 49
0.0
140
0.0
141
0.0
142
1.0
143
0.5
 70
  1716
 72
     1
 73
     1
 74
     2
  7
big.ctb
 75
    27
147
2.0
148
0.0
149
0.0
  0
PLOTSETTINGS
  5
755
102
{ACAD_REACTORS
330
566
102
}
330
566
100
AcDbPlotSettings
  1
A4(0.5倍)
  2
\\AWTECPC05\HP DeskJet 1120C
  4
A4
  6

 40
4.18041658
 41
13.49374962
 42
4.18040466
 43
3.92642212
 44
209.97332764
 45
296.92599487
 46
48.31
 47
65.5
 48
0.0
 49
0.0
140
0.0
141
0.0
142
1.0
143
2.0
 70
  1716
 72
     1
 73
     1
 74
     2
  7
big.ctb
 75
    17
147
0.5
148
0.0
149
0.0
  0
PLOTSETTINGS
  5
754
102
{ACAD_REACTORS
330
566
102
}
330
566
100
AcDbPlotSettings
  1
A4(1倍)
  2
\\AWTECPC05\HP DeskJet 1120C
  4
A4
  6

 40
4.18041658
 41
13.49374962
 42
4.18040466
 43
3.92642212
 44
209.97332764
 45
296.92599487
 46
-4.19
 47
-8.75
 48
0.0
 49
0.0
140
0.0
141
0.0
142
1.0
143
1.0
 70
  1716
 72
     1
 73
     1
 74
     2
  7
big.ctb
 75
    16
147
1.0
148
0.0
149
0.0
  0
PLOTSETTINGS
  5
708
102
{ACAD_REACTORS
330
566
102
}
330
566
100
AcDbPlotSettings
  1
A4(1倍)(2000)
  2
SII LS-1300 (D-SCAN)
  4
User259
  6

 40
3.17499995
 41
3.17499995
 42
3.17498779
 43
3.17500305
 44
296.98950195
 45
209.99449158
 46
-3.18
 47
-3.18
 48
0.0
 49
0.0
140
0.0
141
0.0
142
1.0
143
1.0
 70
  1716
 72
     1
 73
     0
 74
     2
  7
big.ctb
 75
    16
147
1.0
148
0.0
149
0.0
  0
PLOTSETTINGS
  5
756
102
{ACAD_REACTORS
330
566
102
}
330
566
100
AcDbPlotSettings
  1
A4(2倍)
  2
\\AWTECPC05\HP DeskJet 1120C
  4
A4
  6

 40
4.18041658
 41
13.49374962
 42
4.18040466
 43
3.92642212
 44
209.97332764
 45
296.92599487
 46
-109.19
 47
-157.25
 48
0.0
 49
0.0
140
0.0
141
0.0
142
1.0
143
0.5
 70
  1716
 72
     1
 73
     1
 74
     2
  7
big.ctb
 75
    27
147
2.0
148
0.0
149
0.0
  0
ACDBPLACEHOLDER
  5
564
102
{ACAD_REACTORS
330
563
102
}
330
563
100
AcDbPlaceHolder
280
     0
  0
XRECORD
  5
132B
102
{ACAD_REACTORS
330
1321
102
}
330
1321
100
AcDbXrecord
 90
        0
  0
XRECORD
  5
132F
102
{ACAD_REACTORS
330
1321
102
}
330
1321
100
AcDbXrecord
1000
DSTYLE
1002
{
1070
    79
 70
     2
1070
   179
 70
     3
1070
   341
340
594
1070
   343
340
594
1070
   344
340
594
1070
   371
 70
    -1
1070
   372
 70
    -1
1002
}
  0
XRECORD
  5
132C
102
{ACAD_REACTORS
330
1321
102
}
330
1321
100
AcDbXrecord
  1
{51294030-9CB4-11D3-8E18-00A0C925D94D}
  0
XRECORD
  5
1324
102
{ACAD_REACTORS
330
1321
102
}
330
1321
100
AcDbXrecord
  1

  0
XRECORD
  5
132A
102
{ACAD_REACTORS
330
1321
102
}
330
1321
100
AcDbXrecord
 90
        0
  0
XRECORD
  5
1326
102
{ACAD_REACTORS
330
1321
102
}
330
1321
100
AcDbXrecord
340
565
  0
XRECORD
  5
1329
102
{ACAD_REACTORS
330
1321
102
}
330
1321
100
AcDbXrecord
 90
    10781
  0
XRECORD
  5
1327
102
{ACAD_REACTORS
330
1321
102
}
330
1321
100
AcDbXrecord
340
566
  0
XRECORD
  5
1328
102
{ACAD_REACTORS
330
1321
102
}
330
1321
100
AcDbXrecord
340
563
  0
XRECORD
  5
132E
102
{ACAD_REACTORS
330
1321
102
}
330
1321
100
AcDbXrecord
 40
0.0
  0
XRECORD
  5
1332
102
{ACAD_REACTORS
330
1321
102
}
330
1321
100
AcDbXrecord
340
0
  0
XRECORD
  5
1338
102
{ACAD_REACTORS
330
1321
102
}
330
1321
100
AcDbXrecord
 10
0.0
 20
0.0
 30
0.0
  0
XRECORD
  5
1334
102
{ACAD_REACTORS
330
1321
102
}
330
1321
100
AcDbXrecord
 10
0.0
 20
0.0
 30
0.0
  0
XRECORD
  5
1337
102
{ACAD_REACTORS
330
1321
102
}
330
1321
100
AcDbXrecord
 10
0.0
 20
0.0
 30
0.0
  0
XRECORD
  5
1335
102
{ACAD_REACTORS
330
1321
102
}
330
1321
100
AcDbXrecord
 10
0.0
 20
0.0
 30
0.0
  0
XRECORD
  5
1336
102
{ACAD_REACTORS
330
1321
102
}
330
1321
100
AcDbXrecord
 10
0.0
 20
0.0
 30
0.0
  0
XRECORD
  5
1333
102
{ACAD_REACTORS
330
1321
102
}
330
1321
100
AcDbXrecord
 10
0.0
 20
0.0
 30
0.0
  0
XRECORD
  5
1330
102
{ACAD_REACTORS
330
1321
102
}
330
1321
100
AcDbXrecord
340
0
  0
XRECORD
  5
1331
102
{ACAD_REACTORS
330
1321
102
}
330
1321
100
AcDbXrecord
 70
     0
  0
XRECORD
  5
1325
102
{ACAD_REACTORS
330
1321
102
}
330
1321
100
AcDbXrecord
  1
big.ctb
  0
XRECORD
  5
1322
102
{ACAD_REACTORS
330
1321
102
}
330
1321
100
AcDbXrecord
 90
        1
  0
XRECORD
  5
1323
102
{ACAD_REACTORS
330
1321
102
}
330
1321
100
AcDbXrecord
 90
       70
  0
XRECORD
  5
133B
102
{ACAD_REACTORS
330
1321
102
}
330
1321
100
AcDbXrecord
340
0
  0
XRECORD
  5
1341
102
{ACAD_REACTORS
330
1321
102
}
330
1321
100
AcDbXrecord
 10
0.0
 20
0.0
 30
0.0
  0
XRECORD
  5
133D
102
{ACAD_REACTORS
330
1321
102
}
330
1321
100
AcDbXrecord
 10
0.0
 20
0.0
 30
0.0
  0
XRECORD
  5
1340
102
{ACAD_REACTORS
330
1321
102
}
330
1321
100
AcDbXrecord
 10
0.0
 20
0.0
 30
0.0
  0
XRECORD
  5
133E
102
{ACAD_REACTORS
330
1321
102
}
330
1321
100
AcDbXrecord
 10
0.0
 20
0.0
 30
0.0
  0
XRECORD
  5
133F
102
{ACAD_REACTORS
330
1321
102
}
330
1321
100
AcDbXrecord
 10
0.0
 20
0.0
 30
0.0
  0
XRECORD
  5
133C
102
{ACAD_REACTORS
330
1321
102
}
330
1321
100
AcDbXrecord
 10
0.0
 20
0.0
 30
0.0
  0
XRECORD
  5
1339
102
{ACAD_REACTORS
330
1321
102
}
330
1321
100
AcDbXrecord
340
0
  0
XRECORD
  5
133A
102
{ACAD_REACTORS
330
1321
102
}
330
1321
100
AcDbXrecord
 70
     0
  0
XRECORD
  5
132D
102
{ACAD_REACTORS
330
1321
102
}
330
1321
100
AcDbXrecord
  1
{46C9F145-C220-4FC0-A634-0B75514C4861}
  0
XRECORD
  5
560
102
{ACAD_REACTORS
330
540
102
}
330
540
100
AcDbXrecord
  1
2.0.0
  0
ENDSEC
  0
EOF
