  0
SECTION
  2
HEADER
  9
$ACADVER
  1
AC1014
  9
$ACADMAINTVER
 70
     9
  9
$DWGCODEPAGE
  3
ANSI_932
  9
$INSBASE
 10
0.0
 20
0.0
 30
0.0
  9
$EXTMIN
 10
-55.71063373956377
 20
-50.2071067814468
 30
0.0
  9
$EXTMAX
 10
113.0
 20
89.00000000000002
 30
0.0
  9
$LIMMIN
 10
0.0
 20
0.0
  9
$LIMMAX
 10
297.0
 20
210.0
  9
$ORTHOMODE
 70
     0
  9
$REGENMODE
 70
     1
  9
$FILLMODE
 70
     1
  9
$QTEXTMODE
 70
     0
  9
$MIRRTEXT
 70
     1
  9
$DRAGMODE
 70
     2
  9
$LTSCALE
 40
10.0
  9
$OSMODE
 70
   613
  9
$ATTMODE
 70
     1
  9
$TEXTSIZE
 40
3.0
  9
$TRACEWID
 40
1.0
  9
$TEXTSTYLE
  7
YOKO
  9
$CLAYER
  8
240
  9
$CELTYPE
  6
BYLAYER
  9
$CECOLOR
 62
   256
  9
$CELTSCALE
 40
1.0
  9
$DELOBJ
 70
     1
  9
$DISPSILH
 70
     0
  9
$DIMSCALE
 40
1.0
  9
$DIMASZ
 40
2.229999999999999
  9
$DIMEXO
 40
0.5
  9
$DIMDLI
 40
2.5
  9
$DIMRND
 40
0.0
  9
$DIMDLE
 40
0.0
  9
$DIMEXE
 40
1.0
  9
$DIMTP
 40
0.0
  9
$DIMTM
 40
0.0
  9
$DIMTXT
 40
3.0
  9
$DIMCEN
 40
0.0
  9
$DIMTSZ
 40
0.0
  9
$DIMTOL
 70
     0
  9
$DIMLIM
 70
     0
  9
$DIMTIH
 70
     0
  9
$DIMTOH
 70
     0
  9
$DIMSE1
 70
     0
  9
$DIMSE2
 70
     0
  9
$DIMTAD
 70
     3
  9
$DIMZIN
 70
     8
  9
$DIMBLK
  1
OPEN
  9
$DIMASO
 70
     1
  9
$DIMSHO
 70
     1
  9
$DIMPOST
  1

  9
$DIMAPOST
  1

  9
$DIMALT
 70
     0
  9
$DIMALTD
 70
     2
  9
$DIMALTF
 40
25.4
  9
$DIMLFAC
 40
1.0
  9
$DIMTOFL
 70
     1
  9
$DIMTVP
 40
0.0
  9
$DIMTIX
 70
     0
  9
$DIMSOXD
 70
     0
  9
$DIMSAH
 70
     0
  9
$DIMBLK1
  1

  9
$DIMBLK2
  1

  9
$DIMSTYLE
  2
BIGT
  9
$DIMCLRD
 70
   256
  9
$DIMCLRE
 70
   256
  9
$DIMCLRT
 70
    40
  9
$DIMTFAC
 40
1.0
  9
$DIMGAP
 40
1.0
  9
$DIMJUST
 70
     0
  9
$DIMSD1
 70
     0
  9
$DIMSD2
 70
     0
  9
$DIMTOLJ
 70
     1
  9
$DIMTZIN
 70
     8
  9
$DIMALTZ
 70
     0
  9
$DIMALTTZ
 70
     0
  9
$DIMFIT
 70
     2
  9
$DIMUPT
 70
     0
  9
$DIMUNIT
 70
     2
  9
$DIMDEC
 70
     3
  9
$DIMTDEC
 70
     3
  9
$DIMALTU
 70
     2
  9
$DIMALTTD
 70
     2
  9
$DIMTXSTY
  7
STANDARD
  9
$DIMAUNIT
 70
     0
  9
$LUNITS
 70
     2
  9
$LUPREC
 70
     3
  9
$SKETCHINC
 40
1.0
  9
$FILLETRAD
 40
0.0
  9
$AUNITS
 70
     0
  9
$AUPREC
 70
     3
  9
$MENU
  1
.
  9
$ELEVATION
 40
0.0
  9
$PELEVATION
 40
0.0
  9
$THICKNESS
 40
0.0
  9
$LIMCHECK
 70
     0
  9
$BLIPMODE
 70
     0
  9
$CHAMFERA
 40
10.0
  9
$CHAMFERB
 40
10.0
  9
$CHAMFERC
 40
0.0
  9
$CHAMFERD
 40
0.0
  9
$SKPOLY
 70
     0
  9
$TDCREATE
 40
2452230.371740081
  9
$TDUPDATE
 40
2452461.495333287
  9
$TDINDWG
 40
0.1586114815
  9
$TDUSRTIMER
 40
0.1586114815
  9
$USRTIMER
 70
     1
  9
$ANGBASE
 50
0.0
  9
$ANGDIR
 70
     0
  9
$PDMODE
 70
    35
  9
$PDSIZE
 40
2.0
  9
$PLINEWID
 40
0.0
  9
$COORDS
 70
     0
  9
$SPLFRAME
 70
     0
  9
$SPLINETYPE
 70
     6
  9
$SPLINESEGS
 70
     8
  9
$ATTDIA
 70
     0
  9
$ATTREQ
 70
     0
  9
$HANDLING
 70
 22529
  9
$HANDSEED
  5
885C
  9
$SURFTAB1
 70
     6
  9
$SURFTAB2
 70
     6
  9
$SURFTYPE
 70
     6
  9
$SURFU
 70
     6
  9
$SURFV
 70
     6
  9
$UCSNAME
  2

  9
$UCSORG
 10
0.0
 20
0.0
 30
0.0
  9
$UCSXDIR
 10
1.0
 20
0.0
 30
0.0
  9
$UCSYDIR
 10
0.0
 20
1.0
 30
0.0
  9
$PUCSNAME
  2

  9
$PUCSORG
 10
0.0
 20
0.0
 30
0.0
  9
$PUCSXDIR
 10
1.0
 20
0.0
 30
0.0
  9
$PUCSYDIR
 10
0.0
 20
1.0
 30
0.0
  9
$USERI1
 70
     1
  9
$USERI2
 70
     0
  9
$USERI3
 70
     0
  9
$USERI4
 70
     0
  9
$USERI5
 70
     0
  9
$USERR1
 40
0.0
  9
$USERR2
 40
0.0
  9
$USERR3
 40
0.0
  9
$USERR4
 40
0.0
  9
$USERR5
 40
0.0
  9
$WORLDVIEW
 70
     1
  9
$SHADEDGE
 70
     3
  9
$SHADEDIF
 70
    70
  9
$TILEMODE
 70
     1
  9
$MAXACTVP
 70
    16
  9
$PINSBASE
 10
0.0
 20
0.0
 30
0.0
  9
$PLIMCHECK
 70
     0
  9
$PEXTMIN
 10
1.000000000000000E+20
 20
1.000000000000000E+20
 30
1.000000000000000E+20
  9
$PEXTMAX
 10
-1.000000000000000E+20
 20
-1.000000000000000E+20
 30
-1.000000000000000E+20
  9
$PLIMMIN
 10
0.0
 20
0.0
  9
$PLIMMAX
 10
420.0
 20
297.0
  9
$UNITMODE
 70
     0
  9
$VISRETAIN
 70
     0
  9
$PLINEGEN
 70
     0
  9
$PSLTSCALE
 70
     1
  9
$TREEDEPTH
 70
  3020
  9
$PICKSTYLE
 70
     0
  9
$CMLSTYLE
  2
STANDARD
  9
$CMLJUST
 70
     0
  9
$CMLSCALE
 40
1.0
  9
$PROXYGRAPHICS
 70
     1
  9
$MEASUREMENT
 70
     1
  0
ENDSEC
  0
SECTION
  2
CLASSES
  0
CLASS
  1
XRECORD
  2
AcDbXrecord
  3
AutoCAD 2000
 90
        0
280
     0
281
     0
  0
CLASS
  1
ACDBDICTIONARYWDFLT
  2
AcDbDictionaryWithDefault
  3
AutoCAD 2000
 90
        0
280
     0
281
     0
  0
CLASS
  1
ACDBPLACEHOLDER
  2
AcDbPlaceHolder
  3
AutoCAD 2000
 90
        0
280
     0
281
     0
  0
CLASS
  1
LAYOUT
  2
AcDbLayout
  3
AutoCAD 2000
 90
        0
280
     0
281
     0
  0
CLASS
  1
DICTIONARYVAR
  2
AcDbDictionaryVar
  3
AutoCAD 2000
 90
        0
280
     0
281
     0
  0
CLASS
  1
LONG_TRANSACTION
  2
AcDbLongTransaction
  3
AutoCAD 2000
 90
        0
280
     0
281
     0
  0
CLASS
  1
LWPOLYLINE
  2
AcDbPolyline
  3
AutoCAD 2000
 90
        0
280
     0
281
     1
  0
CLASS
  1
HATCH
  2
AcDbHatch
  3
AutoCAD 2000
 90
        0
280
     0
281
     1
  0
CLASS
  1
XRECORD
  2
AcDbXrecord
  3
AutoCAD 2000
 90
        0
280
     0
281
     0
  0
ENDSEC
  0
SECTION
  2
TABLES
  0
TABLE
  2
VPORT
  5
8
330
0
100
AcDbSymbolTable
 70
     2
  0
VPORT
  5
882D
330
8
100
AcDbSymbolTableRecord
100
AcDbViewportTableRecord
  2
*ACTIVE
 70
     0
 10
0.0
 20
0.0
 11
1.0
 21
1.0
 12
28.65394832773258
 22
19.3884364734426
 13
0.0
 23
0.0
 14
7.0
 24
7.0
 15
7.0
 25
7.0
 16
0.0
 26
0.0
 36
1.0
 17
0.0
 27
0.0
 37
0.0
 40
140.3217228252189
 41
1.53185955786736
 42
50.0
 43
0.0
 44
0.0
 50
0.0
 51
0.0
 71
     0
 72
  2000
 73
     1
 74
     0
 75
     1
 76
     0
 77
     0
 78
     0
  0
ENDTAB
  0
TABLE
  2
LTYPE
  5
5
330
0
100
AcDbSymbolTable
 70
     4
  0
LTYPE
  5
14
330
5
100
AcDbSymbolTableRecord
100
AcDbLinetypeTableRecord
  2
BYBLOCK
 70
     0
  3

 72
    65
 73
     0
 40
0.0
  0
LTYPE
  5
15
330
5
100
AcDbSymbolTableRecord
100
AcDbLinetypeTableRecord
  2
BYLAYER
 70
     0
  3

 72
    65
 73
     0
 40
0.0
  0
LTYPE
  5
16
330
5
100
AcDbSymbolTableRecord
100
AcDbLinetypeTableRecord
  2
CONTINUOUS
 70
     0
  3
Solid line
 72
    65
 73
     0
 40
0.0
  0
LTYPE
  5
258
330
5
100
AcDbSymbolTableRecord
100
AcDbLinetypeTableRecord
  2
CENTER2
 70
     0
  3
___ _ ___ _ ___ _ ___ _ ___ _ ___ _ ___ _ ___ _
 72
    65
 73
     4
 40
1.125
 49
0.75
 74
     0
 49
-0.125
 74
     0
 49
0.125
 74
     0
 49
-0.125
 74
     0
  0
LTYPE
  5
25C
330
5
100
AcDbSymbolTableRecord
100
AcDbLinetypeTableRecord
  2
HIDDEN2
 70
     0
  3
_ _ _ _ _ _ _ _ _ _ _ _ _ _ _ _ _ _ _ _ _ _ _ _
 72
    65
 73
     2
 40
0.1875
 49
0.125
 74
     0
 49
-0.0625
 74
     0
  0
LTYPE
  5
25D
330
5
100
AcDbSymbolTableRecord
100
AcDbLinetypeTableRecord
  2
PHANTOM2
 70
     0
  3
___ _ _ ___ _ _ ___ _ _ ___ _ _ ___ _ _ ___ _ _
 72
    65
 73
     6
 40
1.25
 49
0.625
 74
     0
 49
-0.125
 74
     0
 49
0.125
 74
     0
 49
-0.125
 74
     0
 49
0.125
 74
     0
 49
-0.125
 74
     0
  0
ENDTAB
  0
TABLE
  2
LAYER
  5
2
330
0
100
AcDbSymbolTable
 70
    11
  0
LAYER
  5
F
330
2
100
AcDbSymbolTableRecord
100
AcDbLayerTableRecord
  2
0
 70
     0
 62
     7
  6
CONTINUOUS
  0
LAYER
  5
1AA
330
2
100
AcDbSymbolTableRecord
100
AcDbLayerTableRecord
  2
240
 70
     0
 62
     4
  6
CONTINUOUS
  0
LAYER
  5
1AB
330
2
100
AcDbSymbolTableRecord
100
AcDbLayerTableRecord
  2
241
 70
     0
 62
   211
  6
CONTINUOUS
  0
LAYER
  5
1AC
330
2
100
AcDbSymbolTableRecord
100
AcDbLayerTableRecord
  2
242
 70
     0
 62
     3
  6
CONTINUOUS
  0
LAYER
  5
1AD
330
2
100
AcDbSymbolTableRecord
100
AcDbLayerTableRecord
  2
243
 70
     0
 62
   211
  6
HIDDEN2
  0
LAYER
  5
1AF
330
2
100
AcDbSymbolTableRecord
100
AcDbLayerTableRecord
  2
245
 70
     0
 62
     2
  6
CENTER2
  0
LAYER
  5
21A
330
2
100
AcDbSymbolTableRecord
100
AcDbLayerTableRecord
  2
246
 70
     0
 62
     3
  6
PHANTOM2
  0
LAYER
  5
21B
330
2
100
AcDbSymbolTableRecord
100
AcDbLayerTableRecord
  2
247
 70
     0
 62
    60
  6
CONTINUOUS
  0
LAYER
  5
21E
330
2
100
AcDbSymbolTableRecord
100
AcDbLayerTableRecord
  2
250
 70
     0
 62
     3
  6
CONTINUOUS
  0
LAYER
  5
355
330
2
100
AcDbSymbolTableRecord
100
AcDbLayerTableRecord
  2
GRADE
 70
     5
 62
    -7
  6
CONTINUOUS
  0
LAYER
  5
5C4
330
2
100
AcDbSymbolTableRecord
100
AcDbLayerTableRecord
  2
DEFPOINTS
 70
     0
 62
     7
  6
CONTINUOUS
  0
ENDTAB
  0
TABLE
  2
STYLE
  5
3
330
0
100
AcDbSymbolTable
 70
     2
  0
STYLE
  5
10
330
3
100
AcDbSymbolTableRecord
100
AcDbTextStyleTableRecord
  2
STANDARD
 70
     0
 40
0.0
 41
1.0
 50
0.0
 71
     0
 42
3.0
  3
romans.shx
  4
BIGFONT.SHX
  0
STYLE
  5
339
330
3
100
AcDbSymbolTableRecord
100
AcDbTextStyleTableRecord
  2
YOKO
 70
     0
 40
0.0
 41
1.0
 50
0.0
 71
     0
 42
3.0
  3
romans.shx
  4
extfont.shx
  0
ENDTAB
  0
TABLE
  2
VIEW
  5
6
330
0
100
AcDbSymbolTable
 70
     0
  0
ENDTAB
  0
TABLE
  2
UCS
  5
7
330
0
100
AcDbSymbolTable
 70
     0
  0
ENDTAB
  0
TABLE
  2
APPID
  5
9
330
0
100
AcDbSymbolTable
 70
    10
  0
APPID
  5
11
330
9
100
AcDbSymbolTableRecord
100
AcDbRegAppTableRecord
  2
ACAD
 70
     0
  0
APPID
  5
1B1
330
9
100
AcDbSymbolTableRecord
100
AcDbRegAppTableRecord
  2
GLOBAL
 70
     0
  0
APPID
  5
2A4
330
9
100
AcDbSymbolTableRecord
100
AcDbRegAppTableRecord
  2
DETAIL
 70
     0
  0
APPID
  5
5FD
330
9
100
AcDbSymbolTableRecord
100
AcDbRegAppTableRecord
  2
GRPNAME
 70
     0
  0
APPID
  5
5FE
330
9
100
AcDbSymbolTableRecord
100
AcDbRegAppTableRecord
  2
GPARA
 70
     0
  0
APPID
  5
69A
330
9
100
AcDbSymbolTableRecord
100
AcDbRegAppTableRecord
  2
ITEMNAME
 70
     0
  0
APPID
  5
E4D
330
9
100
AcDbSymbolTableRecord
100
AcDbRegAppTableRecord
  2
HATCH_TYPE
 70
     0
  0
APPID
  5
E4E
330
9
100
AcDbSymbolTableRecord
100
AcDbRegAppTableRecord
  2
HATCH_DISPLAY
 70
     0
  0
APPID
  5
E4F
330
9
100
AcDbSymbolTableRecord
100
AcDbRegAppTableRecord
  2
HATCH_DISTANCE
 70
     0
  0
APPID
  5
194D
330
9
100
AcDbSymbolTableRecord
100
AcDbRegAppTableRecord
  2
DRAWING
 70
     0
  0
ENDTAB
  0
TABLE
  2
DIMSTYLE
  5
A
330
0
100
AcDbSymbolTable
 70
     2
  0
DIMSTYLE
105
48F
330
A
100
AcDbSymbolTableRecord
100
AcDbDimStyleTableRecord
  2
STANDARD
 70
     0
  3

  4

  5

  6

  7

 40
1.0
 41
2.0
 42
2.0
 43
3.75
 44
2.0
 45
0.0
 46
0.0
 47
0.0
 48
0.0
140
4.0
141
0.09
142
0.0
143
25.4
144
1.0
145
0.0
146
1.0
147
1.0
 71
     0
 72
     0
 73
     1
 74
     1
 75
     0
 76
     0
 77
     0
 78
     8
170
     0
171
     2
172
     0
173
     1
174
     0
175
     0
176
   256
177
   256
178
   256
270
     2
271
     3
272
     4
273
     2
274
     2
340
10
275
     0
280
     0
281
     0
282
     0
283
     1
284
     8
285
     0
286
     0
287
     3
288
     0
  0
DIMSTYLE
105
59A
102
{ACAD_REACTORS
330
8720
330
8721
330
871E
330
871F
102
}
330
A
100
AcDbSymbolTableRecord
100
AcDbDimStyleTableRecord
  2
BIGT
 70
     0
  3

  4

  5
OPEN
  6

  7

 40
1.0
 41
2.229999999999999
 42
0.5
 43
2.5
 44
1.0
 45
0.0
 46
0.0
 47
0.0
 48
0.0
140
3.5
141
0.0
142
0.0
143
25.4
144
1.0
145
0.0
146
1.0
147
1.0
 71
     0
 72
     0
 73
     0
 74
     0
 75
     0
 76
     0
 77
     3
 78
     9
170
     0
171
     2
172
     1
173
     0
174
     0
175
     0
176
   256
177
   256
178
    40
270
     2
271
     3
272
     3
273
     2
274
     2
340
10
275
     0
280
     0
281
     0
282
     0
283
     1
284
     8
285
     0
286
     0
287
     2
288
     0
  0
ENDTAB
  0
TABLE
  2
BLOCK_RECORD
  5
1
330
0
100
AcDbSymbolTable
 70
     6
  0
BLOCK_RECORD
  5
1A
102
{ACAD_XDICTIONARY
360
8851
102
}
330
1
100
AcDbSymbolTableRecord
100
AcDbBlockTableRecord
  2
*MODEL_SPACE
  0
BLOCK_RECORD
  5
17
102
{ACAD_XDICTIONARY
360
884F
102
}
330
1
100
AcDbSymbolTableRecord
100
AcDbBlockTableRecord
  2
*PAPER_SPACE
  0
BLOCK_RECORD
  5
594
330
1
100
AcDbSymbolTableRecord
100
AcDbBlockTableRecord
  2
_OPEN
  0
BLOCK_RECORD
  5
85F6
330
1
100
AcDbSymbolTableRecord
100
AcDbBlockTableRecord
  2
A$C54E4527B
  0
BLOCK_RECORD
  5
8722
330
1
100
AcDbSymbolTableRecord
100
AcDbBlockTableRecord
  2
*D2
  0
BLOCK_RECORD
  5
872E
330
1
100
AcDbSymbolTableRecord
100
AcDbBlockTableRecord
  2
*D3
  0
BLOCK_RECORD
  5
873A
330
1
100
AcDbSymbolTableRecord
100
AcDbBlockTableRecord
  2
*D4
  0
BLOCK_RECORD
  5
8746
330
1
100
AcDbSymbolTableRecord
100
AcDbBlockTableRecord
  2
*D5
  0
ENDTAB
  0
ENDSEC
  0
SECTION
  2
BLOCKS
  0
BLOCK
  5
1B
330
1A
100
AcDbEntity
  8
0
100
AcDbBlockBegin
  2
*MODEL_SPACE
 70
     0
 10
0.0
 20
0.0
 30
0.0
  3
*MODEL_SPACE
  1

  0
ENDBLK
  5
1C
330
1A
100
AcDbEntity
  8
0
100
AcDbBlockEnd
  0
BLOCK
  5
18
330
17
100
AcDbEntity
 67
     1
  8
0
100
AcDbBlockBegin
  2
*PAPER_SPACE
 70
     0
 10
0.0
 20
0.0
 30
0.0
  3
*PAPER_SPACE
  1

  0
ENDBLK
  5
19
330
17
100
AcDbEntity
 67
     1
  8
0
100
AcDbBlockEnd
  0
BLOCK
  5
598
330
594
100
AcDbEntity
  8
0
100
AcDbBlockBegin
  2
_OPEN
 70
     0
 10
0.0
 20
0.0
 30
0.0
  3
_OPEN
  1

  0
LINE
  5
595
330
594
100
AcDbEntity
  8
0
  6
BYBLOCK
 62
     0
100
AcDbLine
 10
-1.0
 20
0.1666666666666666
 30
0.0
 11
0.0
 21
0.0
 31
0.0
  0
LINE
  5
596
330
594
100
AcDbEntity
  8
0
  6
BYBLOCK
 62
     0
100
AcDbLine
 10
-1.0
 20
-0.1666666666666666
 30
0.0
 11
0.0
 21
0.0
 31
0.0
  0
LINE
  5
597
330
594
100
AcDbEntity
  8
0
  6
BYBLOCK
 62
     0
100
AcDbLine
 10
0.0
 20
0.0
 30
0.0
 11
-1.0
 21
0.0
 31
0.0
  0
ENDBLK
  5
599
330
594
100
AcDbEntity
  8
0
100
AcDbBlockEnd
  0
BLOCK
  5
8717
330
85F6
100
AcDbEntity
  8
0
100
AcDbBlockBegin
  2
A$C54E4527B
 70
     0
 10
0.0
 20
0.0
 30
0.0
  3
A$C54E4527B
  1

  0
ARC
  5
85F7
330
85F6
100
AcDbEntity
  8
240
100
AcDbCircle
 10
42.99999999999989
 20
23.04999999999995
 30
0.0
 40
6.0
100
AcDbArc
 50
179.9999999922811
 51
269.9999999922828
  0
ARC
  5
85F8
330
85F6
100
AcDbEntity
  8
240
100
AcDbCircle
 10
42.99999999999989
 20
-23.05000000000001
 30
0.0
 40
6.0
100
AcDbArc
 50
89.99999999742788
 51
179.999999997427
  0
LINE
  5
85F9
330
85F6
100
AcDbEntity
  8
245
100
AcDbLine
 10
-51.09935003658325
 20
0.0
 30
0.0
 11
95.65642262031905
 21
0.0
 31
0.0
  0
LINE
  5
85FA
330
85F6
100
AcDbEntity
  8
242
100
AcDbLine
 10
29.5
 20
-18.8784565434218
 30
0.0
 11
36.70000000000004
 21
12.17594390431463
 31
0.0
1001
GRPNAME
1000
PASTMD07
  0
LINE
  5
85FB
330
85F6
100
AcDbEntity
  8
242
100
AcDbLine
 10
29.5
 20
12.17594390431463
 30
0.0
 11
36.70000000000004
 21
-18.8784565434218
 31
0.0
1001
GRPNAME
1000
PASTMD07
  0
LINE
  5
85FC
330
85F6
100
AcDbEntity
  8
241
100
AcDbLine
 10
36.70000000000004
 20
12.17594390431463
 30
0.0
 11
36.70000000000004
 21
-6.702512639106942
 31
0.0
1001
GRPNAME
1000
PASTMD07
  0
LINE
  5
85FD
330
85F6
100
AcDbEntity
  8
241
100
AcDbLine
 10
29.0
 20
42.69999999999981
 30
0.0
 11
29.0
 21
-0.0000000000000568
 31
0.0
1001
GRPNAME
1000
PASTMD07
  0
LINE
  5
85FE
330
85F6
100
AcDbEntity
  8
243
100
AcDbLine
 10
0.0
 20
-0.0000000000000568
 30
0.0
 11
0.0
 21
26.89999999999986
 31
0.0
1001
GRPNAME
1000
PASTMD07
  0
LINE
  5
85FF
330
85F6
100
AcDbEntity
  8
241
100
AcDbLine
 10
-2.0
 20
37.89999999999986
 30
0.0
 11
-2.0
 21
-0.0000000000000568
 31
0.0
1001
GRPNAME
1000
PASTMD07
  0
LINE
  5
8600
330
85F6
100
AcDbEntity
  8
241
100
AcDbLine
 10
0.0
 20
-0.0000000000000568
 30
0.0
 11
0.0
 21
37.89999999999986
 31
0.0
1001
GRPNAME
1000
PASTMD07
  0
LINE
  5
8601
330
85F6
100
AcDbEntity
  8
240
100
AcDbLine
 10
-40.0
 20
8.00999999999999
 30
0.0
 11
-40.0
 21
-0.0000000000000568
 31
0.0
1001
GRPNAME
1000
PASTMD07
  0
LINE
  5
8602
330
85F6
100
AcDbEntity
  8
243
100
AcDbLine
 10
-35.0
 20
8.00999999999999
 30
0.0
 11
-35.0
 21
-0.0000000000000568
 31
0.0
1001
GRPNAME
1000
PASTMD07
  0
LINE
  5
8603
330
85F6
100
AcDbEntity
  8
245
100
AcDbLine
 10
-15.0
 20
-9.454847075866325
 30
0.0
 11
-15.0
 21
9.918315848501151
 31
0.0
1001
GRPNAME
1000
PASTMD07
  0
ARC
  5
8604
330
85F6
100
AcDbEntity
  8
241
100
AcDbCircle
 10
15.0
 20
-0.0000000000000568
 30
0.0
 40
10.0
100
AcDbArc
 50
89.99999998199267
 51
179.9999999819926
1001
GRPNAME
1000
PASTMD07
  0
LINE
  5
8605
330
85F6
100
AcDbEntity
  8
241
100
AcDbLine
 10
29.5
 20
12.17594390431463
 30
0.0
 11
29.5
 21
-6.702512639106942
 31
0.0
1001
GRPNAME
1000
PASTMD07
  0
LINE
  5
8606
330
85F6
100
AcDbEntity
  8
241
100
AcDbLine
 10
36.99999999999988
 20
-23.05000000000001
 30
0.0
 11
36.99999999999988
 21
23.04999999999995
 31
0.0
  0
LINE
  5
8607
330
85F6
100
AcDbEntity
  8
240
100
AcDbLine
 10
-1.999999999999715
 20
-37.90000000000003
 30
0.0
 11
-48.0998752338877
 21
-35.59500623830564
 31
0.0
1001
GRPNAME
1000
PASTMD07
  0
LINE
  5
8608
330
85F6
100
AcDbEntity
  8
240
100
AcDbLine
 10
-50.0
 20
-33.59750156054991
 30
0.0
 11
-50.0
 21
-11.51000000000004
 31
0.0
1001
GRPNAME
1000
PASTMD07
  0
ARC
  5
8609
330
85F6
100
AcDbEntity
  8
240
100
AcDbCircle
 10
-48.0
 20
-33.59750156054991
 30
0.0
 40
2.0
100
AcDbArc
 50
180.0000000719706
 51
267.1375948458599
1001
GRPNAME
1000
PASTMD07
  0
LINE
  5
860A
330
85F6
100
AcDbEntity
  8
243
100
AcDbLine
 10
-42.0
 20
-10.01000000000004
 30
0.0
 11
-37.0
 21
-10.01000000000004
 31
0.0
1001
GRPNAME
1000
PASTMD07
  0
ARC
  5
860B
330
85F6
100
AcDbEntity
  8
240
100
AcDbCircle
 10
-42.0
 20
-8.010000000000047
 30
0.0
 40
2.0
100
AcDbArc
 50
269.9999999511238
 51
359.9999999511238
1001
GRPNAME
1000
PASTMD07
  0
ARC
  5
860C
330
85F6
100
AcDbEntity
  8
241
100
AcDbCircle
 10
-41.79999999999995
 20
-13.72250391448579
 30
0.0
 40
1.799999999999994
100
AcDbArc
 50
262.5024763654585
 51
359.9999999093607
1001
GRPNAME
1000
PASTMD07
  0
LINE
  5
860D
330
85F6
100
AcDbEntity
  8
241
100
AcDbLine
 10
-50.0
 20
-14.45883579800573
 30
0.0
 11
-42.03487001120493
 21
-15.50711481825072
 31
0.0
1001
GRPNAME
1000
PASTMD07
  0
LINE
  5
860E
330
85F6
100
AcDbEntity
  8
240
100
AcDbLine
 10
-48.5
 20
-10.01000000000004
 30
0.0
 11
-42.0
 21
-10.01000000000004
 31
0.0
1001
GRPNAME
1000
PASTMD07
  0
LINE
  5
860F
330
85F6
100
AcDbEntity
  8
240
100
AcDbLine
 10
-48.5
 20
-10.01000000000004
 30
0.0
 11
-50.0
 21
-11.51000000000004
 31
0.0
1001
GRPNAME
1000
PASTMD07
  0
LINE
  5
8610
330
85F6
100
AcDbEntity
  8
243
100
AcDbLine
 10
-35.0
 20
-8.010000000000047
 30
0.0
 11
-35.0
 21
-0.0000000000000568
 31
0.0
1001
GRPNAME
1000
PASTMD07
  0
LINE
  5
8611
330
85F6
100
AcDbEntity
  8
240
100
AcDbLine
 10
-40.0
 20
-8.010000000000047
 30
0.0
 11
-40.0
 21
-0.0000000000000568
 31
0.0
1001
GRPNAME
1000
PASTMD07
  0
ARC
  5
8612
330
85F6
100
AcDbEntity
  8
243
100
AcDbCircle
 10
-37.0
 20
-8.010000000000047
 30
0.0
 40
2.0
100
AcDbArc
 50
269.9999999511238
 51
359.9999999511238
1001
GRPNAME
1000
PASTMD07
  0
LINE
  5
8613
330
85F6
100
AcDbEntity
  8
241
100
AcDbLine
 10
-40.0
 20
-13.72250391448579
 30
0.0
 11
-40.0
 21
-8.010000000000047
 31
0.0
1001
GRPNAME
1000
PASTMD07
  0
CIRCLE
  5
8614
330
85F6
100
AcDbEntity
  8
241
100
AcDbCircle
 10
-15.0
 20
-0.0000000000000568
 30
0.0
 40
6.0
1001
GRPNAME
1000
PASTMD07
  0
LINE
  5
8615
330
85F6
100
AcDbEntity
  8
241
100
AcDbLine
 10
15.0
 20
-10.00000000000005
 30
0.0
 11
28.5
 21
-10.00000000000005
 31
0.0
1001
GRPNAME
1000
PASTMD07
  0
LINE
  5
8616
330
85F6
100
AcDbEntity
  8
241
100
AcDbLine
 10
14.63689785920507
 20
-31.50000000000005
 30
0.0
 11
28.5
 21
-31.50000000000005
 31
0.0
1001
GRPNAME
1000
PASTMD07
  0
LINE
  5
8617
330
85F6
100
AcDbEntity
  8
240
100
AcDbLine
 10
1.0
 20
-50.00000000000006
 30
0.0
 11
16.75240473580834
 21
-50.00000000000006
 31
0.0
1001
GRPNAME
1000
PASTMD07
  0
LINE
  5
8618
330
85F6
100
AcDbEntity
  8
241
100
AcDbLine
 10
5.0
 20
-38.82975663070789
 30
0.0
 11
16.75240473580834
 21
-38.82975663070789
 31
0.0
1001
GRPNAME
1000
PASTMD07
  0
LINE
  5
8619
330
85F6
100
AcDbEntity
  8
243
100
AcDbLine
 10
0.0
 20
-0.0000000000000568
 30
0.0
 11
0.0
 21
-26.90000000000003
 31
0.0
1001
GRPNAME
1000
PASTMD07
  0
LINE
  5
861A
330
85F6
100
AcDbEntity
  8
241
100
AcDbLine
 10
-2.0
 20
-37.90000000000003
 30
0.0
 11
-2.0
 21
-0.0000000000000568
 31
0.0
1001
GRPNAME
1000
PASTMD07
  0
LINE
  5
861B
330
85F6
100
AcDbEntity
  8
241
100
AcDbLine
 10
0.0
 20
-0.0000000000000568
 30
0.0
 11
0.0
 21
-37.89999999999975
 31
0.0
1001
GRPNAME
1000
PASTMD07
  0
ARC
  5
861C
330
85F6
100
AcDbEntity
  8
241
100
AcDbCircle
 10
14.63689785920507
 20
-41.50000000000005
 30
0.0
 40
10.0
100
AcDbArc
 50
89.9999999845656
 51
164.5127259857696
1001
GRPNAME
1000
PASTMD07
  0
LINE
  5
861D
330
85F6
100
AcDbEntity
  8
240
100
AcDbLine
 10
-1.999999999999715
 20
-37.90000000000003
 30
0.0
 11
0.0000000000000568
 21
-37.90000000000003
 31
0.0
  0
LINE
  5
861E
330
85F6
100
AcDbEntity
  8
240
100
AcDbLine
 10
0.0
 20
-49.00000000000005
 30
0.0
 11
0.0000000000000568
 21
-37.90000000000003
 31
0.0
1001
GRPNAME
1000
PASTMD07
  0
ARC
  5
861F
330
85F6
100
AcDbEntity
  8
240
100
AcDbCircle
 10
1.0
 20
-49.00000000000005
 30
0.0
 40
1.0
100
AcDbArc
 50
180.0000000719641
 51
270.0000000719739
1001
GRPNAME
1000
PASTMD07
  0
ARC
  5
8620
330
85F6
100
AcDbEntity
  8
241
100
AcDbCircle
 10
15.0
 20
-0.0000000000000568
 30
0.0
 40
10.0
100
AcDbArc
 50
180.0000000719706
 51
270.0000000719707
1001
GRPNAME
1000
PASTMD07
  0
LINE
  5
8621
330
85F6
100
AcDbEntity
  8
241
100
AcDbLine
 10
29.0
 20
-42.69999999999998
 30
0.0
 11
29.0
 21
-0.0000000000000568
 31
0.0
1001
GRPNAME
1000
PASTMD07
  0
LINE
  5
8622
330
85F6
100
AcDbEntity
  8
241
100
AcDbLine
 10
21.875
 20
-10.00000000000005
 30
0.0
 11
21.875
 21
-31.50000000000005
 31
0.0
1001
GRPNAME
1000
PASTMD07
  0
LINE
  5
8623
330
85F6
100
AcDbEntity
  8
241
100
AcDbLine
 10
18.125
 20
-10.00000000000005
 30
0.0
 11
18.125
 21
-31.50000000000005
 31
0.0
1001
GRPNAME
1000
PASTMD07
  0
LINE
  5
8624
330
85F6
100
AcDbEntity
  8
241
100
AcDbLine
 10
16.75240473580834
 20
-31.50000000000005
 30
0.0
 11
16.75240473580834
 21
-10.00000000000005
 31
0.0
1001
GRPNAME
1000
PASTMD07
  0
LINE
  5
8625
330
85F6
100
AcDbEntity
  8
241
100
AcDbLine
 10
23.24759526419165
 20
-31.50000000000005
 30
0.0
 11
23.24759526419165
 21
-10.00000000000005
 31
0.0
1001
GRPNAME
1000
PASTMD07
  0
LINE
  5
8626
330
85F6
100
AcDbEntity
  8
241
100
AcDbLine
 10
23.24759526419165
 20
-38.82975663070789
 30
0.0
 11
29.0
 21
-38.82975663070789
 31
0.0
1001
GRPNAME
1000
PASTMD07
  0
ARC
  5
8627
330
85F6
100
AcDbEntity
  8
240
100
AcDbCircle
 10
28.0
 20
-49.00000000000005
 30
0.0
 40
1.0
100
AcDbArc
 50
269.9999999536968
 51
359.9999999536935
1001
GRPNAME
1000
PASTMD07
  0
LINE
  5
8628
330
85F6
100
AcDbEntity
  8
241
100
AcDbLine
 10
16.75240473580834
 20
-38.82975663070789
 30
0.0
 11
18.125
 21
-35.71640491002739
 31
0.0
1001
GRPNAME
1000
PASTMD07
  0
LINE
  5
8629
330
85F6
100
AcDbEntity
  8
241
100
AcDbLine
 10
18.125
 20
-33.52238058372353
 30
0.0
 11
18.125
 21
-47.00000000000005
 31
0.0
1001
GRPNAME
1000
PASTMD07
  0
LINE
  5
862A
330
85F6
100
AcDbEntity
  8
241
100
AcDbLine
 10
21.875
 20
-33.52238058372353
 30
0.0
 11
21.875
 21
-47.00000000000005
 31
0.0
1001
GRPNAME
1000
PASTMD07
  0
LINE
  5
862B
330
85F6
100
AcDbEntity
  8
241
100
AcDbLine
 10
23.24759526419165
 20
-38.82975663070789
 30
0.0
 11
21.875
 21
-35.71640491002739
 31
0.0
1001
GRPNAME
1000
PASTMD07
  0
LINE
  5
862C
330
85F6
100
AcDbEntity
  8
240
100
AcDbLine
 10
21.875
 20
-47.62259526419183
 30
0.0
 11
23.24759526419165
 21
-50.00000000000006
 31
0.0
1001
GRPNAME
1000
PASTMD07
  0
LINE
  5
862D
330
85F6
100
AcDbEntity
  8
241
100
AcDbLine
 10
16.75240473580834
 20
-50.00000000000006
 30
0.0
 11
16.75240473580834
 21
-38.82975663070789
 31
0.0
1001
GRPNAME
1000
PASTMD07
  0
LINE
  5
862E
330
85F6
100
AcDbEntity
  8
240
100
AcDbLine
 10
19.125
 20
-46.00000000000005
 30
0.0
 11
20.87499999999999
 21
-46.00000000000005
 31
0.0
1001
GRPNAME
1000
PASTMD07
  0
ARC
  5
862F
330
85F6
100
AcDbEntity
  8
240
100
AcDbCircle
 10
19.125
 20
-47.00000000000005
 30
0.0
 40
1.0
100
AcDbArc
 50
89.99999998198941
 51
179.9999999819894
1001
GRPNAME
1000
PASTMD07
  0
LINE
  5
8630
330
85F6
100
AcDbEntity
  8
240
100
AcDbLine
 10
18.125
 20
-47.00000000000005
 30
0.0
 11
18.125
 21
-47.62259526419183
 31
0.0
1001
GRPNAME
1000
PASTMD07
  0
LINE
  5
8631
330
85F6
100
AcDbEntity
  8
240
100
AcDbLine
 10
18.125
 20
-47.62259526419183
 30
0.0
 11
16.75240473580834
 21
-50.00000000000006
 31
0.0
1001
GRPNAME
1000
PASTMD07
  0
ARC
  5
8632
330
85F6
100
AcDbEntity
  8
240
100
AcDbCircle
 10
20.87499999999999
 20
-47.00000000000005
 30
0.0
 40
1.0
100
AcDbArc
 50
0.0000000899747877
 51
90.0000000899748
1001
GRPNAME
1000
PASTMD07
  0
LINE
  5
8633
330
85F6
100
AcDbEntity
  8
240
100
AcDbLine
 10
21.875
 20
-47.00000000000005
 30
0.0
 11
21.875
 21
-47.62259526419183
 31
0.0
1001
GRPNAME
1000
PASTMD07
  0
LINE
  5
8634
330
85F6
100
AcDbEntity
  8
241
100
AcDbLine
 10
23.24759526419165
 20
-50.00000000000006
 30
0.0
 11
23.24759526419165
 21
-38.82975663070789
 31
0.0
1001
GRPNAME
1000
PASTMD07
  0
LINE
  5
8635
330
85F6
100
AcDbEntity
  8
240
100
AcDbLine
 10
23.24759526419165
 20
-50.00000000000006
 30
0.0
 11
28.0
 21
-50.00000000000006
 31
0.0
1001
GRPNAME
1000
PASTMD07
  0
LINE
  5
8636
330
85F6
100
AcDbEntity
  8
241
100
AcDbLine
 10
18.125
 20
-33.52238058372353
 30
0.0
 11
21.875
 21
-33.52238058372353
 31
0.0
1001
GRPNAME
1000
PASTMD07
  0
LINE
  5
8637
330
85F6
100
AcDbEntity
  8
240
100
AcDbLine
 10
36.99999999999965
 20
-23.05000000000001
 30
0.0
 11
36.99999999999965
 21
-42.00000000000005
 31
0.0
  0
LINE
  5
8638
330
85F6
100
AcDbEntity
  8
240
100
AcDbLine
 10
29.20000000000004
 20
-42.50000000000006
 30
0.0
 11
36.49999999999357
 21
-42.50000000000006
 31
0.0
1001
GRPNAME
1000
PASTMD07
  0
LINE
  5
8639
330
85F6
100
AcDbEntity
  8
240
100
AcDbLine
 10
29.0
 20
-49.00000000000005
 30
0.0
 11
29.0
 21
-42.69999999999998
 31
0.0
1001
GRPNAME
1000
PASTMD07
  0
ARC
  5
863A
330
85F6
100
AcDbEntity
  8
240
100
AcDbCircle
 10
29.20000000000004
 20
-42.69999999999998
 30
0.0
 40
0.1999999999999318
100
AcDbArc
 50
89.99999998456235
 51
179.9999999845949
1001
GRPNAME
1000
PASTMD07
  0
LINE
  5
863B
330
85F6
100
AcDbEntity
  8
240
100
AcDbLine
 10
36.99999999999977
 20
-42.00000000000005
 30
0.0
 11
36.49999999999977
 21
-42.50000000000006
 31
0.0
1001
GRPNAME
1000
PASTMD0P
  0
LINE
  5
863C
330
85F6
100
AcDbEntity
  8
241
100
AcDbLine
 10
28.5
 20
-31.50000000000005
 30
0.0
 11
29.0
 21
-31.00000000000005
 31
0.0
1001
GRPNAME
1000
PASTMD07
  0
LINE
  5
863D
330
85F6
100
AcDbEntity
  8
241
100
AcDbLine
 10
36.70000000000004
 20
-18.8784565434218
 30
0.0
 11
36.70000000000004
 21
-0.0000000000000568
 31
0.0
1001
GRPNAME
1000
PASTMD07
  0
LINE
  5
863E
330
85F6
100
AcDbEntity
  8
241
100
AcDbLine
 10
29.5
 20
-18.8784565434218
 30
0.0
 11
29.5
 21
-0.0000000000000568
 31
0.0
1001
GRPNAME
1000
PASTMD07
  0
LINE
  5
863F
330
85F6
100
AcDbEntity
  8
241
100
AcDbLine
 10
29.5
 20
-18.8784565434218
 30
0.0
 11
36.70000000000004
 21
-18.8784565434218
 31
0.0
1001
GRPNAME
1000
PASTMD07
  0
LINE
  5
8640
330
85F6
100
AcDbEntity
  8
241
100
AcDbLine
 10
28.5
 20
-10.00000000000005
 30
0.0
 11
29.0
 21
-10.50000000000005
 31
0.0
1001
GRPNAME
1000
PASTMD07
  0
LINE
  5
8641
330
85F6
100
AcDbEntity
  8
241
100
AcDbLine
 10
37.0
 20
-19.05166162417867
 30
0.0
 11
36.70000000000004
 21
-18.8784565434218
 31
0.0
1001
GRPNAME
1000
PASTMD05
  0
LINE
  5
8642
330
85F6
100
AcDbEntity
  8
241
100
AcDbLine
 10
36.99999999999988
 20
-19.05166162417867
 30
0.0
 11
36.69999999999982
 21
-18.8784565434218
 31
0.0
1001
GRPNAME
1000
PASTMD05
  0
LINE
  5
8643
330
85F6
100
AcDbEntity
  8
241
100
AcDbLine
 10
37.0
 20
-19.05166162417862
 30
0.0
 11
36.70000000000004
 21
-18.8784565434218
 31
0.0
1001
GRPNAME
1000
PASTMD07
  0
LINE
  5
8644
330
85F6
100
AcDbEntity
  8
241
100
AcDbLine
 10
36.99999999999988
 20
-19.05166162417862
 30
0.0
 11
36.69999999999982
 21
-18.8784565434218
 31
0.0
1001
GRPNAME
1000
PASTMD07
  0
LINE
  5
8645
330
85F6
100
AcDbEntity
  8
240
100
AcDbLine
 10
-2.000000000000284
 20
37.89999999999986
 30
0.0
 11
-48.0998752338877
 21
35.59500623830558
 31
0.0
1001
GRPNAME
1000
PASTMD07
  0
ARC
  5
8646
330
85F6
100
AcDbEntity
  8
240
100
AcDbCircle
 10
-42.0
 20
8.00999999999999
 30
0.0
 40
2.0
100
AcDbArc
 50
0.0
 51
90.0
1001
GRPNAME
1000
PASTMD07
  0
LINE
  5
8647
330
85F6
100
AcDbEntity
  8
243
100
AcDbLine
 10
-42.0
 20
10.00999999999999
 30
0.0
 11
-37.0
 21
10.00999999999999
 31
0.0
1001
GRPNAME
1000
PASTMD07
  0
ARC
  5
8648
330
85F6
100
AcDbEntity
  8
241
100
AcDbCircle
 10
-41.79999999999995
 20
13.72250391448574
 30
0.0
 40
1.800000000000011
100
AcDbArc
 50
0.0
 51
97.49752354389947
1001
GRPNAME
1000
PASTMD07
  0
LINE
  5
8649
330
85F6
100
AcDbEntity
  8
240
100
AcDbLine
 10
-50.0
 20
11.50999999999999
 30
0.0
 11
-50.0
 21
33.59750156054974
 31
0.0
1001
GRPNAME
1000
PASTMD07
  0
LINE
  5
864A
330
85F6
100
AcDbEntity
  8
241
100
AcDbLine
 10
-50.0
 20
14.45883579800556
 30
0.0
 11
-42.03487001120493
 21
15.50711481825055
 31
0.0
1001
GRPNAME
1000
PASTMD07
  0
LINE
  5
864B
330
85F6
100
AcDbEntity
  8
240
100
AcDbLine
 10
-48.5
 20
10.00999999999999
 30
0.0
 11
-42.0
 21
10.00999999999999
 31
0.0
1001
GRPNAME
1000
PASTMD07
  0
LINE
  5
864C
330
85F6
100
AcDbEntity
  8
240
100
AcDbLine
 10
-48.5
 20
10.00999999999999
 30
0.0
 11
-50.0
 21
11.50999999999999
 31
0.0
1001
GRPNAME
1000
PASTMD07
  0
ARC
  5
864D
330
85F6
100
AcDbEntity
  8
240
100
AcDbCircle
 10
-48.0
 20
33.59750156054974
 30
0.0
 40
2.000000000000061
100
AcDbArc
 50
92.86240522981051
 51
180.0000000036998
1001
GRPNAME
1000
PASTMD07
  0
ARC
  5
864E
330
85F6
100
AcDbEntity
  8
243
100
AcDbCircle
 10
-37.0
 20
8.00999999999999
 30
0.0
 40
1.999999999999971
100
AcDbArc
 50
0.0
 51
90.0
1001
GRPNAME
1000
PASTMD07
  0
LINE
  5
864F
330
85F6
100
AcDbEntity
  8
241
100
AcDbLine
 10
-40.0
 20
13.72250391448574
 30
0.0
 11
-40.0
 21
8.00999999999999
 31
0.0
1001
GRPNAME
1000
PASTMD07
  0
LINE
  5
8650
330
85F6
100
AcDbEntity
  8
241
100
AcDbLine
 10
15.0
 20
10.0
 30
0.0
 11
28.5
 21
10.0
 31
0.0
1001
GRPNAME
1000
PASTMD07
  0
LINE
  5
8651
330
85F6
100
AcDbEntity
  8
240
100
AcDbLine
 10
1.0
 20
50.0
 30
0.0
 11
16.75240473580834
 21
50.0
 31
0.0
1001
GRPNAME
1000
PASTMD07
  0
TEXT
  5
8652
330
85F6
100
AcDbEntity
  8
247
100
AcDbText
 10
12.99999999999982
 20
12.75818809033125
 30
0.0
 40
3.0
  1
HSK-A100-NBS13-90
 50
90.0
 41
0.65
  7
YOKO
 11
12.99999999999982
 21
12.75818809033125
 31
0.0
100
AcDbText
 73
     1
  0
ARC
  5
8653
102
{ACAD_REACTORS
330
8673
102
}
330
85F6
100
AcDbEntity
  8
247
100
AcDbCircle
 10
5.573455278219853
 20
28.52941781736444
 30
0.0
 40
1.313554763793945
100
AcDbArc
 50
143.4440121970578
 51
254.0001843876854
  0
ARC
  5
8654
102
{ACAD_REACTORS
330
8673
102
}
330
85F6
100
AcDbEntity
  8
247
100
AcDbCircle
 10
6.381804887594853
 20
30.32659799314569
 30
0.0
 40
1.717732429504394
100
AcDbArc
 50
200.8721834020736
 51
222.5419489373875
  0
ARC
  5
8655
102
{ACAD_REACTORS
330
8673
102
}
330
85F6
100
AcDbEntity
  8
247
100
AcDbCircle
 10
5.128875200094853
 20
28.74099618650507
 30
0.0
 40
0.4243833422660828
100
AcDbArc
 50
91.71012138206274
 51
253.9983983544486
  0
POLYLINE
  5
8656
330
85F6
100
AcDbEntity
  8
247
100
AcDb2dPolyline
 66
     1
 10
0.0
 20
0.0
 30
0.0
 70
     1
1001
HATCH_DISTANCE
1040
1.0
1001
HATCH_DISPLAY
1070
     0
1001
HATCH_TYPE
1070
     7
  0
VERTEX
  5
8657
330
8656
100
AcDbEntity
  8
247
100
AcDbVertex
100
AcDb2dVertex
 10
4.25990242177454
 20
26.13104135252069
 30
0.0
  0
VERTEX
  5
8658
330
8656
100
AcDbEntity
  8
247
100
AcDbVertex
100
AcDb2dVertex
 10
4.70448249989954
 20
26.00355416990351
 30
0.0
  0
VERTEX
  5
8659
330
8656
100
AcDbEntity
  8
247
100
AcDbVertex
100
AcDb2dVertex
 10
4.70448249989954
 20
26.15072519041132
 30
0.0
  0
VERTEX
  5
865A
330
8656
100
AcDbEntity
  8
247
100
AcDbVertex
100
AcDb2dVertex
 10
7.897445623221074
 20
25.23515207029413
 30
0.0
  0
VERTEX
  5
865B
330
8656
100
AcDbEntity
  8
247
100
AcDbVertex
100
AcDb2dVertex
 10
7.897445623221074
 20
26.13914376951288
 30
0.0
  0
VERTEX
  5
865C
330
8656
100
AcDbEntity
  8
247
100
AcDbVertex
100
AcDb2dVertex
 10
4.25990242177454
 20
27.18218881345819
 30
0.0
  0
SEQEND
  5
865D
330
8656
100
AcDbEntity
  8
247
  0
POLYLINE
  5
865E
102
{ACAD_REACTORS
330
8666
102
}
330
85F6
100
AcDbEntity
  8
247
100
AcDb2dPolyline
 66
     1
 10
0.0
 20
0.0
 30
0.0
 70
     1
  0
VERTEX
  5
865F
330
865E
100
AcDbEntity
  8
247
100
AcDbVertex
100
AcDb2dVertex
 10
4.25990242177454
 20
26.13104135252069
 30
0.0
  0
VERTEX
  5
8660
330
865E
100
AcDbEntity
  8
247
100
AcDbVertex
100
AcDb2dVertex
 10
4.70448249989954
 20
26.00355416990351
 30
0.0
  0
VERTEX
  5
8661
330
865E
100
AcDbEntity
  8
247
100
AcDbVertex
100
AcDb2dVertex
 10
4.70448249989954
 20
26.15072519041132
 30
0.0
  0
VERTEX
  5
8662
330
865E
100
AcDbEntity
  8
247
100
AcDbVertex
100
AcDb2dVertex
 10
7.897445623221074
 20
25.23515207029413
 30
0.0
  0
VERTEX
  5
8663
330
865E
100
AcDbEntity
  8
247
100
AcDbVertex
100
AcDb2dVertex
 10
7.897445623221074
 20
26.13914376951288
 30
0.0
  0
VERTEX
  5
8664
330
865E
100
AcDbEntity
  8
247
100
AcDbVertex
100
AcDb2dVertex
 10
4.25990242177454
 20
27.18218881345819
 30
0.0
  0
SEQEND
  5
8665
330
865E
100
AcDbEntity
  8
247
  0
HATCH
  5
8666
330
85F6
100
AcDbEntity
  8
247
100
AcDbHatch
 10
0.0
 20
0.0
 30
0.0
210
0.0
220
0.0
230
1.0
  2
ANSI31
 70
     0
 71
     1
 91
        1
 92
        7
 72
     0
 73
     1
 93
        6
 10
4.25990242177454
 20
27.18218881345819
 10
4.25990242177454
 20
26.13104135252069
 10
4.70448249989954
 20
26.0035541699035
 10
4.70448249989954
 20
26.15072519041131
 10
7.897445623221074
 20
25.23515207029413
 10
7.897445623221075
 20
26.13914376951288
 97
        1
330
865E
 75
     0
 76
     1
 52
90.0
 41
0.1
 77
     0
 78
     1
 53
135.0
 43
24.253697816672
 44
-99.79998777650758
 45
-0.2245064030267288
 46
-0.2245064030267288
 79
     0
 47
0.0134348504236232
 98
        1
 10
5.983426808439503
 20
26.23720654851945
  0
LINE
  5
8667
330
85F6
100
AcDbEntity
  8
247
100
AcDbLine
 10
7.897445623221074
 20
26.13914376951288
 30
0.0
 11
4.25990242177454
 21
27.18218881345819
 31
0.0
  0
ARC
  5
8668
102
{ACAD_REACTORS
330
8675
102
}
330
85F6
100
AcDbEntity
  8
247
100
AcDbCircle
 10
6.381804887594853
 20
22.12190133787225
 30
0.0
 40
1.717727661132812
100
AcDbArc
 50
180.0
 51
0.0
  0
ARC
  5
8669
102
{ACAD_REACTORS
330
8675
102
}
330
85F6
100
AcDbEntity
  8
247
100
AcDbCircle
 10
6.381804887594853
 20
22.12190133787225
 30
0.0
 40
2.121902465820312
100
AcDbArc
 50
180.0
 51
0.0
  0
LINE
  5
866A
330
85F6
100
AcDbEntity
  8
247
100
AcDbLine
 10
7.897445623221074
 20
25.23515207029413
 30
0.0
 11
4.70448249989954
 21
26.15072519041132
 31
0.0
  0
LINE
  5
866B
330
85F6
100
AcDbEntity
  8
247
100
AcDbLine
 10
7.897445623221074
 20
22.33398324705194
 30
0.0
 11
4.664077226463234
 21
23.26113778806711
 31
0.0
  0
ARC
  5
866C
330
85F6
100
AcDbEntity
  8
247
100
AcDbCircle
 10
5.270324174704228
 20
24.47480661130976
 30
0.0
 40
1.010430335998535
100
AcDbArc
 50
17.66957754739792
 51
180.2361598426716
  0
ARC
  5
866D
330
85F6
100
AcDbEntity
  8
247
100
AcDbCircle
 10
5.229918901266728
 20
24.02389413572382
 30
0.0
 40
0.6062452793121338
100
AcDbArc
 50
351.6626016879293
 51
156.3381550951899
  0
LINE
  5
866E
330
85F6
100
AcDbEntity
  8
247
100
AcDbLine
 10
4.674641334006651
 20
24.26720496981465
 30
0.0
 11
5.829757126040533
 21
23.93598826112793
 31
0.0
  0
LINE
  5
866F
330
85F6
100
AcDbEntity
  8
247
100
AcDbLine
 10
6.274272726637946
 20
22.79942112398202
 30
0.0
 11
4.859493079234312
 21
24.21420077138577
 31
0.0
  0
LINE
  5
8670
330
85F6
100
AcDbEntity
  8
247
100
AcDbLine
 10
6.424872353516605
 20
23.99585991526385
 30
0.0
 11
4.978541410050297
 21
25.4421908587301
 31
0.0
  0
LINE
  5
8671
330
85F6
100
AcDbEntity
  8
247
100
AcDbLine
 10
5.354523526949662
 20
24.61719593577731
 30
0.0
 11
4.678176010194988
 21
25.29354345253193
 31
0.0
  0
LINE
  5
8672
330
85F6
100
AcDbEntity
  8
247
100
AcDbLine
 10
5.644745758348506
 20
22.97993528621805
 30
0.0
 11
4.259902421774711
 21
24.36477862279184
 31
0.0
  0
HATCH
  5
8673
330
85F6
100
AcDbEntity
  8
247
100
AcDbHatch
 10
0.0
 20
0.0
 30
0.0
210
0.0
220
0.0
230
1.0
  2
ANSI31
 70
     0
 71
     1
 91
        1
 92
       33
 93
       15
 72
     1
 10
4.776793901266728
 20
29.71459848142695
 11
4.390792314352665
 21
29.59287912107538
 72
     2
 10
6.381804887594853
 20
30.32659799314569
 40
1.717732429504394
 50
200.8721834020736
 51
222.5419489373875
 73
     1
 72
     2
 10
5.128875200094853
 20
28.74099618650507
 40
0.4243833422660828
 50
91.71012138206274
 51
253.9983983544486
 73
     1
 72
     1
 10
6.911498491110478
 20
27.788344208966
 11
5.011886064352665
 21
28.33305246091913
 72
     2
 10
7.028472368063603
 20
28.19628793455194
 40
0.4243830442428589
 50
254.0002730571842
 51
434.0002730571843
 73
     1
 72
     1
 10
7.145446245016728
 20
28.60423166013788
 11
6.240340654196415
 21
28.86376840330195
 72
     1
 10
6.240340654196415
 20
28.52740365720819
 11
6.240340654196415
 21
28.86376840330195
 72
     1
 10
6.240340654196415
 20
28.52740365720819
 11
5.836165849508915
 21
28.64329416013788
 72
     1
 10
5.836165849508915
 20
28.64329416013788
 11
5.836165849508915
 21
29.82058603025507
 72
     1
 10
7.897445623221074
 20
29.22952157713007
 11
5.836165849508915
 21
29.82058603025507
 72
     1
 10
7.660369817557011
 20
28.99243051267694
 11
7.897445623221074
 21
29.22952157713007
 72
     2
 10
6.583892289938603
 20
28.2396839306457
 40
1.313568115234375
 50
253.9997507017262
 51
394.9638732916308
 73
     1
 72
     2
 10
6.652953569235478
 20
30.38729745603632
 40
3.43743896484375
 50
245.2051773698407
 51
262.7948259620489
 73
     1
 72
     2
 10
5.573455278219853
 20
28.52941781736444
 40
1.313554763793945
 50
143.4440121970578
 51
254.0001843876854
 73
     1
 72
     2
 10
6.381804887594853
 20
30.32659799314569
 40
2.121903419494628
 50
200.2296450633201
 51
208.571688923717
 73
     1
 97
       15
330
8686
330
8654
330
8655
330
8674
330
86A9
330
86AA
330
86AC
330
86AB
330
86A1
330
86A0
330
86AD
330
86A5
330
86B7
330
8653
330
8685
 75
     0
 76
     1
 52
90.0
 41
0.1
 77
     0
 78
     1
 53
135.0
 43
24.253697816672
 44
-99.79998777650758
 45
-0.2245064030267288
 46
-0.2245064030267288
 79
     0
 98
        1
 10
24.253697816672
 20
-99.79998777650758
  0
LINE
  5
8674
102
{ACAD_REACTORS
330
8673
102
}
330
85F6
100
AcDbEntity
  8
247
100
AcDbLine
 10
6.911498491110478
 20
27.788344208966
 30
0.0
 11
5.011886064352665
 21
28.33305246091913
 31
0.0
  0
HATCH
  5
8675
330
85F6
100
AcDbEntity
  8
247
100
AcDbHatch
 10
0.0
 20
0.0
 30
0.0
210
0.0
220
0.0
230
1.0
  2
ANSI31
 70
     0
 71
     1
 91
        1
 92
       33
 93
       10
 72
     1
 10
4.25990242177454
 20
22.95657235838007
 11
4.66407722646204
 21
22.84068185545038
 72
     1
 10
4.25990242177454
 20
22.12190133787225
 11
4.25990242177454
 21
22.95657235838007
 72
     1
 10
4.66407722646204
 20
22.12190133787225
 11
4.66407722646204
 21
22.84068185545038
 72
     2
 10
6.381804887594853
 20
22.12190133787225
 40
1.717727661132812
 50
180.0
 51
360.0
 73
     1
 72
     2
 10
6.381804887594853
 20
22.12190133787225
 40
2.121902465820312
 50
180.0
 51
360.0
 73
     1
 72
     1
 10
8.503707819850433
 20
22.12190133787225
 11
8.503707819850433
 21
30.32659799314569
 72
     1
 10
8.099533025564824
 20
22.12190133787225
 11
8.099533025564824
 21
30.32659799314569
 72
     2
 10
6.381804887594853
 20
30.32659799314569
 40
2.121902465820312
 50
0.0
 51
194.7707939660941
 73
     1
 72
     2
 10
6.381804887594853
 20
30.32659799314569
 40
1.717727661132812
 50
0.0
 51
194.1274364964119
 73
     1
 72
     1
 10
4.71601814443079
 20
29.90733224607538
 11
4.330016557516728
 21
29.78561288572382
 97
       10
330
8681
330
867F
330
867D
330
8668
330
8669
330
86A2
330
86A3
330
8677
330
8676
330
869F
 75
     0
 76
     1
 52
90.0
 41
0.1
 77
     0
 78
     1
 53
135.0
 43
24.253697816672
 44
-99.79998777650758
 45
-0.2245064030267288
 46
-0.2245064030267288
 79
     0
 98
        1
 10
24.253697816672
 20
-99.79998777650758
  0
ARC
  5
8676
102
{ACAD_REACTORS
330
8675
102
}
330
85F6
100
AcDbEntity
  8
247
100
AcDbCircle
 10
6.381804887594853
 20
30.32659799314569
 30
0.0
 40
1.717727661132812
100
AcDbArc
 50
0.0
 51
194.1274364964119
  0
ARC
  5
8677
102
{ACAD_REACTORS
330
8675
102
}
330
85F6
100
AcDbEntity
  8
247
100
AcDbCircle
 10
6.381804887594853
 20
30.32659799314569
 30
0.0
 40
2.121902465820312
100
AcDbArc
 50
0.0
 51
194.7707939660941
  0
LINE
  5
8678
330
85F6
100
AcDbEntity
  8
247
100
AcDbLine
 10
4.25990242177454
 20
26.13104135252069
 30
0.0
 11
4.25990242177454
 21
27.18218881345819
 31
0.0
  0
LINE
  5
8679
330
85F6
100
AcDbEntity
  8
247
100
AcDbLine
 10
4.70448249989954
 20
26.00355416990351
 30
0.0
 11
4.70448249989954
 21
26.15072519041132
 31
0.0
  0
LINE
  5
867A
330
85F6
100
AcDbEntity
  8
247
100
AcDbLine
 10
4.72074603100782
 20
24.35294781961215
 30
0.0
 11
4.30390939149538
 21
24.76978445912459
 31
0.0
  0
LINE
  5
867B
330
85F6
100
AcDbEntity
  8
247
100
AcDbLine
 10
4.957314455530251
 20
24.56539220114325
 30
0.0
 11
4.453338344139524
 21
25.06936831253392
 31
0.0
  0
LINE
  5
867C
330
85F6
100
AcDbEntity
  8
247
100
AcDbLine
 10
4.70448249989954
 20
26.00355416990351
 30
0.0
 11
4.25990242177454
 21
26.13104135252069
 31
0.0
  0
LINE
  5
867D
102
{ACAD_REACTORS
330
8675
102
}
330
85F6
100
AcDbEntity
  8
247
100
AcDbLine
 10
4.66407722646204
 20
22.12190133787225
 30
0.0
 11
4.66407722646204
 21
22.84068185545038
 31
0.0
  0
LINE
  5
867E
330
85F6
100
AcDbEntity
  8
247
100
AcDbLine
 10
4.66407722646204
 20
23.05090219236399
 30
0.0
 11
4.664077226463234
 21
23.26113778806711
 31
0.0
  0
LINE
  5
867F
102
{ACAD_REACTORS
330
8675
102
}
330
85F6
100
AcDbEntity
  8
247
100
AcDbLine
 10
4.25990242177454
 20
22.12190133787225
 30
0.0
 11
4.25990242177454
 21
22.95657235838007
 31
0.0
  0
LINE
  5
8680
330
85F6
100
AcDbEntity
  8
247
100
AcDbLine
 10
4.664077226462097
 20
23.06257820599762
 30
0.0
 11
4.259902421774597
 21
23.46675301068512
 31
0.0
  0
LINE
  5
8681
102
{ACAD_REACTORS
330
8675
102
}
330
85F6
100
AcDbEntity
  8
247
100
AcDbLine
 10
4.25990242177454
 20
22.95657235838007
 30
0.0
 11
4.66407722646204
 21
22.84068185545038
 31
0.0
  0
LINE
  5
8682
330
85F6
100
AcDbEntity
  8
247
100
AcDbLine
 10
4.25990242177454
 20
23.16679269529436
 30
0.0
 11
4.66407722646204
 21
23.05090219236399
 31
0.0
  0
LINE
  5
8683
330
85F6
100
AcDbEntity
  8
247
100
AcDbLine
 10
4.25990242177454
 20
23.16679269529436
 30
0.0
 11
4.259902421774711
 21
24.47064186487386
 31
0.0
  0
LINE
  5
8684
330
85F6
100
AcDbEntity
  8
247
100
AcDbLine
 10
5.015218790059066
 20
23.16044944845407
 30
0.0
 11
4.259902421774654
 21
23.91576581673848
 31
0.0
  0
ARC
  5
8685
102
{ACAD_REACTORS
330
8673
102
}
330
85F6
100
AcDbEntity
  8
247
100
AcDbCircle
 10
6.381804887594853
 20
30.32659799314569
 30
0.0
 40
2.121903419494628
100
AcDbArc
 50
200.2296450633201
 51
208.571688923717
  0
LINE
  5
8686
102
{ACAD_REACTORS
330
8673
102
}
330
85F6
100
AcDbEntity
  8
247
100
AcDbLine
 10
4.776793901266728
 20
29.71459848142695
 30
0.0
 11
4.390792314352665
 21
29.59287912107538
 31
0.0
  0
POLYLINE
  5
8687
330
85F6
100
AcDbEntity
  8
247
100
AcDb2dPolyline
 66
     1
 10
0.0
 20
0.0
 30
0.0
 70
     1
1001
HATCH_DISTANCE
1040
1.0
1001
HATCH_DISPLAY
1070
     0
1001
HATCH_TYPE
1070
     7
  0
VERTEX
  5
8688
330
8687
100
AcDbEntity
  8
247
100
AcDbVertex
100
AcDb2dVertex
 10
4.71601814443079
 20
29.90733224607538
 30
0.0
  0
VERTEX
  5
8689
330
8687
100
AcDbEntity
  8
247
100
AcDbVertex
100
AcDb2dVertex
 10
4.330016557516728
 20
29.78561288572382
 30
0.0
  0
VERTEX
  5
868A
330
8687
100
AcDbEntity
  8
247
100
AcDbVertex
100
AcDb2dVertex
 10
4.330016557516728
 20
29.78561288572382
 30
0.0
  0
VERTEX
  5
868B
330
8687
100
AcDbEntity
  8
247
100
AcDbVertex
100
AcDb2dVertex
 10
4.71601814443079
 20
29.90733224607538
 30
0.0
  0
SEQEND
  5
868C
330
8687
100
AcDbEntity
  8
247
  0
POLYLINE
  5
868D
330
85F6
100
AcDbEntity
  8
247
100
AcDb2dPolyline
 66
     1
 10
0.0
 20
0.0
 30
0.0
 70
     1
  0
VERTEX
  5
868E
330
868D
100
AcDbEntity
  8
247
100
AcDbVertex
100
AcDb2dVertex
 10
4.71601814443079
 20
29.90733224607538
 30
0.0
  0
VERTEX
  5
868F
330
868D
100
AcDbEntity
  8
247
100
AcDbVertex
100
AcDb2dVertex
 10
4.330016557516728
 20
29.78561288572382
 30
0.0
  0
VERTEX
  5
8690
330
868D
100
AcDbEntity
  8
247
100
AcDbVertex
100
AcDb2dVertex
 10
4.330016557516728
 20
29.78561288572382
 30
0.0
  0
VERTEX
  5
8691
330
868D
100
AcDbEntity
  8
247
100
AcDbVertex
100
AcDb2dVertex
 10
4.71601814443079
 20
29.90733224607538
 30
0.0
  0
SEQEND
  5
8692
330
868D
100
AcDbEntity
  8
247
  0
POLYLINE
  5
8693
330
85F6
100
AcDbEntity
  8
247
100
AcDb2dPolyline
 66
     1
 10
0.0
 20
0.0
 30
0.0
 70
     1
1001
HATCH_DISTANCE
1040
1.0
1001
HATCH_DISPLAY
1070
     0
1001
HATCH_TYPE
1070
     7
  0
VERTEX
  5
8694
330
8693
100
AcDbEntity
  8
247
100
AcDbVertex
100
AcDb2dVertex
 10
4.71601814443079
 20
29.90733224607538
 30
0.0
  0
VERTEX
  5
8695
330
8693
100
AcDbEntity
  8
247
100
AcDbVertex
100
AcDb2dVertex
 10
4.330016557516728
 20
29.78561288572382
 30
0.0
  0
VERTEX
  5
8696
330
8693
100
AcDbEntity
  8
247
100
AcDbVertex
100
AcDb2dVertex
 10
4.330016557516728
 20
29.78561288572382
 30
0.0
  0
VERTEX
  5
8697
330
8693
100
AcDbEntity
  8
247
100
AcDbVertex
100
AcDb2dVertex
 10
4.71601814443079
 20
29.90733224607538
 30
0.0
  0
SEQEND
  5
8698
330
8693
100
AcDbEntity
  8
247
  0
POLYLINE
  5
8699
330
85F6
100
AcDbEntity
  8
247
100
AcDb2dPolyline
 66
     1
 10
0.0
 20
0.0
 30
0.0
 70
     1
  0
VERTEX
  5
869A
330
8699
100
AcDbEntity
  8
247
100
AcDbVertex
100
AcDb2dVertex
 10
4.71601814443079
 20
29.90733224607538
 30
0.0
  0
VERTEX
  5
869B
330
8699
100
AcDbEntity
  8
247
100
AcDbVertex
100
AcDb2dVertex
 10
4.330016557516728
 20
29.78561288572382
 30
0.0
  0
VERTEX
  5
869C
330
8699
100
AcDbEntity
  8
247
100
AcDbVertex
100
AcDb2dVertex
 10
4.330016557516728
 20
29.78561288572382
 30
0.0
  0
VERTEX
  5
869D
330
8699
100
AcDbEntity
  8
247
100
AcDbVertex
100
AcDb2dVertex
 10
4.71601814443079
 20
29.90733224607538
 30
0.0
  0
SEQEND
  5
869E
330
8699
100
AcDbEntity
  8
247
  0
LINE
  5
869F
102
{ACAD_REACTORS
330
8675
102
}
330
85F6
100
AcDbEntity
  8
247
100
AcDbLine
 10
4.71601814443079
 20
29.90733224607538
 30
0.0
 11
4.330016557516728
 21
29.78561288572382
 31
0.0
  0
LINE
  5
86A0
102
{ACAD_REACTORS
330
8673
102
}
330
85F6
100
AcDbEntity
  8
247
100
AcDbLine
 10
7.897445623221074
 20
29.22952157713007
 30
0.0
 11
5.836165849508915
 21
29.82058603025507
 31
0.0
  0
LINE
  5
86A1
102
{ACAD_REACTORS
330
8673
102
}
330
85F6
100
AcDbEntity
  8
247
100
AcDbLine
 10
5.836165849508915
 20
28.64329416013788
 30
0.0
 11
5.836165849508915
 21
29.82058603025507
 31
0.0
  0
LINE
  5
86A2
102
{ACAD_REACTORS
330
8675
102
}
330
85F6
100
AcDbEntity
  8
247
100
AcDbLine
 10
8.503707819850433
 20
22.12190133787225
 30
0.0
 11
8.503707819850433
 21
30.32659799314569
 31
0.0
  0
LINE
  5
86A3
102
{ACAD_REACTORS
330
8675
102
}
330
85F6
100
AcDbEntity
  8
247
100
AcDbLine
 10
8.099533025564824
 20
22.12190133787225
 30
0.0
 11
8.099533025564824
 21
30.32659799314569
 31
0.0
  0
ARC
  5
86A4
330
85F6
100
AcDbEntity
  8
247
100
AcDbCircle
 10
6.887023393454228
 20
24.01122934080194
 30
0.0
 40
1.010421752929687
100
AcDbArc
 50
0.0
 51
130.3298406541676
  0
ARC
  5
86A5
102
{ACAD_REACTORS
330
8673
102
}
330
85F6
100
AcDbEntity
  8
247
100
AcDbCircle
 10
6.583892289938603
 20
28.2396839306457
 30
0.0
 40
1.313568115234375
100
AcDbArc
 50
253.9997507017262
 51
34.96387329163082
  0
LINE
  5
86A6
330
85F6
100
AcDbEntity
  8
247
100
AcDbLine
 10
6.717148026478696
 20
24.15259704835512
 30
0.0
 11
5.391841791903459
 21
25.47790328293035
 31
0.0
  0
LINE
  5
86A7
330
85F6
100
AcDbEntity
  8
247
100
AcDbLine
 10
7.897445623221074
 20
25.23515207029413
 30
0.0
 11
7.897445623221074
 21
26.13914376951288
 31
0.0
  0
LINE
  5
86A8
330
85F6
100
AcDbEntity
  8
247
100
AcDbLine
 10
7.821688879871487
 20
24.39509461312275
 30
0.0
 11
7.270888665775032
 21
24.94589482721926
 31
0.0
  0
ARC
  5
86A9
102
{ACAD_REACTORS
330
8673
102
}
330
85F6
100
AcDbEntity
  8
247
100
AcDbCircle
 10
7.028472368063603
 20
28.19628793455194
 30
0.0
 40
0.4243830442428589
100
AcDbArc
 50
254.0002730571842
 51
74.00027305718428
  0
LINE
  5
86AA
102
{ACAD_REACTORS
330
8673
102
}
330
85F6
100
AcDbEntity
  8
247
100
AcDbLine
 10
7.145446245016728
 20
28.60423166013788
 30
0.0
 11
6.240340654196415
 21
28.86376840330195
 31
0.0
  0
LINE
  5
86AB
102
{ACAD_REACTORS
330
8673
102
}
330
85F6
100
AcDbEntity
  8
247
100
AcDbLine
 10
6.240340654196415
 20
28.52740365720819
 30
0.0
 11
5.836165849508915
 21
28.64329416013788
 31
0.0
  0
LINE
  5
86AC
102
{ACAD_REACTORS
330
8673
102
}
330
85F6
100
AcDbEntity
  8
247
100
AcDbLine
 10
6.240340654196415
 20
28.52740365720819
 30
0.0
 11
6.240340654196415
 21
28.86376840330195
 31
0.0
  0
LINE
  5
86AD
102
{ACAD_REACTORS
330
8673
102
}
330
85F6
100
AcDbEntity
  8
247
100
AcDbLine
 10
7.660369817557011
 20
28.99243051267694
 30
0.0
 11
7.897445623221074
 21
29.22952157713007
 31
0.0
  0
LINE
  5
86AE
330
85F6
100
AcDbEntity
  8
247
100
AcDbLine
 10
6.291308470696378
 20
23.80363252320705
 30
0.0
 11
7.446458524618606
 21
23.47241036558693
 31
0.0
  0
LINE
  5
86AF
330
85F6
100
AcDbEntity
  8
247
100
AcDbLine
 10
7.897445623221074
 20
22.52328664555943
 30
0.0
 11
6.748069080976222
 21
23.67266318780412
 31
0.0
  0
LINE
  5
86B0
330
85F6
100
AcDbEntity
  8
247
100
AcDbLine
 10
7.897445623221074
 20
22.9722994516128
 30
0.0
 11
7.377586748058888
 21
23.49215832677498
 31
0.0
  0
LINE
  5
86B1
330
85F6
100
AcDbEntity
  8
247
100
AcDbLine
 10
7.897445623221074
 20
23.42131225766615
 30
0.0
 11
6.414436370077453
 21
24.90432151080983
 31
0.0
  0
LINE
  5
86B2
330
85F6
100
AcDbEntity
  8
247
100
AcDbLine
 10
7.89744562322113
 20
23.87032506371974
 30
0.0
 11
6.754807333409075
 21
25.01296335353163
 31
0.0
  0
LINE
  5
86B3
330
85F6
100
AcDbEntity
  8
247
100
AcDbLine
 10
7.533326663216826
 20
22.43839279951021
 30
0.0
 11
5.823220701320167
 21
24.1484987614067
 31
0.0
  0
ARC
  5
86B4
330
85F6
100
AcDbEntity
  8
247
100
AcDbCircle
 10
6.846602861227665
 20
23.56031686521601
 30
0.0
 40
0.6062626242637635
100
AcDbArc
 50
351.6628542111489
 51
156.3381921591134
  0
LINE
  5
86B5
330
85F6
100
AcDbEntity
  8
247
100
AcDbLine
 10
6.903799694927386
 20
22.61890696174623
 30
0.0
 11
5.489014089247575
 21
24.03369256742598
 31
0.0
  0
LINE
  5
86B6
330
85F6
100
AcDbEntity
  8
247
100
AcDbLine
 10
7.897445623221074
 20
22.33398324705194
 30
0.0
 11
7.897445623221074
 21
24.01122934080194
 31
0.0
  0
ARC
  5
86B7
102
{ACAD_REACTORS
330
8673
102
}
330
85F6
100
AcDbEntity
  8
247
100
AcDbCircle
 10
6.652953569235478
 20
30.38729745603632
 30
0.0
 40
3.43743896484375
100
AcDbArc
 50
245.2051773698407
 51
262.7948259620489
  0
LINE
  5
86B8
330
85F6
100
AcDbEntity
  8
240
100
AcDbLine
 10
-2.000000000000284
 20
37.89999999999986
 30
0.0
 11
-0.0000000000000568
 21
37.89999999999986
 31
0.0
  0
LINE
  5
86B9
330
85F6
100
AcDbEntity
  8
240
100
AcDbLine
 10
-0.0000000000000568
 20
37.89999999999986
 30
0.0
 11
0.0
 21
49.0
 31
0.0
1001
GRPNAME
1000
PASTMD07
  0
ARC
  5
86BA
330
85F6
100
AcDbEntity
  8
240
100
AcDbCircle
 10
1.0
 20
49.0
 30
0.0
 40
1.0
100
AcDbArc
 50
89.9999999845591
 51
179.9999999845623
1001
GRPNAME
1000
PASTMD07
  0
LINE
  5
86BB
330
85F6
100
AcDbEntity
  8
241
100
AcDbLine
 10
18.125
 20
10.0
 30
0.0
 11
18.125
 21
47.0
 31
0.0
1001
GRPNAME
1000
PASTMD07
  0
LINE
  5
86BC
330
85F6
100
AcDbEntity
  8
241
100
AcDbLine
 10
21.875
 20
10.0
 30
0.0
 11
21.875
 21
47.0
 31
0.0
1001
GRPNAME
1000
PASTMD07
  0
LINE
  5
86BD
330
85F6
100
AcDbEntity
  8
241
100
AcDbLine
 10
16.75240473580834
 20
50.0
 30
0.0
 11
16.75240473580834
 21
10.0
 31
0.0
1001
GRPNAME
1000
PASTMD07
  0
LINE
  5
86BE
330
85F6
100
AcDbEntity
  8
241
100
AcDbLine
 10
23.24759526419165
 20
50.0
 30
0.0
 11
23.24759526419165
 21
10.0
 31
0.0
1001
GRPNAME
1000
PASTMD07
  0
LINE
  5
86BF
330
85F6
100
AcDbEntity
  8
240
100
AcDbLine
 10
36.99999999999965
 20
23.04999999999995
 30
0.0
 11
36.99999999999951
 21
42.0
 31
0.0
  0
LINE
  5
86C0
330
85F6
100
AcDbEntity
  8
241
100
AcDbLine
 10
29.5
 20
12.17594390431463
 30
0.0
 11
36.70000000000004
 21
12.17594390431463
 31
0.0
1001
GRPNAME
1000
PASTMD07
  0
LINE
  5
86C1
330
85F6
100
AcDbEntity
  8
241
100
AcDbLine
 10
28.5
 20
10.0
 30
0.0
 11
29.0
 21
10.5
 31
0.0
1001
GRPNAME
1000
PASTMD07
  0
LINE
  5
86C2
330
85F6
100
AcDbEntity
  8
241
100
AcDbLine
 10
37.0
 20
12.34914898507168
 30
0.0
 11
36.70000000000004
 21
12.17594390431463
 31
0.0
1001
GRPNAME
1000
PASTMD05
  0
LINE
  5
86C3
330
85F6
100
AcDbEntity
  8
241
100
AcDbLine
 10
37.0
 20
12.34914898507168
 30
0.0
 11
36.70000000000004
 21
12.17594390431463
 31
0.0
1001
GRPNAME
1000
PASTMD07
  0
ARC
  5
86C4
330
85F6
100
AcDbEntity
  8
240
100
AcDbCircle
 10
28.0
 20
49.0
 30
0.0
 40
1.0
100
AcDbArc
 50
0.0000000899813015
 51
90.0000000899748
1001
GRPNAME
1000
PASTMD07
  0
LINE
  5
86C5
330
85F6
100
AcDbEntity
  8
240
100
AcDbLine
 10
21.875
 20
47.62259526419166
 30
0.0
 11
23.24759526419165
 21
50.0
 31
0.0
1001
GRPNAME
1000
PASTMD07
  0
LINE
  5
86C6
330
85F6
100
AcDbEntity
  8
240
100
AcDbLine
 10
19.125
 20
46.0
 30
0.0
 11
20.87499999999999
 21
46.0
 31
0.0
1001
GRPNAME
1000
PASTMD07
  0
LINE
  5
86C7
330
85F6
100
AcDbEntity
  8
240
100
AcDbLine
 10
18.125
 20
47.0
 30
0.0
 11
18.125
 21
47.62259526419166
 31
0.0
1001
GRPNAME
1000
PASTMD07
  0
LINE
  5
86C8
330
85F6
100
AcDbEntity
  8
240
100
AcDbLine
 10
18.125
 20
47.62259526419166
 30
0.0
 11
16.75240473580834
 21
50.0
 31
0.0
1001
GRPNAME
1000
PASTMD07
  0
ARC
  5
86C9
330
85F6
100
AcDbEntity
  8
240
100
AcDbCircle
 10
19.125
 20
47.0
 30
0.0
 40
1.0
100
AcDbArc
 50
180.0000000719641
 51
270.0000000719739
1001
GRPNAME
1000
PASTMD07
  0
LINE
  5
86CA
330
85F6
100
AcDbEntity
  8
240
100
AcDbLine
 10
21.875
 20
47.0
 30
0.0
 11
21.875
 21
47.62259526419166
 31
0.0
1001
GRPNAME
1000
PASTMD07
  0
ARC
  5
86CB
330
85F6
100
AcDbEntity
  8
240
100
AcDbCircle
 10
20.87499999999999
 20
47.0
 30
0.0
 40
1.0
100
AcDbArc
 50
269.9999999536968
 51
359.9999999536935
1001
GRPNAME
1000
PASTMD07
  0
LINE
  5
86CC
330
85F6
100
AcDbEntity
  8
240
100
AcDbLine
 10
23.24759526419165
 20
50.0
 30
0.0
 11
28.0
 21
50.0
 31
0.0
1001
GRPNAME
1000
PASTMD07
  0
LINE
  5
86CD
330
85F6
100
AcDbEntity
  8
240
100
AcDbLine
 10
29.20000000000004
 20
42.5
 30
0.0
 11
36.49999999999772
 21
42.5
 31
0.0
1001
GRPNAME
1000
PASTMD07
  0
LINE
  5
86CE
330
85F6
100
AcDbEntity
  8
240
100
AcDbLine
 10
29.0
 20
42.69999999999981
 30
0.0
 11
29.0
 21
49.0
 31
0.0
1001
GRPNAME
1000
PASTMD07
  0
ARC
  5
86CF
330
85F6
100
AcDbEntity
  8
240
100
AcDbCircle
 10
29.20000000000004
 20
42.69999999999981
 30
0.0
 40
0.2000000000000455
100
AcDbArc
 50
180.0000000719609
 51
270.0000000719609
1001
GRPNAME
1000
PASTMD07
  0
LINE
  5
86D0
330
85F6
100
AcDbEntity
  8
240
100
AcDbLine
 10
36.99999999999977
 20
42.0
 30
0.0
 11
36.49999999999977
 21
42.5
 31
0.0
1001
GRPNAME
1000
PASTMD0P
  0
LINE
  5
86D1
330
85F6
100
AcDbEntity
  8
241
100
AcDbLine
 10
71.49999999999988
 20
12.5
 30
0.0
 11
71.49999999999988
 21
0.0
 31
0.0
  0
LINE
  5
86D2
330
85F6
100
AcDbEntity
  8
241
100
AcDbLine
 10
69.49999999999988
 20
14.0
 30
0.0
 11
69.49999999999988
 21
0.0
 31
0.0
  0
LINE
  5
86D3
330
85F6
100
AcDbEntity
  8
241
100
AcDbLine
 10
73.99999999999988
 20
13.0
 30
0.0
 11
73.99999999999988
 21
0.0
 31
0.0
  0
LINE
  5
86D4
330
85F6
100
AcDbEntity
  8
246
100
AcDbLine
 10
58.99999999999955
 20
7.580352424251998
 30
0.0
 11
58.99999999999966
 21
-7.580352424251884
 31
0.0
  0
LINE
  5
86D5
330
85F6
100
AcDbEntity
  8
241
100
AcDbLine
 10
74.49999999999977
 20
15.0
 30
0.0
 11
74.49999999999988
 21
0.0
 31
0.0
  0
LINE
  5
86D6
330
85F6
100
AcDbEntity
  8
240
100
AcDbLine
 10
89.99999999999989
 20
15.9600505063388
 30
0.0
 11
89.99999999999989
 21
-15.96005050633886
 31
0.0
  0
LINE
  5
86D7
330
85F6
100
AcDbEntity
  8
241
100
AcDbLine
 10
88.4186291501013
 20
17.00094607379378
 30
0.0
 11
88.4186291501013
 21
-17.15231788079472
 31
0.0
  0
LINE
  5
86D8
330
85F6
100
AcDbEntity
  8
241
100
AcDbLine
 10
43.99999999999988
 20
-17.25
 30
0.0
 11
43.99999999999988
 21
17.25
 31
0.0
  0
LINE
  5
86D9
330
85F6
100
AcDbEntity
  8
246
100
AcDbLine
 10
58.99999999999988
 20
6.5
 30
0.0
 11
89.99999999999989
 21
6.5
 31
0.0
  0
LINE
  5
86DA
330
85F6
100
AcDbEntity
  8
246
100
AcDbLine
 10
84.39999999999987
 20
-8.75
 30
0.0
 11
86.79999999999983
 21
-8.75
 31
0.0
  0
LINE
  5
86DB
330
85F6
100
AcDbEntity
  8
246
100
AcDbLine
 10
58.99999999999988
 20
-6.5
 30
0.0
 11
89.99999999999989
 21
-6.5
 31
0.0
  0
LINE
  5
86DC
330
85F6
100
AcDbEntity
  8
240
100
AcDbLine
 10
75.29999999999984
 20
-17.5
 30
0.0
 11
88.4186291501013
 21
-17.50000000000005
 31
0.0
  0
LINE
  5
86DD
330
85F6
100
AcDbEntity
  8
240
100
AcDbLine
 10
43.99999999999965
 20
-17.25
 30
0.0
 11
68.49999999999988
 21
-17.25
 31
0.0
  0
LINE
  5
86DE
330
85F6
100
AcDbEntity
  8
246
100
AcDbLine
 10
84.39999999999987
 20
-10.25
 30
0.0
 11
58.99999999999966
 21
-7.580352424251884
 31
0.0
  0
LINE
  5
86DF
330
85F6
100
AcDbEntity
  8
240
100
AcDbLine
 10
42.99999999999989
 20
-17.05000000000001
 30
0.0
 11
43.79999999999973
 21
-17.05000000000001
 31
0.0
  0
LINE
  5
86E0
330
85F6
100
AcDbEntity
  8
240
100
AcDbLine
 10
43.99999999999965
 20
-17.25
 30
0.0
 11
43.79999999999973
 21
-17.05000000000001
 31
0.0
  0
LINE
  5
86E1
330
85F6
100
AcDbEntity
  8
241
100
AcDbLine
 10
83.49999999999988
 20
2.0
 30
0.0
 11
74.49999999999977
 21
2.0
 31
0.0
  0
LINE
  5
86E2
330
85F6
100
AcDbEntity
  8
241
100
AcDbLine
 10
83.49999999999988
 20
-2.0
 30
0.0
 11
74.49999999999977
 21
-2.0
 31
0.0
  0
ARC
  5
86E3
330
85F6
100
AcDbEntity
  8
240
100
AcDbCircle
 10
75.29999999999984
 20
-16.69999999999999
 30
0.0
 40
0.8000000000000113
100
AcDbArc
 50
179.9999999922811
 51
269.9999999922828
  0
LINE
  5
86E4
330
85F6
100
AcDbEntity
  8
241
100
AcDbLine
 10
83.49999999999988
 20
-14.05614492491361
 30
0.0
 11
74.49999999999977
 21
-14.05614492491361
 31
0.0
  0
LINE
  5
86E5
330
85F6
100
AcDbEntity
  8
241
100
AcDbLine
 10
83.49999999999988
 20
-16.05614492491355
 30
0.0
 11
74.49999999999977
 21
-16.05614492491355
 31
0.0
  0
LINE
  5
86E6
330
85F6
100
AcDbEntity
  8
241
100
AcDbLine
 10
74.49999999999977
 20
-14.99999999999994
 30
0.0
 11
74.49999999999988
 21
0.0
 31
0.0
  0
LINE
  5
86E7
330
85F6
100
AcDbEntity
  8
241
100
AcDbLine
 10
71.49999999999988
 20
-12.5
 30
0.0
 11
71.49999999999988
 21
0.0
 31
0.0
  0
LINE
  5
86E8
330
85F6
100
AcDbEntity
  8
241
100
AcDbLine
 10
69.49999999999988
 20
-14.0
 30
0.0
 11
69.49999999999988
 21
0.0
 31
0.0
  0
LINE
  5
86E9
330
85F6
100
AcDbEntity
  8
241
100
AcDbLine
 10
73.99999999999988
 20
-13.0
 30
0.0
 11
73.99999999999988
 21
0.0
 31
0.0
  0
ARC
  5
86EA
330
85F6
100
AcDbEntity
  8
240
100
AcDbCircle
 10
68.49999999999988
 20
-16.25
 30
0.0
 40
1.0
100
AcDbArc
 50
269.9999999897115
 51
359.9999999897115
  0
LINE
  5
86EB
330
85F6
100
AcDbEntity
  8
240
100
AcDbLine
 10
74.49999999999977
 20
-16.69999999999999
 30
0.0
 11
74.49999999999977
 21
-14.99999999999994
 31
0.0
  0
LINE
  5
86EC
330
85F6
100
AcDbEntity
  8
240
100
AcDbLine
 10
69.49999999999988
 20
-16.25
 30
0.0
 11
69.49999999999988
 21
-14.0
 31
0.0
  0
LINE
  5
86ED
330
85F6
100
AcDbEntity
  8
240
100
AcDbLine
 10
70.49999999999989
 20
-13.0
 30
0.0
 11
73.99999999999988
 21
-13.0
 31
0.0
  0
LINE
  5
86EE
330
85F6
100
AcDbEntity
  8
242
100
AcDbLine
 10
73.99999999999988
 20
-12.5
 30
0.0
 11
71.49999999999988
 21
-12.5
 31
0.0
  0
ARC
  5
86EF
330
85F6
100
AcDbEntity
  8
240
100
AcDbCircle
 10
70.49999999999989
 20
-14.0
 30
0.0
 40
1.0
100
AcDbArc
 50
89.99999999742705
 51
179.999999997427
  0
LINE
  5
86F0
330
85F6
100
AcDbEntity
  8
242
100
AcDbLine
 10
71.49999999999988
 20
-12.5
 30
0.0
 11
70.99999999999988
 21
-13.0
 31
0.0
  0
LINE
  5
86F1
330
85F6
100
AcDbEntity
  8
240
100
AcDbLine
 10
73.99999999999988
 20
-14.5
 30
0.0
 11
74.49999999999988
 21
-15.0
 31
0.0
  0
LINE
  5
86F2
330
85F6
100
AcDbEntity
  8
240
100
AcDbLine
 10
73.99999999999988
 20
-14.5
 30
0.0
 11
73.99999999999988
 21
-13.0
 31
0.0
  0
LINE
  5
86F3
330
85F6
100
AcDbEntity
  8
241
100
AcDbLine
 10
83.49999999999988
 20
-16.05614492491355
 30
0.0
 11
83.49999999999988
 21
-14.05614492491361
 31
0.0
  0
LINE
  5
86F4
330
85F6
100
AcDbEntity
  8
246
100
AcDbLine
 10
84.39999999999987
 20
-10.25
 30
0.0
 11
84.39999999999987
 21
-8.75
 31
0.0
  0
LINE
  5
86F5
330
85F6
100
AcDbEntity
  8
241
100
AcDbLine
 10
83.49999999999988
 20
-2.0
 30
0.0
 11
83.49999999999988
 21
0.0
 31
0.0
  0
LINE
  5
86F6
330
85F6
100
AcDbEntity
  8
241
100
AcDbLine
 10
83.49999999999988
 20
2.0
 30
0.0
 11
83.49999999999988
 21
0.0
 31
0.0
  0
LINE
  5
86F7
330
85F6
100
AcDbEntity
  8
240
100
AcDbLine
 10
88.98431457505058
 20
-17.26568542494931
 30
0.0
 11
89.79497474683046
 21
-16.45502525316942
 31
0.0
  0
ARC
  5
86F8
330
85F6
100
AcDbEntity
  8
240
100
AcDbCircle
 10
88.4186291501013
 20
-16.70000000000004
 30
0.0
 40
0.8000000000000113
100
AcDbArc
 50
270.0000000424168
 51
315.0000000424154
  0
ARC
  5
86F9
330
85F6
100
AcDbEntity
  8
240
100
AcDbCircle
 10
89.29999999999983
 20
-15.96005050633886
 30
0.0
 40
0.7000000000000339
100
AcDbArc
 50
314.9999999897143
 51
359.9999999897082
  0
LINE
  5
86FA
330
85F6
100
AcDbEntity
  8
246
100
AcDbLine
 10
86.99999999999988
 20
-10.25
 30
0.0
 11
89.99999999999989
 21
-8.51794919243116
 31
0.0
  0
LINE
  5
86FB
330
85F6
100
AcDbEntity
  8
246
100
AcDbLine
 10
86.79999999999983
 20
-10.25
 30
0.0
 11
86.99999999999988
 21
-10.25
 31
0.0
  0
LINE
  5
86FC
330
85F6
100
AcDbEntity
  8
246
100
AcDbLine
 10
86.79999999999983
 20
-8.75
 30
0.0
 11
86.79999999999983
 21
-10.25
 31
0.0
  0
LINE
  5
86FD
330
85F6
100
AcDbEntity
  8
240
100
AcDbLine
 10
75.29999999999984
 20
17.5
 30
0.0
 11
88.4186291501013
 21
17.5
 31
0.0
  0
LINE
  5
86FE
330
85F6
100
AcDbEntity
  8
246
100
AcDbLine
 10
84.39999999999987
 20
8.75
 30
0.0
 11
86.79999999999983
 21
8.75
 31
0.0
  0
LINE
  5
86FF
330
85F6
100
AcDbEntity
  8
246
100
AcDbLine
 10
84.39999999999987
 20
10.25
 30
0.0
 11
58.99999999999955
 21
7.580352424251998
 31
0.0
  0
LINE
  5
8700
330
85F6
100
AcDbEntity
  8
240
100
AcDbLine
 10
43.99999999999988
 20
17.25
 30
0.0
 11
68.49999999999988
 21
17.25
 31
0.0
  0
LINE
  5
8701
330
85F6
100
AcDbEntity
  8
240
100
AcDbLine
 10
42.99999999999989
 20
17.04999999999995
 30
0.0
 11
43.79999999999983
 21
17.04999999999995
 31
0.0
  0
LINE
  5
8702
330
85F6
100
AcDbEntity
  8
240
100
AcDbLine
 10
43.79999999999983
 20
17.04999999999995
 30
0.0
 11
43.99999999999988
 21
17.25
 31
0.0
  0
ARC
  5
8703
330
85F6
100
AcDbEntity
  8
240
100
AcDbCircle
 10
75.29999999999984
 20
16.70000000000004
 30
0.0
 40
0.8000000000000682
100
AcDbArc
 50
89.99999999485412
 51
179.9999999948541
  0
LINE
  5
8704
330
85F6
100
AcDbEntity
  8
241
100
AcDbLine
 10
83.49999999999988
 20
16.05614492491349
 30
0.0
 11
74.49999999999977
 21
16.05614492491349
 31
0.0
  0
LINE
  5
8705
330
85F6
100
AcDbEntity
  8
241
100
AcDbLine
 10
83.49999999999988
 20
14.05614492491361
 30
0.0
 11
74.49999999999977
 21
14.05614492491361
 31
0.0
  0
ARC
  5
8706
330
85F6
100
AcDbEntity
  8
240
100
AcDbCircle
 10
68.49999999999988
 20
16.25
 30
0.0
 40
1.0
100
AcDbArc
 50
0.0
 51
90.0
  0
LINE
  5
8707
330
85F6
100
AcDbEntity
  8
240
100
AcDbLine
 10
69.49999999999988
 20
16.25
 30
0.0
 11
69.49999999999988
 21
14.0
 31
0.0
  0
LINE
  5
8708
330
85F6
100
AcDbEntity
  8
240
100
AcDbLine
 10
73.99999999999988
 20
14.5
 30
0.0
 11
73.99999999999988
 21
13.0
 31
0.0
  0
LINE
  5
8709
330
85F6
100
AcDbEntity
  8
240
100
AcDbLine
 10
70.49999999999989
 20
13.0
 30
0.0
 11
73.99999999999988
 21
13.0
 31
0.0
  0
LINE
  5
870A
330
85F6
100
AcDbEntity
  8
242
100
AcDbLine
 10
73.99999999999988
 20
12.5
 30
0.0
 11
71.49999999999988
 21
12.5
 31
0.0
  0
ARC
  5
870B
330
85F6
100
AcDbEntity
  8
240
100
AcDbCircle
 10
70.49999999999989
 20
14.0
 30
0.0
 40
1.0
100
AcDbArc
 50
179.9999999922844
 51
269.9999999922828
  0
LINE
  5
870C
330
85F6
100
AcDbEntity
  8
242
100
AcDbLine
 10
71.49999999999988
 20
12.5
 30
0.0
 11
70.99999999999988
 21
13.0
 31
0.0
  0
LINE
  5
870D
330
85F6
100
AcDbEntity
  8
240
100
AcDbLine
 10
73.99999999999988
 20
14.5
 30
0.0
 11
74.49999999999988
 21
15.0
 31
0.0
  0
LINE
  5
870E
330
85F6
100
AcDbEntity
  8
240
100
AcDbLine
 10
74.49999999999977
 20
16.70000000000004
 30
0.0
 11
74.49999999999977
 21
15.0
 31
0.0
  0
LINE
  5
870F
330
85F6
100
AcDbEntity
  8
241
100
AcDbLine
 10
83.49999999999988
 20
16.05614492491349
 30
0.0
 11
83.49999999999988
 21
14.05614492491361
 31
0.0
  0
LINE
  5
8710
330
85F6
100
AcDbEntity
  8
246
100
AcDbLine
 10
84.39999999999987
 20
10.25
 30
0.0
 11
84.39999999999987
 21
8.75
 31
0.0
  0
LINE
  5
8711
330
85F6
100
AcDbEntity
  8
246
100
AcDbLine
 10
86.99999999999988
 20
10.25
 30
0.0
 11
89.99999999999989
 21
8.51794919243116
 31
0.0
  0
LINE
  5
8712
330
85F6
100
AcDbEntity
  8
246
100
AcDbLine
 10
86.79999999999983
 20
10.25
 30
0.0
 11
86.99999999999988
 21
10.25
 31
0.0
  0
LINE
  5
8713
330
85F6
100
AcDbEntity
  8
246
100
AcDbLine
 10
86.79999999999983
 20
8.75
 30
0.0
 11
86.79999999999983
 21
10.25
 31
0.0
  0
LINE
  5
8714
330
85F6
100
AcDbEntity
  8
240
100
AcDbLine
 10
89.79497474683046
 20
16.45502525316942
 30
0.0
 11
88.98431457505058
 21
17.26568542494919
 31
0.0
  0
ARC
  5
8715
330
85F6
100
AcDbEntity
  8
240
100
AcDbCircle
 10
88.4186291501013
 20
16.70000000000004
 30
0.0
 40
0.7999999999999582
100
AcDbArc
 50
44.9999999871316
 51
89.99999998713937
  0
ARC
  5
8716
330
85F6
100
AcDbEntity
  8
240
100
AcDbCircle
 10
89.29999999999983
 20
15.9600505063388
 30
0.0
 40
0.7000000000000455
100
AcDbArc
 50
359.999999937002
 51
44.99999993700519
  0
ENDBLK
  5
8718
330
85F6
100
AcDbEntity
  8
0
100
AcDbBlockEnd
  0
BLOCK
  5
872C
330
8722
100
AcDbEntity
  8
0
100
AcDbBlockBegin
  2
*D2
 70
     1
 10
0.0
 20
0.0
 30
0.0
  3
*D2
  1

  0
LINE
  5
87FB
330
8722
100
AcDbEntity
  8
250
100
AcDbLine
 10
0.0
 20
49.5
 30
0.0
 11
0.0000000000000013
 21
71.0
 31
0.0
  0
LINE
  5
87FC
330
8722
100
AcDbEntity
  8
250
100
AcDbLine
 10
89.99999999999989
 20
16.46005050556914
 30
0.0
 11
89.99999999999989
 21
71.0
 31
0.0
  0
LINE
  5
87FD
330
8722
100
AcDbEntity
  8
250
100
AcDbLine
 10
2.230000000000001
 20
70.0
 30
0.0
 11
87.76999999999988
 21
70.0
 31
0.0
  0
INSERT
  5
87FE
330
8722
100
AcDbEntity
  8
250
100
AcDbBlockReference
  2
_OPEN
 10
0.0000000000000013
 20
70.0
 30
0.0
 41
2.229999999999999
 42
2.229999999999999
 43
2.229999999999999
 50
180.0
  0
INSERT
  5
87FF
330
8722
100
AcDbEntity
  8
250
100
AcDbBlockReference
  2
_OPEN
 10
89.99999999999989
 20
70.0
 30
0.0
 41
2.229999999999999
 42
2.229999999999999
 43
2.229999999999999
  0
MTEXT
  5
8800
330
8722
100
AcDbEntity
  8
250
 62
    40
100
AcDbMText
 10
44.99999999999994
 20
72.5
 30
0.0
 40
3.0
 41
0.0
 71
     5
 72
     1
  1
\A1;90
1001
ACAD
1000
MTEXTBEGIN
1070
    73
1070
     1
1070
    44
1040
1.0
1070
    74
1070
     0
1000
MTEXTEND
  0
POINT
  5
8801
330
8722
100
AcDbEntity
  8
DEFPOINTS
 62
     0
100
AcDbPoint
 10
0.0
 20
49.0
 30
0.0
  0
POINT
  5
8802
330
8722
100
AcDbEntity
  8
DEFPOINTS
 62
     0
100
AcDbPoint
 10
89.99999999999989
 20
15.96005050556914
 30
0.0
  0
POINT
  5
8803
330
8722
100
AcDbEntity
  8
DEFPOINTS
 62
     0
100
AcDbPoint
 10
89.99999999999989
 20
70.0
 30
0.0
  0
ENDBLK
  5
872D
330
8722
100
AcDbEntity
  8
0
100
AcDbBlockEnd
  0
BLOCK
  5
8738
330
872E
100
AcDbEntity
  8
0
100
AcDbBlockBegin
  2
*D3
 70
     1
 10
0.0
 20
0.0
 30
0.0
  3
*D3
  1

  0
LINE
  5
8816
330
872E
100
AcDbEntity
  8
250
100
AcDbLine
 10
34.99999999999988
 20
-0.5
 30
0.0
 11
34.99999999999988
 21
-50.0
 31
0.0
  0
LINE
  5
8817
330
872E
100
AcDbEntity
  8
250
100
AcDbLine
 10
89.99999999999989
 20
-16.46005050633886
 30
0.0
 11
89.99999999999989
 21
-50.0
 31
0.0
  0
LINE
  5
8818
330
872E
100
AcDbEntity
  8
250
100
AcDbLine
 10
37.22999999999988
 20
-49.0
 30
0.0
 11
87.76999999999988
 21
-49.0
 31
0.0
  0
INSERT
  5
8819
330
872E
100
AcDbEntity
  8
250
100
AcDbBlockReference
  2
_OPEN
 10
34.99999999999988
 20
-49.0
 30
0.0
 41
2.229999999999999
 42
2.229999999999999
 43
2.229999999999999
 50
180.0
  0
INSERT
  5
881A
330
872E
100
AcDbEntity
  8
250
100
AcDbBlockReference
  2
_OPEN
 10
89.99999999999989
 20
-49.0
 30
0.0
 41
2.229999999999999
 42
2.229999999999999
 43
2.229999999999999
  0
MTEXT
  5
881B
330
872E
100
AcDbEntity
  8
250
 62
    40
100
AcDbMText
 10
62.49999999999989
 20
-46.5
 30
0.0
 40
3.0
 41
0.0
 71
     5
 72
     1
  1
\A1;55
1001
ACAD
1000
MTEXTBEGIN
1070
    73
1070
     1
1070
    44
1040
1.0
1070
    74
1070
     0
1000
MTEXTEND
  0
POINT
  5
881C
330
872E
100
AcDbEntity
  8
DEFPOINTS
 62
     0
100
AcDbPoint
 10
34.99999999999988
 20
0.0
 30
0.0
  0
POINT
  5
881D
330
872E
100
AcDbEntity
  8
DEFPOINTS
 62
     0
100
AcDbPoint
 10
89.99999999999989
 20
-15.96005050633886
 30
0.0
  0
POINT
  5
881E
330
872E
100
AcDbEntity
  8
DEFPOINTS
 62
     0
100
AcDbPoint
 10
89.99999999999989
 20
-49.0
 30
0.0
  0
ENDBLK
  5
8739
330
872E
100
AcDbEntity
  8
0
100
AcDbBlockEnd
  0
BLOCK
  5
8744
330
873A
100
AcDbEntity
  8
0
100
AcDbBlockBegin
  2
*D4
 70
     1
 10
0.0
 20
0.0
 30
0.0
  3
*D4
  1

  0
LINE
  5
880D
330
873A
100
AcDbEntity
  8
250
100
AcDbLine
 10
88.91862915010131
 20
-17.50000000000005
 30
0.0
 11
113.0
 21
-17.50000000000006
 31
0.0
  0
LINE
  5
880E
330
873A
100
AcDbEntity
  8
250
100
AcDbLine
 10
88.91862915010131
 20
17.49999999999994
 30
0.0
 11
113.0
 21
17.49999999999993
 31
0.0
  0
LINE
  5
880F
330
873A
100
AcDbEntity
  8
250
100
AcDbLine
 10
112.0
 20
-15.27000000000006
 30
0.0
 11
112.0
 21
15.26999999999993
 31
0.0
  0
INSERT
  5
8810
330
873A
100
AcDbEntity
  8
250
100
AcDbBlockReference
  2
_OPEN
 10
112.0
 20
-17.50000000000006
 30
0.0
 41
2.229999999999999
 42
2.229999999999999
 43
2.229999999999999
 50
270.0
  0
INSERT
  5
8811
330
873A
100
AcDbEntity
  8
250
100
AcDbBlockReference
  2
_OPEN
 10
112.0
 20
17.49999999999993
 30
0.0
 41
2.229999999999999
 42
2.229999999999999
 43
2.229999999999999
 50
90.0
  0
MTEXT
  5
8812
330
873A
100
AcDbEntity
  8
250
 62
    40
100
AcDbMText
 10
109.4999999999999
 20
-0.0000000000000421
 30
0.0
 40
3.0
 41
0.0
 71
     5
 72
     1
  1
\A1;{\H3;\U+2205}35
 11
0.0000000000000001
 21
1.0
 31
0.0
1001
ACAD
1000
MTEXTBEGIN
1070
    73
1070
     1
1070
    44
1040
1.0
1070
    74
1070
     0
1000
MTEXTEND
  0
POINT
  5
8813
330
873A
100
AcDbEntity
  8
DEFPOINTS
 62
     0
100
AcDbPoint
 10
88.4186291501013
 20
-17.50000000000005
 30
0.0
  0
POINT
  5
8814
330
873A
100
AcDbEntity
  8
DEFPOINTS
 62
     0
100
AcDbPoint
 10
88.4186291501013
 20
17.49999999999994
 30
0.0
  0
POINT
  5
8815
330
873A
100
AcDbEntity
  8
DEFPOINTS
 62
     0
100
AcDbPoint
 10
112.0
 20
17.49999999999993
 30
0.0
  0
ENDBLK
  5
8745
330
873A
100
AcDbEntity
  8
0
100
AcDbBlockEnd
  0
BLOCK
  5
8750
330
8746
100
AcDbEntity
  8
0
100
AcDbBlockBegin
  2
*D5
 70
     1
 10
0.0
 20
0.0
 30
0.0
  3
*D5
  1

  0
LINE
  5
8853
330
8746
100
AcDbEntity
  8
250
100
AcDbLine
 10
90.49999999999988
 20
-6.5
 30
0.0
 11
106.0
 21
-6.500000000000005
 31
0.0
  0
LINE
  5
8854
330
8746
100
AcDbEntity
  8
250
100
AcDbLine
 10
90.49999999999988
 20
6.499999999999999
 30
0.0
 11
106.0
 21
6.499999999999994
 31
0.0
  0
LINE
  5
8855
330
8746
100
AcDbEntity
  8
250
100
AcDbLine
 10
105.0
 20
-4.270000000000004
 30
0.0
 11
105.0
 21
4.269999999999996
 31
0.0
  0
MTEXT
  5
8856
330
8746
100
AcDbEntity
  8
250
 62
    40
100
AcDbMText
 10
102.2607784234289
 20
3.125826607104443
 30
0.0
 40
3.0
 41
0.0
 71
     5
 72
     1
  1
\A1;MAX.%%C13
 11
0.0000000000000001
 21
1.0
 31
0.0
  0
INSERT
  5
8857
330
8746
100
AcDbEntity
  8
250
100
AcDbBlockReference
  2
_OPEN
 10
105.0
 20
-6.500000000000004
 30
0.0
 41
2.229999999999999
 42
2.229999999999999
 43
2.229999999999999
 50
270.0
  0
INSERT
  5
8858
330
8746
100
AcDbEntity
  8
250
100
AcDbBlockReference
  2
_OPEN
 10
105.0
 20
6.499999999999995
 30
0.0
 41
2.229999999999999
 42
2.229999999999999
 43
2.229999999999999
 50
90.0
  0
POINT
  5
8859
330
8746
100
AcDbEntity
  8
DEFPOINTS
 62
     0
100
AcDbPoint
 10
89.99999999999989
 20
-6.5
 30
0.0
  0
POINT
  5
885A
330
8746
100
AcDbEntity
  8
DEFPOINTS
 62
     0
100
AcDbPoint
 10
89.99999999999989
 20
6.5
 30
0.0
  0
POINT
  5
885B
330
8746
100
AcDbEntity
  8
DEFPOINTS
 62
     0
100
AcDbPoint
 10
105.0
 20
6.499999999999995
 30
0.0
  0
ENDBLK
  5
8751
330
8746
100
AcDbEntity
  8
0
100
AcDbBlockEnd
  0
ENDSEC
  0
SECTION
  2
ENTITIES
  0
POINT
  5
1986
330
1A
100
AcDbEntity
  8
GRADE
  6
CONTINUOUS
100
AcDbPoint
 10
140.1053417483285
 20
535.4533938860174
 30
0.0
1001
DRAWING
1070
     0
1004
40A00000202020202020202020202020202020202020202020202020202020202020202020202020202020202020202020202020202020202020202020202020202020202020202020202020202020202020202020202020202020202020202020202020202020202020202020202020202020202020202020202020202020
1004
20202020202020202020202020202020202020202020202020202020202020202020202020202020202020202020202020202020202020202020202020202020202020202020202020202020202020202020202020202020202020202020202020202020202020202020202020202020202020202020202020202020202020
1004
20202020202020202020202020202020202020202020202020202020202020202020202020202020202020202020202020202020202020202020202020202020202020202020202020202020202020202020202020202020202020202020202020202020202020202020202020202020202020202020202020202020202020
1004
202020202020202020202020202020202020202020202080
1070
   256
1004
32303031303231373137313330362E3020533344
1070
   512
1004
2020202020202020000000F10000000000000001000000010000000000000000000000000000000000000000000000000000000000000000000000000000000000000000
1070
   513
1004
00000000000000000000000000000000000000000000000000000000000000000000000000000000000000000000000000000000000000000000000000000000000000000000000000000000000000000000000000000000000000000000000000000000000000000000000000000000000000000000000000000000000000
1004
00000000000000000000000000000000000000000000000000000000000000000000000000000000000000000000000000000000000000000000000000000000000000000000000000000000000000000000000000000000000000000000000000000000000000000000000000000000000000000000000000000000000000
1004
00000000000000000000000000000000000000000000000000000000000000000000000000000000000000000000000000000000000000000000000000000000000000000000000000000000000000000000000000000000000000000000000000000000000000000000000000000000000000000000000000000000000000
1004
00000000000000000000000000000000000000000000000000000000000000000000000000000000000000000000000000000000000000000000000000000000000000000000000000000000000000000000000000000000000000000000000000000000000000000000000000000000000000000000000000000000000000
1004
00000000000000000000000000000000000000000000000000000000000000000000000000000000000000000000000000000000000000000000000000000000000000000000000000000000000000000000000000000000000000000000000000000000000000000000000000000000000000000000000000000000000000
1004
00000000000000000000000000000000000000000000000000000000000000000000000000000000000000000000000000000000000000000000000000000000000000000000000000000000000000000000000000000000000000000000000000000000000000000000000000000000000000000000000000000000000000
1004
00000000000000000000000000000000000000000000000000000000000000000000000000000000000000000000000000000000000000000000000000000000000000000000000000000000000000000000000000000000000000000000000000000000000000000000000000000000000000000000000000000000000000
1004
00000000000000000000000000000000000000000000000000000000000000000000000000000000000000000000000000000000000000000000000000000000000000000000000000000000000000000000000000000000000000000000000000000000000000000000000000000000000000000000000000000000000000
1004
00000000000100020003000400050006000100070003000100070003000100070003000300030003000300030003000300030003000300030003000300030003000300030003000300030003000300030003000300030003000300030003000300030003000300030003000300030003000300030003000300030003000300
1004
03000300030003000300030003000300030003000300030003000300030003000300030003000300030003000300030003000300030003000300030003000300030003000300030003000300030003000300030003000300030003000300030003000300030003000300030003000300030003000300030003000300030003
1004
00030003000300030003000300030003000300030003000300030003000300030003000300030003000300030003000300030003000300030003000300030003000300030003000300030003000300030003000300030003000300030003000300030003000300030003000300030003000300030003000300030003000300
1004
03000300030003000300030003000300030003000300030003000300030003000300030003000300030003000300030003000300030003000300030003000300030003000300030003000300030003000300030003000300030003000300030003000300030006000400030004000300050003000C000300030003000A0003
1004
00030003000300000000000000000000000000000000000000000000000000000000000000000000000000000000000000000000000000000000000000000000000000000000000000000000000000000000000000000000000000000000000000000000000000000000000000000000000000000000000000000000000000
1004
00000000000000000000000000000000000000000000000000000000000000000000000000000000000000000000000000000000000000000000000000000000000000000000000000000000000000000000000000000000000000000000000000000000000000000000000000000000000000000000000000000000000000
1004
00000000000000000000000000000000000000000000000000000000000000000000000000000000000000000000000000000000000000000000000000000000000000000000000000000000000000000000000000000000000000000000000000000000000000000000000000000000000000000000000000000000000000
1004
00000000000000000000000000000000000000000000000000000000000000000000000000000000000000000000000000000000000000000000000000000000000000000000000000000000000000000000000000000000000000000000000000000000000000000000000000000000000000000000000000000000000000
1004
00000000000000000000000000000000000000000000000000000000000000000000000000000000000000000000000000000000000000000000000000000000000000000000000000
1070
   515
1004
00000001000000050000000100000001
1070
     2
1004
00000000000000000000000000000000000000000000000000000000000000000000000000000000000000000000000000000000000000000000000000000000000000000000000000000000000000000000000000000000000000000000000000000000000000000000000000000000000000000000000000000000000000
1004
000000000100000006000000000000000000000000FFFFF600000001D1000001D1000001D1FFFFF800000001740000017400000174000009FE000001D1000001D1000001D1000007FF000001740000017400000174000000000000000000000000000000000000000000000000000000000000000000000000000000000000
1004
00000000000000000000000000003FF0000000000000000000000000000000000000000000000000000000000000000000000000000000000000000000000000000000000000000000000000000000000000000000000000000000000000000000000000000000000000000000000000000000000000000000000000000000
1004
000000000000000000000000000000000000000000000000000000000000000000000000000000000000000000000000000000000000000000000000000000000000000000000000000000000000003FF000000000000000000000000000000000000000000000000000000000000000000000000000000000000000000000
1004
00000000000000000000000000000000000000000000000000000000000000000000000000000000000000000000000000000000000000000000000000000000000000000000000000000000000000000000000000000000000000000000000000000000000000000000000000000000000000000000000000000000000000
1004
00000000000000000000000000000000003FF000000000000000000000000000000000000000000000000000000000000000000000000000000000000000000000C01C00000000000000000000000000000000000000000000000000000000000000000000000000000000000000000000C046000000000000000000000000
1004
000000000000000000000000000000000000000000000000000000000000000000004072F00000000000000000000000000000000000000000000000000000000000000000000000000000000000000000004070A0000000000000000000000000000000000000000000000000000000000000000000000000000000000000
1004
000000404B4AEEBA5775D400000000000000000000000000000000000000000000000000000000000000000000000000000000405086B950F4EF540000000000000000000000000000000000000000000000000000000000000000000000000000000040631591DCAC8EE50000000000000000000000000000000000000000
1004
00000000000000000000000000000000000000004062124C4632CFCA000000000000000000000000000000000000000000000000000000000000000000000000000000003FF000000000000000000000000000000000000000000000000000000000000000000000000000000000000000000000479E17B84357691B000000
1004
00000000000000000000000000000000000000000000000000000000000000000000000000C79E17B84357691B00000000000000000000000000000000000000000000000100000000000000000000000000000000000000000000000100
1070
     3
1004
0000000153544420202020203FF00000000000000000000000000000000000000000000000000000000000003FF00000000000000000000000000000000000000000000000000000000000003FF0000000000000C01C000000000000C0460000000000004072F000000000004070A000000000003FF0000000000000479E17
1004
B84357691BC79E17B84357691B202020202020202000000000000000000000000000000000000000000000000000
1070
     3
1004
00000002424F5420202020203FF0000000000000000000000000000000000000000000000000000000000000BFF0000000000000000000000000000000000000000000000000000000000000BFF0000000000000C0D0000000000000C0D000000000000040CFFF800000000040CFFF80000000003FF0000000000000479E17
1004
B84357691BC79E17B84357691B202020202020202000000000000000000000000000000000000000000000000000
1070
     3
1004
0000000346525420202020203FF000000000000000000000000000000000000000000000000000000000000000000000000000003FF00000000000000000000000000000BFF00000000000000000000000000000C0D0000000000000C0D000000000000040CFFF800000000040CFFF80000000003FF0000000000000479E17
1004
B84357691BC79E17B84357691B202020202020202000000000000000000000000000000000000000000000000000
1070
     3
1004
000000044241434B20202020BFF000000000000000000000000000000000000000000000000000000000000000000000000000003FF000000000000000000000000000003FF00000000000000000000000000000C0D0000000000000C0D000000000000040CFFF800000000040CFFF80000000003FF0000000000000479E17
1004
B84357691BC79E17B84357691B202020202020202000000000000000000000000000000000000000000000000000
1070
     3
1004
00000005534944202020202000000000000000003FF00000000000000000000000000000000000000000000000000000000000003FF00000000000003FF000000000000000000000000000000000000000000000C0D0000000000000C0D000000000000040CFFF800000000040CFFF80000000003FF0000000000000479E17
1004
B84357691BC79E17B84357691B202020202020202000000000000000000000000000000000000000000000000000
1070
     3
1004
000000065349444C202020200000000000000000BFF00000000000000000000000000000000000000000000000000000000000003FF0000000000000BFF000000000000000000000000000000000000000000000C0D0000000000000C0D000000000000040CFFF800000000040CFFF80000000003FF0000000000000479E17
1004
B84357691BC79E17B84357691B202020202020202000000000000000000000000000000000000000000000000000
1070
     3
1004
0000000749534F20202020203FEBB67AE85FB4C43FDFFFFFFFE657BA0000000000000000BFCB0C2D77613EFA3FD76C83823A53E23FED0079301F12F53FDD00793007D214BFE91DC856441C0A3FDB0C2D7776EEB9C0D0000000000000C0D000000000000040CFFF800000000040CFFF80000000003FF0000000000000479E17
1004
B84357691BC79E17B84357691B202020202020202000000000000000000000000000000000000000000000000000
  0
TEXT
  5
2596
330
1A
100
AcDbEntity
  8
241
100
AcDbText
 10
-42.0
 20
84.0
 30
0.0
 40
5.0
  1
HSK-A100-NBS13-90
  7
YOKO
 11
-42.0
 21
84.0
 31
0.0
100
AcDbText
 73
     1
  0
INSERT
  5
8719
330
1A
100
AcDbEntity
  8
240
100
AcDbBlockReference
  2
A$C54E4527B
 10
0.0
 20
0.0
 30
0.0
  0
LINE
  5
871B
330
1A
100
AcDbEntity
  8
250
100
AcDbLine
 10
-26.85349088242088
 20
-49.1386442721153
 30
0.0
 11
-55.71063373956377
 21
-49.1386442721153
 31
0.0
1001
ITEMNAME
1000
LNSP2
  0
MTEXT
  5
871C
330
1A
100
AcDbEntity
  8
250
 62
    40
100
AcDbMText
 10
-52.71063373956377
 20
-48.1386442721153
 30
0.0
 40
3.0
 41
0.0
 71
     7
 72
     1
  1
HSK-A100
  7
YOKO
1001
ITEMNAME
1000
LNSP3
1001
ACAD
1000
MTEXTBEGIN
1070
    73
1070
     1
1070
    44
1040
1.0
1070
    74
1070
     0
1000
MTEXTEND
  0
LEADER
  5
871D
330
1A
100
AcDbEntity
  8
250
100
AcDbLeader
  3
BIGT
 76
     2
 10
-19.84958349480621
 20
-37.00752082525974
 30
0.0
 10
-26.85349088242088
 20
-49.1386442721153
 30
0.0
1001
ACAD
1000
DSTYLE
1002
{
1070
     5
1000
OPEN
1070
    78
1070
     8
1070
   140
1040
3.0
1002
}
  0
DIMENSION
  5
871E
330
1A
100
AcDbEntity
  8
250
100
AcDbDimension
  2
*D4
 10
112.0
 20
17.49999999999993
 30
0.0
 11
109.4999999999999
 21
-0.0000000000000421
 31
0.0
 70
    32
  1
{\H3;\U+2205}<>
  3
BIGT
100
AcDbAlignedDimension
 13
88.4186291501013
 23
-17.50000000000005
 33
0.0
 14
88.4186291501013
 24
17.49999999999994
 34
0.0
 50
90.0
100
AcDbRotatedDimension
1001
ACAD
1000
DSTYLE
1002
{
1070
    78
1070
     8
1070
   140
1040
3.0
1002
}
  0
DIMENSION
  5
871F
330
1A
100
AcDbEntity
  8
250
100
AcDbDimension
  2
*D5
 10
105.0
 20
6.499999999999995
 30
0.0
 11
102.2607784234289
 21
3.125826607104443
 31
0.0
 70
   160
  1
MAX.%%C<>
  3
BIGT
100
AcDbAlignedDimension
 13
89.99999999999989
 23
-6.5
 33
0.0
 14
89.99999999999989
 24
6.5
 34
0.0
 50
90.0
100
AcDbRotatedDimension
1001
ACAD
1000
DSTYLE
1002
{
1070
   287
1070
     5
1070
    78
1070
     8
1070
   140
1040
3.0
1070
   279
1070
     2
1002
}
  0
DIMENSION
  5
8720
330
1A
100
AcDbEntity
  8
250
100
AcDbDimension
  2
*D2
 10
89.99999999999989
 20
70.0
 30
0.0
 11
44.99999999999994
 21
72.5
 31
0.0
 70
    32
  3
BIGT
100
AcDbAlignedDimension
 13
0.0
 23
49.0
 33
0.0
 14
89.99999999999989
 24
15.96005050556914
 34
0.0
100
AcDbRotatedDimension
1001
ACAD
1000
DSTYLE
1002
{
1070
    78
1070
     8
1070
   140
1040
3.0
1002
}
  0
DIMENSION
  5
8721
330
1A
100
AcDbEntity
  8
250
100
AcDbDimension
  2
*D3
 10
89.99999999999989
 20
-49.0
 30
0.0
 11
62.49999999999989
 21
-46.5
 31
0.0
 70
    32
  3
BIGT
100
AcDbAlignedDimension
 13
34.99999999999988
 23
0.0
 33
0.0
 14
89.99999999999989
 24
-15.96005050633886
 34
0.0
100
AcDbRotatedDimension
1001
ACAD
1000
DSTYLE
1002
{
1070
    78
1070
     8
1070
   140
1040
3.0
1002
}
  0
VIEWPORT
  5
22
330
17
100
AcDbEntity
 67
     1
  8
0
100
AcDbViewport
 10
261.5176991150442
 20
148.5
 30
0.0
 40
523.0353982300885
 41
297.0
 68
     1
 69
     1
1001
ACAD
1000
MVIEW
1002
{
1070
    16
1010
0.0
1020
0.0
1030
0.0
1010
0.0
1020
0.0
1030
1.0
1040
0.0
1040
297.0
1040
261.5176991150442
1040
148.5
1040
50.0
1040
0.0
1040
0.0
1070
     0
1070
   100
1070
     1
1070
     1
1070
     0
1070
     0
1070
     0
1070
     0
1040
0.0
1040
0.0
1040
0.0
1040
1.0
1040
1.0
1040
10.0
1040
10.0
1070
     0
1002
{
1002
}
1002
}
  0
ENDSEC
  0
SECTION
  2
OBJECTS
  0
DICTIONARY
  5
C
330
0
100
AcDbDictionary
  3
ACAD_GROUP
350
D
  3
ACAD_LAYOUT
350
565
  3
ACAD_MLINESTYLE
350
E
  3
ACAD_PLOTSETTINGS
350
566
  3
ACAD_PLOTSTYLENAME
350
563
  3
ACDBHEADERROUNDTRIPXREC
350
882E
  3
ACDBVARIABLEDICTIONARY
350
8826
  3
GRADE_DWG
350
540
  0
DICTIONARY
  5
8851
330
1A
100
AcDbDictionary
280
     1
  3
ACAD_LAYOUTSELFREF
360
8852
  0
DICTIONARY
  5
884F
330
17
100
AcDbDictionary
280
     1
  3
ACAD_LAYOUTSELFREF
360
8850
  0
DICTIONARY
  5
D
102
{ACAD_REACTORS
330
C
102
}
330
C
100
AcDbDictionary
  3
*A1
350
E50
  3
*A10
350
196B
  3
*A11
350
196C
  3
*A12
350
1961
  3
*A13
350
196D
  3
*A14
350
E51
  3
*A15
350
E54
  3
*A16
350
195C
  3
*A17
350
196E
  3
*A18
350
196F
  3
*A19
350
1970
  3
*A2
350
1966
  3
*A20
350
1971
  3
*A21
350
E59
  3
*A22
350
E5C
  3
*A23
350
1962
  3
*A24
350
1972
  3
*A25
350
1973
  3
*A26
350
1974
  3
*A27
350
1975
  3
*A28
350
194E
  3
*A29
350
1950
  3
*A3
350
1967
  3
*A30
350
19BA
  3
*A31
350
19BB
  3
*A32
350
E55
  3
*A33
350
19BC
  3
*A34
350
1955
  3
*A35
350
1957
  3
*A36
350
2084
  3
*A37
350
2085
  3
*A38
350
E5D
  3
*A39
350
2086
  3
*A4
350
195B
  3
*A40
350
195D
  3
*A41
350
2087
  3
*A42
350
2088
  3
*A43
350
1951
  3
*A44
350
2089
  3
*A45
350
1963
  3
*A46
350
208A
  3
*A47
350
208B
  3
*A48
350
1958
  3
*A49
350
208C
  3
*A5
350
1968
  3
*A50
350
E56
  3
*A51
350
208D
  3
*A52
350
195E
  3
*A53
350
25EF
  3
*A54
350
E5E
  3
*A55
350
E57
  3
*A56
350
E53
  3
*A57
350
E58
  3
*A58
350
1952
  3
*A59
350
2BF8
  3
*A6
350
E5B
  3
*A60
350
2DB9
  3
*A61
350
1959
  3
*A62
350
2F55
  3
*A63
350
E5F
  3
*A64
350
195F
  3
*A65
350
E60
  3
*A66
350
1953
  3
*A67
350
1964
  3
*A68
350
1954
  3
*A69
350
E52
  3
*A7
350
1969
  3
*A70
350
195A
  3
*A71
350
E5A
  3
*A72
350
1960
  3
*A73
350
194F
  3
*A74
350
1965
  3
*A8
350
1956
  3
*A9
350
196A
  3
DREC-1
350
5FC
  3
DREC-2
350
654
  3
DREC-3
350
673
  3
LNSP-1
350
23BF
  0
DICTIONARY
  5
565
102
{ACAD_REACTORS
330
C
102
}
330
C
100
AcDbDictionary
  0
DICTIONARY
  5
E
102
{ACAD_REACTORS
330
C
102
}
330
C
100
AcDbDictionary
  3
STANDARD
350
13
  0
DICTIONARY
  5
566
102
{ACAD_REACTORS
330
C
102
}
330
C
100
AcDbDictionary
  0
ACDBDICTIONARYWDFLT
  5
563
102
{ACAD_REACTORS
330
C
102
}
330
C
100
AcDbDictionary
281
     1
  3
Normal
350
564
100
AcDbDictionaryWithDefault
340
564
  0
DICTIONARY
  5
882E
102
{ACAD_REACTORS
330
C
102
}
330
C
100
AcDbDictionary
  3
CEPSNTYPE
350
8838
  3
DIMSTYLEDATA
350
883C
  3
FINGERPRINTGUID
350
8839
  3
HYPERLINKBASE
350
8831
  3
INSUNITS
350
8837
  3
LAYOUTDICT
350
8833
  3
LWETCUNION
350
8836
  3
PLOTSETDICT
350
8834
  3
PLOTSTYLNAMDICT
350
8835
  3
PSVPSCALE
350
883B
  3
PUCSBASE
350
883F
  3
PUCSORGBACK
350
8845
  3
PUCSORGBOTTOM
350
8841
  3
PUCSORGFRONT
350
8844
  3
PUCSORGLEFT
350
8842
  3
PUCSORGRIGHT
350
8843
  3
PUCSORGTOP
350
8840
  3
PUCSORTHOREF
350
883D
  3
PUCSORTHOVIEW
350
883E
  3
STYLESHEET
350
8832
  3
TSTACKALIGN
350
882F
  3
TSTACKSIZE
350
8830
  3
UCSBASE
350
8848
  3
UCSORGBACK
350
884E
  3
UCSORGBOTTOM
350
884A
  3
UCSORGFRONT
350
884D
  3
UCSORGLEFT
350
884B
  3
UCSORGRIGHT
350
884C
  3
UCSORGTOP
350
8849
  3
UCSORTHOREF
350
8846
  3
UCSORTHOVIEW
350
8847
  3
VERSIONGUID
350
883A
  0
DICTIONARY
  5
8826
102
{ACAD_REACTORS
330
C
102
}
330
C
100
AcDbDictionary
  3
DIMASSOC
350
8827
  0
DICTIONARY
  5
540
102
{ACAD_REACTORS
330
C
102
}
330
C
100
AcDbDictionary
  3
VERSION
350
560
  0
XRECORD
  5
8852
102
{ACAD_REACTORS
330
8851
102
}
330
8851
100
AcDbXrecord
340
1A
  0
XRECORD
  5
8850
102
{ACAD_REACTORS
330
884F
102
}
330
884F
100
AcDbXrecord
340
17
  0
GROUP
  5
E50
102
{ACAD_REACTORS
330
D
102
}
330
D
100
AcDbGroup
300

 70
     1
 71
     1
1001
GRPNAME
1000
LNSP
  0
GROUP
  5
196B
102
{ACAD_REACTORS
330
D
102
}
330
D
100
AcDbGroup
300

 70
     0
 71
     1
1001
GRPNAME
1000
DREC-
1001
GPARA
1000
xsiz
1000
54.592
1000
ysiz
1000
53.036
1000
angl
1000
0
1000
ctyp
1000
0
1000
csiz
1000
5
1000
lfnt
1000
cont
1000
hcnt
1000
hoff
1000
vcnt
1000
voff
1000
opnt
1000
4
1000
dxpt
1000
0
1000
dypt
1000
0
  0
GROUP
  5
196C
102
{ACAD_REACTORS
330
D
102
}
330
D
100
AcDbGroup
300

 70
     0
 71
     1
1001
GRPNAME
1000
DREC-
1001
GPARA
1000
xsiz
1000
30.363
1000
ysiz
1000
36.175
1000
angl
1000
0
1000
ctyp
1000
0
1000
csiz
1000
5
1000
lfnt
1000
cont
1000
hcnt
1000
hoff
1000
vcnt
1000
voff
1000
opnt
1000
4
1000
dxpt
1000
0
1000
dypt
1000
0
  0
GROUP
  5
1961
102
{ACAD_REACTORS
330
D
102
}
330
D
100
AcDbGroup
300

 70
     0
 71
     1
1001
GRPNAME
1000
PASTMD1A
  0
GROUP
  5
196D
102
{ACAD_REACTORS
330
D
102
}
330
D
100
AcDbGroup
300

 70
     0
 71
     1
1001
GRPNAME
1000
DIMGRP01
  0
GROUP
  5
E51
102
{ACAD_REACTORS
330
D
102
}
330
D
100
AcDbGroup
300

 70
     1
 71
     1
1001
GRPNAME
1000
LNSP
  0
GROUP
  5
E54
102
{ACAD_REACTORS
330
D
102
}
330
D
100
AcDbGroup
300

 70
     3
 71
     1
1001
GRPNAME
1000
PASTMD1E
  0
GROUP
  5
195C
102
{ACAD_REACTORS
330
D
102
}
330
D
100
AcDbGroup
300

 70
     3
 71
     1
1001
GRPNAME
1000
PASTMD0I
  0
GROUP
  5
196E
102
{ACAD_REACTORS
330
D
102
}
330
D
100
AcDbGroup
300

 70
     0
 71
     1
1001
GRPNAME
1000
DIMGRP08
  0
GROUP
  5
196F
102
{ACAD_REACTORS
330
D
102
}
330
D
100
AcDbGroup
300

 70
     0
 71
     1
1001
GRPNAME
1000
LNSP
  0
GROUP
  5
1970
102
{ACAD_REACTORS
330
D
102
}
330
D
100
AcDbGroup
300

 70
     0
 71
     1
1001
GRPNAME
1000
LNSP
  0
GROUP
  5
1966
102
{ACAD_REACTORS
330
D
102
}
330
D
100
AcDbGroup
300

 70
     0
 71
     1
1001
GRPNAME
1000
PASTMD1F
  0
GROUP
  5
1971
102
{ACAD_REACTORS
330
D
102
}
330
D
100
AcDbGroup
300

 70
     0
 71
     1
1001
GRPNAME
1000
LNSP
  0
GROUP
  5
E59
102
{ACAD_REACTORS
330
D
102
}
330
D
100
AcDbGroup
300

 70
     0
 71
     1
1001
GRPNAME
1000
DREC-
1001
GPARA
1000
xsiz
1000
44.182
1000
ysiz
1000
40.677
1000
angl
1000
0
1000
ctyp
1000
0
1000
csiz
1000
5
1000
lfnt
1000
cont
1000
hcnt
1000
hoff
1000
vcnt
1000
voff
1000
opnt
1000
4
1000
dxpt
1000
0
1000
dypt
1000
0
  0
GROUP
  5
E5C
102
{ACAD_REACTORS
330
D
102
}
330
D
100
AcDbGroup
300

 70
     0
 71
     1
1001
GRPNAME
1000
LNSP
  0
GROUP
  5
1962
102
{ACAD_REACTORS
330
D
102
}
330
D
100
AcDbGroup
300

 70
     0
 71
     1
1001
GRPNAME
1000
PASTMD1B
  0
GROUP
  5
1972
102
{ACAD_REACTORS
330
D
102
}
330
D
100
AcDbGroup
300

 70
     0
 71
     1
1001
GRPNAME
1000
DM100001
  0
GROUP
  5
1973
102
{ACAD_REACTORS
330
D
102
}
330
D
100
AcDbGroup
300

 70
     0
 71
     1
1001
GRPNAME
1000
DM100002
  0
GROUP
  5
1974
102
{ACAD_REACTORS
330
D
102
}
330
D
100
AcDbGroup
300

 70
     0
 71
     1
1001
GRPNAME
1000
DM100003
  0
GROUP
  5
1975
102
{ACAD_REACTORS
330
D
102
}
330
D
100
AcDbGroup
300

 70
     0
 71
     1
1001
GRPNAME
1000
DM100004
  0
GROUP
  5
194E
102
{ACAD_REACTORS
330
D
102
}
330
D
100
AcDbGroup
300

 70
     1
 71
     1
1001
GRPNAME
1000
LNSP
  0
GROUP
  5
1950
102
{ACAD_REACTORS
330
D
102
}
330
D
100
AcDbGroup
300

 70
     1
 71
     1
1001
GRPNAME
1000
LNSP
  0
GROUP
  5
1967
102
{ACAD_REACTORS
330
D
102
}
330
D
100
AcDbGroup
300

 70
     0
 71
     1
1001
GRPNAME
1000
PASTMD1J
  0
GROUP
  5
19BA
102
{ACAD_REACTORS
330
D
102
}
330
D
100
AcDbGroup
300

 70
     1
 71
     1
1001
GRPNAME
1000
PASTMD0I
  0
GROUP
  5
19BB
102
{ACAD_REACTORS
330
D
102
}
330
D
100
AcDbGroup
300

 70
     1
 71
     1
1001
GRPNAME
1000
LNSP
  0
GROUP
  5
E55
102
{ACAD_REACTORS
330
D
102
}
330
D
100
AcDbGroup
300

 70
     0
 71
     1
1001
GRPNAME
1000
PASTMD1H
  0
GROUP
  5
19BC
102
{ACAD_REACTORS
330
D
102
}
330
D
100
AcDbGroup
300

 70
     1
 71
     1
1001
GRPNAME
1000
LNSP
  0
GROUP
  5
1955
102
{ACAD_REACTORS
330
D
102
}
330
D
100
AcDbGroup
300

 70
     3
 71
     1
1001
GRPNAME
1000
LNSP
  0
GROUP
  5
1957
102
{ACAD_REACTORS
330
D
102
}
330
D
100
AcDbGroup
300

 70
     1
 71
     1
1001
GRPNAME
1000
LNSP
  0
GROUP
  5
2084
102
{ACAD_REACTORS
330
D
102
}
330
D
100
AcDbGroup
300

 70
     0
 71
     1
1001
GRPNAME
1000
DREC-
1001
GPARA
1000
xsiz
1000
44.182
1000
ysiz
1000
40.677
1000
angl
1000
0
1000
ctyp
1000
0
1000
csiz
1000
5
1000
lfnt
1000
cont
1000
hcnt
1000
hoff
1000
vcnt
1000
voff
1000
opnt
1000
4
1000
dxpt
1000
0
1000
dypt
1000
0
  0
GROUP
  5
2085
102
{ACAD_REACTORS
330
D
102
}
330
D
100
AcDbGroup
300

 70
     0
 71
     1
1001
GRPNAME
1000
DREC-
1001
GPARA
1000
xsiz
1000
54.592
1000
ysiz
1000
53.036
1000
angl
1000
0
1000
ctyp
1000
0
1000
csiz
1000
5
1000
lfnt
1000
cont
1000
hcnt
1000
hoff
1000
vcnt
1000
voff
1000
opnt
1000
4
1000
dxpt
1000
0
1000
dypt
1000
0
  0
GROUP
  5
E5D
102
{ACAD_REACTORS
330
D
102
}
330
D
100
AcDbGroup
300

 70
     0
 71
     1
1001
GRPNAME
1000
DM100019
  0
GROUP
  5
2086
102
{ACAD_REACTORS
330
D
102
}
330
D
100
AcDbGroup
300

 70
     0
 71
     1
1001
GRPNAME
1000
DREC-
1001
GPARA
1000
xsiz
1000
30.363
1000
ysiz
1000
36.175
1000
angl
1000
0
1000
ctyp
1000
0
1000
csiz
1000
5
1000
lfnt
1000
cont
1000
hcnt
1000
hoff
1000
vcnt
1000
voff
1000
opnt
1000
4
1000
dxpt
1000
0
1000
dypt
1000
0
  0
GROUP
  5
195B
102
{ACAD_REACTORS
330
D
102
}
330
D
100
AcDbGroup
300

 70
     0
 71
     1
1001
GRPNAME
1000
PASTMD0G
  0
GROUP
  5
195D
102
{ACAD_REACTORS
330
D
102
}
330
D
100
AcDbGroup
300

 70
     0
 71
     1
1001
GRPNAME
1000
PASTMD0J
  0
GROUP
  5
2087
102
{ACAD_REACTORS
330
D
102
}
330
D
100
AcDbGroup
300

 70
     0
 71
     1
1001
GRPNAME
1000
DREC-
1001
GPARA
1000
xsiz
1000
44.182
1000
ysiz
1000
40.677
1000
angl
1000
0
1000
ctyp
1000
0
1000
csiz
1000
5
1000
lfnt
1000
cont
1000
hcnt
1000
hoff
1000
vcnt
1000
voff
1000
opnt
1000
4
1000
dxpt
1000
0
1000
dypt
1000
0
  0
GROUP
  5
2088
102
{ACAD_REACTORS
330
D
102
}
330
D
100
AcDbGroup
300

 70
     0
 71
     1
1001
GRPNAME
1000
DREC-
1001
GPARA
1000
xsiz
1000
54.592
1000
ysiz
1000
53.036
1000
angl
1000
0
1000
ctyp
1000
0
1000
csiz
1000
5
1000
lfnt
1000
cont
1000
hcnt
1000
hoff
1000
vcnt
1000
voff
1000
opnt
1000
4
1000
dxpt
1000
0
1000
dypt
1000
0
  0
GROUP
  5
1951
102
{ACAD_REACTORS
330
D
102
}
330
D
100
AcDbGroup
300

 70
     1
 71
     1
1001
GRPNAME
1000
LNSP
  0
GROUP
  5
2089
102
{ACAD_REACTORS
330
D
102
}
330
D
100
AcDbGroup
300

 70
     0
 71
     1
1001
GRPNAME
1000
DREC-
1001
GPARA
1000
xsiz
1000
30.363
1000
ysiz
1000
36.175
1000
angl
1000
0
1000
ctyp
1000
0
1000
csiz
1000
5
1000
lfnt
1000
cont
1000
hcnt
1000
hoff
1000
vcnt
1000
voff
1000
opnt
1000
4
1000
dxpt
1000
0
1000
dypt
1000
0
  0
GROUP
  5
1963
102
{ACAD_REACTORS
330
D
102
}
330
D
100
AcDbGroup
300

 70
     0
 71
     1
1001
GRPNAME
1000
PASTMD1C
  0
GROUP
  5
208A
102
{ACAD_REACTORS
330
D
102
}
330
D
100
AcDbGroup
300

 70
     0
 71
     1
1001
GRPNAME
1000
LNSP
  0
GROUP
  5
208B
102
{ACAD_REACTORS
330
D
102
}
330
D
100
AcDbGroup
300

 70
     0
 71
     1
1001
GRPNAME
1000
DREC-
1001
GPARA
1000
xsiz
1000
44.182
1000
ysiz
1000
40.677
1000
angl
1000
0
1000
ctyp
1000
0
1000
csiz
1000
5
1000
lfnt
1000
cont
1000
hcnt
1000
hoff
1000
vcnt
1000
voff
1000
opnt
1000
4
1000
dxpt
1000
0
1000
dypt
1000
0
  0
GROUP
  5
1958
102
{ACAD_REACTORS
330
D
102
}
330
D
100
AcDbGroup
300

 70
     1
 71
     1
1001
GRPNAME
1000
LNSP
  0
GROUP
  5
208C
102
{ACAD_REACTORS
330
D
102
}
330
D
100
AcDbGroup
300

 70
     0
 71
     1
1001
GRPNAME
1000
DREC-
1001
GPARA
1000
xsiz
1000
54.592
1000
ysiz
1000
53.036
1000
angl
1000
0
1000
ctyp
1000
0
1000
csiz
1000
5
1000
lfnt
1000
cont
1000
hcnt
1000
hoff
1000
vcnt
1000
voff
1000
opnt
1000
4
1000
dxpt
1000
0
1000
dypt
1000
0
  0
GROUP
  5
1968
102
{ACAD_REACTORS
330
D
102
}
330
D
100
AcDbGroup
300

 70
     0
 71
     1
1001
GRPNAME
1000
PASTMD21
  0
GROUP
  5
E56
102
{ACAD_REACTORS
330
D
102
}
330
D
100
AcDbGroup
300

 70
     0
 71
     1
1001
GRPNAME
1000
PASTMD1K
  0
GROUP
  5
208D
102
{ACAD_REACTORS
330
D
102
}
330
D
100
AcDbGroup
300

 70
     0
 71
     1
1001
GRPNAME
1000
DREC-
1001
GPARA
1000
xsiz
1000
30.363
1000
ysiz
1000
36.175
1000
angl
1000
0
1000
ctyp
1000
0
1000
csiz
1000
5
1000
lfnt
1000
cont
1000
hcnt
1000
hoff
1000
vcnt
1000
voff
1000
opnt
1000
4
1000
dxpt
1000
0
1000
dypt
1000
0
  0
GROUP
  5
195E
102
{ACAD_REACTORS
330
D
102
}
330
D
100
AcDbGroup
300

 70
     0
 71
     1
1001
GRPNAME
1000
PASTMD0K
  0
GROUP
  5
25EF
102
{ACAD_REACTORS
330
D
102
}
330
D
100
AcDbGroup
300

 70
     1
 71
     1
1001
GRPNAME
1000
LNSP
  0
GROUP
  5
E5E
102
{ACAD_REACTORS
330
D
102
}
330
D
100
AcDbGroup
300

 70
     0
 71
     1
1001
GRPNAME
1000
DM10001A
  0
GROUP
  5
E57
102
{ACAD_REACTORS
330
D
102
}
330
D
100
AcDbGroup
300

 70
     0
 71
     1
1001
GRPNAME
1000
PASTMD42
  0
GROUP
  5
E53
102
{ACAD_REACTORS
330
D
102
}
330
D
100
AcDbGroup
300

 70
     3
 71
     1
1001
GRPNAME
1000
LNSP
  0
GROUP
  5
E58
102
{ACAD_REACTORS
330
D
102
}
330
D
100
AcDbGroup
300

 70
     0
 71
     1
1001
GRPNAME
1000
PASTMD43
  0
GROUP
  5
1952
102
{ACAD_REACTORS
330
D
102
}
330
D
100
AcDbGroup
300

 70
     1
 71
     1
1001
GRPNAME
1000
LNSP
  0
GROUP
  5
2BF8
102
{ACAD_REACTORS
330
D
102
}
330
D
100
AcDbGroup
300

 70
     1
 71
     1
1001
GRPNAME
1000
LNSP
  0
GROUP
  5
E5B
102
{ACAD_REACTORS
330
D
102
}
330
D
100
AcDbGroup
300

 70
     0
 71
     1
1001
GRPNAME
1000
DREC-
1001
GPARA
1000
xsiz
1000
30.363
1000
ysiz
1000
36.175
1000
angl
1000
0
1000
ctyp
1000
0
1000
csiz
1000
5
1000
lfnt
1000
cont
1000
hcnt
1000
hoff
1000
vcnt
1000
voff
1000
opnt
1000
4
1000
dxpt
1000
0
1000
dypt
1000
0
  0
GROUP
  5
2DB9
102
{ACAD_REACTORS
330
D
102
}
330
D
100
AcDbGroup
300

 70
     1
 71
     1
1001
GRPNAME
1000
LNSP
  0
GROUP
  5
1959
102
{ACAD_REACTORS
330
D
102
}
330
D
100
AcDbGroup
300

 70
     1
 71
     1
1001
GRPNAME
1000
LNSP
  0
GROUP
  5
2F55
102
{ACAD_REACTORS
330
D
102
}
330
D
100
AcDbGroup
300

 70
     1
 71
     1
1001
GRPNAME
1000
LNSP
  0
GROUP
  5
E5F
102
{ACAD_REACTORS
330
D
102
}
330
D
100
AcDbGroup
300

 70
     0
 71
     1
1001
GRPNAME
1000
DM10001B
  0
GROUP
  5
195F
102
{ACAD_REACTORS
330
D
102
}
330
D
100
AcDbGroup
300

 70
     0
 71
     1
1001
GRPNAME
1000
PASTMD0L
  0
GROUP
  5
E60
102
{ACAD_REACTORS
330
D
102
}
330
D
100
AcDbGroup
300

 70
     0
 71
     1
1001
GRPNAME
1000
DM10001C
  0
GROUP
  5
1953
102
{ACAD_REACTORS
330
D
102
}
330
D
100
AcDbGroup
300

 70
     1
 71
     1
1001
GRPNAME
1000
LNSP
  0
GROUP
  5
1964
102
{ACAD_REACTORS
330
D
102
}
330
D
100
AcDbGroup
300

 70
     0
 71
     1
1001
GRPNAME
1000
PASTMD1D
  0
GROUP
  5
1954
102
{ACAD_REACTORS
330
D
102
}
330
D
100
AcDbGroup
300

 70
     1
 71
     1
1001
GRPNAME
1000
LNSP
  0
GROUP
  5
E52
102
{ACAD_REACTORS
330
D
102
}
330
D
100
AcDbGroup
300

 70
     1
 71
     1
1001
GRPNAME
1000
LNSP
  0
GROUP
  5
1969
102
{ACAD_REACTORS
330
D
102
}
330
D
100
AcDbGroup
300

 70
     0
 71
     1
1001
GRPNAME
1000
DMIT
  0
GROUP
  5
195A
102
{ACAD_REACTORS
330
D
102
}
330
D
100
AcDbGroup
300

 70
     1
 71
     1
1001
GRPNAME
1000
LNSP
  0
GROUP
  5
E5A
102
{ACAD_REACTORS
330
D
102
}
330
D
100
AcDbGroup
300

 70
     0
 71
     1
1001
GRPNAME
1000
DREC-
1001
GPARA
1000
xsiz
1000
54.592
1000
ysiz
1000
53.036
1000
angl
1000
0
1000
ctyp
1000
0
1000
csiz
1000
5
1000
lfnt
1000
cont
1000
hcnt
1000
hoff
1000
vcnt
1000
voff
1000
opnt
1000
4
1000
dxpt
1000
0
1000
dypt
1000
0
  0
GROUP
  5
1960
102
{ACAD_REACTORS
330
D
102
}
330
D
100
AcDbGroup
300

 70
     0
 71
     1
1001
GRPNAME
1000
PASTMD19
  0
GROUP
  5
194F
102
{ACAD_REACTORS
330
D
102
}
330
D
100
AcDbGroup
300

 70
     1
 71
     1
1001
GRPNAME
1000
LNSP
  0
GROUP
  5
1965
102
{ACAD_REACTORS
330
D
102
}
330
D
100
AcDbGroup
300

 70
     0
 71
     1
1001
GRPNAME
1000
PASTMD1E
  0
GROUP
  5
1956
102
{ACAD_REACTORS
330
D
102
}
330
D
100
AcDbGroup
300

 70
     3
 71
     1
1001
GRPNAME
1000
LNSP
  0
GROUP
  5
196A
102
{ACAD_REACTORS
330
D
102
}
330
D
100
AcDbGroup
300

 70
     0
 71
     1
1001
GRPNAME
1000
DREC-
1001
GPARA
1000
xsiz
1000
44.182
1000
ysiz
1000
40.677
1000
angl
1000
0
1000
ctyp
1000
0
1000
csiz
1000
5
1000
lfnt
1000
cont
1000
hcnt
1000
hoff
1000
vcnt
1000
voff
1000
opnt
1000
4
1000
dxpt
1000
0
1000
dypt
1000
0
  0
GROUP
  5
5FC
102
{ACAD_REACTORS
330
D
102
}
330
D
100
AcDbGroup
300

 70
     0
 71
     1
1001
GRPNAME
1000
DREC-
1001
GPARA
1000
xsiz
1000
44.182
1000
ysiz
1000
40.677
1000
angl
1000
0
1000
ctyp
1000
0
1000
csiz
1000
5
1000
lfnt
1000
cont
1000
hcnt
1000
hoff
1000
vcnt
1000
voff
1000
opnt
1000
4
1000
dxpt
1000
0
1000
dypt
1000
0
  0
GROUP
  5
654
102
{ACAD_REACTORS
330
D
102
}
330
D
100
AcDbGroup
300

 70
     0
 71
     1
1001
GRPNAME
1000
DREC-
1001
GPARA
1000
xsiz
1000
54.592
1000
ysiz
1000
53.036
1000
angl
1000
0
1000
ctyp
1000
0
1000
csiz
1000
5
1000
lfnt
1000
cont
1000
hcnt
1000
hoff
1000
vcnt
1000
voff
1000
opnt
1000
4
1000
dxpt
1000
0
1000
dypt
1000
0
  0
GROUP
  5
673
102
{ACAD_REACTORS
330
D
102
}
330
D
100
AcDbGroup
300

 70
     0
 71
     1
1001
GRPNAME
1000
DREC-
1001
GPARA
1000
xsiz
1000
30.363
1000
ysiz
1000
36.175
1000
angl
1000
0
1000
ctyp
1000
0
1000
csiz
1000
5
1000
lfnt
1000
cont
1000
hcnt
1000
hoff
1000
vcnt
1000
voff
1000
opnt
1000
4
1000
dxpt
1000
0
1000
dypt
1000
0
  0
GROUP
  5
23BF
102
{ACAD_REACTORS
330
D
102
}
330
D
100
AcDbGroup
300

 70
     0
 71
     1
1001
GRPNAME
1000
LNSP
  0
MLINESTYLE
  5
13
102
{ACAD_REACTORS
330
E
102
}
330
E
100
AcDbMlineStyle
  2
STANDARD
 70
     0
  3

 62
     0
 51
90.0
 52
90.0
 71
     2
 49
0.5
 62
   256
  6
BYLAYER
 49
-0.5
 62
   256
  6
BYLAYER
  0
ACDBPLACEHOLDER
  5
564
102
{ACAD_REACTORS
330
563
102
}
330
563
100
AcDbPlaceHolder
280
     0
  0
XRECORD
  5
8838
102
{ACAD_REACTORS
330
882E
102
}
330
882E
100
AcDbXrecord
 90
        0
  0
XRECORD
  5
883C
102
{ACAD_REACTORS
330
882E
102
}
330
882E
100
AcDbXrecord
1000
DSTYLE
1002
{
1070
    79
 70
     2
1070
   179
 70
     3
1070
   289
 70
     2
1070
   341
340
594
1070
   342
340
594
1070
   371
 70
    -1
1070
   372
 70
    -1
1002
}
  0
XRECORD
  5
8839
102
{ACAD_REACTORS
330
882E
102
}
330
882E
100
AcDbXrecord
  1
{51294030-9CB4-11D3-8E18-00A0C925D94D}
  0
XRECORD
  5
8831
102
{ACAD_REACTORS
330
882E
102
}
330
882E
100
AcDbXrecord
  1

  0
XRECORD
  5
8837
102
{ACAD_REACTORS
330
882E
102
}
330
882E
100
AcDbXrecord
 90
        0
  0
XRECORD
  5
8833
102
{ACAD_REACTORS
330
882E
102
}
330
882E
100
AcDbXrecord
340
565
  0
XRECORD
  5
8836
102
{ACAD_REACTORS
330
882E
102
}
330
882E
100
AcDbXrecord
 90
    10781
  0
XRECORD
  5
8834
102
{ACAD_REACTORS
330
882E
102
}
330
882E
100
AcDbXrecord
340
566
  0
XRECORD
  5
8835
102
{ACAD_REACTORS
330
882E
102
}
330
882E
100
AcDbXrecord
340
563
  0
XRECORD
  5
883B
102
{ACAD_REACTORS
330
882E
102
}
330
882E
100
AcDbXrecord
 40
0.0
  0
XRECORD
  5
883F
102
{ACAD_REACTORS
330
882E
102
}
330
882E
100
AcDbXrecord
340
0
  0
XRECORD
  5
8845
102
{ACAD_REACTORS
330
882E
102
}
330
882E
100
AcDbXrecord
 10
0.0
 20
0.0
 30
0.0
  0
XRECORD
  5
8841
102
{ACAD_REACTORS
330
882E
102
}
330
882E
100
AcDbXrecord
 10
0.0
 20
0.0
 30
0.0
  0
XRECORD
  5
8844
102
{ACAD_REACTORS
330
882E
102
}
330
882E
100
AcDbXrecord
 10
0.0
 20
0.0
 30
0.0
  0
XRECORD
  5
8842
102
{ACAD_REACTORS
330
882E
102
}
330
882E
100
AcDbXrecord
 10
0.0
 20
0.0
 30
0.0
  0
XRECORD
  5
8843
102
{ACAD_REACTORS
330
882E
102
}
330
882E
100
AcDbXrecord
 10
0.0
 20
0.0
 30
0.0
  0
XRECORD
  5
8840
102
{ACAD_REACTORS
330
882E
102
}
330
882E
100
AcDbXrecord
 10
0.0
 20
0.0
 30
0.0
  0
XRECORD
  5
883D
102
{ACAD_REACTORS
330
882E
102
}
330
882E
100
AcDbXrecord
340
0
  0
XRECORD
  5
883E
102
{ACAD_REACTORS
330
882E
102
}
330
882E
100
AcDbXrecord
 70
     0
  0
XRECORD
  5
8832
102
{ACAD_REACTORS
330
882E
102
}
330
882E
100
AcDbXrecord
  1
big.ctb
  0
XRECORD
  5
882F
102
{ACAD_REACTORS
330
882E
102
}
330
882E
100
AcDbXrecord
 90
        1
  0
XRECORD
  5
8830
102
{ACAD_REACTORS
330
882E
102
}
330
882E
100
AcDbXrecord
 90
       70
  0
XRECORD
  5
8848
102
{ACAD_REACTORS
330
882E
102
}
330
882E
100
AcDbXrecord
340
0
  0
XRECORD
  5
884E
102
{ACAD_REACTORS
330
882E
102
}
330
882E
100
AcDbXrecord
 10
0.0
 20
0.0
 30
0.0
  0
XRECORD
  5
884A
102
{ACAD_REACTORS
330
882E
102
}
330
882E
100
AcDbXrecord
 10
0.0
 20
0.0
 30
0.0
  0
XRECORD
  5
884D
102
{ACAD_REACTORS
330
882E
102
}
330
882E
100
AcDbXrecord
 10
0.0
 20
0.0
 30
0.0
  0
XRECORD
  5
884B
102
{ACAD_REACTORS
330
882E
102
}
330
882E
100
AcDbXrecord
 10
0.0
 20
0.0
 30
0.0
  0
XRECORD
  5
884C
102
{ACAD_REACTORS
330
882E
102
}
330
882E
100
AcDbXrecord
 10
0.0
 20
0.0
 30
0.0
  0
XRECORD
  5
8849
102
{ACAD_REACTORS
330
882E
102
}
330
882E
100
AcDbXrecord
 10
0.0
 20
0.0
 30
0.0
  0
XRECORD
  5
8846
102
{ACAD_REACTORS
330
882E
102
}
330
882E
100
AcDbXrecord
340
0
  0
XRECORD
  5
8847
102
{ACAD_REACTORS
330
882E
102
}
330
882E
100
AcDbXrecord
 70
     0
  0
XRECORD
  5
883A
102
{ACAD_REACTORS
330
882E
102
}
330
882E
100
AcDbXrecord
  1
{52B6057A-8FAE-11D6-960B-006094EB2375}
  0
DICTIONARYVAR
  5
8827
102
{ACAD_REACTORS
330
8826
102
}
330
8826
100
DictionaryVariables
280
     0
  1
1
  0
XRECORD
  5
560
102
{ACAD_REACTORS
330
540
102
}
330
540
100
AcDbXrecord
  1
2.0.0
  0
ENDSEC
  0
EOF
