  0
SECTION
  2
HEADER
  9
$ACADVER
  1
AC1015
  9
$ACADMAINTVER
 70
    20
  9
$DWGCODEPAGE
  3
ANSI_932
  9
$INSBASE
 10
0.0
 20
0.0
 30
0.0
  9
$EXTMIN
 10
-54.21191146339868
 20
-50.01058879169931
 30
-0.0015258207003583
  9
$EXTMAX
 10
187.1341522846849
 20
82.01524408792057
 30
0.0000000349246037
  9
$LIMMIN
 10
0.0
 20
0.0
  9
$LIMMAX
 10
420.0
 20
297.0
  9
$ORTHOMODE
 70
     0
  9
$REGENMODE
 70
     1
  9
$FILLMODE
 70
     1
  9
$QTEXTMODE
 70
     0
  9
$MIRRTEXT
 70
     1
  9
$LTSCALE
 40
10.0
  9
$ATTMODE
 70
     1
  9
$TEXTSIZE
 40
3.0
  9
$TRACEWID
 40
1.0
  9
$TEXTSTYLE
  7
YOKO
  9
$CLAYER
  8
245
  9
$CELTYPE
  6
BYLAYER
  9
$CECOLOR
 62
   256
  9
$CELTSCALE
 40
1.0
  9
$DISPSILH
 70
     0
  9
$DIMSCALE
 40
1.0
  9
$DIMASZ
 40
2.0
  9
$DIMEXO
 40
0.5
  9
$DIMDLI
 40
2.5
  9
$DIMRND
 40
0.0
  9
$DIMDLE
 40
0.0
  9
$DIMEXE
 40
1.0
  9
$DIMTP
 40
0.0
  9
$DIMTM
 40
0.0
  9
$DIMTXT
 40
2.799999999999999
  9
$DIMCEN
 40
0.0
  9
$DIMTSZ
 40
0.0
  9
$DIMTOL
 70
     0
  9
$DIMLIM
 70
     0
  9
$DIMTIH
 70
     0
  9
$DIMTOH
 70
     0
  9
$DIMSE1
 70
     0
  9
$DIMSE2
 70
     0
  9
$DIMTAD
 70
     3
  9
$DIMZIN
 70
     8
  9
$DIMBLK
  1

  9
$DIMASO
 70
     1
  9
$DIMSHO
 70
     1
  9
$DIMPOST
  1

  9
$DIMAPOST
  1

  9
$DIMALT
 70
     0
  9
$DIMALTD
 70
     2
  9
$DIMALTF
 40
25.4
  9
$DIMLFAC
 40
1.0
  9
$DIMTOFL
 70
     1
  9
$DIMTVP
 40
0.0
  9
$DIMTIX
 70
     1
  9
$DIMSOXD
 70
     0
  9
$DIMSAH
 70
     1
  9
$DIMBLK1
  1
OPEN
  9
$DIMBLK2
  1
OPEN
  9
$DIMSTYLE
  2
BIGT
  9
$DIMCLRD
 70
   256
  9
$DIMCLRE
 70
   256
  9
$DIMCLRT
 70
    40
  9
$DIMTFAC
 40
1.0
  9
$DIMGAP
 40
1.0
  9
$DIMJUST
 70
     0
  9
$DIMSD1
 70
     0
  9
$DIMSD2
 70
     0
  9
$DIMTOLJ
 70
     1
  9
$DIMTZIN
 70
     8
  9
$DIMALTZ
 70
     0
  9
$DIMALTTZ
 70
     0
  9
$DIMUPT
 70
     0
  9
$DIMDEC
 70
     3
  9
$DIMTDEC
 70
     3
  9
$DIMALTU
 70
     2
  9
$DIMALTTD
 70
     2
  9
$DIMTXSTY
  7
STANDARD
  9
$DIMAUNIT
 70
     0
  9
$DIMADEC
 70
     3
  9
$DIMALTRND
 40
0.0
  9
$DIMAZIN
 70
     2
  9
$DIMDSEP
 70
    46
  9
$DIMATFIT
 70
     3
  9
$DIMFRAC
 70
     0
  9
$DIMLDRBLK
  1
OPEN
  9
$DIMLUNIT
 70
     2
  9
$DIMLWD
 70
    -1
  9
$DIMLWE
 70
    -1
  9
$DIMTMOVE
 70
     0
  9
$LUNITS
 70
     2
  9
$LUPREC
 70
     3
  9
$SKETCHINC
 40
1.0
  9
$FILLETRAD
 40
0.0
  9
$AUNITS
 70
     0
  9
$AUPREC
 70
     3
  9
$MENU
  1
.
  9
$ELEVATION
 40
0.0
  9
$PELEVATION
 40
0.0
  9
$THICKNESS
 40
0.0
  9
$LIMCHECK
 70
     0
  9
$CHAMFERA
 40
10.0
  9
$CHAMFERB
 40
10.0
  9
$CHAMFERC
 40
0.0
  9
$CHAMFERD
 40
0.0
  9
$SKPOLY
 70
     0
  9
$TDCREATE
 40
2455363.682330903
  9
$TDUCREATE
 40
2455363.307330903
  9
$TDUPDATE
 40
2456608.410009757
  9
$TDUUPDATE
 40
2456608.035009757
  9
$TDINDWG
 40
0.0157387500
  9
$TDUSRTIMER
 40
0.0157326042
  9
$USRTIMER
 70
     1
  9
$ANGBASE
 50
0.0
  9
$ANGDIR
 70
     0
  9
$PDMODE
 70
     0
  9
$PDSIZE
 40
-5.0
  9
$PLINEWID
 40
0.0
  9
$SPLFRAME
 70
     0
  9
$SPLINETYPE
 70
     6
  9
$SPLINESEGS
 70
     8
  9
$HANDSEED
  5
13D5
  9
$SURFTAB1
 70
     6
  9
$SURFTAB2
 70
     6
  9
$SURFTYPE
 70
     6
  9
$SURFU
 70
     6
  9
$SURFV
 70
     6
  9
$UCSBASE
  2

  9
$UCSNAME
  2

  9
$UCSORG
 10
0.0
 20
0.0
 30
0.0
  9
$UCSXDIR
 10
1.0
 20
0.0
 30
0.0
  9
$UCSYDIR
 10
0.0
 20
1.0
 30
0.0
  9
$UCSORTHOREF
  2

  9
$UCSORTHOVIEW
 70
     0
  9
$UCSORGTOP
 10
0.0
 20
0.0
 30
0.0
  9
$UCSORGBOTTOM
 10
0.0
 20
0.0
 30
0.0
  9
$UCSORGLEFT
 10
0.0
 20
0.0
 30
0.0
  9
$UCSORGRIGHT
 10
0.0
 20
0.0
 30
0.0
  9
$UCSORGFRONT
 10
0.0
 20
0.0
 30
0.0
  9
$UCSORGBACK
 10
0.0
 20
0.0
 30
0.0
  9
$PUCSBASE
  2

  9
$PUCSNAME
  2

  9
$PUCSORG
 10
0.0
 20
0.0
 30
0.0
  9
$PUCSXDIR
 10
1.0
 20
0.0
 30
0.0
  9
$PUCSYDIR
 10
0.0
 20
1.0
 30
0.0
  9
$PUCSORTHOREF
  2

  9
$PUCSORTHOVIEW
 70
     0
  9
$PUCSORGTOP
 10
0.0
 20
0.0
 30
0.0
  9
$PUCSORGBOTTOM
 10
0.0
 20
0.0
 30
0.0
  9
$PUCSORGLEFT
 10
0.0
 20
0.0
 30
0.0
  9
$PUCSORGRIGHT
 10
0.0
 20
0.0
 30
0.0
  9
$PUCSORGFRONT
 10
0.0
 20
0.0
 30
0.0
  9
$PUCSORGBACK
 10
0.0
 20
0.0
 30
0.0
  9
$USERI1
 70
     1
  9
$USERI2
 70
     0
  9
$USERI3
 70
     0
  9
$USERI4
 70
     0
  9
$USERI5
 70
     0
  9
$USERR1
 40
0.0
  9
$USERR2
 40
0.0
  9
$USERR3
 40
0.0
  9
$USERR4
 40
0.0
  9
$USERR5
 40
0.0
  9
$WORLDVIEW
 70
     1
  9
$SHADEDGE
 70
     3
  9
$SHADEDIF
 70
    70
  9
$TILEMODE
 70
     1
  9
$MAXACTVP
 70
    16
  9
$PINSBASE
 10
0.0
 20
0.0
 30
0.0
  9
$PLIMCHECK
 70
     0
  9
$PEXTMIN
 10
1.000000000000000E+20
 20
1.000000000000000E+20
 30
1.000000000000000E+20
  9
$PEXTMAX
 10
-1.000000000000000E+20
 20
-1.000000000000000E+20
 30
-1.000000000000000E+20
  9
$PLIMMIN
 10
0.0
 20
0.0
  9
$PLIMMAX
 10
420.0
 20
297.0
  9
$UNITMODE
 70
     0
  9
$VISRETAIN
 70
     0
  9
$PLINEGEN
 70
     0
  9
$PSLTSCALE
 70
     1
  9
$TREEDEPTH
 70
  3020
  9
$CMLSTYLE
  2
STANDARD
  9
$CMLJUST
 70
     0
  9
$CMLSCALE
 40
1.0
  9
$PROXYGRAPHICS
 70
     1
  9
$MEASUREMENT
 70
     1
  9
$CELWEIGHT
370
    -1
  9
$ENDCAPS
280
     0
  9
$JOINSTYLE
280
     0
  9
$LWDISPLAY
290
     0
  9
$INSUNITS
 70
     0
  9
$HYPERLINKBASE
  1

  9
$STYLESHEET
  1
BIG.CTB
  9
$XEDIT
290
     1
  9
$CEPSNTYPE
380
     0
  9
$PSTYLEMODE
290
     1
  9
$FINGERPRINTGUID
  2
{51294030-9CB4-11D3-8E18-00A0C925D94D}
  9
$VERSIONGUID
  2
{10D80FBE-17DF-41BE-B807-00EC6503D052}
  9
$EXTNAMES
290
     1
  9
$PSVPSCALE
 40
0.0
  9
$OLESTARTUP
290
     0
  0
ENDSEC
  0
SECTION
  2
CLASSES
  0
CLASS
  1
ACDBDICTIONARYWDFLT
  2
AcDbDictionaryWithDefault
  3
ObjectDBX Classes
 90
        0
280
     0
281
     0
  0
CLASS
  1
ACDBPLACEHOLDER
  2
AcDbPlaceHolder
  3
ObjectDBX Classes
 90
        0
280
     0
281
     0
  0
CLASS
  1
LAYOUT
  2
AcDbLayout
  3
ObjectDBX Classes
 90
        0
280
     0
281
     0
  0
CLASS
  1
PLOTSETTINGS
  2
AcDbPlotSettings
  3
ObjectDBX Classes
 90
        0
280
     0
281
     0
  0
CLASS
  1
MATERIAL
  2
AcDbMaterial
  3
ObjectDBX Classes
 90
     1024
280
     0
281
     0
  0
CLASS
  1
VISUALSTYLE
  2
AcDbVisualStyle
  3
ObjectDBX Classes
 90
     4095
280
     0
281
     0
  0
CLASS
  1
TABLESTYLE
  2
AcDbTableStyle
  3
ObjectDBX Classes
 90
     4095
280
     0
281
     0
  0
CLASS
  1
SORTENTSTABLE
  2
AcDbSortentsTable
  3
ObjectDBX Classes
 90
        0
280
     0
281
     0
  0
CLASS
  1
DICTIONARYVAR
  2
AcDbDictionaryVar
  3
ObjectDBX Classes
 90
        0
280
     0
281
     0
  0
ENDSEC
  0
SECTION
  2
TABLES
  0
TABLE
  2
VPORT
  5
8
330
0
100
AcDbSymbolTable
 70
     1
  0
VPORT
  5
10B0
330
8
100
AcDbSymbolTableRecord
100
AcDbViewportTableRecord
  2
*ACTIVE
 70
     0
 10
0.0
 20
0.0
 11
1.0
 21
1.0
 12
66.4611204106431
 22
16.00232764811061
 13
0.0
 23
0.0
 14
7.0
 24
7.0
 15
7.0
 25
7.0
 16
0.0
 26
0.0
 36
1.0
 17
0.0
 27
0.0
 37
0.0
 40
168.7533499720992
 41
1.436127744510978
 42
50.0
 43
0.0
 44
0.0
 50
0.0
 51
0.0
 71
     0
 72
  2000
 73
     1
 74
     0
 75
     0
 76
     0
 77
     0
 78
     0
281
     0
 65
     1
110
0.0
120
0.0
130
0.0
111
1.0
121
0.0
131
0.0
112
0.0
122
1.0
132
0.0
 79
     0
146
0.0
  0
ENDTAB
  0
TABLE
  2
LTYPE
  5
5
330
0
100
AcDbSymbolTable
 70
     3
  0
LTYPE
  5
14
330
5
100
AcDbSymbolTableRecord
100
AcDbLinetypeTableRecord
  2
BYBLOCK
 70
     0
  3

 72
    65
 73
     0
 40
0.0
  0
LTYPE
  5
15
330
5
100
AcDbSymbolTableRecord
100
AcDbLinetypeTableRecord
  2
BYLAYER
 70
     0
  3

 72
    65
 73
     0
 40
0.0
  0
LTYPE
  5
16
330
5
100
AcDbSymbolTableRecord
100
AcDbLinetypeTableRecord
  2
CONTINUOUS
 70
     0
  3
Solid line
 72
    65
 73
     0
 40
0.0
  0
LTYPE
  5
258
330
5
100
AcDbSymbolTableRecord
100
AcDbLinetypeTableRecord
  2
CENTER2
 70
     0
  3
___ _ ___ _ ___ _ ___ _ ___ _ ___ _ ___ _ ___ _
 72
    65
 73
     4
 40
1.125
 49
0.75
 74
     0
 49
-0.125
 74
     0
 49
0.125
 74
     0
 49
-0.125
 74
     0
  0
LTYPE
  5
25C
330
5
100
AcDbSymbolTableRecord
100
AcDbLinetypeTableRecord
  2
HIDDEN2
 70
     0
  3
_ _ _ _ _ _ _ _ _ _ _ _ _ _ _ _ _ _ _ _ _ _ _ _
 72
    65
 73
     2
 40
0.1875
 49
0.125
 74
     0
 49
-0.0625
 74
     0
  0
ENDTAB
  0
TABLE
  2
LAYER
  5
2
330
0
100
AcDbSymbolTable
 70
     8
  0
LAYER
  5
F
330
2
100
AcDbSymbolTableRecord
100
AcDbLayerTableRecord
  2
0
 70
     0
 62
     7
  6
CONTINUOUS
370
    -3
390
564
  0
LAYER
  5
1AA
330
2
100
AcDbSymbolTableRecord
100
AcDbLayerTableRecord
  2
240
 70
     0
 62
     4
  6
CONTINUOUS
370
    -3
390
564
  0
LAYER
  5
1AB
330
2
100
AcDbSymbolTableRecord
100
AcDbLayerTableRecord
  2
241
 70
     0
 62
   211
  6
CONTINUOUS
370
    -3
390
564
  0
LAYER
  5
1AC
330
2
100
AcDbSymbolTableRecord
100
AcDbLayerTableRecord
  2
242
 70
     0
 62
     3
  6
CONTINUOUS
370
    -3
390
564
  0
LAYER
  5
1AF
330
2
100
AcDbSymbolTableRecord
100
AcDbLayerTableRecord
  2
245
 70
     0
 62
     2
  6
CENTER2
370
    -3
390
564
  0
LAYER
  5
21E
330
2
100
AcDbSymbolTableRecord
100
AcDbLayerTableRecord
  2
250
 70
     0
 62
     3
  6
CONTINUOUS
370
    -3
390
564
  0
LAYER
  5
21F
330
2
100
AcDbSymbolTableRecord
100
AcDbLayerTableRecord
  2
251
 70
     0
 62
    40
  6
CONTINUOUS
370
    -3
390
564
  0
LAYER
  5
5C4
330
2
100
AcDbSymbolTableRecord
100
AcDbLayerTableRecord
  2
DEFPOINTS
 70
     0
 62
     7
  6
CONTINUOUS
290
     0
370
    -3
390
564
  0
ENDTAB
  0
TABLE
  2
STYLE
  5
3
330
0
100
AcDbSymbolTable
 70
     2
  0
STYLE
  5
10
330
3
100
AcDbSymbolTableRecord
100
AcDbTextStyleTableRecord
  2
STANDARD
 70
     0
 40
0.0
 41
1.0
 50
0.0
 71
     0
 42
3.0
  3
romans.shx
  4
BIGFONT.SHX
  0
STYLE
  5
339
330
3
100
AcDbSymbolTableRecord
100
AcDbTextStyleTableRecord
  2
YOKO
 70
     0
 40
0.0
 41
1.0
 50
0.0
 71
     0
 42
3.0
  3
romans.shx
  4
extfont.shx
  0
ENDTAB
  0
TABLE
  2
VIEW
  5
6
330
0
100
AcDbSymbolTable
 70
     0
  0
ENDTAB
  0
TABLE
  2
UCS
  5
7
330
0
100
AcDbSymbolTable
 70
     0
  0
ENDTAB
  0
TABLE
  2
APPID
  5
9
330
0
100
AcDbSymbolTable
 70
    10
  0
APPID
  5
11
330
9
100
AcDbSymbolTableRecord
100
AcDbRegAppTableRecord
  2
ACAD
 70
     0
  0
APPID
  5
1B1
330
9
100
AcDbSymbolTableRecord
100
AcDbRegAppTableRecord
  2
GLOBAL
 70
     0
  0
APPID
  5
2A4
330
9
100
AcDbSymbolTableRecord
100
AcDbRegAppTableRecord
  2
DETAIL
 70
     0
  0
APPID
  5
5FD
330
9
100
AcDbSymbolTableRecord
100
AcDbRegAppTableRecord
  2
GRPNAME
 70
     0
  0
APPID
  5
5FE
330
9
100
AcDbSymbolTableRecord
100
AcDbRegAppTableRecord
  2
GPARA
 70
     0
  0
APPID
  5
6C4
330
9
100
AcDbSymbolTableRecord
100
AcDbRegAppTableRecord
  2
DCO15
 70
     0
  0
APPID
  5
6C5
330
9
100
AcDbSymbolTableRecord
100
AcDbRegAppTableRecord
  2
ITEMNAME
 70
     0
  0
APPID
  5
6C6
330
9
100
AcDbSymbolTableRecord
100
AcDbRegAppTableRecord
  2
GRADE_0
 70
     0
  0
APPID
  5
A7D
330
9
100
AcDbSymbolTableRecord
100
AcDbRegAppTableRecord
  2
CONTENTBLOCKICON
 70
     0
  0
APPID
  5
11D7
330
9
100
AcDbSymbolTableRecord
100
AcDbRegAppTableRecord
  2
ACAD_EXEMPT_FROM_CAD_STANDARDS
 70
     0
  0
ENDTAB
  0
TABLE
  2
DIMSTYLE
  5
A
330
0
100
AcDbSymbolTable
 70
     1
100
AcDbDimStyleTable
 71
     1
340
725
  0
DIMSTYLE
105
725
102
{ACAD_REACTORS
330
8B2
330
FAE
330
FBD
102
}
330
A
100
AcDbSymbolTableRecord
100
AcDbDimStyleTableRecord
  2
BIGT
 70
     0
 41
2.229999999999999
 42
0.5
 43
2.5
 44
1.0
 73
     0
 74
     0
 77
     3
 78
     8
140
2.799999999999998
141
0.0
147
1.0
172
     1
173
     1
174
     1
176
   256
177
   256
178
    40
271
     3
272
     3
284
     8
340
10
341
594
343
594
344
594
  0
ENDTAB
  0
TABLE
  2
BLOCK_RECORD
  5
1
330
0
100
AcDbSymbolTable
 70
     6
  0
BLOCK_RECORD
  5
1A
102
{ACAD_XDICTIONARY
360
A73
102
}
330
1
100
AcDbSymbolTableRecord
100
AcDbBlockTableRecord
  2
*MODEL_SPACE
340
10FC
  0
BLOCK_RECORD
  5
17
102
{ACAD_XDICTIONARY
360
A71
102
}
330
1
100
AcDbSymbolTableRecord
100
AcDbBlockTableRecord
  2
*PAPER_SPACE
340
10FD
  0
BLOCK_RECORD
  5
594
330
1
100
AcDbSymbolTableRecord
100
AcDbBlockTableRecord
  2
_OPEN
340
0
102
{BLKREFS
331
F85
331
F86
331
10D8
331
FF1
331
FF2
102
}
  0
BLOCK_RECORD
  5
6E3
330
1
100
AcDbSymbolTableRecord
100
AcDbBlockTableRecord
  2
矢印なし
340
0
102
{BLKREFS
331
10D7
331
6E6
102
}
  0
BLOCK_RECORD
  5
8B3
330
1
100
AcDbSymbolTableRecord
100
AcDbBlockTableRecord
  2
*D2
340
0
  0
BLOCK_RECORD
  5
99E
330
1
100
AcDbSymbolTableRecord
100
AcDbBlockTableRecord
  2
1
340
0
310
2800000020000000200000000100080000000000000400000000000000000000000000000000000000000000000080000080000000808000800000008000800080800000C0C0C000C0DCC000F0CAA6000020400000206000002080000020A0000020C0000020E00000400000004020000040400000406000004080000040A0
310
000040C0000040E00000600000006020000060400000606000006080000060A0000060C0000060E00000800000008020000080400000806000008080000080A0000080C0000080E00000A0000000A0200000A0400000A0600000A0800000A0A00000A0C00000A0E00000C0000000C0200000C0400000C0600000C0800000C0
310
A00000C0C00000C0E00000E0000000E0200000E0400000E0600000E0800000E0A00000E0C00000E0E00040000000400020004000400040006000400080004000A0004000C0004000E00040200000402020004020400040206000402080004020A0004020C0004020E000404000004040200040404000404060004040800040
310
40A0004040C0004040E00040600000406020004060400040606000406080004060A0004060C0004060E00040800000408020004080400040806000408080004080A0004080C0004080E00040A0000040A0200040A0400040A0600040A0800040A0A00040A0C00040A0E00040C0000040C0200040C0400040C0600040C08000
310
40C0A00040C0C00040C0E00040E0000040E0200040E0400040E0600040E0800040E0A00040E0C00040E0E00080000000800020008000400080006000800080008000A0008000C0008000E00080200000802020008020400080206000802080008020A0008020C0008020E00080400000804020008040400080406000804080
310
008040A0008040C0008040E00080600000806020008060400080606000806080008060A0008060C0008060E00080800000808020008080400080806000808080008080A0008080C0008080E00080A0000080A0200080A0400080A0600080A0800080A0A00080A0C00080A0E00080C0000080C0200080C0400080C0600080C0
310
800080C0A00080C0C00080C0E00080E0000080E0200080E0400080E0600080E0800080E0A00080E0C00080E0E000C0000000C0002000C0004000C0006000C0008000C000A000C000C000C000E000C0200000C0202000C0204000C0206000C0208000C020A000C020C000C020E000C0400000C0402000C0404000C0406000C0
310
408000C040A000C040C000C040E000C0600000C0602000C0604000C0606000C0608000C060A000C060C000C060E000C0800000C0802000C0804000C0806000C0808000C080A000C080C000C080E000C0A00000C0A02000C0A04000C0A06000C0A08000C0A0A000C0A0C000C0A0E000C0C00000C0C02000C0C04000C0C06000
310
C0C08000C0C0A000F0FBFF00A4A0A000808080000000FF0000FF000000FFFF00FF000000FF00FF00FFFF0000FFFFFF0000000000000000000000000000000000000000000000000000000000000000000000000000000000000000000000000000000000000000000000000000000000000000000000000000000000000000
310
00000000000000000000000000000000000000000000000000000000000000000000000000000000000000000000000000000000000000000000000000000000000000000000000000000000000000000000000000000000000000000000000000000000000000000000000000000000000000000000000000000000000000
310
000000000000000000000000000000000000000000000000000000000000000000000000000000000000000000000000000000000000000000000000000000000000000000000000000000000000000000000000000000000000FEFEFEFEFE000000000000000000000000000000000000000000000000000000FEE7E7E7E7
310
0000000000000000000000000000000000000000FEFEFEFEFEFEFEFE00E7E7E7E700000000000000000000000000000000000000FE000000000000E700E7E7FAFAFEFEFEFEFEFEFEFEFEFEFEFEFEFEFEFE000000FE000000000000E700E7E7E7FA000000000000000000000000000000FE000000FEFEE700000000E700E7E7
310
FAFAE70000000000000000000000000000FE0000000000E70000FB00E700E7FBE7E7E7E7E7E70000000000000000000000FE000000FBFBE7FBE7FBE7E7E7FBFBFAE7E7E7E7E7FBFBFBFBFBFBFBFBFBFBFBFEFB0000FEFEE700000000E700E7E7FAFAE7E7E7E7E7E7E7E700000000000000FE000000FE000000000000E700E7
310
FBFAFA0000000000000000E7E7E7E7E7E7E7FE000000FE000000000000E700E7FBE7E7FEFEFEFEFEFEFEFEFEFEFEFEFEFEFEFE000000FEFEFEFEFEFEFEFE00E7FBFEE70000000000000000000000000000000000000000000000000000FE00E7FBFE000000000000000000000000000000000000000000000000000000FEFE
310
FEFEFE00000000000000000000000000000000000000000000000000000000000000000000000000000000000000000000000000000000000000000000000000000000000000000000000000000000000000000000000000000000000000000000000000000000000000000000000000000000000000000000000000000000
310
00000000000000000000000000000000000000000000000000000000000000000000000000000000000000000000000000000000000000000000000000000000000000000000000000000000000000000000000000000000000000000000000000000000000000000000000000000000000000000000000000000000000000
310
0000000000000000000000000000000000000000000000000000000000000000000000000000000000000000000000000000000000000000
102
{BLKREFS
331
13BB
102
}
  0
BLOCK_RECORD
  5
FAF
330
1
100
AcDbSymbolTableRecord
100
AcDbBlockTableRecord
  2
*D4
340
0
  0
BLOCK_RECORD
  5
FBE
330
1
100
AcDbSymbolTableRecord
100
AcDbBlockTableRecord
  2
*D5
340
0
  0
ENDTAB
  0
ENDSEC
  0
SECTION
  2
BLOCKS
  0
BLOCK
  5
1B
330
1A
100
AcDbEntity
  8
0
100
AcDbBlockBegin
  2
*MODEL_SPACE
 70
     0
 10
0.0
 20
0.0
 30
0.0
  3
*MODEL_SPACE
  1

  0
ENDBLK
  5
1C
330
1A
100
AcDbEntity
  8
0
100
AcDbBlockEnd
  0
BLOCK
  5
18
330
17
100
AcDbEntity
 67
     1
  8
0
100
AcDbBlockBegin
  2
*PAPER_SPACE
 70
     0
 10
0.0
 20
0.0
 30
0.0
  3
*PAPER_SPACE
  1

  0
ENDBLK
  5
19
330
17
100
AcDbEntity
 67
     1
  8
0
100
AcDbBlockEnd
  0
BLOCK
  5
598
330
594
100
AcDbEntity
  8
0
100
AcDbBlockBegin
  2
_OPEN
 70
     0
 10
0.0
 20
0.0
 30
0.0
  3
_OPEN
  1

  0
LINE
  5
595
330
594
100
AcDbEntity
  8
0
  6
ByBlock
 62
     0
100
AcDbLine
 10
-1.0
 20
0.16666667
 30
0.0
 11
0.0
 21
0.0
 31
0.0
  0
LINE
  5
596
330
594
100
AcDbEntity
  8
0
  6
ByBlock
 62
     0
100
AcDbLine
 10
-1.0
 20
-0.16666667
 30
0.0
 11
0.0
 21
0.0
 31
0.0
  0
LINE
  5
597
330
594
100
AcDbEntity
  8
0
  6
ByBlock
 62
     0
100
AcDbLine
 10
0.0
 20
0.0
 30
0.0
 11
-1.0
 21
0.0
 31
0.0
  0
ENDBLK
  5
599
330
594
100
AcDbEntity
  8
0
100
AcDbBlockEnd
  0
BLOCK
  5
6E4
330
6E3
100
AcDbEntity
  8
0
100
AcDbBlockBegin
  2
矢印なし
 70
     0
 10
0.0
 20
0.0
 30
0.0
  3
矢印なし
  1

  0
ENDBLK
  5
6E5
330
6E3
100
AcDbEntity
  8
0
100
AcDbBlockEnd
  0
BLOCK
  5
8BD
330
8B3
100
AcDbEntity
  8
0
100
AcDbBlockBegin
  2
*D2
 70
     1
 10
0.0
 20
0.0
 30
0.0
  3
*D2
  1

  0
LINE
  5
F82
330
8B3
100
AcDbEntity
  8
250
  6
Continuous
100
AcDbLine
 10
0.0
 20
49.5
 30
0.0
 11
0.0
 21
64.0
 31
0.0
  0
LINE
  5
F83
330
8B3
100
AcDbEntity
  8
250
  6
Continuous
100
AcDbLine
 10
165.0
 20
24.5
 30
0.0
 11
165.0
 21
64.0
 31
0.0
  0
LINE
  5
F84
330
8B3
100
AcDbEntity
  8
250
  6
Continuous
100
AcDbLine
 10
2.229999999999999
 20
63.0
 30
0.0
 11
162.77
 21
63.0
 31
0.0
  0
INSERT
  5
F85
330
8B3
100
AcDbEntity
  8
250
  6
Continuous
100
AcDbBlockReference
  2
_OPEN
 10
0.0
 20
63.0
 30
0.0
 41
2.229999999999999
 42
2.229999999999999
 43
2.229999999999999
 50
180.0
  0
INSERT
  5
F86
330
8B3
100
AcDbEntity
  8
250
  6
Continuous
100
AcDbBlockReference
  2
_OPEN
 10
165.0
 20
63.0
 30
0.0
 41
2.229999999999999
 42
2.229999999999999
 43
2.229999999999999
  0
MTEXT
  5
F87
330
8B3
100
AcDbEntity
  8
250
  6
Continuous
 62
    40
100
AcDbMText
 10
82.5
 20
65.4
 30
0.0
 40
2.799999999999998
 41
0.0
 71
     5
 72
     1
  1
\A1;165
 73
     1
 44
1.0
1001
ACAD
1000
MTEXTBEGIN
1070
    73
1070
     1
1070
    44
1040
1.0
1070
    74
1070
     0
1000
MTEXTEND
  0
POINT
  5
F88
330
8B3
100
AcDbEntity
  8
DEFPOINTS
  6
Continuous
 62
     0
100
AcDbPoint
 10
0.0
 20
49.0
 30
0.0
  0
POINT
  5
F89
330
8B3
100
AcDbEntity
  8
DEFPOINTS
  6
Continuous
 62
     0
100
AcDbPoint
 10
165.0
 20
24.0
 30
0.0
  0
POINT
  5
F8A
330
8B3
100
AcDbEntity
  8
DEFPOINTS
  6
Continuous
 62
     0
100
AcDbPoint
 10
165.0
 20
63.0
 30
0.0
  0
ENDBLK
  5
8BE
330
8B3
100
AcDbEntity
  8
0
100
AcDbBlockEnd
  0
BLOCK
  5
99F
330
99E
100
AcDbEntity
  8
0
100
AcDbBlockBegin
  2
1
 70
     0
 10
0.0
 20
0.0
 30
0.0
  3
1
  1

  0
ARC
  5
133C
330
99E
100
AcDbEntity
  8
241
  6
Continuous
100
AcDbCircle
 10
41.0
 20
0.0
 30
0.0
 40
8.0
100
AcDbArc
 50
90.0
 51
180.0
  0
ARC
  5
133D
330
99E
100
AcDbEntity
  8
241
  6
Continuous
100
AcDbCircle
 10
41.1
 20
0.0
 30
0.0
 40
6.599999999999965
100
AcDbArc
 50
90.0
 51
180.0
  0
ARC
  5
133E
330
99E
100
AcDbEntity
  8
241
  6
Continuous
100
AcDbCircle
 10
41.1
 20
0.0
 30
0.0
 40
6.599999999999965
100
AcDbArc
 50
180.0
 51
270.0
  0
ARC
  5
133F
330
99E
100
AcDbEntity
  8
241
  6
Continuous
100
AcDbCircle
 10
41.0
 20
0.0
 30
0.0
 40
8.0
100
AcDbArc
 50
180.0
 51
270.0
  0
LINE
  5
1340
330
99E
100
AcDbEntity
  8
245
  6
CENTER2
100
AcDbLine
 10
-50.0
 20
0.0
 30
0.0
 11
166.0
 21
0.0
 31
0.0
  0
LINE
  5
1341
330
99E
100
AcDbEntity
  8
241
  6
Continuous
100
AcDbLine
 10
-2.0
 20
37.9
 30
0.0
 11
-2.0
 21
0.0
 31
0.0
  0
LINE
  5
1342
330
99E
100
AcDbEntity
  8
241
100
AcDbLine
 10
0.0
 20
37.9
 30
0.0
 11
0.0
 21
0.0
 31
0.0
  0
LINE
  5
1343
330
99E
100
AcDbEntity
  8
241
  6
Continuous
100
AcDbLine
 10
23.24759526
 20
10.0
 30
0.0
 11
23.24759526
 21
50.0
 31
0.0
  0
LINE
  5
1344
330
99E
100
AcDbEntity
  8
241
  6
Continuous
100
AcDbLine
 10
16.75240474
 20
10.0
 30
0.0
 11
16.75240474
 21
50.0
 31
0.0
  0
LINE
  5
1345
330
99E
100
AcDbEntity
  8
241
  6
Continuous
100
AcDbLine
 10
18.125
 20
10.0
 30
0.0
 11
18.125
 21
46.0
 31
0.0
  0
LINE
  5
1346
330
99E
100
AcDbEntity
  8
241
  6
Continuous
100
AcDbLine
 10
21.875
 20
10.0
 30
0.0
 11
21.875
 21
46.0
 31
0.0
  0
LINE
  5
1347
330
99E
100
AcDbEntity
  8
241
100
AcDbLine
 10
29.0
 20
37.49999999999993
 30
0.0
 11
29.0
 21
0.0
 31
0.0
  0
LINE
  5
1348
330
99E
100
AcDbEntity
  8
245
  6
CENTER2
100
AcDbLine
 10
20.0
 20
-50.0
 30
0.0
 11
20.0
 21
50.0
 31
0.0
  0
LINE
  5
1349
330
99E
100
AcDbEntity
  8
240
  6
Continuous
100
AcDbLine
 10
-50.0
 20
11.51
 30
0.0
 11
-50.0
 21
33.59750156
 31
0.0
  0
LINE
  5
134A
330
99E
100
AcDbEntity
  8
241
  6
HIDDEN2
100
AcDbLine
 10
-42.0
 20
10.01
 30
0.0
 11
-37.0
 21
10.01
 31
0.0
  0
LINE
  5
134B
330
99E
100
AcDbEntity
  8
241
  6
HIDDEN2
100
AcDbLine
 10
-42.0
 20
-10.01
 30
0.0
 11
-37.0
 21
-10.01
 31
0.0
  0
LINE
  5
134C
330
99E
100
AcDbEntity
  8
240
  6
Continuous
100
AcDbLine
 10
-2.0
 20
-37.9
 30
0.0
 11
-48.09987523
 21
-35.59500624
 31
0.0
  0
LINE
  5
134D
330
99E
100
AcDbEntity
  8
240
  6
Continuous
100
AcDbLine
 10
-50.0
 20
-33.59750156
 30
0.0
 11
-50.0
 21
-11.51
 31
0.0
  0
ARC
  5
134E
330
99E
100
AcDbEntity
  8
240
  6
Continuous
100
AcDbCircle
 10
-48.0
 20
-33.59750156
 30
0.0
 40
2.0
100
AcDbArc
 50
180.0
 51
267.13759477
  0
LINE
  5
134F
330
99E
100
AcDbEntity
  8
240
  6
Continuous
100
AcDbLine
 10
-40.0
 20
8.009999999999998
 30
0.0
 11
-40.0
 21
0.0
 31
0.0
  0
LINE
  5
1350
330
99E
100
AcDbEntity
  8
240
  6
Continuous
100
AcDbLine
 10
-48.5
 20
-10.01
 30
0.0
 11
-50.0
 21
-11.51
 31
0.0
  0
LINE
  5
1351
330
99E
100
AcDbEntity
  8
240
  6
Continuous
100
AcDbLine
 10
-40.0
 20
-8.009999999999998
 30
0.0
 11
-40.0
 21
0.0
 31
0.0
  0
LINE
  5
1352
330
99E
100
AcDbEntity
  8
240
  6
Continuous
100
AcDbLine
 10
-48.5
 20
-10.01
 30
0.0
 11
-42.0
 21
-10.01
 31
0.0
  0
ARC
  5
1353
330
99E
100
AcDbEntity
  8
240
  6
Continuous
100
AcDbCircle
 10
-42.0
 20
-8.009999999999998
 30
0.0
 40
2.0
100
AcDbArc
 50
270.0
 51
0.0
  0
LINE
  5
1354
330
99E
100
AcDbEntity
  8
240
  6
Continuous
100
AcDbLine
 10
-48.5
 20
10.01
 30
0.0
 11
-50.0
 21
11.51
 31
0.0
  0
ARC
  5
1355
330
99E
100
AcDbEntity
  8
240
  6
Continuous
100
AcDbCircle
 10
-42.0
 20
8.009999999999998
 30
0.0
 40
2.0
100
AcDbArc
 50
0.0
 51
90.0
  0
LINE
  5
1356
330
99E
100
AcDbEntity
  8
240
  6
Continuous
100
AcDbLine
 10
-48.5
 20
10.01
 30
0.0
 11
-42.0
 21
10.01
 31
0.0
  0
LINE
  5
1357
330
99E
100
AcDbEntity
  8
241
  6
Continuous
100
AcDbLine
 10
18.125
 20
-33.52238058
 30
0.0
 11
18.125
 21
-46.0
 31
0.0
  0
LINE
  5
1358
330
99E
100
AcDbEntity
  8
241
  6
Continuous
100
AcDbLine
 10
21.875
 20
-33.52238058
 30
0.0
 11
21.875
 21
-46.0
 31
0.0
  0
LINE
  5
1359
330
99E
100
AcDbEntity
  8
241
  6
Continuous
100
AcDbLine
 10
23.24759526
 20
-50.0
 30
0.0
 11
23.24759526
 21
-38.82975663
 31
0.0
  0
LINE
  5
135A
330
99E
100
AcDbEntity
  8
241
  6
Continuous
100
AcDbLine
 10
16.75240474
 20
-50.0
 30
0.0
 11
16.75240474
 21
-38.82975663
 31
0.0
  0
LINE
  5
135B
330
99E
100
AcDbEntity
  8
240
  6
Continuous
100
AcDbLine
 10
0.0
 20
-49.0
 30
0.0
 11
0.0
 21
-37.9
 31
0.0
  0
LINE
  5
135C
330
99E
100
AcDbEntity
  8
241
100
AcDbLine
 10
29.0
 20
-37.50000000000009
 30
0.0
 11
29.0
 21
0.0
 31
0.0
  0
LINE
  5
135D
330
99E
100
AcDbEntity
  8
240
  6
Continuous
100
AcDbLine
 10
1.0
 20
-50.0
 30
0.0
 11
16.75240474
 21
-50.0
 31
0.0
  0
ARC
  5
135E
330
99E
100
AcDbEntity
  8
240
  6
Continuous
100
AcDbCircle
 10
1.0
 20
-49.0
 30
0.0
 40
1.0
100
AcDbArc
 50
180.0
 51
270.0
  0
LINE
  5
135F
330
99E
100
AcDbEntity
  8
240
  6
Continuous
100
AcDbLine
 10
23.24759526
 20
-50.0
 30
0.0
 11
28.0
 21
-50.0
 31
0.0
  0
LINE
  5
1360
330
99E
100
AcDbEntity
  8
240
  6
Continuous
100
AcDbLine
 10
21.875
 20
-46.0
 30
0.0
 11
21.875
 21
-47.62259526
 31
0.0
  0
LINE
  5
1361
330
99E
100
AcDbEntity
  8
240
  6
Continuous
100
AcDbLine
 10
18.125
 20
-46.0
 30
0.0
 11
18.125
 21
-47.62259526
 31
0.0
  0
LINE
  5
1362
330
99E
100
AcDbEntity
  8
240
  6
Continuous
100
AcDbLine
 10
18.125
 20
-47.62259526
 30
0.0
 11
16.75240474
 21
-50.0
 31
0.0
  0
LINE
  5
1363
330
99E
100
AcDbEntity
  8
240
  6
Continuous
100
AcDbLine
 10
21.875
 20
-47.62259526
 30
0.0
 11
23.24759526
 21
-50.0
 31
0.0
  0
LINE
  5
1364
330
99E
100
AcDbEntity
  8
240
  6
Continuous
100
AcDbLine
 10
18.125
 20
-46.0
 30
0.0
 11
21.875
 21
-46.0
 31
0.0
  0
LINE
  5
1365
330
99E
100
AcDbEntity
  8
240
  6
Continuous
100
AcDbLine
 10
29.0
 20
-49.0
 30
0.0
 11
29.0
 21
-37.50000000000009
 31
0.0
  0
ARC
  5
1366
330
99E
100
AcDbEntity
  8
240
  6
Continuous
100
AcDbCircle
 10
28.0
 20
-49.0
 30
0.0
 40
1.0
100
AcDbArc
 50
270.0
 51
0.0
  0
ARC
  5
1367
330
99E
100
AcDbEntity
  8
241
  6
Continuous
100
AcDbCircle
 10
-15.0
 20
0.0
 30
0.0
 40
6.0
100
AcDbArc
 50
180.0
 51
0.0
  0
ARC
  5
1368
330
99E
100
AcDbEntity
  8
241
  6
Continuous
100
AcDbCircle
 10
-15.0
 20
0.0
 30
0.0
 40
6.0
100
AcDbArc
 50
0.0
 51
180.0
  0
LINE
  5
1369
330
99E
100
AcDbEntity
  8
241
  6
HIDDEN2
100
AcDbLine
 10
-35.0
 20
8.009999999999998
 30
0.0
 11
-35.0
 21
0.0
 31
0.0
  0
LINE
  5
136A
330
99E
100
AcDbEntity
  8
241
  6
HIDDEN2
100
AcDbLine
 10
-35.0
 20
-8.009999999999998
 30
0.0
 11
-35.0
 21
0.0
 31
0.0
  0
ARC
  5
136B
330
99E
100
AcDbEntity
  8
241
  6
HIDDEN2
100
AcDbCircle
 10
-37.0
 20
-8.009999999999998
 30
0.0
 40
2.0
100
AcDbArc
 50
270.0
 51
0.0
  0
ARC
  5
136C
330
99E
100
AcDbEntity
  8
241
  6
HIDDEN2
100
AcDbCircle
 10
-37.0
 20
8.009999999999998
 30
0.0
 40
2.0
100
AcDbArc
 50
0.0
 51
90.0
  0
LINE
  5
136D
330
99E
100
AcDbEntity
  8
245
  6
CENTER2
100
AcDbLine
 10
-15.0
 20
-7.0
 30
0.0
 11
-15.0
 21
7.0
 31
0.0
  0
LINE
  5
136E
330
99E
100
AcDbEntity
  8
241
  6
Continuous
100
AcDbLine
 10
23.24759526
 20
-31.5
 30
0.0
 11
23.24759526
 21
-10.0
 31
0.0
  0
LINE
  5
136F
330
99E
100
AcDbEntity
  8
241
  6
Continuous
100
AcDbLine
 10
21.875
 20
-10.0
 30
0.0
 11
21.875
 21
-31.5
 31
0.0
  0
LINE
  5
1370
330
99E
100
AcDbEntity
  8
241
  6
Continuous
100
AcDbLine
 10
16.75240474
 20
-31.5
 30
0.0
 11
16.75240474
 21
-10.0
 31
0.0
  0
LINE
  5
1371
330
99E
100
AcDbEntity
  8
241
  6
Continuous
100
AcDbLine
 10
18.125
 20
-10.0
 30
0.0
 11
18.125
 21
-31.5
 31
0.0
  0
LINE
  5
1372
330
99E
100
AcDbEntity
  8
241
100
AcDbLine
 10
0.0
 20
-37.9
 30
0.0
 11
0.0
 21
0.0
 31
0.0
  0
LINE
  5
1373
330
99E
100
AcDbEntity
  8
241
  6
Continuous
100
AcDbLine
 10
-2.0
 20
-37.9
 30
0.0
 11
-2.0
 21
0.0
 31
0.0
  0
LINE
  5
1374
330
99E
100
AcDbEntity
  8
241
  6
Continuous
100
AcDbLine
 10
14.63689786
 20
-31.5
 30
0.0
 11
29.0
 21
-31.5
 31
0.0
  0
LINE
  5
1375
330
99E
100
AcDbEntity
  8
241
  6
Continuous
100
AcDbLine
 10
5.0
 20
-38.82975663
 30
0.0
 11
16.75240474
 21
-38.82975663
 31
0.0
  0
ARC
  5
1376
330
99E
100
AcDbEntity
  8
241
  6
Continuous
100
AcDbCircle
 10
14.63689786
 20
-41.5
 30
0.0
 40
10.0
100
AcDbArc
 50
90.0
 51
164.512726
  0
LINE
  5
1377
330
99E
100
AcDbEntity
  8
240
100
AcDbLine
 10
-2.0
 20
-37.9
 30
0.0
 11
0.0
 21
-37.9
 31
0.0
  0
LINE
  5
1378
330
99E
100
AcDbEntity
  8
241
  6
Continuous
100
AcDbLine
 10
23.24759526
 20
-38.82975663
 30
0.0
 11
29.0
 21
-38.82975663
 31
0.0
  0
LINE
  5
1379
330
99E
100
AcDbEntity
  8
241
  6
Continuous
100
AcDbLine
 10
18.125
 20
-33.52238058
 30
0.0
 11
21.875
 21
-33.52238058
 31
0.0
  0
LINE
  5
137A
330
99E
100
AcDbEntity
  8
241
  6
Continuous
100
AcDbLine
 10
16.75240474
 20
-38.82975663
 30
0.0
 11
18.125
 21
-35.71640491
 31
0.0
  0
LINE
  5
137B
330
99E
100
AcDbEntity
  8
241
  6
Continuous
100
AcDbLine
 10
23.24759526
 20
-38.82975663
 30
0.0
 11
21.875
 21
-35.71640491
 31
0.0
  0
LINE
  5
137C
330
99E
100
AcDbEntity
  8
241
  6
Continuous
100
AcDbLine
 10
15.0
 20
10.0
 30
0.0
 11
29.0
 21
10.0
 31
0.0
  0
LINE
  5
137D
330
99E
100
AcDbEntity
  8
241
  6
Continuous
100
AcDbLine
 10
15.0
 20
-10.0
 30
0.0
 11
29.0
 21
-10.0
 31
0.0
  0
ARC
  5
137E
330
99E
100
AcDbEntity
  8
241
  6
Continuous
100
AcDbCircle
 10
15.0
 20
0.0
 30
0.0
 40
10.0
100
AcDbArc
 50
90.0
 51
180.0
  0
ARC
  5
137F
330
99E
100
AcDbEntity
  8
241
  6
Continuous
100
AcDbCircle
 10
15.0
 20
0.0
 30
0.0
 40
10.0
100
AcDbArc
 50
180.0
 51
270.0
  0
LINE
  5
1380
330
99E
100
AcDbEntity
  8
240
  6
Continuous
100
AcDbLine
 10
-2.0
 20
37.9
 30
0.0
 11
-48.09987523
 21
35.59500624
 31
0.0
  0
ARC
  5
1381
330
99E
100
AcDbEntity
  8
240
  6
Continuous
100
AcDbCircle
 10
-48.0
 20
33.59750156
 30
0.0
 40
2.0
100
AcDbArc
 50
92.86240522999996
 51
180.0
  0
LINE
  5
1382
330
99E
100
AcDbEntity
  8
240
  6
Continuous
100
AcDbLine
 10
0.0
 20
49.0
 30
0.0
 11
0.0
 21
37.9
 31
0.0
  0
LINE
  5
1383
330
99E
100
AcDbEntity
  8
240
100
AcDbLine
 10
-2.0
 20
37.9
 30
0.0
 11
0.0
 21
37.9
 31
0.0
  0
LINE
  5
1384
330
99E
100
AcDbEntity
  8
240
  6
Continuous
100
AcDbLine
 10
1.0
 20
50.0
 30
0.0
 11
16.75240474
 21
50.0
 31
0.0
  0
ARC
  5
1385
330
99E
100
AcDbEntity
  8
240
  6
Continuous
100
AcDbCircle
 10
1.0
 20
49.0
 30
0.0
 40
1.0
100
AcDbArc
 50
90.0
 51
180.0
  0
LINE
  5
1386
330
99E
100
AcDbEntity
  8
240
  6
Continuous
100
AcDbLine
 10
23.24759526
 20
50.0
 30
0.0
 11
28.0
 21
50.0
 31
0.0
  0
LINE
  5
1387
330
99E
100
AcDbEntity
  8
240
  6
Continuous
100
AcDbLine
 10
21.875
 20
47.62259526
 30
0.0
 11
23.24759526
 21
50.0
 31
0.0
  0
LINE
  5
1388
330
99E
100
AcDbEntity
  8
240
  6
Continuous
100
AcDbLine
 10
18.125
 20
47.62259526
 30
0.0
 11
16.75240474
 21
50.0
 31
0.0
  0
LINE
  5
1389
330
99E
100
AcDbEntity
  8
240
  6
Continuous
100
AcDbLine
 10
18.125
 20
46.0
 30
0.0
 11
21.875
 21
46.0
 31
0.0
  0
LINE
  5
138A
330
99E
100
AcDbEntity
  8
240
  6
Continuous
100
AcDbLine
 10
18.125
 20
46.0
 30
0.0
 11
18.125
 21
47.62259526
 31
0.0
  0
LINE
  5
138B
330
99E
100
AcDbEntity
  8
240
  6
Continuous
100
AcDbLine
 10
21.875
 20
46.0
 30
0.0
 11
21.875
 21
47.62259526
 31
0.0
  0
LINE
  5
138C
330
99E
100
AcDbEntity
  8
240
  6
Continuous
100
AcDbLine
 10
29.0
 20
49.0
 30
0.0
 11
29.0
 21
37.49999999999994
 31
0.0
  0
ARC
  5
138D
330
99E
100
AcDbEntity
  8
240
  6
Continuous
100
AcDbCircle
 10
28.0
 20
49.0
 30
0.0
 40
1.0
100
AcDbArc
 50
0.0
 51
90.0
  0
LINE
  5
138E
330
99E
100
AcDbEntity
  8
241
  6
HIDDEN2
100
AcDbLine
 10
165.0
 20
15.6335
 30
0.0
 11
56.0
 21
12.80291934
 31
0.0
1001
GRPNAME
1000
PASTMD0F
  0
LINE
  5
138F
330
99E
100
AcDbEntity
  8
240
  6
Continuous
100
AcDbLine
 10
165.0
 20
24.0
 30
0.0
 11
165.0
 21
0.0
 31
0.0
1001
GRPNAME
1000
PASTMD0F
  0
LINE
  5
1390
330
99E
100
AcDbEntity
  8
240
  6
Continuous
100
AcDbLine
 10
47.0
 20
-25.0
 30
0.0
 11
164.0
 21
-25.0
 31
0.0
1001
GRPNAME
1000
PASTMD0F
  0
ARC
  5
1391
330
99E
100
AcDbEntity
  8
240
  6
Continuous
100
AcDbCircle
 10
47.0
 20
-35.0
 30
0.0
 40
10.0
100
AcDbArc
 50
90.0
 51
180.0
  0
LINE
  5
1392
330
99E
100
AcDbEntity
  8
241
  6
Continuous
100
AcDbLine
 10
44.99286579
 20
7.33416662
 30
0.0
 11
68.5
 21
7.33416662
 31
0.0
  0
LINE
  5
1393
330
99E
100
AcDbEntity
  8
241
  6
Continuous
100
AcDbLine
 10
41.1
 20
6.599999999999998
 30
0.0
 11
60.89999999999999
 21
6.599999999999998
 31
0.0
  0
LINE
  5
1394
330
99E
100
AcDbEntity
  8
241
  6
Continuous
100
AcDbLine
 10
60.89999999999999
 20
6.099999999999998
 30
0.0
 11
41.1
 21
6.099999999999998
 31
0.0
1001
GRPNAME
1000
PASTMD0F
  0
LINE
  5
1395
330
99E
100
AcDbEntity
  8
241
  6
Continuous
100
AcDbLine
 10
41.1
 20
-6.599999999999998
 30
0.0
 11
60.89999999999999
 21
-6.599999999999998
 31
0.0
  0
LINE
  5
1396
330
99E
100
AcDbEntity
  8
241
  6
Continuous
100
AcDbLine
 10
41.1
 20
-6.099999999999998
 30
0.0
 11
60.89999999999999
 21
-6.099999999999998
 31
0.0
1001
GRPNAME
1000
PASTMD0F
  0
LINE
  5
1397
330
99E
100
AcDbEntity
  8
241
  6
Continuous
100
AcDbLine
 10
44.99286579
 20
-7.33416662
 30
0.0
 11
68.5
 21
-7.33416662
 31
0.0
  0
ARC
  5
1398
330
99E
100
AcDbEntity
  8
241
  6
Continuous
100
AcDbCircle
 10
41.1
 20
0.0
 30
0.0
 40
6.099999999999994
100
AcDbArc
 50
90.0
 51
269.9999999899999
1001
GRPNAME
1000
PASTMD0F
  0
LINE
  5
1399
330
99E
100
AcDbEntity
  8
241
  6
Continuous
100
AcDbLine
 10
41.0
 20
-8.0
 30
0.0
 11
44.99286579
 21
-8.0
 31
0.0
  0
LINE
  5
139A
330
99E
100
AcDbEntity
  8
241
  6
Continuous
100
AcDbLine
 10
44.99286579
 20
-8.0
 30
0.0
 11
44.99286579
 21
-7.33416662
 31
0.0
  0
LINE
  5
139B
330
99E
100
AcDbEntity
  8
241
  6
Continuous
100
AcDbLine
 10
41.0
 20
8.0
 30
0.0
 11
44.99286579
 21
8.0
 31
0.0
  0
LINE
  5
139C
330
99E
100
AcDbEntity
  8
241
  6
Continuous
100
AcDbLine
 10
44.99286579
 20
8.0
 30
0.0
 11
44.99286579
 21
7.33416662
 31
0.0
  0
SPLINE
  5
139D
330
99E
100
AcDbEntity
  8
241
  6
Continuous
100
AcDbSpline
210
0.0
220
0.0
230
1.0
 70
     8
 71
     3
 72
     9
 73
     5
 74
     3
 42
0.0000000001
 43
0.0000000001
 44
0.0000000001
 40
0.0
 40
0.0
 40
0.0
 40
0.0
 40
3.677380181597167
 40
7.436119997014534
 40
7.436119997014534
 40
7.436119997014534
 40
7.436119997014534
 10
69.59999999998974
 20
0.0000000000000426
 30
0.0
 10
69.55219335446443
 20
1.228903372095502
 30
0.0
 10
69.45552237261711
 20
3.713898800462847
 30
0.0
 10
68.82082223865049
 20
6.118640474180897
 30
0.0
 10
68.49999999998988
 20
7.334166619324647
 30
0.0
 11
69.59999999998974
 21
0.0000000000000426
 31
0.0
 11
69.32499999998973
 21
3.667083309662316
 31
0.0
 11
68.49999999998988
 21
7.334166619324647
 31
0.0
  0
LINE
  5
139E
330
99E
100
AcDbEntity
  8
241
  6
Continuous
100
AcDbLine
 10
68.5
 20
7.33416662
 30
0.0
 11
68.5
 21
0.0
 31
0.0
  0
ARC
  5
139F
330
99E
100
AcDbEntity
  8
241
  6
Continuous
100
AcDbCircle
 10
60.89999999999999
 20
0.0
 30
0.0
 40
6.599999999999994
100
AcDbArc
 50
0.0
 51
90.0
  0
ARC
  5
13A0
330
99E
100
AcDbEntity
  8
241
  6
Continuous
100
AcDbCircle
 10
60.89999999999999
 20
0.0
 30
0.0
 40
6.099999999999994
100
AcDbArc
 50
269.99999998
 51
89.99999997999998
1001
GRPNAME
1000
PASTMD0F
  0
ARC
  5
13A1
330
99E
100
AcDbEntity
  8
241
  6
Continuous
100
AcDbCircle
 10
60.89999999999999
 20
0.0
 30
0.0
 40
6.599999999999994
100
AcDbArc
 50
270.0
 51
0.0
  0
LINE
  5
13A2
330
99E
100
AcDbEntity
  8
241
  6
Continuous
100
AcDbLine
 10
68.5
 20
-7.33416662
 30
0.0
 11
68.5
 21
0.0
 31
0.0
  0
SPLINE
  5
13A3
330
99E
100
AcDbEntity
  8
241
  6
Continuous
100
AcDbSpline
210
0.0
220
0.0
230
1.0
 70
     8
 71
     3
 72
     9
 73
     5
 74
     3
 42
0.0000000001
 43
0.0000000001
 44
0.0000000001
 40
0.0
 40
0.0
 40
0.0
 40
0.0
 40
3.677380181597167
 40
7.436119997014534
 40
7.436119997014534
 40
7.436119997014534
 40
7.436119997014534
 10
69.59999999998974
 20
-0.0000000000000426
 30
0.0
 10
69.55219335446443
 20
-1.228903372095502
 30
0.0
 10
69.45552237261711
 20
-3.713898800462847
 30
0.0
 10
68.82082223865049
 20
-6.118640474180897
 30
0.0
 10
68.49999999998988
 20
-7.334166619324647
 30
0.0
 11
69.59999999998974
 21
-0.0000000000000426
 31
0.0
 11
69.32499999998973
 21
-3.667083309662316
 31
0.0
 11
68.49999999998988
 21
-7.334166619324647
 31
0.0
  0
LINE
  5
13A4
330
99E
100
AcDbEntity
  8
240
  6
Continuous
100
AcDbLine
 10
165.0
 20
-24.0
 30
0.0
 11
165.0
 21
0.0
 31
0.0
1001
GRPNAME
1000
PASTMD0F
  0
ARC
  5
13A5
330
99E
100
AcDbEntity
  8
240
  6
Continuous
100
AcDbCircle
 10
164.0
 20
-24.0
 30
0.0
 40
1.0
100
AcDbArc
 50
269.99999998
 51
359.99999998
1001
GRPNAME
1000
PASTMD0F
  0
LINE
  5
13A6
330
99E
100
AcDbEntity
  8
240
  6
Continuous
100
AcDbLine
 10
47.0
 20
25.0
 30
0.0
 11
164.0
 21
25.0
 31
0.0
1001
GRPNAME
1000
PASTMD0F
  0
ARC
  5
13A7
330
99E
100
AcDbEntity
  8
240
  6
Continuous
100
AcDbCircle
 10
47.0
 20
35.0
 30
0.0
 40
10.0
100
AcDbArc
 50
180.0
 51
270.0
  0
ARC
  5
13A8
330
99E
100
AcDbEntity
  8
240
  6
Continuous
100
AcDbCircle
 10
164.0
 20
24.0
 30
0.0
 40
1.0
100
AcDbArc
 50
0.00000009
 51
90.00000008999998
1001
GRPNAME
1000
PASTMD0F
  0
LINE
  5
13A9
330
99E
100
AcDbEntity
  8
240
  6
Continuous
100
AcDbLine
 10
37.0
 20
-36.49999999999995
 30
0.0
 11
37.00000000000002
 21
-35.0
 31
0.0
  0
LINE
  5
13AA
330
99E
100
AcDbEntity
  8
240
  6
Continuous
100
AcDbLine
 10
36.0
 20
-37.49999999999995
 30
0.0
 11
29.0
 21
-37.50000000000009
 31
0.0
  0
ARC
  5
13AB
330
99E
100
AcDbEntity
  8
240
  6
Continuous
100
AcDbCircle
 10
36.0
 20
-36.49999999999995
 30
0.0
 40
1.0
100
AcDbArc
 50
270.0
 51
0.0
  0
LINE
  5
13AC
330
99E
100
AcDbEntity
  8
240
  6
Continuous
100
AcDbLine
 10
36.0
 20
37.50000000000001
 30
0.0
 11
29.0
 21
37.49999999999994
 31
0.0
  0
ARC
  5
13AD
330
99E
100
AcDbEntity
  8
240
  6
Continuous
100
AcDbCircle
 10
36.0
 20
36.50000000000001
 30
0.0
 40
1.0
100
AcDbArc
 50
0.0000000000000254
 51
90.00000000000047
  0
LINE
  5
13AE
330
99E
100
AcDbEntity
  8
241
100
AcDbLine
 10
37.0
 20
-35.0
 30
0.0
 11
37.0
 21
-6.928203230275507
 31
0.0
  0
LINE
  5
13AF
330
99E
100
AcDbEntity
  8
240
  6
Continuous
100
AcDbLine
 10
37.0
 20
36.50000000000001
 30
0.0
 11
37.0
 21
35.0
 31
0.0
  0
LINE
  5
13B0
330
99E
100
AcDbEntity
  8
241
100
AcDbLine
 10
37.0
 20
35.0
 30
0.0
 11
37.0
 21
6.928203230275507
 31
0.0
  0
LINE
  5
13B1
330
99E
100
AcDbEntity
  8
241
100
AcDbLine
 10
29.50000000000001
 20
-31.64540279885839
 30
0.0
 11
29.50000000000001
 21
-6.671686188047289
 31
0.0
  0
LINE
  5
13B2
330
99E
100
AcDbEntity
  8
241
100
AcDbLine
 10
29.50000000000001
 20
23.97989760632746
 30
0.0
 11
29.50000000000001
 21
-4.928380924453108
 31
0.0
  0
LINE
  5
13B3
330
99E
100
AcDbEntity
  8
242
  6
Continuous
100
AcDbLine
 10
37.0
 20
-31.64540279885839
 30
0.0
 11
29.50000000000001
 21
-6.671686188047289
 31
0.0
  0
LINE
  5
13B4
330
99E
100
AcDbEntity
  8
242
  6
Continuous
100
AcDbLine
 10
29.50000000000001
 20
23.97989760632746
 30
0.0
 11
34.50839234313765
 21
4.675364160080573
 31
0.0
  0
LINE
  5
13B5
330
99E
100
AcDbEntity
  8
242
  6
Continuous
100
AcDbLine
 10
29.50000000000001
 20
-31.64540279885839
 30
0.0
 11
36.9344536466711
 21
-6.889944328435032
 31
0.0
  0
LINE
  5
13B6
330
99E
100
AcDbEntity
  8
242
  6
Continuous
100
AcDbLine
 10
37.0
 20
23.97989760632746
 30
0.0
 11
29.50000000000001
 21
-4.92838092445311
 31
0.0
  0
LINE
  5
13B7
330
99E
100
AcDbEntity
  8
241
100
AcDbLine
 10
29.50000000000001
 20
-6.671686188047289
 30
0.0
 11
36.58541016534729
 21
-6.671686188047289
 31
0.0
  0
LINE
  5
13B8
330
99E
100
AcDbEntity
  8
241
100
AcDbLine
 10
29.50000000000001
 20
-4.928380924453108
 30
0.0
 11
34.69832867697095
 21
-4.928380924453108
 31
0.0
  0
LINE
  5
13B9
330
99E
100
AcDbEntity
  8
241
100
AcDbLine
 10
29.50000000000001
 20
23.97989760632746
 30
0.0
 11
37.0
 21
23.97989760632746
 31
0.0
  0
LINE
  5
13BA
330
99E
100
AcDbEntity
  8
241
100
AcDbLine
 10
29.50000000000001
 20
-31.64540279885839
 30
0.0
 11
37.0
 21
-31.64540279885839
 31
0.0
  0
ENDBLK
  5
9A0
330
99E
100
AcDbEntity
  8
0
100
AcDbBlockEnd
  0
BLOCK
  5
FB9
330
FAF
100
AcDbEntity
  8
0
100
AcDbBlockBegin
  2
*D4
 70
     1
 10
0.0
 20
0.0
 30
0.0
  3
*D4
  1

  0
LINE
  5
10D5
330
FAF
100
AcDbEntity
  8
250
  6
Continuous
100
AcDbLine
 10
165.5
 20
15.6335
 30
0.0
 11
179.0
 21
15.6335
 31
0.0
  0
LINE
  5
10D6
330
FAF
100
AcDbEntity
  8
250
  6
Continuous
100
AcDbLine
 10
178.0
 20
-13.4035
 30
0.0
 11
178.0
 21
13.4035
 31
0.0
  0
INSERT
  5
10D7
330
FAF
100
AcDbEntity
  8
250
  6
Continuous
100
AcDbBlockReference
  2
矢印なし
 10
178.0
 20
-15.6335
 30
0.0
 41
2.229999999999999
 42
2.229999999999999
 43
2.229999999999999
 50
270.0
  0
INSERT
  5
10D8
330
FAF
100
AcDbEntity
  8
250
  6
Continuous
100
AcDbBlockReference
  2
_OPEN
 10
178.0
 20
15.6335
 30
0.0
 41
2.229999999999999
 42
2.229999999999999
 43
2.229999999999999
 50
90.0
  0
MTEXT
  5
10D9
330
FAF
100
AcDbEntity
  8
250
  6
Continuous
 62
    40
100
AcDbMText
 10
175.6
 20
0.0
 30
0.0
 40
2.799999999999998
 41
0.0
 71
     5
 72
     1
  1
\A1;{\H2.8;\U+2205}31.267
 11
0.0
 21
1.0
 31
0.0
 73
     1
 44
1.0
1001
ACAD
1000
MTEXTBEGIN
1070
    73
1070
     1
1070
    44
1040
1.0
1070
    74
1070
     0
1000
MTEXTEND
  0
POINT
  5
10DA
330
FAF
100
AcDbEntity
  8
DEFPOINTS
  6
Continuous
 62
     0
100
AcDbPoint
 10
165.0
 20
-15.6335
 30
0.0
  0
POINT
  5
10DB
330
FAF
100
AcDbEntity
  8
DEFPOINTS
  6
Continuous
 62
     0
100
AcDbPoint
 10
165.0
 20
15.6335
 30
0.0
  0
POINT
  5
10DC
330
FAF
100
AcDbEntity
  8
DEFPOINTS
  6
Continuous
 62
     0
100
AcDbPoint
 10
178.0
 20
15.6335
 30
0.0
  0
ENDBLK
  5
FBA
330
FAF
100
AcDbEntity
  8
0
100
AcDbBlockEnd
  0
BLOCK
  5
FC8
330
FBE
100
AcDbEntity
  8
0
100
AcDbBlockBegin
  2
*D5
 70
     1
 10
0.0
 20
0.0
 30
0.0
  3
*D5
  1

  0
LINE
  5
FEE
330
FBE
100
AcDbEntity
  8
250
  6
Continuous
100
AcDbLine
 10
164.5
 20
-25.0
 30
0.0
 11
186.0
 21
-25.0
 31
0.0
  0
LINE
  5
FEF
330
FBE
100
AcDbEntity
  8
250
  6
Continuous
100
AcDbLine
 10
164.5
 20
25.0
 30
0.0
 11
186.0
 21
25.0
 31
0.0
  0
LINE
  5
FF0
330
FBE
100
AcDbEntity
  8
250
  6
Continuous
100
AcDbLine
 10
185.0
 20
-22.77
 30
0.0
 11
185.0
 21
22.77
 31
0.0
  0
INSERT
  5
FF1
330
FBE
100
AcDbEntity
  8
250
  6
Continuous
100
AcDbBlockReference
  2
_OPEN
 10
185.0
 20
-25.0
 30
0.0
 41
2.229999999999999
 42
2.229999999999999
 43
2.229999999999999
 50
270.0
  0
INSERT
  5
FF2
330
FBE
100
AcDbEntity
  8
250
  6
Continuous
100
AcDbBlockReference
  2
_OPEN
 10
185.0
 20
25.0
 30
0.0
 41
2.229999999999999
 42
2.229999999999999
 43
2.229999999999999
 50
90.0
  0
MTEXT
  5
FF3
330
FBE
100
AcDbEntity
  8
250
  6
Continuous
 62
    40
100
AcDbMText
 10
182.6
 20
0.0
 30
0.0
 40
2.799999999999998
 41
0.0
 71
     5
 72
     1
  1
\A1;{\H2.8;\U+2205}50
 11
0.0
 21
1.0
 31
0.0
 73
     1
 44
1.0
1001
ACAD
1000
MTEXTBEGIN
1070
    73
1070
     1
1070
    44
1040
1.0
1070
    74
1070
     0
1000
MTEXTEND
  0
POINT
  5
FF4
330
FBE
100
AcDbEntity
  8
DEFPOINTS
  6
Continuous
 62
     0
100
AcDbPoint
 10
164.0
 20
-25.0
 30
0.0
  0
POINT
  5
FF5
330
FBE
100
AcDbEntity
  8
DEFPOINTS
  6
Continuous
 62
     0
100
AcDbPoint
 10
164.0
 20
25.0
 30
0.0
  0
POINT
  5
FF6
330
FBE
100
AcDbEntity
  8
DEFPOINTS
  6
Continuous
 62
     0
100
AcDbPoint
 10
185.0
 20
25.0
 30
0.0
  0
ENDBLK
  5
FC9
330
FBE
100
AcDbEntity
  8
0
100
AcDbBlockEnd
  0
ENDSEC
  0
SECTION
  2
ENTITIES
  0
INSERT
  5
6E6
330
1A
100
AcDbEntity
  8
245
100
AcDbBlockReference
  2
矢印なし
 10
175.62382697
 20
90.55123571999999
 30
0.0
  0
LINE
  5
7D1
330
1A
100
AcDbEntity
  8
250
  6
Continuous
100
AcDbLine
 10
-27.26410788
 20
-48.99693089
 30
0.0
 11
-54.19744121
 21
-48.99693089
 31
0.0
1001
ITEMNAME
1000
LNSP2
  0
MTEXT
  5
7D2
330
1A
100
AcDbEntity
  8
251
  6
Continuous
100
AcDbMText
 10
-51.39744120999999
 20
-47.99693089
 30
0.0
 40
2.799999999999998
 41
0.0
 71
     7
 72
     1
  1
HSK-A100
  7
YOKO
 73
     1
 44
1.0
1001
ITEMNAME
1000
LNSP3
1001
ACAD
1000
MTEXTBEGIN
1070
    73
1070
     1
1070
    44
1040
1.0
1070
    74
1070
     0
1000
MTEXTEND
  0
LEADER
  5
7D9
330
1A
100
AcDbEntity
  8
250
  6
Continuous
100
AcDbLeader
  3
BIGT
 76
     2
 10
-20.32820221
 20
-36.98358989
 30
0.0
 10
-27.26410788
 20
-48.99693089
 30
0.0
1001
ACAD
1000
DSTYLE
1002
{
1070
     6
1000
OPEN
1070
    41
1040
2.0
1070
    42
1040
2.0
1070
    44
1040
2.0
1070
   140
1040
4.0
1070
   343
1005
594
1002
}
  0
DIMENSION
  5
8B2
330
1A
100
AcDbEntity
  8
250
  6
Continuous
100
AcDbDimension
  2
*D2
 10
165.0
 20
63.0
 30
0.0
 11
82.5
 21
65.4
 31
0.0
 70
    32
 71
     5
 42
-1.0
  3
BIGT
100
AcDbAlignedDimension
 13
0.0
 23
49.0
 33
0.0
 14
165.0
 24
24.0
 34
0.0
100
AcDbRotatedDimension
  0
TEXT
  5
968
330
1A
100
AcDbEntity
  8
241
100
AcDbText
 10
-50.0
 20
77.0
 30
0.0
 40
5.0
  1
HSK-A100-MTA4-165
  7
YOKO
 11
-50.0
 21
77.0
 31
0.0
100
AcDbText
 73
     1
  0
DIMENSION
  5
FAE
330
1A
100
AcDbEntity
  8
250
  6
Continuous
100
AcDbDimension
  2
*D4
 10
178.0
 20
15.6335
 30
0.0
 11
175.6
 21
0.0
 31
0.0
 70
    32
  1
{\H2.8;\U+2205}<>
 71
     5
 42
-1.0
  3
BIGT
100
AcDbAlignedDimension
 13
165.0
 23
-15.6335
 33
0.0
 14
165.0
 24
15.6335
 34
0.0
 50
90.0
100
AcDbRotatedDimension
1001
ACAD
1000
DSTYLE
1002
{
1070
    75
1070
     1
1070
    79
1070
     2
1070
   179
1070
     3
1070
     6
1000
矢印なし
1070
   371
1070
    -1
1070
   372
1070
    -1
1002
}
  0
DIMENSION
  5
FBD
330
1A
100
AcDbEntity
  8
250
  6
Continuous
100
AcDbDimension
  2
*D5
 10
185.0
 20
25.0
 30
0.0
 11
182.6
 21
0.0
 31
0.0
 70
    32
  1
{\H2.8;\U+2205}<>
 71
     5
 42
-1.0
  3
BIGT
100
AcDbAlignedDimension
 13
164.0
 23
-25.0
 33
0.0
 14
164.0
 24
25.0
 34
0.0
 50
90.0
100
AcDbRotatedDimension
1001
ACAD
1000
DSTYLE
1002
{
1070
    79
1070
     2
1070
   179
1070
     3
1070
   371
1070
    -1
1070
   372
1070
    -1
1002
}
  0
LEADER
  5
1000
102
{ACAD_REACTORS
330
1005
102
}
330
1A
100
AcDbEntity
  8
250
  6
Continuous
100
AcDbLeader
  3
BIGT
 76
     2
 10
162.90125228
 20
15.5789984
 30
0.0
 10
174.3005293
 20
35.32312537
 30
0.0
1001
ACAD
1000
DSTYLE
1002
{
1070
     6
1000
OPEN
1070
    79
1070
     2
1070
   179
1070
     3
1070
   371
1070
    -1
1070
   372
1070
    -1
1002
}
  0
MTEXT
  5
1001
102
{ACAD_REACTORS
330
1005
102
}
330
1A
100
AcDbEntity
  8
250
  6
Continuous
 62
    40
100
AcDbMText
 10
177.1005293
 20
36.32312537
 30
0.0
 40
2.799999999999998
 41
0.0
 71
     7
 72
     1
  1
MT4
  7
YOKO
 73
     1
 44
1.0
1001
ITEMNAME
1000
LNSP3
1001
ACAD
1000
MTEXTBEGIN
1070
    73
1070
     1
1070
    44
1040
1.0
1070
    74
1070
     0
1000
MTEXTEND
  0
LINE
  5
1003
102
{ACAD_REACTORS
330
1005
102
}
330
1A
100
AcDbEntity
  8
250
  6
Continuous
100
AcDbLine
 10
174.3005293
 20
35.32312537
 30
0.0
 11
187.1005293
 21
35.32312537
 31
0.0
1001
ITEMNAME
1000
LNSP2
  0
INSERT
  5
13BB
330
1A
100
AcDbEntity
  8
245
100
AcDbBlockReference
  2
1
 10
0.0
 20
0.0
 30
0.0
  0
VIEWPORT
  5
22
102
{ACAD_XDICTIONARY
360
13BD
102
}
330
17
100
AcDbEntity
 67
     1
  8
0
100
AcDbViewport
 10
261.51769912
 20
148.5
 30
0.0
 40
523.03539823
 41
297.0
 68
     1
 69
     1
 12
261.51769912
 22
148.5
 13
0.0
 23
0.0
 14
1.0
 24
1.0
 15
10.0
 25
10.0
 16
0.0
 26
0.0
 36
1.0
 17
0.0
 27
0.0
 37
0.0
 42
50.0
 43
0.0
 44
0.0
 45
297.0
 50
0.0
 51
0.0
 72
   100
 90
    32800
  1

281
     0
 71
     1
 74
     0
110
0.0
120
0.0
130
0.0
111
1.0
121
0.0
131
0.0
112
0.0
122
1.0
132
0.0
 79
     0
146
0.0
  0
ENDSEC
  0
SECTION
  2
OBJECTS
  0
DICTIONARY
  5
C
330
0
100
AcDbDictionary
281
     1
  3
ACAD_COLOR
350
10F8
  3
ACAD_GROUP
350
D
  3
ACAD_LAYOUT
350
10FB
  3
ACAD_MATERIAL
350
10E3
  3
ACAD_MLINESTYLE
350
E
  3
ACAD_PLOTSETTINGS
350
566
  3
ACAD_PLOTSTYLENAME
350
563
  3
ACAD_TABLESTYLE
350
10F9
  3
ACAD_VISUALSTYLE
350
10E7
  3
AcDbVariableDictionary
350
126F
  3
DWGPROPS
350
13BC
  3
GRADE_DWG
350
540
  0
DICTIONARY
  5
A73
330
1A
100
AcDbDictionary
280
     1
281
     1
  3
ACAD_LAYOUTSELFREF
360
10D3
  3
ACAD_SORTENTS
360
117B
  0
DICTIONARY
  5
A71
330
17
100
AcDbDictionary
280
     1
281
     1
  3
ACAD_LAYOUTSELFREF
360
10D2
  0
DICTIONARY
  5
13BD
330
22
100
AcDbDictionary
280
     1
281
     1
  3
ACAD_XREC_ROUNDTRIP
360
13BE
  0
DICTIONARY
  5
10F8
102
{ACAD_REACTORS
330
C
102
}
330
C
100
AcDbDictionary
281
     1
  0
DICTIONARY
  5
D
102
{ACAD_REACTORS
330
C
102
}
330
C
100
AcDbDictionary
281
     1
  3
*A1
350
6C7
  3
*A2
350
6C8
  3
*A3
350
6D4
  3
*A4
350
6D5
  3
DREC-1
350
5FC
  3
DREC-2
350
654
  3
DREC-3
350
673
  3
LNSP-1
350
8C5
  3
LNSP-2
350
C03
  3
LNSP-3
350
C0B
  3
LNSP-4
350
DF8
  3
LNSP-5
350
1005
  0
DICTIONARY
  5
10FB
102
{ACAD_REACTORS
330
C
102
}
330
C
100
AcDbDictionary
281
     1
  3
Model
350
10FC
  3
レイアウト1
350
10FD
  0
DICTIONARY
  5
10E3
102
{ACAD_REACTORS
330
C
102
}
330
C
100
AcDbDictionary
281
     1
  3
ByBlock
350
10E5
  3
ByLayer
350
10E4
  3
Global
350
10E6
  0
DICTIONARY
  5
E
102
{ACAD_REACTORS
330
C
102
}
330
C
100
AcDbDictionary
281
     1
  3
STANDARD
350
13
  0
DICTIONARY
  5
566
102
{ACAD_REACTORS
330
C
102
}
330
C
100
AcDbDictionary
281
     1
  3
A3_0_5倍_
350
758
  3
A3_1倍_
350
757
  3
A3_1倍__2000_
350
707
  3
A3_2倍_
350
759
  3
A4_0_5倍_
350
755
  3
A4_1倍_
350
754
  3
A4_1倍__2000_
350
708
  3
A4_2倍_
350
756
  0
ACDBDICTIONARYWDFLT
  5
563
102
{ACAD_REACTORS
330
C
102
}
330
C
100
AcDbDictionary
281
     1
  3
Normal
350
564
100
AcDbDictionaryWithDefault
340
564
  0
DICTIONARY
  5
10F9
102
{ACAD_REACTORS
330
C
102
}
330
C
100
AcDbDictionary
281
     1
  3
Standard
350
10FA
  0
DICTIONARY
  5
10E7
102
{ACAD_REACTORS
330
C
102
}
330
C
100
AcDbDictionary
281
     1
  3
2dWireframe
350
10ED
  3
3D Hidden
350
10EF
  3
3dWireframe
350
10EE
  3
Basic
350
10EC
  3
Brighten
350
10F3
  3
ColorChange
350
10F7
  3
Conceptual
350
10F0
  3
Dim
350
10F2
  3
Facepattern
350
10F6
  3
Flat
350
10E8
  3
FlatWithEdges
350
10E9
  3
Gouraud
350
10EA
  3
GouraudWithEdges
350
10EB
  3
Linepattern
350
10F5
  3
Realistic
350
10F1
  3
Thicken
350
10F4
  0
DICTIONARY
  5
126F
102
{ACAD_REACTORS
330
C
102
}
330
C
100
AcDbDictionary
281
     1
  3
CTABLESTYLE
350
1270
  3
DIMASSOC
350
1273
  3
INDEXCTL
350
1272
  3
SORTENTS
350
1271
  0
XRECORD
  5
13BC
102
{ACAD_REACTORS
330
C
102
}
330
C
100
AcDbXrecord
280
     1
  1
DWGPROPS COOKIE
  2

  3

  4

  6

  7

  8
AWTEC
  9

300
=
301
=
302
=
303
=
304
=
305
=
306
=
307
=
308
=
309
=
 40
0.0157383912037037
 41
2455363.682330903
 42
2456608.410009757
  1

 90
        0
  0
DICTIONARY
  5
540
102
{ACAD_REACTORS
330
C
102
}
330
C
100
AcDbDictionary
281
     1
  3
VERSION
350
560
  0
XRECORD
  5
10D3
102
{ACAD_REACTORS
330
A73
102
}
330
A73
100
AcDbXrecord
280
     1
340
1A
  0
SORTENTSTABLE
  5
117B
102
{ACAD_REACTORS
330
A73
102
}
330
A73
100
AcDbSortentsTable
330
1A
331
7D1
  5
7D1
331
968
  5
968
331
FBD
  5
FBD
331
1003
  5
1003
331
8B2
  5
8B2
331
1001
  5
1001
331
7D2
  5
7D2
331
6E6
  5
6E6
331
7D9
  5
7D9
331
1000
  5
1000
331
FAE
  5
FAE
  0
XRECORD
  5
10D2
102
{ACAD_REACTORS
330
A71
102
}
330
A71
100
AcDbXrecord
280
     1
340
17
  0
XRECORD
  5
13BE
102
{ACAD_REACTORS
330
13BD
102
}
330
13BD
100
AcDbXrecord
280
     1
102
SHADEPLOT
 70
     0
  0
GROUP
  5
6C7
102
{ACAD_REACTORS
330
D
102
}
330
D
100
AcDbGroup
300

 70
     0
 71
     1
1001
GRPNAME
1000
DMA00
  0
GROUP
  5
6C8
102
{ACAD_REACTORS
330
D
102
}
330
D
100
AcDbGroup
300

 70
     0
 71
     1
1001
GRPNAME
1000
DMA00
  0
GROUP
  5
6D4
102
{ACAD_REACTORS
330
D
102
}
330
D
100
AcDbGroup
300

 70
     0
 71
     1
1001
GRPNAME
1000
DMA00
  0
GROUP
  5
6D5
102
{ACAD_REACTORS
330
D
102
}
330
D
100
AcDbGroup
300

 70
     0
 71
     1
1001
GRPNAME
1000
DMA00
  0
GROUP
  5
5FC
102
{ACAD_REACTORS
330
D
102
}
330
D
100
AcDbGroup
300

 70
     0
 71
     1
1001
GRPNAME
1000
DREC-
1001
GPARA
1000
xsiz
1000
44.182
1000
ysiz
1000
40.677
1000
angl
1000
0
1000
ctyp
1000
0
1000
csiz
1000
5
1000
lfnt
1000
cont
1000
hcnt
1000
hoff
1000
vcnt
1000
voff
1000
opnt
1000
4
1000
dxpt
1000
0
1000
dypt
1000
0
  0
GROUP
  5
654
102
{ACAD_REACTORS
330
D
102
}
330
D
100
AcDbGroup
300

 70
     0
 71
     1
1001
GRPNAME
1000
DREC-
1001
GPARA
1000
xsiz
1000
54.592
1000
ysiz
1000
53.036
1000
angl
1000
0
1000
ctyp
1000
0
1000
csiz
1000
5
1000
lfnt
1000
cont
1000
hcnt
1000
hoff
1000
vcnt
1000
voff
1000
opnt
1000
4
1000
dxpt
1000
0
1000
dypt
1000
0
  0
GROUP
  5
673
102
{ACAD_REACTORS
330
D
102
}
330
D
100
AcDbGroup
300

 70
     0
 71
     1
1001
GRPNAME
1000
DREC-
1001
GPARA
1000
xsiz
1000
30.363
1000
ysiz
1000
36.175
1000
angl
1000
0
1000
ctyp
1000
0
1000
csiz
1000
5
1000
lfnt
1000
cont
1000
hcnt
1000
hoff
1000
vcnt
1000
voff
1000
opnt
1000
4
1000
dxpt
1000
0
1000
dypt
1000
0
  0
GROUP
  5
8C5
102
{ACAD_REACTORS
330
D
102
}
330
D
100
AcDbGroup
300

 70
     0
 71
     1
1001
GRPNAME
1000
LNSP
  0
GROUP
  5
C03
102
{ACAD_REACTORS
330
D
102
}
330
D
100
AcDbGroup
300

 70
     0
 71
     1
1001
GRPNAME
1000
LNSP
  0
GROUP
  5
C0B
102
{ACAD_REACTORS
330
D
102
}
330
D
100
AcDbGroup
300

 70
     0
 71
     1
1001
GRPNAME
1000
LNSP
  0
GROUP
  5
DF8
102
{ACAD_REACTORS
330
D
102
}
330
D
100
AcDbGroup
300

 70
     0
 71
     1
1001
GRPNAME
1000
LNSP
  0
GROUP
  5
1005
102
{ACAD_REACTORS
330
D
102
}
330
D
100
AcDbGroup
300

 70
     0
 71
     1
340
1000
340
1001
340
1003
1001
GRPNAME
1000
LNSP
  0
LAYOUT
  5
10FC
102
{ACAD_XDICTIONARY
360
13D1
102
}
102
{ACAD_REACTORS
330
10FB
102
}
330
10FB
100
AcDbPlotSettings
  1

  2
Canon LBP5610
  4

  6

 40
0.0
 41
0.0
 42
0.0
 43
0.0
 44
0.0
 45
0.0
 46
0.0
 47
0.0
 48
0.0
 49
0.0
140
0.0
141
0.0
142
1.0
143
1.0
 70
  1712
 72
     0
 73
     0
 74
     0
  7

 75
     0
147
1.0
148
0.0
149
0.0
100
AcDbLayout
  1
Model
 70
     1
 71
     0
 10
0.0
 20
0.0
 11
12.0
 21
9.0
 12
0.0
 22
0.0
 32
0.0
 14
0.0
 24
0.0
 34
0.0
 15
0.0
 25
0.0
 35
0.0
146
0.0
 13
0.0
 23
0.0
 33
0.0
 16
1.0
 26
0.0
 36
0.0
 17
0.0
 27
1.0
 37
0.0
 76
     0
330
1A
331
10B0
  0
LAYOUT
  5
10FD
102
{ACAD_XDICTIONARY
360
13D3
102
}
102
{ACAD_REACTORS
330
10FB
102
}
330
10FB
100
AcDbPlotSettings
  1

  2
Canon LBP5610
  4

  6

 40
0.0
 41
0.0
 42
0.0
 43
0.0
 44
0.0
 45
0.0
 46
0.0
 47
0.0
 48
0.0
 49
0.0
140
0.0
141
0.0
142
1.0
143
1.0
 70
   688
 72
     0
 73
     0
 74
     5
  7

 75
    16
147
1.0
148
0.0
149
0.0
100
AcDbLayout
  1
レイアウト1
 70
     1
 71
     1
 10
0.0
 20
0.0
 11
420.0
 21
297.0
 12
0.0
 22
0.0
 32
0.0
 14
1.000000000000000E+20
 24
1.000000000000000E+20
 34
1.000000000000000E+20
 15
-1.000000000000000E+20
 25
-1.000000000000000E+20
 35
-1.000000000000000E+20
146
0.0
 13
0.0
 23
0.0
 33
0.0
 16
1.0
 26
0.0
 36
0.0
 17
0.0
 27
1.0
 37
0.0
 76
     0
330
17
331
22
  0
MATERIAL
  5
10E5
102
{ACAD_XDICTIONARY
360
12A8
102
}
102
{ACAD_REACTORS
330
10E3
102
}
330
10E3
100
AcDbMaterial
  1
ByBlock
  0
MATERIAL
  5
10E4
102
{ACAD_XDICTIONARY
360
12A6
102
}
102
{ACAD_REACTORS
330
10E3
102
}
330
10E3
100
AcDbMaterial
  1
ByLayer
  0
MATERIAL
  5
10E6
102
{ACAD_XDICTIONARY
360
12AA
102
}
102
{ACAD_REACTORS
330
10E3
102
}
330
10E3
100
AcDbMaterial
  1
Global
  0
MLINESTYLE
  5
13
102
{ACAD_REACTORS
330
E
102
}
330
E
100
AcDbMlineStyle
  2
STANDARD
 70
     0
  3

 62
     0
 51
90.0
 52
90.0
 71
     2
 49
0.5
 62
   256
  6
BYLAYER
 49
-0.5
 62
   256
  6
BYLAYER
  0
PLOTSETTINGS
  5
758
102
{ACAD_XDICTIONARY
360
13CB
102
}
102
{ACAD_REACTORS
330
566
102
}
330
566
100
AcDbPlotSettings
  1
A3(0.5倍)
  2
\\AWTECPC05\HP DeskJet 1120C
  4
A3
  6

 40
5.958416459999998
 41
13.49375153
 42
6.043090819999998
 43
3.67242432
 44
296.92599487
 45
419.94665527
 46
89.96
 47
127.14
 48
0.0
 49
0.0
140
0.0
141
0.0
142
1.0
143
2.0
 70
  1716
 72
     1
 73
     1
 74
     2
  7
big.ctb
 75
    17
147
0.5
148
0.0
149
0.0
  0
PLOTSETTINGS
  5
757
102
{ACAD_XDICTIONARY
360
13C9
102
}
102
{ACAD_REACTORS
330
566
102
}
330
566
100
AcDbPlotSettings
  1
A3(1倍)
  2
\\AWTECPC05\HP DeskJet 1120C
  4
A3
  6

 40
5.958416459999998
 41
13.49375153
 42
6.043090819999998
 43
3.67242432
 44
296.92599487
 45
419.94665527
 46
37.46
 47
52.89
 48
0.0
 49
0.0
140
0.0
141
0.0
142
1.0
143
1.0
 70
  1716
 72
     1
 73
     1
 74
     2
  7
big.ctb
 75
    16
147
1.0
148
0.0
149
0.0
  0
PLOTSETTINGS
  5
707
102
{ACAD_XDICTIONARY
360
13BF
102
}
102
{ACAD_REACTORS
330
566
102
}
330
566
100
AcDbPlotSettings
  1
A3(1倍)(2000)
  2
SII LS-1300 (D-SCAN)
  4
User258
  6

 40
3.17499995
 41
3.17499995
 42
3.174987789999998
 43
3.174987789999998
 44
419.98898315
 45
296.98950195
 46
58.32
 47
40.32
 48
0.0
 49
0.0
140
0.0
141
0.0
142
1.0
143
1.0
 70
  1716
 72
     1
 73
     0
 74
     2
  7
big.ctb
 75
    16
147
1.0
148
0.0
149
0.0
  0
PLOTSETTINGS
  5
759
102
{ACAD_XDICTIONARY
360
13CD
102
}
102
{ACAD_REACTORS
330
566
102
}
330
566
100
AcDbPlotSettings
  1
A3(2倍)
  2
\\AWTECPC05\HP DeskJet 1120C
  4
A3
  6

 40
5.958416459999998
 41
13.49375153
 42
6.043090819999998
 43
3.67242432
 44
296.92599487
 45
419.94665527
 46
-67.54000000000001
 47
-95.60999999999999
 48
0.0
 49
0.0
140
0.0
141
0.0
142
1.0
143
0.5
 70
  1716
 72
     1
 73
     1
 74
     2
  7
big.ctb
 75
    27
147
2.0
148
0.0
149
0.0
  0
PLOTSETTINGS
  5
755
102
{ACAD_XDICTIONARY
360
13C5
102
}
102
{ACAD_REACTORS
330
566
102
}
330
566
100
AcDbPlotSettings
  1
A4(0.5倍)
  2
\\AWTECPC05\HP DeskJet 1120C
  4
A4
  6

 40
4.18041658
 41
13.49374962
 42
4.180404659999998
 43
3.926422119999998
 44
209.97332764
 45
296.92599487
 46
48.31
 47
65.5
 48
0.0
 49
0.0
140
0.0
141
0.0
142
1.0
143
2.0
 70
  1716
 72
     1
 73
     1
 74
     2
  7
big.ctb
 75
    17
147
0.5
148
0.0
149
0.0
  0
PLOTSETTINGS
  5
754
102
{ACAD_XDICTIONARY
360
13C3
102
}
102
{ACAD_REACTORS
330
566
102
}
330
566
100
AcDbPlotSettings
  1
A4(1倍)
  2
\\AWTECPC05\HP DeskJet 1120C
  4
A4
  6

 40
4.18041658
 41
13.49374962
 42
4.180404659999998
 43
3.926422119999998
 44
209.97332764
 45
296.92599487
 46
-4.19
 47
-8.75
 48
0.0
 49
0.0
140
0.0
141
0.0
142
1.0
143
1.0
 70
  1716
 72
     1
 73
     1
 74
     2
  7
big.ctb
 75
    16
147
1.0
148
0.0
149
0.0
  0
PLOTSETTINGS
  5
708
102
{ACAD_XDICTIONARY
360
13C1
102
}
102
{ACAD_REACTORS
330
566
102
}
330
566
100
AcDbPlotSettings
  1
A4(1倍)(2000)
  2
SII LS-1300 (D-SCAN)
  4
User259
  6

 40
3.17499995
 41
3.17499995
 42
3.174987789999998
 43
3.175003049999998
 44
296.98950195
 45
209.99449158
 46
-3.18
 47
-3.18
 48
0.0
 49
0.0
140
0.0
141
0.0
142
1.0
143
1.0
 70
  1716
 72
     1
 73
     0
 74
     2
  7
big.ctb
 75
    16
147
1.0
148
0.0
149
0.0
  0
PLOTSETTINGS
  5
756
102
{ACAD_XDICTIONARY
360
13C7
102
}
102
{ACAD_REACTORS
330
566
102
}
330
566
100
AcDbPlotSettings
  1
A4(2倍)
  2
\\AWTECPC05\HP DeskJet 1120C
  4
A4
  6

 40
4.18041658
 41
13.49374962
 42
4.180404659999998
 43
3.926422119999998
 44
209.97332764
 45
296.92599487
 46
-109.19
 47
-157.25
 48
0.0
 49
0.0
140
0.0
141
0.0
142
1.0
143
0.5
 70
  1716
 72
     1
 73
     1
 74
     2
  7
big.ctb
 75
    27
147
2.0
148
0.0
149
0.0
  0
ACDBPLACEHOLDER
  5
564
102
{ACAD_REACTORS
330
563
102
}
330
563
  0
TABLESTYLE
  5
10FA
102
{ACAD_XDICTIONARY
360
13CF
102
}
102
{ACAD_REACTORS
330
10F9
102
}
330
10F9
100
AcDbTableStyle
  3
Standard
 70
     0
 71
     0
 40
1.5
 41
1.5
280
     0
281
     0
  7
STANDARD
140
4.5
170
     2
 62
     0
 63
     7
283
     0
274
    -2
284
     1
 64
     0
275
    -2
285
     1
 65
     0
276
    -2
286
     1
 66
     0
277
    -2
287
     1
 67
     0
278
    -2
288
     1
 68
     0
279
    -2
289
     1
 69
     0
  7
STANDARD
140
6.0
170
     5
 62
     0
 63
     7
283
     0
274
    -2
284
     1
 64
     0
275
    -2
285
     1
 65
     0
276
    -2
286
     1
 66
     0
277
    -2
287
     1
 67
     0
278
    -2
288
     1
 68
     0
279
    -2
289
     1
 69
     0
  7
STANDARD
140
4.5
170
     5
 62
     0
 63
     7
283
     0
274
    -2
284
     1
 64
     0
275
    -2
285
     1
 65
     0
276
    -2
286
     1
 66
     0
277
    -2
287
     1
 67
     0
278
    -2
288
     1
 68
     0
279
    -2
289
     1
 69
     0
  0
VISUALSTYLE
  5
10ED
102
{ACAD_REACTORS
330
10E7
102
}
330
10E7
100
AcDbVisualStyle
  2
2dWireframe
 70
     4
 71
     0
 72
     2
 73
     0
 90
        0
 40
-0.6
 41
-30.0
 62
     5
 63
     7
 74
     1
 91
        4
 64
     7
 65
   257
 75
     1
175
     1
 42
1.0
 92
        0
 66
   257
 43
1.0
 76
     1
 77
     6
 78
     2
 67
     7
 79
     5
170
     0
171
     0
290
     0
174
     0
 93
        1
 44
0.0
173
     0
291
     0
 45
0.0
1001
ACAD
1000
AcDbSavedByObjectVersion
1070
     0
1000
AcDbSavedByObjectVersion
1070
     0
  0
VISUALSTYLE
  5
10EF
102
{ACAD_REACTORS
330
10E7
102
}
330
10E7
100
AcDbVisualStyle
  2
3D Hidden
 70
     6
 71
     1
 72
     2
 73
     2
 90
        0
 40
-0.6
 41
-30.0
 62
     5
 63
     7
 74
     2
 91
        2
 64
     7
 65
   257
 75
     2
175
     1
 42
40.0
 92
        0
 66
   257
 43
1.0
 76
     1
 77
     6
 78
     2
 67
     7
 79
     3
170
     0
171
     0
290
     0
174
     0
 93
        1
 44
0.0
173
     0
291
     0
 45
0.0
1001
ACAD
1000
AcDbSavedByObjectVersion
1070
     0
1000
AcDbSavedByObjectVersion
1070
     0
  0
VISUALSTYLE
  5
10EE
102
{ACAD_REACTORS
330
10E7
102
}
330
10E7
100
AcDbVisualStyle
  2
3dWireframe
 70
     5
 71
     0
 72
     2
 73
     0
 90
        0
 40
-0.6
 41
-30.0
 62
     5
 63
     7
 74
     1
 91
        4
 64
     7
 65
   257
 75
     1
175
     1
 42
1.0
 92
        0
 66
   257
 43
1.0
 76
     1
 77
     6
 78
     2
 67
     7
 79
     5
170
     0
171
     0
290
     0
174
     0
 93
        1
 44
0.0
173
     0
291
     0
 45
0.0
1001
ACAD
1000
AcDbSavedByObjectVersion
1070
     0
1000
AcDbSavedByObjectVersion
1070
     0
  0
VISUALSTYLE
  5
10EC
102
{ACAD_REACTORS
330
10E7
102
}
330
10E7
100
AcDbVisualStyle
  2
Basic
 70
     7
 71
     1
 72
     0
 73
     1
 90
        0
 40
-0.6
 41
-30.0
 62
     5
 63
     7
 74
     0
 91
        4
 64
     7
 65
   257
 75
     1
175
     1
 42
1.0
 92
        8
 66
     7
 43
1.0
 76
     1
 77
     6
 78
     2
 67
     7
 79
     5
170
     0
171
     0
290
     0
174
     0
 93
        1
 44
0.0
173
     0
291
     1
 45
0.0
1001
ACAD
1000
AcDbSavedByObjectVersion
1070
     0
1000
AcDbSavedByObjectVersion
1070
     0
  0
VISUALSTYLE
  5
10F3
102
{ACAD_REACTORS
330
10E7
102
}
330
10E7
100
AcDbVisualStyle
  2
Brighten
 70
    12
 71
     2
 72
     2
 73
     0
 90
        0
 40
-0.6
 41
-30.0
 62
     5
 63
     7
 74
     1
 91
        4
 64
     7
 65
   257
 75
     1
175
     1
 42
1.0
 92
        8
 66
     7
 43
1.0
 76
     1
 77
     6
 78
     2
 67
     7
 79
     5
170
     0
171
     0
290
     0
174
     0
 93
        1
 44
50.0
173
     0
291
     1
 45
0.0
1001
ACAD
1000
AcDbSavedByObjectVersion
1070
     0
1000
AcDbSavedByObjectVersion
1070
     0
  0
VISUALSTYLE
  5
10F7
102
{ACAD_REACTORS
330
10E7
102
}
330
10E7
100
AcDbVisualStyle
  2
ColorChange
 70
    16
 71
     2
 72
     2
 73
     3
 90
        0
 40
-0.6
 41
-30.0
 62
     5
 63
     8
 74
     1
 91
        4
 64
     7
 65
   257
 75
     1
175
     1
 42
1.0
 92
        8
 66
     8
 43
1.0
 76
     1
 77
     6
 78
     2
 67
     7
 79
     5
170
     0
171
     0
290
     0
174
     0
 93
        1
 44
0.0
173
     0
291
     1
 45
0.0
1001
ACAD
1000
AcDbSavedByObjectVersion
1070
     0
1000
AcDbSavedByObjectVersion
1070
     0
  0
VISUALSTYLE
  5
10F0
102
{ACAD_REACTORS
330
10E7
102
}
330
10E7
100
AcDbVisualStyle
  2
Conceptual
 70
     9
 71
     3
 72
     2
 73
     0
 90
        0
 40
-0.6
 41
-30.0
 62
     5
 63
     7
 74
     2
 91
        2
 64
     7
 65
   257
 75
     1
175
     1
 42
40.0
 92
        8
 66
     7
 43
1.0
 76
     1
 77
     6
 78
     2
 67
     7
 79
     3
170
     0
171
     0
290
     0
174
     0
 93
        1
 44
0.0
173
     0
291
     0
 45
0.0
1001
ACAD
1000
AcDbSavedByObjectVersion
1070
     0
1000
AcDbSavedByObjectVersion
1070
     0
  0
VISUALSTYLE
  5
10F2
102
{ACAD_REACTORS
330
10E7
102
}
330
10E7
100
AcDbVisualStyle
  2
Dim
 70
    11
 71
     2
 72
     2
 73
     0
 90
        0
 40
-0.6
 41
-30.0
 62
     5
 63
     7
 74
     1
 91
        4
 64
     7
 65
   257
 75
     1
175
     1
 42
1.0
 92
        8
 66
     7
 43
1.0
 76
     1
 77
     6
 78
     2
 67
     7
 79
     5
170
     0
171
     0
290
     0
174
     0
 93
        1
 44
-50.0
173
     0
291
     1
 45
0.0
1001
ACAD
1000
AcDbSavedByObjectVersion
1070
     0
1000
AcDbSavedByObjectVersion
1070
     0
  0
VISUALSTYLE
  5
10F6
102
{ACAD_REACTORS
330
10E7
102
}
330
10E7
100
AcDbVisualStyle
  2
Facepattern
 70
    15
 71
     2
 72
     2
 73
     0
 90
        0
 40
-0.6
 41
-30.0
 62
     5
 63
     7
 74
     1
 91
        4
 64
     7
 65
   257
 75
     1
175
     1
 42
1.0
 92
        8
 66
     7
 43
1.0
 76
     1
 77
     6
 78
     2
 67
     7
 79
     5
170
     0
171
     0
290
     0
174
     0
 93
        1
 44
0.0
173
     0
291
     1
 45
0.0
1001
ACAD
1000
AcDbSavedByObjectVersion
1070
     0
1000
AcDbSavedByObjectVersion
1070
     0
  0
VISUALSTYLE
  5
10E8
102
{ACAD_REACTORS
330
10E7
102
}
330
10E7
100
AcDbVisualStyle
  2
Flat
 70
     0
 71
     2
 72
     1
 73
     1
 90
        2
 40
-0.6
 41
30.0
 62
     5
 63
     7
 74
     0
 91
        4
 64
     7
 65
   257
 75
     1
175
     1
 42
1.0
 92
        8
 66
     7
 43
1.0
 76
     1
 77
     6
 78
     2
 67
     7
 79
     5
170
     0
171
     0
290
     0
174
     0
 93
       13
 44
0.0
173
     0
291
     1
 45
0.0
1001
ACAD
1000
AcDbSavedByObjectVersion
1070
     0
1000
AcDbSavedByObjectVersion
1070
     0
  0
VISUALSTYLE
  5
10E9
102
{ACAD_REACTORS
330
10E7
102
}
330
10E7
100
AcDbVisualStyle
  2
FlatWithEdges
 70
     1
 71
     2
 72
     1
 73
     1
 90
        2
 40
-0.6
 41
30.0
 62
     5
 63
     7
 74
     1
 91
        4
 64
     7
 65
   257
 75
     1
175
     1
 42
1.0
 92
        0
 66
   257
 43
1.0
 76
     1
 77
     6
 78
     2
 67
     7
 79
     5
170
     0
171
     0
290
     0
174
     0
 93
       13
 44
0.0
173
     0
291
     1
 45
0.0
1001
ACAD
1000
AcDbSavedByObjectVersion
1070
     0
1000
AcDbSavedByObjectVersion
1070
     0
  0
VISUALSTYLE
  5
10EA
102
{ACAD_REACTORS
330
10E7
102
}
330
10E7
100
AcDbVisualStyle
  2
Gouraud
 70
     2
 71
     2
 72
     2
 73
     1
 90
        2
 40
-0.6
 41
30.0
 62
     5
 63
     7
 74
     0
 91
        4
 64
     7
 65
   257
 75
     1
175
     1
 42
1.0
 92
        0
 66
     7
 43
1.0
 76
     1
 77
     6
 78
     2
 67
     7
 79
     5
170
     0
171
     0
290
     0
174
     0
 93
       13
 44
0.0
173
     0
291
     1
 45
0.0
1001
ACAD
1000
AcDbSavedByObjectVersion
1070
     0
1000
AcDbSavedByObjectVersion
1070
     0
  0
VISUALSTYLE
  5
10EB
102
{ACAD_REACTORS
330
10E7
102
}
330
10E7
100
AcDbVisualStyle
  2
GouraudWithEdges
 70
     3
 71
     2
 72
     2
 73
     1
 90
        2
 40
-0.6
 41
30.0
 62
     5
 63
     7
 74
     1
 91
        4
 64
     7
 65
   257
 75
     1
175
     1
 42
1.0
 92
        0
 66
   257
 43
1.0
 76
     1
 77
     6
 78
     2
 67
     7
 79
     5
170
     0
171
     0
290
     0
174
     0
 93
       13
 44
0.0
173
     0
291
     1
 45
0.0
1001
ACAD
1000
AcDbSavedByObjectVersion
1070
     0
1000
AcDbSavedByObjectVersion
1070
     0
  0
VISUALSTYLE
  5
10F5
102
{ACAD_REACTORS
330
10E7
102
}
330
10E7
100
AcDbVisualStyle
  2
Linepattern
 70
    14
 71
     2
 72
     2
 73
     0
 90
        0
 40
-0.6
 41
-30.0
 62
     5
 63
     7
 74
     1
 91
        4
 64
     7
 65
   257
 75
     7
175
     7
 42
1.0
 92
        8
 66
     7
 43
1.0
 76
     1
 77
     6
 78
     2
 67
     7
 79
     5
170
     0
171
     0
290
     0
174
     0
 93
        1
 44
0.0
173
     0
291
     1
 45
0.0
1001
ACAD
1000
AcDbSavedByObjectVersion
1070
     0
1000
AcDbSavedByObjectVersion
1070
     0
  0
VISUALSTYLE
  5
10F1
102
{ACAD_REACTORS
330
10E7
102
}
330
10E7
100
AcDbVisualStyle
  2
Realistic
 70
     8
 71
     2
 72
     2
 73
     0
 90
        0
 40
-0.6
 41
-30.0
 62
     5
 63
     7
 74
     1
 91
        0
 64
     7
 65
   257
 75
     1
175
     1
 42
1.0
 92
        8
 66
     8
 43
1.0
 76
     1
 77
     6
 78
     2
 67
     7
 79
     5
170
     0
171
     0
290
     0
174
     0
 93
       13
 44
0.0
173
     0
291
     0
 45
0.0
1001
ACAD
1000
AcDbSavedByObjectVersion
1070
     0
1000
AcDbSavedByObjectVersion
1070
     0
  0
VISUALSTYLE
  5
10F4
102
{ACAD_REACTORS
330
10E7
102
}
330
10E7
100
AcDbVisualStyle
  2
Thicken
 70
    13
 71
     2
 72
     2
 73
     0
 90
        0
 40
-0.6
 41
-30.0
 62
     5
 63
     7
 74
     1
 91
        4
 64
     7
 65
   257
 75
     1
175
     1
 42
1.0
 92
       12
 66
     7
 43
1.0
 76
     1
 77
     6
 78
     2
 67
     7
 79
     5
170
     0
171
     0
290
     0
174
     0
 93
        1
 44
0.0
173
     0
291
     1
 45
0.0
1001
ACAD
1000
AcDbSavedByObjectVersion
1070
     0
1000
AcDbSavedByObjectVersion
1070
     0
  0
DICTIONARYVAR
  5
1270
102
{ACAD_REACTORS
330
126F
102
}
330
126F
100
DictionaryVariables
280
     0
  1
STANDARD
  0
DICTIONARYVAR
  5
1273
102
{ACAD_REACTORS
330
126F
102
}
330
126F
100
DictionaryVariables
280
     0
  1
1
  0
DICTIONARYVAR
  5
1272
102
{ACAD_REACTORS
330
126F
102
}
330
126F
100
DictionaryVariables
280
     0
  1
0
  0
DICTIONARYVAR
  5
1271
102
{ACAD_REACTORS
330
126F
102
}
330
126F
100
DictionaryVariables
280
     0
  1
127
  0
XRECORD
  5
560
102
{ACAD_REACTORS
330
540
102
}
330
540
100
AcDbXrecord
280
     1
  1
2.0.0
  0
DICTIONARY
  5
13D1
330
10FC
100
AcDbDictionary
280
     1
281
     1
  3
ACAD_XREC_ROUNDTRIP
360
13D2
  0
DICTIONARY
  5
13D3
330
10FD
100
AcDbDictionary
280
     1
281
     1
  3
ACAD_XREC_ROUNDTRIP
360
13D4
  0
DICTIONARY
  5
12A8
330
10E5
100
AcDbDictionary
280
     1
281
     1
  3
ACAD_XREC_ROUNDTRIP
360
12A9
  0
DICTIONARY
  5
12A6
330
10E4
100
AcDbDictionary
280
     1
281
     1
  3
ACAD_XREC_ROUNDTRIP
360
12A7
  0
DICTIONARY
  5
12AA
330
10E6
100
AcDbDictionary
280
     1
281
     1
  3
ACAD_XREC_ROUNDTRIP
360
12AB
  0
DICTIONARY
  5
13CB
330
758
100
AcDbDictionary
280
     1
281
     1
  3
ACAD_XREC_ROUNDTRIP
360
13CC
  0
DICTIONARY
  5
13C9
330
757
100
AcDbDictionary
280
     1
281
     1
  3
ACAD_XREC_ROUNDTRIP
360
13CA
  0
DICTIONARY
  5
13BF
330
707
100
AcDbDictionary
280
     1
281
     1
  3
ACAD_XREC_ROUNDTRIP
360
13C0
  0
DICTIONARY
  5
13CD
330
759
100
AcDbDictionary
280
     1
281
     1
  3
ACAD_XREC_ROUNDTRIP
360
13CE
  0
DICTIONARY
  5
13C5
330
755
100
AcDbDictionary
280
     1
281
     1
  3
ACAD_XREC_ROUNDTRIP
360
13C6
  0
DICTIONARY
  5
13C3
330
754
100
AcDbDictionary
280
     1
281
     1
  3
ACAD_XREC_ROUNDTRIP
360
13C4
  0
DICTIONARY
  5
13C1
330
708
100
AcDbDictionary
280
     1
281
     1
  3
ACAD_XREC_ROUNDTRIP
360
13C2
  0
DICTIONARY
  5
13C7
330
756
100
AcDbDictionary
280
     1
281
     1
  3
ACAD_XREC_ROUNDTRIP
360
13C8
  0
DICTIONARY
  5
13CF
330
10FA
100
AcDbDictionary
280
     1
281
     1
  3
ACAD_XREC_ROUNDTRIP
360
13D0
  0
XRECORD
  5
13D2
102
{ACAD_REACTORS
330
13D1
102
}
330
13D1
100
AcDbXrecord
280
     1
102
SHADEPLOT
 70
     0
102
SHADEPLOTRESLEVEL
 70
     2
102
SHADEPLOTCUSTOMDPI
 70
   300
  0
XRECORD
  5
13D4
102
{ACAD_REACTORS
330
13D3
102
}
330
13D3
100
AcDbXrecord
280
     1
102
SHADEPLOT
 70
     0
102
SHADEPLOTRESLEVEL
 70
     2
102
SHADEPLOTCUSTOMDPI
 70
   300
  0
XRECORD
  5
12A9
102
{ACAD_REACTORS
330
12A8
102
}
330
12A8
100
AcDbXrecord
280
     1
102
MATERIAL
148
0.0
149
0.0
149
0.0
 93
        0
 94
       63
282
     0
 72
     1
 77
     1
171
     1
175
     1
179
     1
273
     0
  0
XRECORD
  5
12A7
102
{ACAD_REACTORS
330
12A6
102
}
330
12A6
100
AcDbXrecord
280
     1
102
MATERIAL
148
0.0
149
0.0
149
0.0
 93
        0
 94
       63
282
     0
 72
     1
 77
     1
171
     1
175
     1
179
     1
273
     0
  0
XRECORD
  5
12AB
102
{ACAD_REACTORS
330
12AA
102
}
330
12AA
100
AcDbXrecord
280
     1
102
MATERIAL
148
0.0
149
0.0
149
0.0
 93
        0
 94
       63
282
     0
 72
     1
 77
     1
171
     1
175
     1
179
     1
273
     0
  0
XRECORD
  5
13CC
102
{ACAD_REACTORS
330
13CB
102
}
330
13CB
100
AcDbXrecord
280
     1
102
SHADEPLOT
 70
     0
102
SHADEPLOTRESLEVEL
 70
     2
102
SHADEPLOTCUSTOMDPI
 70
   300
  0
XRECORD
  5
13CA
102
{ACAD_REACTORS
330
13C9
102
}
330
13C9
100
AcDbXrecord
280
     1
102
SHADEPLOT
 70
     0
102
SHADEPLOTRESLEVEL
 70
     2
102
SHADEPLOTCUSTOMDPI
 70
   300
  0
XRECORD
  5
13C0
102
{ACAD_REACTORS
330
13BF
102
}
330
13BF
100
AcDbXrecord
280
     1
102
SHADEPLOT
 70
     0
102
SHADEPLOTRESLEVEL
 70
     2
102
SHADEPLOTCUSTOMDPI
 70
   300
  0
XRECORD
  5
13CE
102
{ACAD_REACTORS
330
13CD
102
}
330
13CD
100
AcDbXrecord
280
     1
102
SHADEPLOT
 70
     0
102
SHADEPLOTRESLEVEL
 70
     2
102
SHADEPLOTCUSTOMDPI
 70
   300
  0
XRECORD
  5
13C6
102
{ACAD_REACTORS
330
13C5
102
}
330
13C5
100
AcDbXrecord
280
     1
102
SHADEPLOT
 70
     0
102
SHADEPLOTRESLEVEL
 70
     2
102
SHADEPLOTCUSTOMDPI
 70
   300
  0
XRECORD
  5
13C4
102
{ACAD_REACTORS
330
13C3
102
}
330
13C3
100
AcDbXrecord
280
     1
102
SHADEPLOT
 70
     0
102
SHADEPLOTRESLEVEL
 70
     2
102
SHADEPLOTCUSTOMDPI
 70
   300
  0
XRECORD
  5
13C2
102
{ACAD_REACTORS
330
13C1
102
}
330
13C1
100
AcDbXrecord
280
     1
102
SHADEPLOT
 70
     0
102
SHADEPLOTRESLEVEL
 70
     2
102
SHADEPLOTCUSTOMDPI
 70
   300
  0
XRECORD
  5
13C8
102
{ACAD_REACTORS
330
13C7
102
}
330
13C7
100
AcDbXrecord
280
     1
102
SHADEPLOT
 70
     0
102
SHADEPLOTRESLEVEL
 70
     2
102
SHADEPLOTCUSTOMDPI
 70
   300
  0
XRECORD
  5
13D0
102
{ACAD_REACTORS
330
13CF
102
}
330
13CF
100
AcDbXrecord
280
     1
102
ACAD_ROUNDTRIP_PRE2007_TABLESTYLE
 90
      512
 91
        0
  1

 92
      512
 93
        0
  2

 94
      512
 95
        0
  3

  0
ENDSEC
  0
EOF
