  0
SECTION
  2
HEADER
  9
$ACADVER
  1
AC1014
  9
$ACADMAINTVER
 70
     9
  9
$DWGCODEPAGE
  3
ANSI_932
  9
$INSBASE
 10
0.0
 20
0.0
 30
0.0
  9
$EXTMIN
 10
-54.21191146
 20
-50.21770189
 30
-0.00152582
  9
$EXTMAX
 10
93.0341503
 20
82.01937954
 30
0.00000003
  9
$LIMMIN
 10
0.0
 20
0.0
  9
$LIMMAX
 10
420.0
 20
297.0
  9
$ORTHOMODE
 70
     0
  9
$REGENMODE
 70
     1
  9
$FILLMODE
 70
     1
  9
$QTEXTMODE
 70
     0
  9
$MIRRTEXT
 70
     1
  9
$DRAGMODE
 70
     2
  9
$LTSCALE
 40
10.0
  9
$OSMODE
 70
   549
  9
$ATTMODE
 70
     1
  9
$TEXTSIZE
 40
3.0
  9
$TRACEWID
 40
1.0
  9
$TEXTSTYLE
  7
YOKO
  9
$CLAYER
  8
245
  9
$CELTYPE
  6
BYLAYER
  9
$CECOLOR
 62
   256
  9
$CELTSCALE
 40
1.0
  9
$DELOBJ
 70
     1
  9
$DISPSILH
 70
     0
  9
$DIMSCALE
 40
1.0
  9
$DIMASZ
 40
2.0
  9
$DIMEXO
 40
2.0
  9
$DIMDLI
 40
2.5
  9
$DIMRND
 40
0.0
  9
$DIMDLE
 40
0.0
  9
$DIMEXE
 40
2.0
  9
$DIMTP
 40
0.0
  9
$DIMTM
 40
0.0
  9
$DIMTXT
 40
4.0
  9
$DIMCEN
 40
0.0
  9
$DIMTSZ
 40
0.0
  9
$DIMTOL
 70
     0
  9
$DIMLIM
 70
     0
  9
$DIMTIH
 70
     0
  9
$DIMTOH
 70
     0
  9
$DIMSE1
 70
     0
  9
$DIMSE2
 70
     0
  9
$DIMTAD
 70
     3
  9
$DIMZIN
 70
     8
  9
$DIMBLK
  1

  9
$DIMASO
 70
     1
  9
$DIMSHO
 70
     1
  9
$DIMPOST
  1

  9
$DIMAPOST
  1

  9
$DIMALT
 70
     0
  9
$DIMALTD
 70
     2
  9
$DIMALTF
 40
25.4
  9
$DIMLFAC
 40
1.0
  9
$DIMTOFL
 70
     1
  9
$DIMTVP
 40
0.0
  9
$DIMTIX
 70
     1
  9
$DIMSOXD
 70
     0
  9
$DIMSAH
 70
     1
  9
$DIMBLK1
  1
OPEN
  9
$DIMBLK2
  1
OPEN
  9
$DIMSTYLE
  2
BIGT
  9
$DIMCLRD
 70
   256
  9
$DIMCLRE
 70
   256
  9
$DIMCLRT
 70
    40
  9
$DIMTFAC
 40
1.0
  9
$DIMGAP
 40
1.0
  9
$DIMJUST
 70
     0
  9
$DIMSD1
 70
     0
  9
$DIMSD2
 70
     0
  9
$DIMTOLJ
 70
     1
  9
$DIMTZIN
 70
     8
  9
$DIMALTZ
 70
     0
  9
$DIMALTTZ
 70
     0
  9
$DIMFIT
 70
     3
  9
$DIMUPT
 70
     0
  9
$DIMUNIT
 70
     2
  9
$DIMDEC
 70
     3
  9
$DIMTDEC
 70
     3
  9
$DIMALTU
 70
     2
  9
$DIMALTTD
 70
     2
  9
$DIMTXSTY
  7
STANDARD
  9
$DIMAUNIT
 70
     0
  9
$LUNITS
 70
     2
  9
$LUPREC
 70
     3
  9
$SKETCHINC
 40
1.0
  9
$FILLETRAD
 40
0.5
  9
$AUNITS
 70
     0
  9
$AUPREC
 70
     3
  9
$MENU
  1
.
  9
$ELEVATION
 40
0.0
  9
$PELEVATION
 40
0.0
  9
$THICKNESS
 40
0.0
  9
$LIMCHECK
 70
     0
  9
$BLIPMODE
 70
     0
  9
$CHAMFERA
 40
10.0
  9
$CHAMFERB
 40
10.0
  9
$CHAMFERC
 40
0.0
  9
$CHAMFERD
 40
0.0
  9
$SKPOLY
 70
     0
  9
$TDCREATE
 40
2455022.593156458
  9
$TDUPDATE
 40
2455288.384455104
  9
$TDINDWG
 40
0.0165176505
  9
$TDUSRTIMER
 40
0.0165176505
  9
$USRTIMER
 70
     1
  9
$ANGBASE
 50
0.0
  9
$ANGDIR
 70
     0
  9
$PDMODE
 70
     1
  9
$PDSIZE
 40
-5.0
  9
$PLINEWID
 40
0.0
  9
$COORDS
 70
     2
  9
$SPLFRAME
 70
     0
  9
$SPLINETYPE
 70
     6
  9
$SPLINESEGS
 70
     8
  9
$ATTDIA
 70
     0
  9
$ATTREQ
 70
     1
  9
$HANDLING
 70
-16383
  9
$HANDSEED
  5
F08
  9
$SURFTAB1
 70
     6
  9
$SURFTAB2
 70
     6
  9
$SURFTYPE
 70
     6
  9
$SURFU
 70
     6
  9
$SURFV
 70
     6
  9
$UCSNAME
  2

  9
$UCSORG
 10
0.0
 20
0.0
 30
0.0
  9
$UCSXDIR
 10
1.0
 20
0.0
 30
0.0
  9
$UCSYDIR
 10
0.0
 20
1.0
 30
0.0
  9
$PUCSNAME
  2

  9
$PUCSORG
 10
0.0
 20
0.0
 30
0.0
  9
$PUCSXDIR
 10
1.0
 20
0.0
 30
0.0
  9
$PUCSYDIR
 10
0.0
 20
1.0
 30
0.0
  9
$USERI1
 70
     1
  9
$USERI2
 70
     0
  9
$USERI3
 70
     0
  9
$USERI4
 70
     0
  9
$USERI5
 70
     0
  9
$USERR1
 40
0.0
  9
$USERR2
 40
0.0
  9
$USERR3
 40
0.0
  9
$USERR4
 40
0.0
  9
$USERR5
 40
0.0
  9
$WORLDVIEW
 70
     1
  9
$SHADEDGE
 70
     3
  9
$SHADEDIF
 70
    70
  9
$TILEMODE
 70
     1
  9
$MAXACTVP
 70
    16
  9
$PINSBASE
 10
0.0
 20
0.0
 30
0.0
  9
$PLIMCHECK
 70
     0
  9
$PEXTMIN
 10
1.00000000E+20
 20
1.00000000E+20
 30
1.00000000E+20
  9
$PEXTMAX
 10
-1.00000000E+20
 20
-1.00000000E+20
 30
-1.00000000E+20
  9
$PLIMMIN
 10
0.0
 20
0.0
  9
$PLIMMAX
 10
420.0
 20
297.0
  9
$UNITMODE
 70
     0
  9
$VISRETAIN
 70
     0
  9
$PLINEGEN
 70
     0
  9
$PSLTSCALE
 70
     1
  9
$TREEDEPTH
 70
  3020
  9
$PICKSTYLE
 70
     0
  9
$CMLSTYLE
  2
STANDARD
  9
$CMLJUST
 70
     0
  9
$CMLSCALE
 40
1.0
  9
$PROXYGRAPHICS
 70
     1
  9
$MEASUREMENT
 70
     1
  0
ENDSEC
  0
SECTION
  2
CLASSES
  0
CLASS
  1
XRECORD
  2
AcDbXrecord
  3
AutoCAD 2000
 90
        0
280
     0
281
     0
  0
CLASS
  1
ACDBDICTIONARYWDFLT
  2
AcDbDictionaryWithDefault
  3
AutoCAD 2000
 90
        0
280
     0
281
     0
  0
CLASS
  1
ACDBPLACEHOLDER
  2
AcDbPlaceHolder
  3
AutoCAD 2000
 90
        0
280
     0
281
     0
  0
CLASS
  1
LAYOUT
  2
AcDbLayout
  3
AutoCAD 2000
 90
        0
280
     0
281
     0
  0
CLASS
  1
PLOTSETTINGS
  2
AcDbPlotSettings
  3
AutoCAD 2000
 90
        0
280
     0
281
     0
  0
CLASS
  1
LONG_TRANSACTION
  2
AcDbLongTransaction
  3
AutoCAD 2000
 90
        0
280
     0
281
     0
  0
CLASS
  1
LWPOLYLINE
  2
AcDbPolyline
  3
AutoCAD 2000
 90
        0
280
     0
281
     1
  0
CLASS
  1
HATCH
  2
AcDbHatch
  3
AutoCAD 2000
 90
        0
280
     0
281
     1
  0
CLASS
  1
XRECORD
  2
AcDbXrecord
  3
AutoCAD 2000
 90
        0
280
     0
281
     0
  0
CLASS
  1
LONG_TRANSACTION
  2
AcDbLongTransaction
  3
AutoCAD 2000
 90
        0
280
     0
281
     0
  0
CLASS
  1
LWPOLYLINE
  2
AcDbPolyline
  3
AutoCAD 2000
 90
        0
280
     0
281
     1
  0
CLASS
  1
HATCH
  2
AcDbHatch
  3
AutoCAD 2000
 90
        0
280
     0
281
     1
  0
CLASS
  1
XRECORD
  2
AcDbXrecord
  3
AutoCAD 2000
 90
        0
280
     0
281
     0
  0
CLASS
  1
LONG_TRANSACTION
  2
AcDbLongTransaction
  3
AutoCAD 2000
 90
        0
280
     0
281
     0
  0
CLASS
  1
LWPOLYLINE
  2
AcDbPolyline
  3
AutoCAD 2000
 90
        0
280
     0
281
     1
  0
CLASS
  1
HATCH
  2
AcDbHatch
  3
AutoCAD 2000
 90
        0
280
     0
281
     1
  0
CLASS
  1
XRECORD
  2
AcDbXrecord
  3
AutoCAD 2000
 90
        0
280
     0
281
     0
  0
ENDSEC
  0
SECTION
  2
TABLES
  0
TABLE
  2
VPORT
  5
8
330
0
100
AcDbSymbolTable
 70
     5
  0
VPORT
  5
EE3
330
8
100
AcDbSymbolTableRecord
100
AcDbViewportTableRecord
  2
*ACTIVE
 70
     0
 10
0.0
 20
0.0
 11
1.0
 21
1.0
 12
19.41111942
 22
15.90083882
 13
0.0
 23
0.0
 14
7.0
 24
7.0
 15
7.0
 25
7.0
 16
0.0
 26
0.0
 36
1.0
 17
0.0
 27
0.0
 37
0.0
 40
133.2465248
 41
1.43184713
 42
50.0
 43
0.0
 44
0.0
 50
0.0
 51
0.0
 71
     0
 72
  2000
 73
     1
 74
     0
 75
     0
 76
     0
 77
     0
 78
     0
  0
ENDTAB
  0
TABLE
  2
LTYPE
  5
5
330
0
100
AcDbSymbolTable
 70
     3
  0
LTYPE
  5
14
330
5
100
AcDbSymbolTableRecord
100
AcDbLinetypeTableRecord
  2
BYBLOCK
 70
     0
  3

 72
    65
 73
     0
 40
0.0
  0
LTYPE
  5
15
330
5
100
AcDbSymbolTableRecord
100
AcDbLinetypeTableRecord
  2
BYLAYER
 70
     0
  3

 72
    65
 73
     0
 40
0.0
  0
LTYPE
  5
16
330
5
100
AcDbSymbolTableRecord
100
AcDbLinetypeTableRecord
  2
CONTINUOUS
 70
     0
  3
Solid line
 72
    65
 73
     0
 40
0.0
  0
LTYPE
  5
258
330
5
100
AcDbSymbolTableRecord
100
AcDbLinetypeTableRecord
  2
CENTER2
 70
     0
  3
___ _ ___ _ ___ _ ___ _ ___ _ ___ _ ___ _ ___ _
 72
    65
 73
     4
 40
1.125
 49
0.75
 74
     0
 49
-0.125
 74
     0
 49
0.125
 74
     0
 49
-0.125
 74
     0
  0
LTYPE
  5
25C
330
5
100
AcDbSymbolTableRecord
100
AcDbLinetypeTableRecord
  2
HIDDEN2
 70
     0
  3
_ _ _ _ _ _ _ _ _ _ _ _ _ _ _ _ _ _ _ _ _ _ _ _
 72
    65
 73
     2
 40
0.1875
 49
0.125
 74
     0
 49
-0.0625
 74
     0
  0
ENDTAB
  0
TABLE
  2
LAYER
  5
2
330
0
100
AcDbSymbolTable
 70
     9
  0
LAYER
  5
F
330
2
100
AcDbSymbolTableRecord
100
AcDbLayerTableRecord
  2
0
 70
     0
 62
     7
  6
CONTINUOUS
  0
LAYER
  5
1AA
330
2
100
AcDbSymbolTableRecord
100
AcDbLayerTableRecord
  2
240
 70
     0
 62
     4
  6
CONTINUOUS
  0
LAYER
  5
1AB
330
2
100
AcDbSymbolTableRecord
100
AcDbLayerTableRecord
  2
241
 70
     0
 62
   211
  6
CONTINUOUS
  0
LAYER
  5
1AF
330
2
100
AcDbSymbolTableRecord
100
AcDbLayerTableRecord
  2
245
 70
     0
 62
     2
  6
CENTER2
  0
LAYER
  5
21E
330
2
100
AcDbSymbolTableRecord
100
AcDbLayerTableRecord
  2
250
 70
     0
 62
     3
  6
CONTINUOUS
  0
LAYER
  5
21F
330
2
100
AcDbSymbolTableRecord
100
AcDbLayerTableRecord
  2
251
 70
     0
 62
    40
  6
CONTINUOUS
  0
LAYER
  5
5C4
330
2
100
AcDbSymbolTableRecord
100
AcDbLayerTableRecord
  2
DEFPOINTS
 70
     0
 62
     7
  6
CONTINUOUS
  0
LAYER
  5
E04
330
2
100
AcDbSymbolTableRecord
100
AcDbLayerTableRecord
  2
242
 70
     0
 62
     3
  6
CONTINUOUS
  0
ENDTAB
  0
TABLE
  2
STYLE
  5
3
330
0
100
AcDbSymbolTable
 70
     2
  0
STYLE
  5
10
330
3
100
AcDbSymbolTableRecord
100
AcDbTextStyleTableRecord
  2
STANDARD
 70
     0
 40
0.0
 41
1.0
 50
0.0
 71
     0
 42
3.0
  3
romans.shx
  4
BIGFONT.SHX
  0
STYLE
  5
339
330
3
100
AcDbSymbolTableRecord
100
AcDbTextStyleTableRecord
  2
YOKO
 70
     0
 40
0.0
 41
1.0
 50
0.0
 71
     0
 42
3.0
  3
romans.shx
  4
extfont.shx
  0
ENDTAB
  0
TABLE
  2
VIEW
  5
6
330
0
100
AcDbSymbolTable
 70
     0
  0
ENDTAB
  0
TABLE
  2
UCS
  5
7
330
0
100
AcDbSymbolTable
 70
     0
  0
ENDTAB
  0
TABLE
  2
APPID
  5
9
330
0
100
AcDbSymbolTable
 70
    10
  0
APPID
  5
11
330
9
100
AcDbSymbolTableRecord
100
AcDbRegAppTableRecord
  2
ACAD
 70
     0
  0
APPID
  5
1B1
330
9
100
AcDbSymbolTableRecord
100
AcDbRegAppTableRecord
  2
GLOBAL
 70
     0
  0
APPID
  5
2A4
330
9
100
AcDbSymbolTableRecord
100
AcDbRegAppTableRecord
  2
DETAIL
 70
     0
  0
APPID
  5
5FD
330
9
100
AcDbSymbolTableRecord
100
AcDbRegAppTableRecord
  2
GRPNAME
 70
     0
  0
APPID
  5
5FE
330
9
100
AcDbSymbolTableRecord
100
AcDbRegAppTableRecord
  2
GPARA
 70
     0
  0
APPID
  5
6C4
330
9
100
AcDbSymbolTableRecord
100
AcDbRegAppTableRecord
  2
DCO15
 70
     0
  0
APPID
  5
6C5
330
9
100
AcDbSymbolTableRecord
100
AcDbRegAppTableRecord
  2
ITEMNAME
 70
     0
  0
APPID
  5
6C6
330
9
100
AcDbSymbolTableRecord
100
AcDbRegAppTableRecord
  2
GRADE_0
 70
     0
  0
APPID
  5
AFF
330
9
100
AcDbSymbolTableRecord
100
AcDbRegAppTableRecord
  2
CONTENTBLOCKICON
 70
     0
  0
APPID
  5
C38
330
9
100
AcDbSymbolTableRecord
100
AcDbRegAppTableRecord
  2
ACAD_PSEXT
 70
     0
  0
ENDTAB
  0
TABLE
  2
DIMSTYLE
  5
A
330
0
100
AcDbSymbolTable
 70
     4
  0
DIMSTYLE
105
725
102
{ACAD_REACTORS
330
86D
330
8A6
330
8AA
330
8CF
102
}
330
A
100
AcDbSymbolTableRecord
100
AcDbDimStyleTableRecord
  2
BIGT
 70
     0
  3

  4

  5

  6
OPEN
  7
OPEN
 40
1.0
 41
2.23
 42
0.5
 43
2.5
 44
1.0
 45
0.0
 46
0.0
 47
0.0
 48
0.0
140
2.8
141
0.0
142
0.0
143
25.4
144
1.0
145
0.0
146
1.0
147
1.0
 71
     0
 72
     0
 73
     0
 74
     0
 75
     0
 76
     0
 77
     3
 78
     8
170
     0
171
     2
172
     1
173
     1
174
     1
175
     0
176
   256
177
   256
178
    40
270
     2
271
     3
272
     3
273
     2
274
     2
340
10
275
     0
280
     0
281
     0
282
     0
283
     1
284
     8
285
     0
286
     0
287
     3
288
     0
  0
ENDTAB
  0
TABLE
  2
BLOCK_RECORD
  5
1
330
0
100
AcDbSymbolTable
 70
    12
  0
BLOCK_RECORD
  5
1A
102
{ACAD_XDICTIONARY
360
AF5
102
}
330
1
100
AcDbSymbolTableRecord
100
AcDbBlockTableRecord
  2
*MODEL_SPACE
  0
BLOCK_RECORD
  5
17
102
{ACAD_XDICTIONARY
360
AF3
102
}
330
1
100
AcDbSymbolTableRecord
100
AcDbBlockTableRecord
  2
*PAPER_SPACE
  0
BLOCK_RECORD
  5
594
330
1
100
AcDbSymbolTableRecord
100
AcDbBlockTableRecord
  2
_OPEN
  0
BLOCK_RECORD
  5
6E3
330
1
100
AcDbSymbolTableRecord
100
AcDbBlockTableRecord
  2
矢印なし
  0
BLOCK_RECORD
  5
8D7
330
1
100
AcDbSymbolTableRecord
100
AcDbBlockTableRecord
  2
*D2
  0
BLOCK_RECORD
  5
8E3
330
1
100
AcDbSymbolTableRecord
100
AcDbBlockTableRecord
  2
*D3
  0
BLOCK_RECORD
  5
8EF
330
1
100
AcDbSymbolTableRecord
100
AcDbBlockTableRecord
  2
*D4
  0
BLOCK_RECORD
  5
8FB
330
1
100
AcDbSymbolTableRecord
100
AcDbBlockTableRecord
  2
*D5
  0
BLOCK_RECORD
  5
A2B
330
1
100
AcDbSymbolTableRecord
100
AcDbBlockTableRecord
  2
1
1001
CONTENTBLOCKICON
1071
        0
1004
2800000020000000200000000100080000000000000400000000000000000000000000000000000000000000000080000080000000808000800000008000800080800000C0C0C000C0DCC000F0CAA6000020400000206000002080000020A0000020C0000020E00000400000004020000040400000406000004080000040A0
1004
000040C0000040E00000600000006020000060400000606000006080000060A0000060C0000060E00000800000008020000080400000806000008080000080A0000080C0000080E00000A0000000A0200000A0400000A0600000A0800000A0A00000A0C00000A0E00000C0000000C0200000C0400000C0600000C0800000C0
1004
A00000C0C00000C0E00000E0000000E0200000E0400000E0600000E0800000E0A00000E0C00000E0E00040000000400020004000400040006000400080004000A0004000C0004000E00040200000402020004020400040206000402080004020A0004020C0004020E000404000004040200040404000404060004040800040
1004
40A0004040C0004040E00040600000406020004060400040606000406080004060A0004060C0004060E00040800000408020004080400040806000408080004080A0004080C0004080E00040A0000040A0200040A0400040A0600040A0800040A0A00040A0C00040A0E00040C0000040C0200040C0400040C0600040C08000
1004
40C0A00040C0C00040C0E00040E0000040E0200040E0400040E0600040E0800040E0A00040E0C00040E0E00080000000800020008000400080006000800080008000A0008000C0008000E00080200000802020008020400080206000802080008020A0008020C0008020E00080400000804020008040400080406000804080
1004
008040A0008040C0008040E00080600000806020008060400080606000806080008060A0008060C0008060E00080800000808020008080400080806000808080008080A0008080C0008080E00080A0000080A0200080A0400080A0600080A0800080A0A00080A0C00080A0E00080C0000080C0200080C0400080C0600080C0
1004
800080C0A00080C0C00080C0E00080E0000080E0200080E0400080E0600080E0800080E0A00080E0C00080E0E000C0000000C0002000C0004000C0006000C0008000C000A000C000C000C000E000C0200000C0202000C0204000C0206000C0208000C020A000C020C000C020E000C0400000C0402000C0404000C0406000C0
1004
408000C040A000C040C000C040E000C0600000C0602000C0604000C0606000C0608000C060A000C060C000C060E000C0800000C0802000C0804000C0806000C0808000C080A000C080C000C080E000C0A00000C0A02000C0A04000C0A06000C0A08000C0A0A000C0A0C000C0A0E000C0C00000C0C02000C0C04000C0C06000
1004
C0C08000C0C0A000F0FBFF00A4A0A000808080000000FF0000FF000000FFFF00FF000000FF00FF00FFFF0000FFFFFF0000000000000000000000000000000000000000000000000000000000000000000000000000000000000000000000000000000000000000000000000000000000000000000000000000000000000000
1004
0000000000000000000000000000000000000000000000000000000000000000000000000000000000000000000000000000000000000000000000000000FEFEFEFEFBFEFE00000000000000000000000000000000000000000000000000FE0000E7FEE7FE00000000000000000000000000000000000000000000000000FE
1004
0000E7E7E7FE0000000000000000000000000000000000000000FEFEFEFEFEFEE7E7E7E7E7E700000000000000000000000000FEFEFEFEFEFEFE00000000E7E700E7E7E7E7E700000000000000000000000000FE00000000000000000000E7E70000E7E7E7FE00000000000000000000000000FE00000000000000000000E7
1004
E70000E7E7E7E7FEFEFEFE000000000000000000FE00000000000000000000E7E70000E7E7E7E7000000FE000000000000000000FE00000000000000000000E7E70000E7E7E7E7000000FEFEFEFEFE0000000000FEFEFEE700000000000000E7E70000E7E7E7E7000000E7E700E700FEFE000000000000FEE7000000FBE700
1004
E7E7E7E700FB00E7000000E7E700E70000FE000000000000FEE70000E7FBE700E7E7E70000FB00E7000000E7E700E70000FE000000FBFBFBFEE7FBFBE7FBE7E7E7E7E7FBFBFBFBE7FBE7E7E7E7E7E7E7E7FEFB0000000000FEE7000000FBE700E7E7E7E700FB00E7000000E7E700E70000FE000000FEFEFEE7000000000000
1004
00E7E70000E7E7E7E7000000E7E700E700FEFE000000FE00000000000000000000E7E70000E7E7E7E7E7E7E7FEE7FEE7FE0000000000FE00000000000000000000E7E70000E7E7E7E7FAFAFAFE000000000000000000FE00000000000000000000E7E70000E7E7E7FEFEFEFEFE000000000000000000FE0000000000000000
1004
0000E7E70000E7E7E7FE00000000000000000000000000FEFEFEFEFEFE0000000000E7E70000E7E7E7FE00000000000000000000000000000000000000FEFEFEFEFEFEFE0000E7E7E7FE00000000000000000000000000000000000000000000000000FE0000E7E7E7FE000000000000000000000000000000000000000000
1004
00000000FE0000E7FEE7FE00000000000000000000000000000000000000000000000000FEFEFEFEFBFEFE000000000000000000000000000000000000000000000000000000000000000000000000000000000000000000000000000000000000000000000000000000000000000000000000000000000000000000000000
1004
0000000000000000000000000000000000000000000000000000000000000000000000000000000000000000000000000000000000000000
  0
BLOCK_RECORD
  5
EAE
330
1
100
AcDbSymbolTableRecord
100
AcDbBlockTableRecord
  2
HDC-CLAMPSCREW
  0
ENDTAB
  0
ENDSEC
  0
SECTION
  2
BLOCKS
  0
BLOCK
  5
1B
330
1A
100
AcDbEntity
  8
0
100
AcDbBlockBegin
  2
*MODEL_SPACE
 70
     0
 10
0.0
 20
0.0
 30
0.0
  3
*MODEL_SPACE
  1

  0
ENDBLK
  5
1C
330
1A
100
AcDbEntity
  8
0
100
AcDbBlockEnd
  0
BLOCK
  5
18
330
17
100
AcDbEntity
 67
     1
  8
0
100
AcDbBlockBegin
  2
*PAPER_SPACE
 70
     0
 10
0.0
 20
0.0
 30
0.0
  3
*PAPER_SPACE
  1

  0
ENDBLK
  5
19
330
17
100
AcDbEntity
 67
     1
  8
0
100
AcDbBlockEnd
  0
BLOCK
  5
598
330
594
100
AcDbEntity
  8
0
100
AcDbBlockBegin
  2
_OPEN
 70
     0
 10
0.0
 20
0.0
 30
0.0
  3
_OPEN
  1

  0
LINE
  5
595
330
594
100
AcDbEntity
  8
0
  6
BYBLOCK
 62
     0
100
AcDbLine
 10
-1.0
 20
0.16666667
 30
0.0
 11
0.0
 21
0.0
 31
0.0
  0
LINE
  5
596
330
594
100
AcDbEntity
  8
0
  6
BYBLOCK
 62
     0
100
AcDbLine
 10
-1.0
 20
-0.16666667
 30
0.0
 11
0.0
 21
0.0
 31
0.0
  0
LINE
  5
597
330
594
100
AcDbEntity
  8
0
  6
BYBLOCK
 62
     0
100
AcDbLine
 10
0.0
 20
0.0
 30
0.0
 11
-1.0
 21
0.0
 31
0.0
  0
ENDBLK
  5
599
330
594
100
AcDbEntity
  8
0
100
AcDbBlockEnd
  0
BLOCK
  5
6E4
330
6E3
100
AcDbEntity
  8
0
100
AcDbBlockBegin
  2
矢印なし
 70
     0
 10
0.0
 20
0.0
 30
0.0
  3
矢印なし
  1

  0
ENDBLK
  5
6E5
330
6E3
100
AcDbEntity
  8
0
100
AcDbBlockEnd
  0
BLOCK
  5
8E1
330
8D7
100
AcDbEntity
  8
0
100
AcDbBlockBegin
  2
*D2
 70
     1
 10
0.0
 20
0.0
 30
0.0
  3
*D2
  1

  0
LINE
  5
C57
330
8D7
100
AcDbEntity
  8
250
  6
CONTINUOUS
100
AcDbLine
 10
0.0
 20
49.5
 30
0.0
 11
0.0
 21
64.0
 31
0.0
  0
LINE
  5
C58
330
8D7
100
AcDbEntity
  8
250
  6
CONTINUOUS
100
AcDbLine
 10
75.0
 20
6.8
 30
0.0
 11
75.0
 21
64.0
 31
0.0
  0
LINE
  5
C59
330
8D7
100
AcDbEntity
  8
250
  6
CONTINUOUS
100
AcDbLine
 10
2.0
 20
63.0
 30
0.0
 11
73.0
 21
63.0
 31
0.0
  0
INSERT
  5
C5A
330
8D7
100
AcDbEntity
  8
250
  6
CONTINUOUS
100
AcDbBlockReference
  2
_OPEN
 10
0.0
 20
63.0
 30
0.0
 41
2.0
 42
2.0
 43
2.0
 50
180.0
  0
INSERT
  5
C5B
330
8D7
100
AcDbEntity
  8
250
  6
CONTINUOUS
100
AcDbBlockReference
  2
_OPEN
 10
75.0
 20
63.0
 30
0.0
 41
2.0
 42
2.0
 43
2.0
  0
MTEXT
  5
C5C
330
8D7
100
AcDbEntity
  8
250
  6
CONTINUOUS
 62
    40
100
AcDbMText
 10
38.27466383
 20
65.4
 30
0.0
 40
2.8
 41
0.0
 71
     5
 72
     1
  1
\A1;75
1001
ACAD
1000
MTEXTBEGIN
1070
    73
1070
     1
1070
    44
1040
1.0
1070
    74
1070
     0
1000
MTEXTEND
1000
MTEXTBEGIN
1070
    73
1070
     1
1070
    44
1040
1.0
1070
    74
1070
     0
1000
MTEXTEND
  0
POINT
  5
C5D
330
8D7
100
AcDbEntity
  8
DEFPOINTS
  6
CONTINUOUS
 62
     0
100
AcDbPoint
 10
0.0
 20
49.0
 30
0.0
  0
POINT
  5
C5E
330
8D7
100
AcDbEntity
  8
DEFPOINTS
  6
CONTINUOUS
 62
     0
100
AcDbPoint
 10
75.0
 20
6.3
 30
0.0
  0
POINT
  5
C5F
330
8D7
100
AcDbEntity
  8
DEFPOINTS
  6
CONTINUOUS
 62
     0
100
AcDbPoint
 10
75.0
 20
63.0
 30
0.0
  0
ENDBLK
  5
8E2
330
8D7
100
AcDbEntity
  8
0
100
AcDbBlockEnd
  0
BLOCK
  5
8ED
330
8E3
100
AcDbEntity
  8
0
100
AcDbBlockBegin
  2
*D3
 70
     1
 10
0.0
 20
0.0
 30
0.0
  3
*D3
  1

  0
LINE
  5
C72
330
8E3
100
AcDbEntity
  8
250
  6
CONTINUOUS
100
AcDbLine
 10
29.0
 20
4.5
 30
0.0
 11
29.0
 21
57.0
 31
0.0
  0
LINE
  5
C73
330
8E3
100
AcDbEntity
  8
250
  6
CONTINUOUS
100
AcDbLine
 10
75.0
 20
6.8
 30
0.0
 11
75.0
 21
57.0
 31
0.0
  0
LINE
  5
C74
330
8E3
100
AcDbEntity
  8
250
  6
CONTINUOUS
100
AcDbLine
 10
31.23
 20
56.0
 30
0.0
 11
72.77
 21
56.0
 31
0.0
  0
INSERT
  5
C75
330
8E3
100
AcDbEntity
  8
250
  6
CONTINUOUS
100
AcDbBlockReference
  2
_OPEN
 10
29.0
 20
56.0
 30
0.0
 41
2.23
 42
2.23
 43
2.23
 50
180.0
  0
INSERT
  5
C76
330
8E3
100
AcDbEntity
  8
250
  6
CONTINUOUS
100
AcDbBlockReference
  2
_OPEN
 10
75.0
 20
56.0
 30
0.0
 41
2.23
 42
2.23
 43
2.23
  0
MTEXT
  5
C77
330
8E3
100
AcDbEntity
  8
250
  6
CONTINUOUS
 62
    40
100
AcDbMText
 10
52.0
 20
58.4
 30
0.0
 40
2.8
 41
0.0
 71
     5
 72
     1
  1
\A1;（max.46）
1001
ACAD
1000
MTEXTBEGIN
1070
    73
1070
     1
1070
    44
1040
1.0
1070
    74
1070
     0
1000
MTEXTEND
1000
MTEXTBEGIN
1070
    73
1070
     1
1070
    44
1040
1.0
1070
    74
1070
     0
1000
MTEXTEND
  0
POINT
  5
C78
330
8E3
100
AcDbEntity
  8
DEFPOINTS
  6
CONTINUOUS
 62
     0
100
AcDbPoint
 10
29.0
 20
4.0
 30
0.0
  0
POINT
  5
C79
330
8E3
100
AcDbEntity
  8
DEFPOINTS
  6
CONTINUOUS
 62
     0
100
AcDbPoint
 10
75.0
 20
6.3
 30
0.0
  0
POINT
  5
C7A
330
8E3
100
AcDbEntity
  8
DEFPOINTS
  6
CONTINUOUS
 62
     0
100
AcDbPoint
 10
75.0
 20
56.0
 30
0.0
  0
ENDBLK
  5
8EE
330
8E3
100
AcDbEntity
  8
0
100
AcDbBlockEnd
  0
BLOCK
  5
8F9
330
8EF
100
AcDbEntity
  8
0
100
AcDbBlockBegin
  2
*D4
 70
     1
 10
0.0
 20
0.0
 30
0.0
  3
*D4
  1

  0
LINE
  5
A1A
330
8EF
100
AcDbEntity
  8
250
  6
CONTINUOUS
100
AcDbLine
 10
59.13755502
 20
-14.0
 30
0.0
 11
93.0
 21
-14.0
 31
0.0
  0
LINE
  5
A1B
330
8EF
100
AcDbEntity
  8
250
  6
CONTINUOUS
100
AcDbLine
 10
59.13755502
 20
14.0
 30
0.0
 11
93.0
 21
14.0
 31
0.0
  0
LINE
  5
A1C
330
8EF
100
AcDbEntity
  8
250
  6
CONTINUOUS
100
AcDbLine
 10
92.0
 20
-11.77
 30
0.0
 11
92.0
 21
11.77
 31
0.0
  0
INSERT
  5
A1D
330
8EF
100
AcDbEntity
  8
250
  6
CONTINUOUS
100
AcDbBlockReference
  2
_OPEN
 10
92.0
 20
-14.0
 30
0.0
 41
2.23
 42
2.23
 43
2.23
 50
270.0
  0
INSERT
  5
A1E
330
8EF
100
AcDbEntity
  8
250
  6
CONTINUOUS
100
AcDbBlockReference
  2
_OPEN
 10
92.0
 20
14.0
 30
0.0
 41
2.23
 42
2.23
 43
2.23
 50
90.0
  0
MTEXT
  5
A1F
330
8EF
100
AcDbEntity
  8
250
  6
CONTINUOUS
 62
    40
100
AcDbMText
 10
89.6
 20
0.0
 30
0.0
 40
2.8
 41
0.0
 71
     5
 72
     1
  1
\A1;{\H2.8;\U+2205}28
 11
0.0
 21
1.0
 31
0.0
1001
ACAD
1000
MTEXTBEGIN
1070
    73
1070
     1
1070
    44
1040
1.0
1070
    74
1070
     0
1000
MTEXTEND
1000
MTEXTBEGIN
1070
    73
1070
     1
1070
    44
1040
1.0
1070
    74
1070
     0
1000
MTEXTEND
1000
MTEXTBEGIN
1070
    73
1070
     1
1070
    44
1040
1.0
1070
    74
1070
     0
1000
MTEXTEND
  0
POINT
  5
A20
330
8EF
100
AcDbEntity
  8
DEFPOINTS
  6
CONTINUOUS
 62
     0
100
AcDbPoint
 10
58.63755502
 20
-14.0
 30
0.0
  0
POINT
  5
A21
330
8EF
100
AcDbEntity
  8
DEFPOINTS
  6
CONTINUOUS
 62
     0
100
AcDbPoint
 10
58.63755502
 20
14.0
 30
0.0
  0
POINT
  5
A22
330
8EF
100
AcDbEntity
  8
DEFPOINTS
  6
CONTINUOUS
 62
     0
100
AcDbPoint
 10
92.0
 20
14.0
 30
0.0
  0
ENDBLK
  5
8FA
330
8EF
100
AcDbEntity
  8
0
100
AcDbBlockEnd
  0
BLOCK
  5
904
330
8FB
100
AcDbEntity
  8
0
100
AcDbBlockBegin
  2
*D5
 70
     1
 10
0.0
 20
0.0
 30
0.0
  3
*D5
  1

  0
LINE
  5
C4D
330
8FB
100
AcDbEntity
  8
250
  6
CONTINUOUS
100
AcDbLine
 10
75.5
 20
4.0
 30
0.0
 11
86.0
 21
4.0
 31
0.0
  0
LINE
  5
C4E
330
8FB
100
AcDbEntity
  8
250
  6
CONTINUOUS
100
AcDbLine
 10
85.0
 20
-1.77
 30
0.0
 11
85.0
 21
1.77
 31
0.0
  0
INSERT
  5
C4F
330
8FB
100
AcDbEntity
  8
250
  6
CONTINUOUS
100
AcDbBlockReference
  2
矢印なし
 10
85.0
 20
-4.0
 30
0.0
 41
2.23
 42
2.23
 43
2.23
 50
270.0
  0
INSERT
  5
C50
330
8FB
100
AcDbEntity
  8
250
  6
CONTINUOUS
100
AcDbBlockReference
  2
_OPEN
 10
85.0
 20
4.0
 30
0.0
 41
2.23
 42
2.23
 43
2.23
 50
90.0
  0
MTEXT
  5
C51
330
8FB
100
AcDbEntity
  8
250
  6
CONTINUOUS
 62
    40
100
AcDbMText
 10
82.6
 20
0.0
 30
0.0
 40
2.8
 41
0.0
 71
     5
 72
     1
  1
\A1;{\H2.8;\U+2205}8
 11
0.0
 21
1.0
 31
0.0
1001
ACAD
1000
MTEXTBEGIN
1070
    73
1070
     1
1070
    44
1040
1.0
1070
    74
1070
     0
1000
MTEXTEND
1000
MTEXTBEGIN
1070
    73
1070
     1
1070
    44
1040
1.0
1070
    74
1070
     0
1000
MTEXTEND
  0
POINT
  5
C52
330
8FB
100
AcDbEntity
  8
DEFPOINTS
  6
CONTINUOUS
 62
     0
100
AcDbPoint
 10
75.0
 20
-4.0
 30
0.0
  0
POINT
  5
C53
330
8FB
100
AcDbEntity
  8
DEFPOINTS
  6
CONTINUOUS
 62
     0
100
AcDbPoint
 10
75.0
 20
4.0
 30
0.0
  0
POINT
  5
C54
330
8FB
100
AcDbEntity
  8
DEFPOINTS
  6
CONTINUOUS
 62
     0
100
AcDbPoint
 10
85.0
 20
4.0
 30
0.0
  0
ENDBLK
  5
905
330
8FB
100
AcDbEntity
  8
0
100
AcDbBlockEnd
  0
BLOCK
  5
A2C
330
A2B
100
AcDbEntity
  8
0
100
AcDbBlockBegin
  2
1
 70
     0
 10
0.0
 20
0.0
 30
0.0
  3
1
  1

  0
LINE
  5
E15
330
A2B
100
AcDbEntity
  8
241
100
AcDbLine
 10
29.4
 20
13.81933675
 30
0.0
 11
45.00811378
 21
13.81933675
 31
0.0
  0
LINE
  5
E16
330
A2B
100
AcDbEntity
  8
242
100
AcDbLine
 10
29.4
 20
13.81933675
 30
0.0
 11
44.61402982
 21
24.72337162
 31
0.0
  0
LINE
  5
E17
330
A2B
100
AcDbEntity
  8
242
100
AcDbLine
 10
45.0
 20
13.81933675
 30
0.0
 11
29.4
 21
25.0
 31
0.0
  0
LINE
  5
E18
330
A2B
100
AcDbEntity
  8
245
  6
CENTER2
100
AcDbLine
 10
-50.0
 20
0.0
 30
0.0
 11
76.0
 21
0.0
 31
0.0
  0
LINE
  5
E19
330
A2B
100
AcDbEntity
  8
240
100
AcDbLine
 10
29.0
 20
-25.0
 30
0.0
 11
43.59914547
 21
-25.0
 31
0.0
  0
LINE
  5
E1A
330
A2B
100
AcDbEntity
  8
240
100
AcDbLine
 10
29.0
 20
25.0
 30
0.0
 11
43.59914547
 21
25.0
 31
0.0
  0
LINE
  5
E1B
330
A2B
100
AcDbEntity
  8
241
100
AcDbLine
 10
29.4
 20
13.81933675
 30
0.0
 11
29.4
 21
25.0
 31
0.0
  0
LINE
  5
E1C
330
A2B
100
AcDbEntity
  8
240
  6
CONTINUOUS
100
AcDbLine
 10
-50.0
 20
11.51
 30
0.0
 11
-50.0
 21
33.59750156
 31
0.0
  0
LINE
  5
E1D
330
A2B
100
AcDbEntity
  8
245
  6
CENTER2
100
AcDbLine
 10
20.0
 20
-50.0
 30
0.0
 11
20.0
 21
50.0
 31
0.0
  0
LINE
  5
E1E
330
A2B
100
AcDbEntity
  8
241
  6
CONTINUOUS
100
AcDbLine
 10
-2.0
 20
37.9
 30
0.0
 11
-2.0
 21
0.0
 31
0.0
  0
LINE
  5
E1F
330
A2B
100
AcDbEntity
  8
241
100
AcDbLine
 10
0.0
 20
37.9
 30
0.0
 11
0.0
 21
0.0
 31
0.0
  0
LINE
  5
E20
330
A2B
100
AcDbEntity
  8
241
  6
CONTINUOUS
100
AcDbLine
 10
23.24759526
 20
10.0
 30
0.0
 11
23.24759526
 21
50.0
 31
0.0
  0
LINE
  5
E21
330
A2B
100
AcDbEntity
  8
241
  6
CONTINUOUS
100
AcDbLine
 10
16.75240474
 20
10.0
 30
0.0
 11
16.75240474
 21
50.0
 31
0.0
  0
LINE
  5
E22
330
A2B
100
AcDbEntity
  8
241
  6
CONTINUOUS
100
AcDbLine
 10
18.125
 20
10.0
 30
0.0
 11
18.125
 21
46.0
 31
0.0
  0
LINE
  5
E23
330
A2B
100
AcDbEntity
  8
241
  6
CONTINUOUS
100
AcDbLine
 10
21.875
 20
10.0
 30
0.0
 11
21.875
 21
46.0
 31
0.0
  0
LINE
  5
E24
330
A2B
100
AcDbEntity
  8
241
100
AcDbLine
 10
29.0
 20
25.0
 30
0.0
 11
29.0
 21
0.0
 31
0.0
  0
LINE
  5
E25
330
A2B
100
AcDbEntity
  8
240
  6
CONTINUOUS
100
AcDbLine
 10
-2.0
 20
-37.9
 30
0.0
 11
-48.09987523
 21
-35.59500624
 31
0.0
  0
LINE
  5
E26
330
A2B
100
AcDbEntity
  8
241
  6
HIDDEN2
100
AcDbLine
 10
-42.0
 20
-10.01
 30
0.0
 11
-37.0
 21
-10.01
 31
0.0
  0
LINE
  5
E27
330
A2B
100
AcDbEntity
  8
241
  6
HIDDEN2
100
AcDbLine
 10
-42.0
 20
10.01
 30
0.0
 11
-37.0
 21
10.01
 31
0.0
  0
LINE
  5
E28
330
A2B
100
AcDbEntity
  8
240
  6
CONTINUOUS
100
AcDbLine
 10
-50.0
 20
-33.59750156
 30
0.0
 11
-50.0
 21
-11.51
 31
0.0
  0
ARC
  5
E29
330
A2B
100
AcDbEntity
  8
240
  6
CONTINUOUS
100
AcDbCircle
 10
-48.0
 20
-33.59750156
 30
0.0
 40
2.0
100
AcDbArc
 50
180.0
 51
267.13759477
  0
LINE
  5
E2A
330
A2B
100
AcDbEntity
  8
240
  6
CONTINUOUS
100
AcDbLine
 10
-40.0
 20
8.01
 30
0.0
 11
-40.0
 21
0.0
 31
0.0
  0
LINE
  5
E2B
330
A2B
100
AcDbEntity
  8
240
  6
CONTINUOUS
100
AcDbLine
 10
-48.5
 20
-10.01
 30
0.0
 11
-50.0
 21
-11.51
 31
0.0
  0
LINE
  5
E2C
330
A2B
100
AcDbEntity
  8
240
  6
CONTINUOUS
100
AcDbLine
 10
-40.0
 20
-8.01
 30
0.0
 11
-40.0
 21
0.0
 31
0.0
  0
LINE
  5
E2D
330
A2B
100
AcDbEntity
  8
240
  6
CONTINUOUS
100
AcDbLine
 10
-48.5
 20
-10.01
 30
0.0
 11
-42.0
 21
-10.01
 31
0.0
  0
ARC
  5
E2E
330
A2B
100
AcDbEntity
  8
240
  6
CONTINUOUS
100
AcDbCircle
 10
-42.0
 20
-8.01
 30
0.0
 40
2.0
100
AcDbArc
 50
270.0
 51
0.0
  0
LINE
  5
E2F
330
A2B
100
AcDbEntity
  8
240
  6
CONTINUOUS
100
AcDbLine
 10
-48.5
 20
10.01
 30
0.0
 11
-50.0
 21
11.51
 31
0.0
  0
ARC
  5
E30
330
A2B
100
AcDbEntity
  8
240
  6
CONTINUOUS
100
AcDbCircle
 10
-42.0
 20
8.01
 30
0.0
 40
2.0
100
AcDbArc
 50
0.0
 51
90.0
  0
LINE
  5
E31
330
A2B
100
AcDbEntity
  8
240
  6
CONTINUOUS
100
AcDbLine
 10
-48.5
 20
10.01
 30
0.0
 11
-42.0
 21
10.01
 31
0.0
  0
LINE
  5
E32
330
A2B
100
AcDbEntity
  8
241
  6
CONTINUOUS
100
AcDbLine
 10
16.75240474
 20
-50.0
 30
0.0
 11
16.75240474
 21
-38.82975663
 31
0.0
  0
LINE
  5
E33
330
A2B
100
AcDbEntity
  8
240
  6
CONTINUOUS
100
AcDbLine
 10
0.0
 20
-49.0
 30
0.0
 11
0.0
 21
-37.9
 31
0.0
  0
LINE
  5
E34
330
A2B
100
AcDbEntity
  8
241
  6
CONTINUOUS
100
AcDbLine
 10
18.125
 20
-33.52238058
 30
0.0
 11
18.125
 21
-46.0
 31
0.0
  0
LINE
  5
E35
330
A2B
100
AcDbEntity
  8
241
  6
CONTINUOUS
100
AcDbLine
 10
23.24759526
 20
-50.0
 30
0.0
 11
23.24759526
 21
-38.82975663
 31
0.0
  0
LINE
  5
E36
330
A2B
100
AcDbEntity
  8
241
  6
CONTINUOUS
100
AcDbLine
 10
21.875
 20
-33.52238058
 30
0.0
 11
21.875
 21
-46.0
 31
0.0
  0
LINE
  5
E37
330
A2B
100
AcDbEntity
  8
240
  6
CONTINUOUS
100
AcDbLine
 10
29.0
 20
-49.0
 30
0.0
 11
29.0
 21
-25.0
 31
0.0
  0
LINE
  5
E38
330
A2B
100
AcDbEntity
  8
240
  6
CONTINUOUS
100
AcDbLine
 10
1.0
 20
-50.0
 30
0.0
 11
16.75240474
 21
-50.0
 31
0.0
  0
ARC
  5
E39
330
A2B
100
AcDbEntity
  8
240
  6
CONTINUOUS
100
AcDbCircle
 10
1.0
 20
-49.0
 30
0.0
 40
1.0
100
AcDbArc
 50
180.0
 51
270.0
  0
LINE
  5
E3A
330
A2B
100
AcDbEntity
  8
240
  6
CONTINUOUS
100
AcDbLine
 10
23.24759526
 20
-50.0
 30
0.0
 11
28.0
 21
-50.0
 31
0.0
  0
LINE
  5
E3B
330
A2B
100
AcDbEntity
  8
240
  6
CONTINUOUS
100
AcDbLine
 10
18.125
 20
-46.0
 30
0.0
 11
18.125
 21
-47.62259526
 31
0.0
  0
LINE
  5
E3C
330
A2B
100
AcDbEntity
  8
240
  6
CONTINUOUS
100
AcDbLine
 10
21.875
 20
-46.0
 30
0.0
 11
21.875
 21
-47.62259526
 31
0.0
  0
LINE
  5
E3D
330
A2B
100
AcDbEntity
  8
240
  6
CONTINUOUS
100
AcDbLine
 10
18.125
 20
-47.62259526
 30
0.0
 11
16.75240474
 21
-50.0
 31
0.0
  0
LINE
  5
E3E
330
A2B
100
AcDbEntity
  8
240
  6
CONTINUOUS
100
AcDbLine
 10
21.875
 20
-47.62259526
 30
0.0
 11
23.24759526
 21
-50.0
 31
0.0
  0
LINE
  5
E3F
330
A2B
100
AcDbEntity
  8
240
  6
CONTINUOUS
100
AcDbLine
 10
18.125
 20
-46.0
 30
0.0
 11
21.875
 21
-46.0
 31
0.0
  0
ARC
  5
E40
330
A2B
100
AcDbEntity
  8
240
  6
CONTINUOUS
100
AcDbCircle
 10
28.0
 20
-49.0
 30
0.0
 40
1.0
100
AcDbArc
 50
270.0
 51
0.0
  0
ARC
  5
E41
330
A2B
100
AcDbEntity
  8
241
  6
CONTINUOUS
100
AcDbCircle
 10
-15.0
 20
0.0
 30
0.0
 40
6.0
100
AcDbArc
 50
0.0
 51
180.0
  0
ARC
  5
E42
330
A2B
100
AcDbEntity
  8
241
  6
CONTINUOUS
100
AcDbCircle
 10
-15.0
 20
0.0
 30
0.0
 40
6.0
100
AcDbArc
 50
180.0
 51
0.0
  0
LINE
  5
E43
330
A2B
100
AcDbEntity
  8
241
  6
HIDDEN2
100
AcDbLine
 10
-35.0
 20
8.01
 30
0.0
 11
-35.0
 21
0.0
 31
0.0
  0
LINE
  5
E44
330
A2B
100
AcDbEntity
  8
241
  6
HIDDEN2
100
AcDbLine
 10
-35.0
 20
-8.01
 30
0.0
 11
-35.0
 21
0.0
 31
0.0
  0
ARC
  5
E45
330
A2B
100
AcDbEntity
  8
241
  6
HIDDEN2
100
AcDbCircle
 10
-37.0
 20
-8.01
 30
0.0
 40
2.0
100
AcDbArc
 50
270.0
 51
0.0
  0
ARC
  5
E46
330
A2B
100
AcDbEntity
  8
241
  6
HIDDEN2
100
AcDbCircle
 10
-37.0
 20
8.01
 30
0.0
 40
2.0
100
AcDbArc
 50
0.0
 51
90.0
  0
LINE
  5
E47
330
A2B
100
AcDbEntity
  8
245
  6
CENTER2
100
AcDbLine
 10
-15.0
 20
-7.0
 30
0.0
 11
-15.0
 21
7.0
 31
0.0
  0
LINE
  5
E48
330
A2B
100
AcDbEntity
  8
241
  6
CONTINUOUS
100
AcDbLine
 10
23.24759526
 20
-31.5
 30
0.0
 11
23.24759526
 21
-10.0
 31
0.0
  0
LINE
  5
E49
330
A2B
100
AcDbEntity
  8
241
  6
CONTINUOUS
100
AcDbLine
 10
21.875
 20
-10.0
 30
0.0
 11
21.875
 21
-31.5
 31
0.0
  0
LINE
  5
E4A
330
A2B
100
AcDbEntity
  8
241
  6
CONTINUOUS
100
AcDbLine
 10
16.75240474
 20
-31.5
 30
0.0
 11
16.75240474
 21
-10.0
 31
0.0
  0
LINE
  5
E4B
330
A2B
100
AcDbEntity
  8
241
  6
CONTINUOUS
100
AcDbLine
 10
18.125
 20
-10.0
 30
0.0
 11
18.125
 21
-31.5
 31
0.0
  0
LINE
  5
E4C
330
A2B
100
AcDbEntity
  8
241
100
AcDbLine
 10
0.0
 20
-37.9
 30
0.0
 11
0.0
 21
0.0
 31
0.0
  0
LINE
  5
E4D
330
A2B
100
AcDbEntity
  8
241
  6
CONTINUOUS
100
AcDbLine
 10
-2.0
 20
-37.9
 30
0.0
 11
-2.0
 21
0.0
 31
0.0
  0
LINE
  5
E4E
330
A2B
100
AcDbEntity
  8
241
100
AcDbLine
 10
29.0
 20
-25.0
 30
0.0
 11
29.0
 21
0.0
 31
0.0
  0
LINE
  5
E4F
330
A2B
100
AcDbEntity
  8
241
100
AcDbLine
 10
30.3
 20
-25.0
 30
0.0
 11
30.3
 21
0.0
 31
0.0
  0
LINE
  5
E50
330
A2B
100
AcDbEntity
  8
241
  6
CONTINUOUS
100
AcDbLine
 10
14.63689786
 20
-31.5
 30
0.0
 11
29.0
 21
-31.5
 31
0.0
  0
LINE
  5
E51
330
A2B
100
AcDbEntity
  8
241
  6
CONTINUOUS
100
AcDbLine
 10
5.0
 20
-38.82975663
 30
0.0
 11
16.75240474
 21
-38.82975663
 31
0.0
  0
ARC
  5
E52
330
A2B
100
AcDbEntity
  8
241
  6
CONTINUOUS
100
AcDbCircle
 10
14.63689786
 20
-41.5
 30
0.0
 40
10.0
100
AcDbArc
 50
90.0
 51
164.512726
  0
LINE
  5
E53
330
A2B
100
AcDbEntity
  8
240
100
AcDbLine
 10
-2.0
 20
-37.9
 30
0.0
 11
0.0
 21
-37.9
 31
0.0
  0
LINE
  5
E54
330
A2B
100
AcDbEntity
  8
241
  6
CONTINUOUS
100
AcDbLine
 10
23.24759526
 20
-38.82975663
 30
0.0
 11
29.0
 21
-38.82975663
 31
0.0
  0
LINE
  5
E55
330
A2B
100
AcDbEntity
  8
241
  6
CONTINUOUS
100
AcDbLine
 10
18.125
 20
-33.52238058
 30
0.0
 11
21.875
 21
-33.52238058
 31
0.0
  0
LINE
  5
E56
330
A2B
100
AcDbEntity
  8
241
  6
CONTINUOUS
100
AcDbLine
 10
16.75240474
 20
-38.82975663
 30
0.0
 11
18.125
 21
-35.71640491
 31
0.0
  0
LINE
  5
E57
330
A2B
100
AcDbEntity
  8
241
  6
CONTINUOUS
100
AcDbLine
 10
23.24759526
 20
-38.82975663
 30
0.0
 11
21.875
 21
-35.71640491
 31
0.0
  0
LINE
  5
E58
330
A2B
100
AcDbEntity
  8
241
  6
CONTINUOUS
100
AcDbLine
 10
15.0
 20
-10.0
 30
0.0
 11
29.0
 21
-10.0
 31
0.0
  0
LINE
  5
E59
330
A2B
100
AcDbEntity
  8
241
  6
CONTINUOUS
100
AcDbLine
 10
15.0
 20
10.0
 30
0.0
 11
29.0
 21
10.0
 31
0.0
  0
ARC
  5
E5A
330
A2B
100
AcDbEntity
  8
241
  6
CONTINUOUS
100
AcDbCircle
 10
15.0
 20
0.0
 30
0.0
 40
10.0
100
AcDbArc
 50
90.0
 51
180.0
  0
ARC
  5
E5B
330
A2B
100
AcDbEntity
  8
241
  6
CONTINUOUS
100
AcDbCircle
 10
15.0
 20
0.0
 30
0.0
 40
10.0
100
AcDbArc
 50
180.0
 51
270.0
  0
LINE
  5
E5C
330
A2B
100
AcDbEntity
  8
241
100
AcDbLine
 10
30.3
 20
0.0
 30
0.0
 11
30.3
 21
13.81933675
 31
0.0
  0
LINE
  5
E5D
330
A2B
100
AcDbEntity
  8
240
  6
CONTINUOUS
100
AcDbLine
 10
-2.0
 20
37.9
 30
0.0
 11
-48.09987523
 21
35.59500624
 31
0.0
  0
ARC
  5
E5E
330
A2B
100
AcDbEntity
  8
240
  6
CONTINUOUS
100
AcDbCircle
 10
-48.0
 20
33.59750156
 30
0.0
 40
2.0
100
AcDbArc
 50
92.86240523
 51
180.0
  0
LINE
  5
E5F
330
A2B
100
AcDbEntity
  8
240
  6
CONTINUOUS
100
AcDbLine
 10
0.0
 20
49.0
 30
0.0
 11
0.0
 21
37.9
 31
0.0
  0
LINE
  5
E60
330
A2B
100
AcDbEntity
  8
240
  6
CONTINUOUS
100
AcDbLine
 10
29.0
 20
49.0
 30
0.0
 11
29.0
 21
25.0
 31
0.0
  0
LINE
  5
E61
330
A2B
100
AcDbEntity
  8
240
100
AcDbLine
 10
-2.0
 20
37.9
 30
0.0
 11
0.0
 21
37.9
 31
0.0
  0
LINE
  5
E62
330
A2B
100
AcDbEntity
  8
240
  6
CONTINUOUS
100
AcDbLine
 10
1.0
 20
50.0
 30
0.0
 11
16.75240474
 21
50.0
 31
0.0
  0
ARC
  5
E63
330
A2B
100
AcDbEntity
  8
240
  6
CONTINUOUS
100
AcDbCircle
 10
1.0
 20
49.0
 30
0.0
 40
1.0
100
AcDbArc
 50
90.0
 51
180.0
  0
LINE
  5
E64
330
A2B
100
AcDbEntity
  8
240
  6
CONTINUOUS
100
AcDbLine
 10
23.24759526
 20
50.0
 30
0.0
 11
28.0
 21
50.0
 31
0.0
  0
LINE
  5
E65
330
A2B
100
AcDbEntity
  8
240
  6
CONTINUOUS
100
AcDbLine
 10
18.125
 20
47.62259526
 30
0.0
 11
16.75240474
 21
50.0
 31
0.0
  0
LINE
  5
E66
330
A2B
100
AcDbEntity
  8
240
  6
CONTINUOUS
100
AcDbLine
 10
21.875
 20
47.62259526
 30
0.0
 11
23.24759526
 21
50.0
 31
0.0
  0
LINE
  5
E67
330
A2B
100
AcDbEntity
  8
240
  6
CONTINUOUS
100
AcDbLine
 10
18.125
 20
46.0
 30
0.0
 11
21.875
 21
46.0
 31
0.0
  0
LINE
  5
E68
330
A2B
100
AcDbEntity
  8
240
  6
CONTINUOUS
100
AcDbLine
 10
18.125
 20
46.0
 30
0.0
 11
18.125
 21
47.62259526
 31
0.0
  0
LINE
  5
E69
330
A2B
100
AcDbEntity
  8
240
  6
CONTINUOUS
100
AcDbLine
 10
21.875
 20
46.0
 30
0.0
 11
21.875
 21
47.62259526
 31
0.0
  0
ARC
  5
E6A
330
A2B
100
AcDbEntity
  8
240
  6
CONTINUOUS
100
AcDbCircle
 10
28.0
 20
49.0
 30
0.0
 40
1.0
100
AcDbArc
 50
0.0
 51
90.0
  0
SPLINE
  5
E6B
330
A2B
100
AcDbEntity
  8
241
100
AcDbSpline
210
0.0
220
0.0
230
1.0
 70
     8
 71
     3
 72
     9
 73
     5
 74
     3
 42
0.0000000001
 43
0.0000000001
 44
0.0000000001
 40
0.0
 40
0.0
 40
0.0
 40
0.0
 40
5.203779156492312
 40
10.89864399015031
 40
10.89864399015031
 40
10.89864399015031
 40
10.89864399015031
 10
45.00811378121892
 20
24.31151437997224
 30
0.0
 10
45.72330697852193
 20
22.65067981112693
 30
0.0
 10
47.22118684758943
 20
19.17227610719631
 30
0.0
 10
45.7676368039751
 20
15.65645670057678
 30
0.0
 10
45.00811378121901
 20
13.81933675076055
 30
0.0
 11
45.00811378121892
 21
24.31151437997224
 31
0.0
 11
46.48083252871441
 21
19.32048071946471
 31
0.0
 11
45.00811378121901
 21
13.81933675076055
 31
0.0
  0
ARC
  5
E6C
330
A2B
100
AcDbEntity
  8
240
100
AcDbCircle
 10
50.40085453
 20
16.0
 30
0.0
 40
2.0
100
AcDbArc
 50
199.98310652
 51
270.0
  0
LINE
  5
E6D
330
A2B
100
AcDbEntity
  8
240
100
AcDbLine
 10
73.43052619
 20
12.0524684
 30
0.0
 11
58.63755502
 21
14.0
 31
0.0
  0
LINE
  5
E6E
330
A2B
100
AcDbEntity
  8
240
100
AcDbLine
 10
73.43052619
 20
-12.0524684
 30
0.0
 11
58.63755502
 21
-14.0
 31
0.0
  0
LINE
  5
E6F
330
A2B
100
AcDbEntity
  8
241
  6
HIDDEN2
100
AcDbLine
 10
35.81961524
 20
4.0
 30
0.0
 11
75.0
 21
4.0
 31
0.0
  0
LINE
  5
E70
330
A2B
100
AcDbEntity
  8
241
  6
CONTINUOUS
100
AcDbLine
 10
45.0
 20
-24.42744758
 30
0.0
 11
45.0
 21
0.0
 31
0.0
  0
LINE
  5
E71
330
A2B
100
AcDbEntity
  8
241
100
AcDbLine
 10
49.0
 20
-14.57255242
 30
0.0
 11
49.0
 21
0.0
 31
0.0
  0
LINE
  5
E72
330
A2B
100
AcDbEntity
  8
241
100
AcDbLine
 10
58.63755502
 20
-14.0
 30
0.0
 11
58.63755502
 21
0.0
 31
0.0
  0
LINE
  5
E73
330
A2B
100
AcDbEntity
  8
240
100
AcDbLine
 10
50.40085453
 20
-14.0
 30
0.0
 11
58.63755502
 21
-14.0
 31
0.0
  0
ARC
  5
E74
330
A2B
100
AcDbEntity
  8
240
100
AcDbCircle
 10
43.59914547
 20
-23.0
 30
0.0
 40
2.0
100
AcDbArc
 50
270.0
 51
340.01689348
  0
LINE
  5
E75
330
A2B
100
AcDbEntity
  8
240
100
AcDbLine
 10
48.52126768
 20
-15.31651387
 30
0.0
 11
45.47873232
 21
-23.68348613
 31
0.0
  0
ARC
  5
E76
330
A2B
100
AcDbEntity
  8
240
100
AcDbCircle
 10
50.40085453
 20
-16.0
 30
0.0
 40
2.0
100
AcDbArc
 50
90.0
 51
160.01689348
  0
LINE
  5
E77
330
A2B
100
AcDbEntity
  8
240
  6
CONTINUOUS
100
AcDbLine
 10
58.63755502
 20
14.0
 30
0.0
 11
50.40085453
 21
14.0
 31
0.0
  0
LINE
  5
E78
330
A2B
100
AcDbEntity
  8
241
  6
CONTINUOUS
100
AcDbLine
 10
45.0
 20
0.0
 30
0.0
 11
45.0
 21
13.81933675
 31
0.0
  0
LINE
  5
E79
330
A2B
100
AcDbEntity
  8
241
100
AcDbLine
 10
49.0
 20
14.57255242
 30
0.0
 11
49.0
 21
0.0
 31
0.0
  0
LINE
  5
E7A
330
A2B
100
AcDbEntity
  8
241
100
AcDbLine
 10
58.63755502
 20
14.0
 30
0.0
 11
58.63755502
 21
0.0
 31
0.0
  0
LINE
  5
E7B
330
A2B
100
AcDbEntity
  8
240
  6
CONTINUOUS
100
AcDbLine
 10
75.0
 20
6.3
 30
0.0
 11
75.0
 21
0.0
 31
0.0
  0
LINE
  5
E7C
330
A2B
100
AcDbEntity
  8
241
100
AcDbLine
 10
74.3
 20
0.0
 30
0.0
 11
74.3
 21
7.0
 31
0.0
  0
LINE
  5
E7D
330
A2B
100
AcDbEntity
  8
241
100
AcDbLine
 10
74.3
 20
0.0
 30
0.0
 11
74.3
 21
-7.0
 31
0.0
  0
LINE
  5
E7E
330
A2B
100
AcDbEntity
  8
240
  6
CONTINUOUS
100
AcDbLine
 10
75.0
 20
-6.3
 30
0.0
 11
75.0
 21
0.0
 31
0.0
  0
ARC
  5
E7F
330
A2B
100
AcDbEntity
  8
240
100
AcDbCircle
 10
73.3
 20
-11.06102354
 30
0.0
 40
1.0
100
AcDbArc
 50
277.5
 51
0.0
  0
LINE
  5
E80
330
A2B
100
AcDbEntity
  8
240
100
AcDbLine
 10
74.3
 20
-7.0
 30
0.0
 11
75.0
 21
-6.3
 31
0.0
  0
LINE
  5
E81
330
A2B
100
AcDbEntity
  8
240
  6
CONTINUOUS
100
AcDbLine
 10
74.3
 20
-7.0
 30
0.0
 11
74.3
 21
-11.06102354
 31
0.0
  0
LINE
  5
E82
330
A2B
100
AcDbEntity
  8
240
  6
CONTINUOUS
100
AcDbLine
 10
74.3
 20
7.0
 30
0.0
 11
74.3
 21
11.06102354
 31
0.0
  0
LINE
  5
E83
330
A2B
100
AcDbEntity
  8
240
100
AcDbLine
 10
74.3
 20
7.0
 30
0.0
 11
75.0
 21
6.3
 31
0.0
  0
ARC
  5
E84
330
A2B
100
AcDbEntity
  8
240
100
AcDbCircle
 10
73.3
 20
11.06102354
 30
0.0
 40
1.0
100
AcDbArc
 50
0.0
 51
82.5
  0
ARC
  5
E85
330
A2B
100
AcDbEntity
  8
240
100
AcDbCircle
 10
43.59914547
 20
23.0
 30
0.0
 40
2.0
100
AcDbArc
 50
19.98310652
 51
90.0
  0
LINE
  5
E86
330
A2B
100
AcDbEntity
  8
240
100
AcDbLine
 10
48.52126768
 20
15.31651387
 30
0.0
 11
45.47873232
 21
23.68348613
 31
0.0
  0
ENDBLK
  5
A2D
330
A2B
100
AcDbEntity
  8
0
100
AcDbBlockEnd
  0
BLOCK
  5
EB4
330
EAE
100
AcDbEntity
  8
0
100
AcDbBlockBegin
  2
HDC-CLAMPSCREW
 70
     0
 10
0.0
 20
0.0
 30
0.0
  3
HDC-CLAMPSCREW
  1

  0
INSERT
  5
EAF
330
EAE
100
AcDbEntity
  8
245
100
AcDbBlockReference
  2
矢印なし
 10
175.62382697
 20
90.55123572
 30
0.0
  0
LINE
  5
EB0
330
EAE
100
AcDbEntity
  8
241
  6
CONTINUOUS
100
AcDbLine
 10
2.23
 20
0.0
 30
0.0
 11
20.0
 21
0.0
 31
0.0
  0
INSERT
  5
EB1
330
EAE
100
AcDbEntity
  8
241
  6
CONTINUOUS
100
AcDbBlockReference
  2
_OPEN
 10
0.0
 20
0.0
 30
0.0
 41
6.69
 42
6.69
 43
6.69
 50
180.0
  0
ELLIPSE
  5
EB2
330
EAE
100
AcDbEntity
  8
251
100
AcDbEllipse
 10
13.0
 20
0.0
 30
0.0
 11
0.0
 21
-7.000000000002512
 31
0.0
210
0.0
220
0.0
230
1.0
 40
0.5
 41
1.860548028230769
 42
7.564229932538514
  0
INSERT
  5
EB3
330
EAE
100
AcDbEntity
  8
251
  6
CONTINUOUS
100
AcDbBlockReference
  2
_OPEN
 10
16.35410197
 20
2.0
 30
0.0
 41
2.23
 42
2.23
 43
2.23
 50
283.18143907
  0
ENDBLK
  5
EB5
330
EAE
100
AcDbEntity
  8
0
100
AcDbBlockEnd
  0
ENDSEC
  0
SECTION
  2
ENTITIES
  0
INSERT
  5
6E6
330
1A
100
AcDbEntity
  8
245
100
AcDbBlockReference
  2
矢印なし
 10
175.62382697
 20
90.55123572
 30
0.0
  0
TEXT
  5
83C
330
1A
100
AcDbEntity
  8
241
100
AcDbText
 10
-50.0
 20
77.0
 30
0.0
 40
5.0
  1
HSK-A100-HDC8-75
  7
YOKO
 11
-50.0
 21
77.0
 31
0.0
100
AcDbText
 73
     1
  0
DIMENSION
  5
86D
330
1A
100
AcDbEntity
  8
250
  6
CONTINUOUS
100
AcDbDimension
  2
*D2
 10
75.0
 20
63.0
 30
0.0
 11
38.27466383
 21
63.0
 31
0.0
 70
   160
  3
BIGT
100
AcDbAlignedDimension
 13
0.0
 23
49.0
 33
0.0
 14
75.0
 24
6.3
 34
0.0
100
AcDbRotatedDimension
1001
ACAD
1000
DSTYLE
1002
{
1070
    41
1040
2.0
1002
}
  0
DIMENSION
  5
8A6
330
1A
100
AcDbEntity
  8
250
  6
CONTINUOUS
100
AcDbDimension
  2
*D3
 10
75.0
 20
56.0
 30
0.0
 11
52.0
 21
58.4
 31
0.0
 70
    32
  1
（max.<>）
  3
BIGT
100
AcDbAlignedDimension
 13
29.0
 23
4.0
 33
0.0
 14
75.0
 24
6.3
 34
0.0
100
AcDbRotatedDimension
  0
DIMENSION
  5
8AA
330
1A
100
AcDbEntity
  8
250
  6
CONTINUOUS
100
AcDbDimension
  2
*D4
 10
92.0
 20
14.0
 30
0.0
 11
89.6
 21
0.0
 31
0.0
 70
    32
  1
{\H2.8;\U+2205}<>
  3
BIGT
100
AcDbAlignedDimension
 13
58.63755502
 23
-14.0
 33
0.0
 14
58.63755502
 24
14.0
 34
0.0
 50
90.0
100
AcDbRotatedDimension
  0
DIMENSION
  5
8CF
330
1A
100
AcDbEntity
  8
250
  6
CONTINUOUS
100
AcDbDimension
  2
*D5
 10
85.0
 20
4.0
 30
0.0
 11
82.6
 21
0.0
 31
0.0
 70
    32
  1
{\H2.8;\U+2205}<>
  3
BIGT
100
AcDbAlignedDimension
 13
75.0
 23
-4.0
 33
0.0
 14
75.0
 24
4.0
 34
0.0
 50
90.0
100
AcDbRotatedDimension
1001
ACAD
1000
DSTYLE
1002
{
1070
    75
1070
     1
1070
     6
1000
矢印なし
1002
}
  0
LINE
  5
BDB
330
1A
100
AcDbEntity
  8
250
  6
CONTINUOUS
100
AcDbLine
 10
-27.26410788
 20
-48.99693089
 30
0.0
 11
-54.19744121
 21
-48.99693089
 31
0.0
1001
ITEMNAME
1000
LNSP2
  0
MTEXT
  5
BDC
330
1A
100
AcDbEntity
  8
251
  6
CONTINUOUS
100
AcDbMText
 10
-51.39744121
 20
-47.99693089
 30
0.0
 40
2.8
 41
0.0
 71
     7
 72
     1
  1
HSK-A100
  7
YOKO
1001
ITEMNAME
1000
LNSP3
1001
ACAD
1000
MTEXTBEGIN
1070
    73
1070
     1
1070
    44
1040
1.0
1070
    74
1070
     0
1000
MTEXTEND
1000
MTEXTBEGIN
1070
    73
1070
     1
1070
    44
1040
1.0
1070
    74
1070
     0
1000
MTEXTEND
1000
MTEXTBEGIN
1070
    73
1070
     1
1070
    44
1040
1.0
1070
    74
1070
     0
1000
MTEXTEND
1000
MTEXTBEGIN
1070
    73
1070
     1
1070
    44
1040
1.0
1070
    74
1070
     0
1000
MTEXTEND
1000
MTEXTBEGIN
1070
    73
1070
     1
1070
    44
1040
1.0
1070
    74
1070
     0
1000
MTEXTEND
  0
LEADER
  5
BDE
330
1A
100
AcDbEntity
  8
250
  6
CONTINUOUS
100
AcDbLeader
  3
BIGT
 76
     2
 10
-20.32820221
 20
-36.98358989
 30
0.0
 10
-27.26410788
 20
-48.99693089
 30
0.0
1001
ACAD
1000
DSTYLE
1002
{
1070
     6
1000
OPEN
1070
    41
1040
2.0
1070
    42
1040
2.0
1070
    44
1040
2.0
1070
   140
1040
4.0
1070
   343
1005
594
1002
}
  0
INSERT
  5
E87
330
1A
100
AcDbEntity
  8
245
100
AcDbBlockReference
  2
1
 10
0.0
 20
0.0
 30
0.0
  0
TEXT
  5
EBC
330
1A
100
AcDbEntity
  8
251
100
AcDbText
 10
31.05554994
 20
49.47204709
 30
0.0
 40
3.0
  1
クランプスクリュ
  7
YOKO
 11
31.05554994
 21
49.47204709
 31
0.0
100
AcDbText
 73
     1
  0
INSERT
  5
EBD
330
1A
100
AcDbEntity
  8
245
100
AcDbBlockReference
  2
HDC-CLAMPSCREW
 10
37.0
 20
28.0
 30
0.0
 50
90.0
  0
VIEWPORT
  5
22
330
17
100
AcDbEntity
 67
     1
  8
0
100
AcDbViewport
 10
261.51769912
 20
148.5
 30
0.0
 40
523.03539823
 41
297.0
 68
     1
 69
     1
1001
ACAD
1000
MVIEW
1002
{
1070
    16
1010
0.0
1020
0.0
1030
0.0
1010
0.0
1020
0.0
1030
1.0
1040
0.0
1040
297.0
1040
261.51769912
1040
148.5
1040
50.0
1040
0.0
1040
0.0
1070
     0
1070
   100
1070
     1
1070
     1
1070
     0
1070
     0
1070
     0
1070
     0
1040
0.0
1040
0.0
1040
0.0
1040
1.0
1040
1.0
1040
10.0
1040
10.0
1070
     0
1002
{
1002
}
1002
}
  0
ENDSEC
  0
SECTION
  2
OBJECTS
  0
DICTIONARY
  5
C
330
0
100
AcDbDictionary
  3
ACAD_GROUP
350
D
  3
ACAD_LAYOUT
350
565
  3
ACAD_MLINESTYLE
350
E
  3
ACAD_PLOTSETTINGS
350
566
  3
ACAD_PLOTSTYLENAME
350
563
  3
ACDBHEADERROUNDTRIPXREC
350
EE4
  3
GRADE_DWG
350
540
  0
DICTIONARY
  5
AF5
330
1A
100
AcDbDictionary
280
     1
  3
ACAD_LAYOUTSELFREF
360
F06
  0
DICTIONARY
  5
AF3
330
17
100
AcDbDictionary
280
     1
  3
ACAD_LAYOUTSELFREF
360
F05
  0
DICTIONARY
  5
D
102
{ACAD_REACTORS
330
C
102
}
330
C
100
AcDbDictionary
  3
*A1
350
6C7
  3
*A2
350
6C8
  3
*A3
350
6D4
  3
*A4
350
6D5
  3
DREC-1
350
5FC
  3
DREC-2
350
654
  3
DREC-3
350
673
  0
DICTIONARY
  5
565
102
{ACAD_REACTORS
330
C
102
}
330
C
100
AcDbDictionary
  0
DICTIONARY
  5
E
102
{ACAD_REACTORS
330
C
102
}
330
C
100
AcDbDictionary
  3
STANDARD
350
13
  0
DICTIONARY
  5
566
102
{ACAD_REACTORS
330
C
102
}
330
C
100
AcDbDictionary
  3
A3_0_5倍_
350
758
  3
A3_1倍_
350
757
  3
A3_1倍__2000_
350
707
  3
A3_2倍_
350
759
  3
A4_0_5倍_
350
755
  3
A4_1倍_
350
754
  3
A4_1倍__2000_
350
708
  3
A4_2倍_
350
756
  0
ACDBDICTIONARYWDFLT
  5
563
102
{ACAD_REACTORS
330
C
102
}
330
C
100
AcDbDictionary
281
     1
  3
Normal
350
564
100
AcDbDictionaryWithDefault
340
564
  0
DICTIONARY
  5
EE4
102
{ACAD_REACTORS
330
C
102
}
330
C
100
AcDbDictionary
  3
CEPSNTYPE
350
EEE
  3
DIMSTYLEDATA
350
EF2
  3
FINGERPRINTGUID
350
EEF
  3
HYPERLINKBASE
350
EE7
  3
INSUNITS
350
EED
  3
LAYOUTDICT
350
EE9
  3
LWETCUNION
350
EEC
  3
PLOTSETDICT
350
EEA
  3
PLOTSTYLNAMDICT
350
EEB
  3
PSVPSCALE
350
EF1
  3
PUCSBASE
350
EF5
  3
PUCSORGBACK
350
EFB
  3
PUCSORGBOTTOM
350
EF7
  3
PUCSORGFRONT
350
EFA
  3
PUCSORGLEFT
350
EF8
  3
PUCSORGRIGHT
350
EF9
  3
PUCSORGTOP
350
EF6
  3
PUCSORTHOREF
350
EF3
  3
PUCSORTHOVIEW
350
EF4
  3
STYLESHEET
350
EE8
  3
TSTACKALIGN
350
EE5
  3
TSTACKSIZE
350
EE6
  3
UCSBASE
350
EFE
  3
UCSORGBACK
350
F04
  3
UCSORGBOTTOM
350
F00
  3
UCSORGFRONT
350
F03
  3
UCSORGLEFT
350
F01
  3
UCSORGRIGHT
350
F02
  3
UCSORGTOP
350
EFF
  3
UCSORTHOREF
350
EFC
  3
UCSORTHOVIEW
350
EFD
  3
VERSIONGUID
350
EF0
  0
DICTIONARY
  5
540
102
{ACAD_REACTORS
330
C
102
}
330
C
100
AcDbDictionary
  3
VERSION
350
560
  0
XRECORD
  5
F06
102
{ACAD_REACTORS
330
AF5
102
}
330
AF5
100
AcDbXrecord
340
1A
  0
XRECORD
  5
F05
102
{ACAD_REACTORS
330
AF3
102
}
330
AF3
100
AcDbXrecord
340
17
  0
GROUP
  5
6C7
102
{ACAD_REACTORS
330
D
102
}
330
D
100
AcDbGroup
300

 70
     0
 71
     1
1001
GRPNAME
1000
DMA00
  0
GROUP
  5
6C8
102
{ACAD_REACTORS
330
D
102
}
330
D
100
AcDbGroup
300

 70
     0
 71
     1
1001
GRPNAME
1000
DMA00
  0
GROUP
  5
6D4
102
{ACAD_REACTORS
330
D
102
}
330
D
100
AcDbGroup
300

 70
     0
 71
     1
1001
GRPNAME
1000
DMA00
  0
GROUP
  5
6D5
102
{ACAD_REACTORS
330
D
102
}
330
D
100
AcDbGroup
300

 70
     0
 71
     1
1001
GRPNAME
1000
DMA00
  0
GROUP
  5
5FC
102
{ACAD_REACTORS
330
D
102
}
330
D
100
AcDbGroup
300

 70
     0
 71
     1
1001
GRPNAME
1000
DREC-
1001
GPARA
1000
xsiz
1000
44.182
1000
ysiz
1000
40.677
1000
angl
1000
0
1000
ctyp
1000
0
1000
csiz
1000
5
1000
lfnt
1000
cont
1000
hcnt
1000
hoff
1000
vcnt
1000
voff
1000
opnt
1000
4
1000
dxpt
1000
0
1000
dypt
1000
0
  0
GROUP
  5
654
102
{ACAD_REACTORS
330
D
102
}
330
D
100
AcDbGroup
300

 70
     0
 71
     1
1001
GRPNAME
1000
DREC-
1001
GPARA
1000
xsiz
1000
54.592
1000
ysiz
1000
53.036
1000
angl
1000
0
1000
ctyp
1000
0
1000
csiz
1000
5
1000
lfnt
1000
cont
1000
hcnt
1000
hoff
1000
vcnt
1000
voff
1000
opnt
1000
4
1000
dxpt
1000
0
1000
dypt
1000
0
  0
GROUP
  5
673
102
{ACAD_REACTORS
330
D
102
}
330
D
100
AcDbGroup
300

 70
     0
 71
     1
1001
GRPNAME
1000
DREC-
1001
GPARA
1000
xsiz
1000
30.363
1000
ysiz
1000
36.175
1000
angl
1000
0
1000
ctyp
1000
0
1000
csiz
1000
5
1000
lfnt
1000
cont
1000
hcnt
1000
hoff
1000
vcnt
1000
voff
1000
opnt
1000
4
1000
dxpt
1000
0
1000
dypt
1000
0
  0
MLINESTYLE
  5
13
102
{ACAD_REACTORS
330
E
102
}
330
E
100
AcDbMlineStyle
  2
STANDARD
 70
     0
  3

 62
     0
 51
90.0
 52
90.0
 71
     2
 49
0.5
 62
   256
  6
BYLAYER
 49
-0.5
 62
   256
  6
BYLAYER
  0
PLOTSETTINGS
  5
758
102
{ACAD_REACTORS
330
566
102
}
330
566
100
AcDbPlotSettings
  1
A3(0.5倍)
  2
\\AWTECPC05\HP DeskJet 1120C
  4
A3
  6

 40
5.95841646
 41
13.49375153
 42
6.04309082
 43
3.67242432
 44
296.92599487
 45
419.94665527
 46
89.96
 47
127.14
 48
0.0
 49
0.0
140
0.0
141
0.0
142
1.0
143
2.0
 70
  1716
 72
     1
 73
     1
 74
     2
  7
big.ctb
 75
    17
147
0.5
148
0.0
149
0.0
  0
PLOTSETTINGS
  5
757
102
{ACAD_REACTORS
330
566
102
}
330
566
100
AcDbPlotSettings
  1
A3(1倍)
  2
\\AWTECPC05\HP DeskJet 1120C
  4
A3
  6

 40
5.95841646
 41
13.49375153
 42
6.04309082
 43
3.67242432
 44
296.92599487
 45
419.94665527
 46
37.46
 47
52.89
 48
0.0
 49
0.0
140
0.0
141
0.0
142
1.0
143
1.0
 70
  1716
 72
     1
 73
     1
 74
     2
  7
big.ctb
 75
    16
147
1.0
148
0.0
149
0.0
  0
PLOTSETTINGS
  5
707
102
{ACAD_REACTORS
330
566
102
}
330
566
100
AcDbPlotSettings
  1
A3(1倍)(2000)
  2
SII LS-1300 (D-SCAN)
  4
User258
  6

 40
3.17499995
 41
3.17499995
 42
3.17498779
 43
3.17498779
 44
419.98898315
 45
296.98950195
 46
58.32
 47
40.32
 48
0.0
 49
0.0
140
0.0
141
0.0
142
1.0
143
1.0
 70
  1716
 72
     1
 73
     0
 74
     2
  7
big.ctb
 75
    16
147
1.0
148
0.0
149
0.0
  0
PLOTSETTINGS
  5
759
102
{ACAD_REACTORS
330
566
102
}
330
566
100
AcDbPlotSettings
  1
A3(2倍)
  2
\\AWTECPC05\HP DeskJet 1120C
  4
A3
  6

 40
5.95841646
 41
13.49375153
 42
6.04309082
 43
3.67242432
 44
296.92599487
 45
419.94665527
 46
-67.54
 47
-95.61
 48
0.0
 49
0.0
140
0.0
141
0.0
142
1.0
143
0.5
 70
  1716
 72
     1
 73
     1
 74
     2
  7
big.ctb
 75
    27
147
2.0
148
0.0
149
0.0
  0
PLOTSETTINGS
  5
755
102
{ACAD_REACTORS
330
566
102
}
330
566
100
AcDbPlotSettings
  1
A4(0.5倍)
  2
\\AWTECPC05\HP DeskJet 1120C
  4
A4
  6

 40
4.18041658
 41
13.49374962
 42
4.18040466
 43
3.92642212
 44
209.97332764
 45
296.92599487
 46
48.31
 47
65.5
 48
0.0
 49
0.0
140
0.0
141
0.0
142
1.0
143
2.0
 70
  1716
 72
     1
 73
     1
 74
     2
  7
big.ctb
 75
    17
147
0.5
148
0.0
149
0.0
  0
PLOTSETTINGS
  5
754
102
{ACAD_REACTORS
330
566
102
}
330
566
100
AcDbPlotSettings
  1
A4(1倍)
  2
\\AWTECPC05\HP DeskJet 1120C
  4
A4
  6

 40
4.18041658
 41
13.49374962
 42
4.18040466
 43
3.92642212
 44
209.97332764
 45
296.92599487
 46
-4.19
 47
-8.75
 48
0.0
 49
0.0
140
0.0
141
0.0
142
1.0
143
1.0
 70
  1716
 72
     1
 73
     1
 74
     2
  7
big.ctb
 75
    16
147
1.0
148
0.0
149
0.0
  0
PLOTSETTINGS
  5
708
102
{ACAD_REACTORS
330
566
102
}
330
566
100
AcDbPlotSettings
  1
A4(1倍)(2000)
  2
SII LS-1300 (D-SCAN)
  4
User259
  6

 40
3.17499995
 41
3.17499995
 42
3.17498779
 43
3.17500305
 44
296.98950195
 45
209.99449158
 46
-3.18
 47
-3.18
 48
0.0
 49
0.0
140
0.0
141
0.0
142
1.0
143
1.0
 70
  1716
 72
     1
 73
     0
 74
     2
  7
big.ctb
 75
    16
147
1.0
148
0.0
149
0.0
  0
PLOTSETTINGS
  5
756
102
{ACAD_REACTORS
330
566
102
}
330
566
100
AcDbPlotSettings
  1
A4(2倍)
  2
\\AWTECPC05\HP DeskJet 1120C
  4
A4
  6

 40
4.18041658
 41
13.49374962
 42
4.18040466
 43
3.92642212
 44
209.97332764
 45
296.92599487
 46
-109.19
 47
-157.25
 48
0.0
 49
0.0
140
0.0
141
0.0
142
1.0
143
0.5
 70
  1716
 72
     1
 73
     1
 74
     2
  7
big.ctb
 75
    27
147
2.0
148
0.0
149
0.0
  0
ACDBPLACEHOLDER
  5
564
102
{ACAD_REACTORS
330
563
102
}
330
563
100
AcDbPlaceHolder
280
     0
  0
XRECORD
  5
EEE
102
{ACAD_REACTORS
330
EE4
102
}
330
EE4
100
AcDbXrecord
 90
        0
  0
XRECORD
  5
EF2
102
{ACAD_REACTORS
330
EE4
102
}
330
EE4
100
AcDbXrecord
1000
DSTYLE
1002
{
1070
    79
 70
     2
1070
   179
 70
     3
1070
   341
340
594
1070
   343
340
594
1070
   344
340
594
1070
   371
 70
    -1
1070
   372
 70
    -1
1002
}
  0
XRECORD
  5
EEF
102
{ACAD_REACTORS
330
EE4
102
}
330
EE4
100
AcDbXrecord
  1
{51294030-9CB4-11D3-8E18-00A0C925D94D}
  0
XRECORD
  5
EE7
102
{ACAD_REACTORS
330
EE4
102
}
330
EE4
100
AcDbXrecord
  1

  0
XRECORD
  5
EED
102
{ACAD_REACTORS
330
EE4
102
}
330
EE4
100
AcDbXrecord
 90
        0
  0
XRECORD
  5
EE9
102
{ACAD_REACTORS
330
EE4
102
}
330
EE4
100
AcDbXrecord
340
565
  0
XRECORD
  5
EEC
102
{ACAD_REACTORS
330
EE4
102
}
330
EE4
100
AcDbXrecord
 90
    10781
  0
XRECORD
  5
EEA
102
{ACAD_REACTORS
330
EE4
102
}
330
EE4
100
AcDbXrecord
340
566
  0
XRECORD
  5
EEB
102
{ACAD_REACTORS
330
EE4
102
}
330
EE4
100
AcDbXrecord
340
563
  0
XRECORD
  5
EF1
102
{ACAD_REACTORS
330
EE4
102
}
330
EE4
100
AcDbXrecord
 40
0.0
  0
XRECORD
  5
EF5
102
{ACAD_REACTORS
330
EE4
102
}
330
EE4
100
AcDbXrecord
340
0
  0
XRECORD
  5
EFB
102
{ACAD_REACTORS
330
EE4
102
}
330
EE4
100
AcDbXrecord
 10
0.0
 20
0.0
 30
0.0
  0
XRECORD
  5
EF7
102
{ACAD_REACTORS
330
EE4
102
}
330
EE4
100
AcDbXrecord
 10
0.0
 20
0.0
 30
0.0
  0
XRECORD
  5
EFA
102
{ACAD_REACTORS
330
EE4
102
}
330
EE4
100
AcDbXrecord
 10
0.0
 20
0.0
 30
0.0
  0
XRECORD
  5
EF8
102
{ACAD_REACTORS
330
EE4
102
}
330
EE4
100
AcDbXrecord
 10
0.0
 20
0.0
 30
0.0
  0
XRECORD
  5
EF9
102
{ACAD_REACTORS
330
EE4
102
}
330
EE4
100
AcDbXrecord
 10
0.0
 20
0.0
 30
0.0
  0
XRECORD
  5
EF6
102
{ACAD_REACTORS
330
EE4
102
}
330
EE4
100
AcDbXrecord
 10
0.0
 20
0.0
 30
0.0
  0
XRECORD
  5
EF3
102
{ACAD_REACTORS
330
EE4
102
}
330
EE4
100
AcDbXrecord
340
0
  0
XRECORD
  5
EF4
102
{ACAD_REACTORS
330
EE4
102
}
330
EE4
100
AcDbXrecord
 70
     0
  0
XRECORD
  5
EE8
102
{ACAD_REACTORS
330
EE4
102
}
330
EE4
100
AcDbXrecord
  1
big.ctb
  0
XRECORD
  5
EE5
102
{ACAD_REACTORS
330
EE4
102
}
330
EE4
100
AcDbXrecord
 90
        1
  0
XRECORD
  5
EE6
102
{ACAD_REACTORS
330
EE4
102
}
330
EE4
100
AcDbXrecord
 90
       70
  0
XRECORD
  5
EFE
102
{ACAD_REACTORS
330
EE4
102
}
330
EE4
100
AcDbXrecord
340
0
  0
XRECORD
  5
F04
102
{ACAD_REACTORS
330
EE4
102
}
330
EE4
100
AcDbXrecord
 10
0.0
 20
0.0
 30
0.0
  0
XRECORD
  5
F00
102
{ACAD_REACTORS
330
EE4
102
}
330
EE4
100
AcDbXrecord
 10
0.0
 20
0.0
 30
0.0
  0
XRECORD
  5
F03
102
{ACAD_REACTORS
330
EE4
102
}
330
EE4
100
AcDbXrecord
 10
0.0
 20
0.0
 30
0.0
  0
XRECORD
  5
F01
102
{ACAD_REACTORS
330
EE4
102
}
330
EE4
100
AcDbXrecord
 10
0.0
 20
0.0
 30
0.0
  0
XRECORD
  5
F02
102
{ACAD_REACTORS
330
EE4
102
}
330
EE4
100
AcDbXrecord
 10
0.0
 20
0.0
 30
0.0
  0
XRECORD
  5
EFF
102
{ACAD_REACTORS
330
EE4
102
}
330
EE4
100
AcDbXrecord
 10
0.0
 20
0.0
 30
0.0
  0
XRECORD
  5
EFC
102
{ACAD_REACTORS
330
EE4
102
}
330
EE4
100
AcDbXrecord
340
0
  0
XRECORD
  5
EFD
102
{ACAD_REACTORS
330
EE4
102
}
330
EE4
100
AcDbXrecord
 70
     0
  0
XRECORD
  5
EF0
102
{ACAD_REACTORS
330
EE4
102
}
330
EE4
100
AcDbXrecord
  1
{45ABF18D-F82B-4D7F-9EB0-3A390A98E00F}
  0
XRECORD
  5
560
102
{ACAD_REACTORS
330
540
102
}
330
540
100
AcDbXrecord
  1
2.0.0
  0
ENDSEC
  0
EOF
