  0
SECTION
  2
HEADER
  9
$ACADVER
  1
AC1014
  9
$ACADMAINTVER
 70
     9
  9
$DWGCODEPAGE
  3
ANSI_932
  9
$INSBASE
 10
0.0
 20
0.0
 30
0.0
  9
$EXTMIN
 10
-39.0140065
 20
-31.70963713
 30
-0.00152582
  9
$EXTMAX
 10
183.11100848
 20
71.51054552
 30
0.00000003
  9
$LIMMIN
 10
0.0
 20
0.0
  9
$LIMMAX
 10
420.0
 20
297.0
  9
$ORTHOMODE
 70
     0
  9
$REGENMODE
 70
     1
  9
$FILLMODE
 70
     1
  9
$QTEXTMODE
 70
     0
  9
$MIRRTEXT
 70
     1
  9
$DRAGMODE
 70
     2
  9
$LTSCALE
 40
10.0
  9
$OSMODE
 70
   549
  9
$ATTMODE
 70
     1
  9
$TEXTSIZE
 40
3.0
  9
$TRACEWID
 40
1.0
  9
$TEXTSTYLE
  7
YOKO
  9
$CLAYER
  8
245
  9
$CELTYPE
  6
BYLAYER
  9
$CECOLOR
 62
   256
  9
$CELTSCALE
 40
1.0
  9
$DELOBJ
 70
     1
  9
$DISPSILH
 70
     0
  9
$DIMSCALE
 40
1.0
  9
$DIMASZ
 40
2.0
  9
$DIMEXO
 40
2.0
  9
$DIMDLI
 40
2.5
  9
$DIMRND
 40
0.0
  9
$DIMDLE
 40
0.0
  9
$DIMEXE
 40
2.0
  9
$DIMTP
 40
0.0
  9
$DIMTM
 40
0.0
  9
$DIMTXT
 40
4.0
  9
$DIMCEN
 40
0.0
  9
$DIMTSZ
 40
0.0
  9
$DIMTOL
 70
     0
  9
$DIMLIM
 70
     0
  9
$DIMTIH
 70
     0
  9
$DIMTOH
 70
     0
  9
$DIMSE1
 70
     0
  9
$DIMSE2
 70
     0
  9
$DIMTAD
 70
     3
  9
$DIMZIN
 70
     8
  9
$DIMBLK
  1

  9
$DIMASO
 70
     1
  9
$DIMSHO
 70
     1
  9
$DIMPOST
  1

  9
$DIMAPOST
  1

  9
$DIMALT
 70
     0
  9
$DIMALTD
 70
     2
  9
$DIMALTF
 40
25.4
  9
$DIMLFAC
 40
1.0
  9
$DIMTOFL
 70
     1
  9
$DIMTVP
 40
0.0
  9
$DIMTIX
 70
     1
  9
$DIMSOXD
 70
     0
  9
$DIMSAH
 70
     1
  9
$DIMBLK1
  1
OPEN
  9
$DIMBLK2
  1
OPEN
  9
$DIMSTYLE
  2
BIGT
  9
$DIMCLRD
 70
   256
  9
$DIMCLRE
 70
   256
  9
$DIMCLRT
 70
    40
  9
$DIMTFAC
 40
1.0
  9
$DIMGAP
 40
1.0
  9
$DIMJUST
 70
     0
  9
$DIMSD1
 70
     0
  9
$DIMSD2
 70
     0
  9
$DIMTOLJ
 70
     1
  9
$DIMTZIN
 70
     8
  9
$DIMALTZ
 70
     0
  9
$DIMALTTZ
 70
     0
  9
$DIMFIT
 70
     3
  9
$DIMUPT
 70
     0
  9
$DIMUNIT
 70
     2
  9
$DIMDEC
 70
     3
  9
$DIMTDEC
 70
     3
  9
$DIMALTU
 70
     2
  9
$DIMALTTD
 70
     2
  9
$DIMTXSTY
  7
STANDARD
  9
$DIMAUNIT
 70
     0
  9
$LUNITS
 70
     2
  9
$LUPREC
 70
     3
  9
$SKETCHINC
 40
1.0
  9
$FILLETRAD
 40
10.0
  9
$AUNITS
 70
     0
  9
$AUPREC
 70
     3
  9
$MENU
  1
.
  9
$ELEVATION
 40
0.0
  9
$PELEVATION
 40
0.0
  9
$THICKNESS
 40
0.0
  9
$LIMCHECK
 70
     0
  9
$BLIPMODE
 70
     0
  9
$CHAMFERA
 40
10.0
  9
$CHAMFERB
 40
10.0
  9
$CHAMFERC
 40
0.0
  9
$CHAMFERD
 40
0.0
  9
$SKPOLY
 70
     0
  9
$TDCREATE
 40
2454970.454191794
  9
$TDUPDATE
 40
2455173.651955289
  9
$TDINDWG
 40
0.0207592014
  9
$TDUSRTIMER
 40
0.0207592014
  9
$USRTIMER
 70
     1
  9
$ANGBASE
 50
0.0
  9
$ANGDIR
 70
     0
  9
$PDMODE
 70
    35
  9
$PDSIZE
 40
-5.0
  9
$PLINEWID
 40
0.0
  9
$COORDS
 70
     0
  9
$SPLFRAME
 70
     0
  9
$SPLINETYPE
 70
     6
  9
$SPLINESEGS
 70
     8
  9
$ATTDIA
 70
     0
  9
$ATTREQ
 70
     1
  9
$HANDLING
 70
-16383
  9
$HANDSEED
  5
1828
  9
$SURFTAB1
 70
     6
  9
$SURFTAB2
 70
     6
  9
$SURFTYPE
 70
     6
  9
$SURFU
 70
     6
  9
$SURFV
 70
     6
  9
$UCSNAME
  2

  9
$UCSORG
 10
0.0
 20
0.0
 30
0.0
  9
$UCSXDIR
 10
1.0
 20
0.0
 30
0.0
  9
$UCSYDIR
 10
0.0
 20
1.0
 30
0.0
  9
$PUCSNAME
  2

  9
$PUCSORG
 10
0.0
 20
0.0
 30
0.0
  9
$PUCSXDIR
 10
1.0
 20
0.0
 30
0.0
  9
$PUCSYDIR
 10
0.0
 20
1.0
 30
0.0
  9
$USERI1
 70
     1
  9
$USERI2
 70
     0
  9
$USERI3
 70
     0
  9
$USERI4
 70
     0
  9
$USERI5
 70
     0
  9
$USERR1
 40
0.0
  9
$USERR2
 40
0.0
  9
$USERR3
 40
0.0
  9
$USERR4
 40
0.0
  9
$USERR5
 40
0.0
  9
$WORLDVIEW
 70
     1
  9
$SHADEDGE
 70
     3
  9
$SHADEDIF
 70
    70
  9
$TILEMODE
 70
     1
  9
$MAXACTVP
 70
    16
  9
$PINSBASE
 10
0.0
 20
0.0
 30
0.0
  9
$PLIMCHECK
 70
     0
  9
$PEXTMIN
 10
1.00000000E+20
 20
1.00000000E+20
 30
1.00000000E+20
  9
$PEXTMAX
 10
-1.00000000E+20
 20
-1.00000000E+20
 30
-1.00000000E+20
  9
$PLIMMIN
 10
0.0
 20
0.0
  9
$PLIMMAX
 10
420.0
 20
297.0
  9
$UNITMODE
 70
     0
  9
$VISRETAIN
 70
     0
  9
$PLINEGEN
 70
     0
  9
$PSLTSCALE
 70
     1
  9
$TREEDEPTH
 70
  3020
  9
$PICKSTYLE
 70
     0
  9
$CMLSTYLE
  2
STANDARD
  9
$CMLJUST
 70
     0
  9
$CMLSCALE
 40
1.0
  9
$PROXYGRAPHICS
 70
     1
  9
$MEASUREMENT
 70
     1
  0
ENDSEC
  0
SECTION
  2
CLASSES
  0
CLASS
  1
XRECORD
  2
AcDbXrecord
  3
AutoCAD 2000
 90
        0
280
     0
281
     0
  0
CLASS
  1
ACDBDICTIONARYWDFLT
  2
AcDbDictionaryWithDefault
  3
AutoCAD 2000
 90
        0
280
     0
281
     0
  0
CLASS
  1
ACDBPLACEHOLDER
  2
AcDbPlaceHolder
  3
AutoCAD 2000
 90
        0
280
     0
281
     0
  0
CLASS
  1
LAYOUT
  2
AcDbLayout
  3
AutoCAD 2000
 90
        0
280
     0
281
     0
  0
CLASS
  1
PLOTSETTINGS
  2
AcDbPlotSettings
  3
AutoCAD 2000
 90
        0
280
     0
281
     0
  0
CLASS
  1
LONG_TRANSACTION
  2
AcDbLongTransaction
  3
AutoCAD 2000
 90
        0
280
     0
281
     0
  0
CLASS
  1
LWPOLYLINE
  2
AcDbPolyline
  3
AutoCAD 2000
 90
        0
280
     0
281
     1
  0
CLASS
  1
HATCH
  2
AcDbHatch
  3
AutoCAD 2000
 90
        0
280
     0
281
     1
  0
CLASS
  1
XRECORD
  2
AcDbXrecord
  3
AutoCAD 2000
 90
        0
280
     0
281
     0
  0
CLASS
  1
LONG_TRANSACTION
  2
AcDbLongTransaction
  3
AutoCAD 2000
 90
        0
280
     0
281
     0
  0
CLASS
  1
LWPOLYLINE
  2
AcDbPolyline
  3
AutoCAD 2000
 90
        0
280
     0
281
     1
  0
CLASS
  1
HATCH
  2
AcDbHatch
  3
AutoCAD 2000
 90
        0
280
     0
281
     1
  0
CLASS
  1
XRECORD
  2
AcDbXrecord
  3
AutoCAD 2000
 90
        0
280
     0
281
     0
  0
CLASS
  1
LONG_TRANSACTION
  2
AcDbLongTransaction
  3
AutoCAD 2000
 90
        0
280
     0
281
     0
  0
CLASS
  1
LWPOLYLINE
  2
AcDbPolyline
  3
AutoCAD 2000
 90
        0
280
     0
281
     1
  0
CLASS
  1
HATCH
  2
AcDbHatch
  3
AutoCAD 2000
 90
        0
280
     0
281
     1
  0
CLASS
  1
XRECORD
  2
AcDbXrecord
  3
AutoCAD 2000
 90
        0
280
     0
281
     0
  0
CLASS
  1
LONG_TRANSACTION
  2
AcDbLongTransaction
  3
AutoCAD 2000
 90
        0
280
     0
281
     0
  0
CLASS
  1
LWPOLYLINE
  2
AcDbPolyline
  3
AutoCAD 2000
 90
        0
280
     0
281
     1
  0
CLASS
  1
HATCH
  2
AcDbHatch
  3
AutoCAD 2000
 90
        0
280
     0
281
     1
  0
CLASS
  1
XRECORD
  2
AcDbXrecord
  3
AutoCAD 2000
 90
        0
280
     0
281
     0
  0
ENDSEC
  0
SECTION
  2
TABLES
  0
TABLE
  2
VPORT
  5
8
330
0
100
AcDbSymbolTable
 70
     3
  0
VPORT
  5
1803
330
8
100
AcDbSymbolTableRecord
100
AcDbViewportTableRecord
  2
*ACTIVE
 70
     0
 10
0.0
 20
0.0
 11
1.0
 21
1.0
 12
72.04850099
 22
19.90045419
 13
0.0
 23
0.0
 14
7.0
 24
7.0
 15
7.0
 25
7.0
 16
0.0
 26
0.0
 36
1.0
 17
0.0
 27
0.0
 37
0.0
 40
155.95884637
 41
1.43184713
 42
50.0
 43
0.0
 44
0.0
 50
0.0
 51
0.0
 71
     0
 72
  2000
 73
     1
 74
     0
 75
     0
 76
     0
 77
     0
 78
     0
  0
ENDTAB
  0
TABLE
  2
LTYPE
  5
5
330
0
100
AcDbSymbolTable
 70
     3
  0
LTYPE
  5
14
330
5
100
AcDbSymbolTableRecord
100
AcDbLinetypeTableRecord
  2
BYBLOCK
 70
     0
  3

 72
    65
 73
     0
 40
0.0
  0
LTYPE
  5
15
330
5
100
AcDbSymbolTableRecord
100
AcDbLinetypeTableRecord
  2
BYLAYER
 70
     0
  3

 72
    65
 73
     0
 40
0.0
  0
LTYPE
  5
16
330
5
100
AcDbSymbolTableRecord
100
AcDbLinetypeTableRecord
  2
CONTINUOUS
 70
     0
  3
Solid line
 72
    65
 73
     0
 40
0.0
  0
LTYPE
  5
258
330
5
100
AcDbSymbolTableRecord
100
AcDbLinetypeTableRecord
  2
CENTER2
 70
     0
  3
___ _ ___ _ ___ _ ___ _ ___ _ ___ _ ___ _ ___ _
 72
    65
 73
     4
 40
1.125
 49
0.75
 74
     0
 49
-0.125
 74
     0
 49
0.125
 74
     0
 49
-0.125
 74
     0
  0
LTYPE
  5
25C
330
5
100
AcDbSymbolTableRecord
100
AcDbLinetypeTableRecord
  2
HIDDEN2
 70
     0
  3
_ _ _ _ _ _ _ _ _ _ _ _ _ _ _ _ _ _ _ _ _ _ _ _
 72
    65
 73
     2
 40
0.1875
 49
0.125
 74
     0
 49
-0.0625
 74
     0
  0
ENDTAB
  0
TABLE
  2
LAYER
  5
2
330
0
100
AcDbSymbolTable
 70
    10
  0
LAYER
  5
F
330
2
100
AcDbSymbolTableRecord
100
AcDbLayerTableRecord
  2
0
 70
     0
 62
     7
  6
CONTINUOUS
  0
LAYER
  5
1AA
330
2
100
AcDbSymbolTableRecord
100
AcDbLayerTableRecord
  2
240
 70
     0
 62
     4
  6
CONTINUOUS
  0
LAYER
  5
1AB
330
2
100
AcDbSymbolTableRecord
100
AcDbLayerTableRecord
  2
241
 70
     0
 62
   211
  6
CONTINUOUS
  0
LAYER
  5
1AC
330
2
100
AcDbSymbolTableRecord
100
AcDbLayerTableRecord
  2
242
 70
     0
 62
     3
  6
CONTINUOUS
  0
LAYER
  5
1AF
330
2
100
AcDbSymbolTableRecord
100
AcDbLayerTableRecord
  2
245
 70
     0
 62
     2
  6
CENTER2
  0
LAYER
  5
21E
330
2
100
AcDbSymbolTableRecord
100
AcDbLayerTableRecord
  2
250
 70
     0
 62
     3
  6
CONTINUOUS
  0
LAYER
  5
21F
330
2
100
AcDbSymbolTableRecord
100
AcDbLayerTableRecord
  2
251
 70
     0
 62
    40
  6
CONTINUOUS
  0
LAYER
  5
5C4
330
2
100
AcDbSymbolTableRecord
100
AcDbLayerTableRecord
  2
DEFPOINTS
 70
     0
 62
     7
  6
CONTINUOUS
  0
ENDTAB
  0
TABLE
  2
STYLE
  5
3
330
0
100
AcDbSymbolTable
 70
     2
  0
STYLE
  5
10
330
3
100
AcDbSymbolTableRecord
100
AcDbTextStyleTableRecord
  2
STANDARD
 70
     0
 40
0.0
 41
1.0
 50
0.0
 71
     0
 42
3.0
  3
romans.shx
  4
BIGFONT.SHX
  0
STYLE
  5
339
330
3
100
AcDbSymbolTableRecord
100
AcDbTextStyleTableRecord
  2
YOKO
 70
     0
 40
0.0
 41
1.0
 50
0.0
 71
     0
 42
3.0
  3
romans.shx
  4
extfont.shx
  0
ENDTAB
  0
TABLE
  2
VIEW
  5
6
330
0
100
AcDbSymbolTable
 70
     0
  0
ENDTAB
  0
TABLE
  2
UCS
  5
7
330
0
100
AcDbSymbolTable
 70
     0
  0
ENDTAB
  0
TABLE
  2
APPID
  5
9
330
0
100
AcDbSymbolTable
 70
     9
  0
APPID
  5
11
330
9
100
AcDbSymbolTableRecord
100
AcDbRegAppTableRecord
  2
ACAD
 70
     0
  0
APPID
  5
1B1
330
9
100
AcDbSymbolTableRecord
100
AcDbRegAppTableRecord
  2
GLOBAL
 70
     0
  0
APPID
  5
2A4
330
9
100
AcDbSymbolTableRecord
100
AcDbRegAppTableRecord
  2
DETAIL
 70
     0
  0
APPID
  5
5FD
330
9
100
AcDbSymbolTableRecord
100
AcDbRegAppTableRecord
  2
GRPNAME
 70
     0
  0
APPID
  5
5FE
330
9
100
AcDbSymbolTableRecord
100
AcDbRegAppTableRecord
  2
GPARA
 70
     0
  0
APPID
  5
6C4
330
9
100
AcDbSymbolTableRecord
100
AcDbRegAppTableRecord
  2
DCO15
 70
     0
  0
APPID
  5
6C5
330
9
100
AcDbSymbolTableRecord
100
AcDbRegAppTableRecord
  2
ITEMNAME
 70
     0
  0
APPID
  5
6C6
330
9
100
AcDbSymbolTableRecord
100
AcDbRegAppTableRecord
  2
GRADE_0
 70
     0
  0
APPID
  5
FAB
330
9
100
AcDbSymbolTableRecord
100
AcDbRegAppTableRecord
  2
CONTENTBLOCKICON
 70
     0
  0
ENDTAB
  0
TABLE
  2
DIMSTYLE
  5
A
330
0
100
AcDbSymbolTable
 70
     2
  0
DIMSTYLE
105
725
102
{ACAD_REACTORS
330
1093
330
13FF
330
1400
102
}
330
A
100
AcDbSymbolTableRecord
100
AcDbDimStyleTableRecord
  2
BIGT
 70
     0
  3

  4

  5

  6
OPEN
  7
OPEN
 40
1.0
 41
2.23
 42
0.5
 43
2.5
 44
1.0
 45
0.0
 46
0.0
 47
0.0
 48
0.0
140
2.8
141
0.0
142
0.0
143
25.4
144
1.0
145
0.0
146
1.0
147
1.0
 71
     0
 72
     0
 73
     0
 74
     0
 75
     0
 76
     0
 77
     3
 78
     8
170
     0
171
     2
172
     1
173
     1
174
     1
175
     0
176
   256
177
   256
178
    40
270
     2
271
     3
272
     3
273
     2
274
     2
340
10
275
     0
280
     0
281
     0
282
     0
283
     1
284
     8
285
     0
286
     0
287
     3
288
     0
  0
DIMSTYLE
105
BEB
102
{ACAD_REACTORS
330
BF9
330
1595
102
}
330
A
100
AcDbSymbolTableRecord
100
AcDbDimStyleTableRecord
  2
BIGT$0
 70
     0
  3

  4
"
  5
OPEN
  6

  7

 40
1.0
 41
2.23
 42
0.5
 43
7.0
 44
1.0
 45
0.0
 46
0.0
 47
0.1
 48
0.1
140
3.0
141
0.0
142
0.0
143
0.0393701
144
1.0
145
0.0
146
0.71
147
1.0
 71
     0
 72
     0
 73
     0
 74
     0
 75
     0
 76
     0
 77
     3
 78
     8
170
     0
171
     2
172
     1
173
     0
174
     0
175
     0
176
     3
177
     3
178
    40
270
     2
271
     3
272
     3
273
     2
274
     2
340
10
275
     0
280
     0
281
     0
282
     0
283
     1
284
     8
285
     0
286
     0
287
     3
288
     0
  0
ENDTAB
  0
TABLE
  2
BLOCK_RECORD
  5
1
330
0
100
AcDbSymbolTable
 70
     9
  0
BLOCK_RECORD
  5
1A
102
{ACAD_XDICTIONARY
360
FA9
102
}
330
1
100
AcDbSymbolTableRecord
100
AcDbBlockTableRecord
  2
*MODEL_SPACE
  0
BLOCK_RECORD
  5
17
102
{ACAD_XDICTIONARY
360
FA7
102
}
330
1
100
AcDbSymbolTableRecord
100
AcDbBlockTableRecord
  2
*PAPER_SPACE
  0
BLOCK_RECORD
  5
594
330
1
100
AcDbSymbolTableRecord
100
AcDbBlockTableRecord
  2
_OPEN
  0
BLOCK_RECORD
  5
6E3
330
1
100
AcDbSymbolTableRecord
100
AcDbBlockTableRecord
  2
矢印なし
  0
BLOCK_RECORD
  5
C00
330
1
100
AcDbSymbolTableRecord
100
AcDbBlockTableRecord
  2
*D2
  0
BLOCK_RECORD
  5
10ED
330
1
100
AcDbSymbolTableRecord
100
AcDbBlockTableRecord
  2
*D3
  0
BLOCK_RECORD
  5
1550
330
1
100
AcDbSymbolTableRecord
100
AcDbBlockTableRecord
  2
*D4
  0
BLOCK_RECORD
  5
155C
330
1
100
AcDbSymbolTableRecord
100
AcDbBlockTableRecord
  2
*D5
  0
BLOCK_RECORD
  5
1596
330
1
100
AcDbSymbolTableRecord
100
AcDbBlockTableRecord
  2
*D6
  0
BLOCK_RECORD
  5
161F
330
1
100
AcDbSymbolTableRecord
100
AcDbBlockTableRecord
  2
1
1001
CONTENTBLOCKICON
1071
        0
1004
2800000020000000200000000100080000000000000400000000000000000000000000000000000000000000000080000080000000808000800000008000800080800000C0C0C000C0DCC000F0CAA6000020400000206000002080000020A0000020C0000020E00000400000004020000040400000406000004080000040A0
1004
000040C0000040E00000600000006020000060400000606000006080000060A0000060C0000060E00000800000008020000080400000806000008080000080A0000080C0000080E00000A0000000A0200000A0400000A0600000A0800000A0A00000A0C00000A0E00000C0000000C0200000C0400000C0600000C0800000C0
1004
A00000C0C00000C0E00000E0000000E0200000E0400000E0600000E0800000E0A00000E0C00000E0E00040000000400020004000400040006000400080004000A0004000C0004000E00040200000402020004020400040206000402080004020A0004020C0004020E000404000004040200040404000404060004040800040
1004
40A0004040C0004040E00040600000406020004060400040606000406080004060A0004060C0004060E00040800000408020004080400040806000408080004080A0004080C0004080E00040A0000040A0200040A0400040A0600040A0800040A0A00040A0C00040A0E00040C0000040C0200040C0400040C0600040C08000
1004
40C0A00040C0C00040C0E00040E0000040E0200040E0400040E0600040E0800040E0A00040E0C00040E0E00080000000800020008000400080006000800080008000A0008000C0008000E00080200000802020008020400080206000802080008020A0008020C0008020E00080400000804020008040400080406000804080
1004
008040A0008040C0008040E00080600000806020008060400080606000806080008060A0008060C0008060E00080800000808020008080400080806000808080008080A0008080C0008080E00080A0000080A0200080A0400080A0600080A0800080A0A00080A0C00080A0E00080C0000080C0200080C0400080C0600080C0
1004
800080C0A00080C0C00080C0E00080E0000080E0200080E0400080E0600080E0800080E0A00080E0C00080E0E000C0000000C0002000C0004000C0006000C0008000C000A000C000C000C000E000C0200000C0202000C0204000C0206000C0208000C020A000C020C000C020E000C0400000C0402000C0404000C0406000C0
1004
408000C040A000C040C000C040E000C0600000C0602000C0604000C0606000C0608000C060A000C060C000C060E000C0800000C0802000C0804000C0806000C0808000C080A000C080C000C080E000C0A00000C0A02000C0A04000C0A06000C0A08000C0A0A000C0A0C000C0A0E000C0C00000C0C02000C0C04000C0C06000
1004
C0C08000C0C0A000F0FBFF00A4A0A000808080000000FF0000FF000000FFFF00FF000000FF00FF00FFFF0000FFFFFF0000000000000000000000000000000000000000000000000000000000000000000000000000000000000000000000000000000000000000000000000000000000000000000000000000000000000000
1004
00000000000000000000000000000000000000000000000000000000000000000000000000000000000000000000000000000000000000000000000000000000000000000000000000000000000000000000000000000000000000000000000000000000000000000000000000000000000000000000000000000000000000
1004
00000000000000000000000000000000000000000000000000000000000000000000000000000000000000000000000000000000000000000000000000000000000000000000000000000000000000000000000000000000000000000000000000000000000000000000000000000000000000000000000000000000000000
1004
0000000000000000000000000000000000000000000000000000FEE7E7FE00000000000000000000000000000000000000000000000000000000FEE7E7FE0000000000000000000000000000000000000000000000FAFAFEFEFEFEE7E7FE0000000000000000000000000000000000000000000000E7000000E7FEE7E7FEFE
1004
FEFEFEFEFEFEFEFEFEFEFEFEFEFEFEFAE7E700000000E7000000E7FE0000FE00000000000000000000000000000000FEE7E7000000FBE7FBFBFBE7FEFBFBFEFBFBFBFBFBFBFBFBFBFBFBFBFBFBFBFBFEE7E7FB000000E7000000E7FEE7E7FEFEFEFEFEFEFEFEFEFEFEFEFEFEFEFEFEFEE7FE00000000FE000000E7FEE7E7FE
1004
0000000000000000000000000000000000000000000000FEFEFEFEFEFEE7E7FE00000000000000000000000000000000000000000000000000000000FEE7E7FE000000000000000000000000000000000000000000000000000000000000000000000000000000000000000000000000000000000000000000000000000000
1004
00000000000000000000000000000000000000000000000000000000000000000000000000000000000000000000000000000000000000000000000000000000000000000000000000000000000000000000000000000000000000000000000000000000000000000000000000000000000000000000000000000000000000
1004
00000000000000000000000000000000000000000000000000000000000000000000000000000000000000000000000000000000000000000000000000000000000000000000000000000000000000000000000000000000000000000000000000000000000000000000000000000000000000000000000000000000000000
1004
0000000000000000000000000000000000000000000000000000000000000000000000000000000000000000000000000000000000000000
  0
ENDTAB
  0
ENDSEC
  0
SECTION
  2
BLOCKS
  0
BLOCK
  5
1B
330
1A
100
AcDbEntity
  8
0
100
AcDbBlockBegin
  2
*MODEL_SPACE
 70
     0
 10
0.0
 20
0.0
 30
0.0
  3
*MODEL_SPACE
  1

  0
ENDBLK
  5
1C
330
1A
100
AcDbEntity
  8
0
100
AcDbBlockEnd
  0
BLOCK
  5
18
330
17
100
AcDbEntity
 67
     1
  8
0
100
AcDbBlockBegin
  2
*PAPER_SPACE
 70
     0
 10
0.0
 20
0.0
 30
0.0
  3
*PAPER_SPACE
  1

  0
ENDBLK
  5
19
330
17
100
AcDbEntity
 67
     1
  8
0
100
AcDbBlockEnd
  0
BLOCK
  5
598
330
594
100
AcDbEntity
  8
0
100
AcDbBlockBegin
  2
_OPEN
 70
     0
 10
0.0
 20
0.0
 30
0.0
  3
_OPEN
  1

  0
LINE
  5
595
330
594
100
AcDbEntity
  8
0
  6
BYBLOCK
 62
     0
100
AcDbLine
 10
-1.0
 20
0.16666667
 30
0.0
 11
0.0
 21
0.0
 31
0.0
  0
LINE
  5
596
330
594
100
AcDbEntity
  8
0
  6
BYBLOCK
 62
     0
100
AcDbLine
 10
-1.0
 20
-0.16666667
 30
0.0
 11
0.0
 21
0.0
 31
0.0
  0
LINE
  5
597
330
594
100
AcDbEntity
  8
0
  6
BYBLOCK
 62
     0
100
AcDbLine
 10
0.0
 20
0.0
 30
0.0
 11
-1.0
 21
0.0
 31
0.0
  0
ENDBLK
  5
599
330
594
100
AcDbEntity
  8
0
100
AcDbBlockEnd
  0
BLOCK
  5
6E4
330
6E3
100
AcDbEntity
  8
0
100
AcDbBlockBegin
  2
矢印なし
 70
     0
 10
0.0
 20
0.0
 30
0.0
  3
矢印なし
  1

  0
ENDBLK
  5
6E5
330
6E3
100
AcDbEntity
  8
0
100
AcDbBlockEnd
  0
BLOCK
  5
C0A
330
C00
100
AcDbEntity
  8
0
100
AcDbBlockBegin
  2
*D2
 70
     1
 10
0.0
 20
0.0
 30
0.0
  3
*D2
  1

  0
LINE
  5
1616
330
C00
100
AcDbEntity
  8
250
  6
CONTINUOUS
 62
     3
100
AcDbLine
 10
0.0
 20
31.4925
 30
0.0
 11
0.0
 21
53.5
 31
0.0
  0
LINE
  5
1617
330
C00
100
AcDbEntity
  8
250
  6
CONTINUOUS
 62
     3
100
AcDbLine
 10
165.0
 20
12.09289322
 30
0.0
 11
165.0
 21
53.5
 31
0.0
  0
LINE
  5
1618
330
C00
100
AcDbEntity
  8
250
  6
CONTINUOUS
 62
     3
100
AcDbLine
 10
2.23
 20
52.5
 30
0.0
 11
162.77
 21
52.5
 31
0.0
  0
INSERT
  5
1619
330
C00
100
AcDbEntity
  8
250
  6
CONTINUOUS
 62
     3
100
AcDbBlockReference
  2
_OPEN
 10
0.0
 20
52.5
 30
0.0
 41
2.23
 42
2.23
 43
2.23
 50
180.0
  0
INSERT
  5
161A
330
C00
100
AcDbEntity
  8
250
  6
CONTINUOUS
 62
     3
100
AcDbBlockReference
  2
_OPEN
 10
165.0
 20
52.5
 30
0.0
 41
2.23
 42
2.23
 43
2.23
  0
MTEXT
  5
161B
330
C00
100
AcDbEntity
  8
250
  6
CONTINUOUS
 62
    40
100
AcDbMText
 10
82.5
 20
55.0
 30
0.0
 40
3.0
 41
0.0
 71
     5
 72
     1
  1
\A1;165
1001
ACAD
1000
MTEXTBEGIN
1070
    73
1070
     1
1070
    44
1040
1.0
1070
    74
1070
     0
1000
MTEXTEND
1000
MTEXTBEGIN
1070
    73
1070
     1
1070
    44
1040
1.0
1070
    74
1070
     0
1000
MTEXTEND
  0
POINT
  5
161C
330
C00
100
AcDbEntity
  8
DEFPOINTS
  6
CONTINUOUS
 62
     0
100
AcDbPoint
 10
0.0
 20
30.9925
 30
0.0
  0
POINT
  5
161D
330
C00
100
AcDbEntity
  8
DEFPOINTS
  6
CONTINUOUS
 62
     0
100
AcDbPoint
 10
165.0
 20
11.59289322
 30
0.0
  0
POINT
  5
161E
330
C00
100
AcDbEntity
  8
DEFPOINTS
  6
CONTINUOUS
 62
     0
100
AcDbPoint
 10
165.0
 20
52.5
 30
0.0
  0
ENDBLK
  5
C0B
330
C00
100
AcDbEntity
  8
0
100
AcDbBlockEnd
  0
BLOCK
  5
10F7
330
10ED
100
AcDbEntity
  8
0
100
AcDbBlockBegin
  2
*D3
 70
     1
 10
0.0
 20
0.0
 30
0.0
  3
*D3
  1

  0
LINE
  5
17D5
330
10ED
100
AcDbEntity
  8
250
  6
CONTINUOUS
100
AcDbLine
 10
9.0
 20
1.5
 30
0.0
 11
9.0
 21
46.5
 31
0.0
  0
LINE
  5
17D6
330
10ED
100
AcDbEntity
  8
250
  6
CONTINUOUS
100
AcDbLine
 10
165.0
 20
12.09289322
 30
0.0
 11
165.0
 21
46.5
 31
0.0
  0
LINE
  5
17D7
330
10ED
100
AcDbEntity
  8
250
  6
CONTINUOUS
100
AcDbLine
 10
11.23
 20
45.5
 30
0.0
 11
162.77
 21
45.5
 31
0.0
  0
INSERT
  5
17D8
330
10ED
100
AcDbEntity
  8
250
  6
CONTINUOUS
100
AcDbBlockReference
  2
_OPEN
 10
9.0
 20
45.5
 30
0.0
 41
2.23
 42
2.23
 43
2.23
 50
180.0
  0
INSERT
  5
17D9
330
10ED
100
AcDbEntity
  8
250
  6
CONTINUOUS
100
AcDbBlockReference
  2
_OPEN
 10
165.0
 20
45.5
 30
0.0
 41
2.23
 42
2.23
 43
2.23
  0
MTEXT
  5
17DA
330
10ED
100
AcDbEntity
  8
250
  6
CONTINUOUS
 62
    40
100
AcDbMText
 10
91.12579971
 20
47.9
 30
0.0
 40
2.8
 41
0.0
 71
     5
 72
     1
  1
\A1;（max.156）
1001
ACAD
1000
MTEXTBEGIN
1070
    73
1070
     1
1070
    44
1040
1.0
1070
    74
1070
     0
1000
MTEXTEND
  0
POINT
  5
17DB
330
10ED
100
AcDbEntity
  8
DEFPOINTS
  6
CONTINUOUS
 62
     0
100
AcDbPoint
 10
9.0
 20
1.0
 30
0.0
  0
POINT
  5
17DC
330
10ED
100
AcDbEntity
  8
DEFPOINTS
  6
CONTINUOUS
 62
     0
100
AcDbPoint
 10
165.0
 20
11.59289322
 30
0.0
  0
POINT
  5
17DD
330
10ED
100
AcDbEntity
  8
DEFPOINTS
  6
CONTINUOUS
 62
     0
100
AcDbPoint
 10
165.0
 20
45.5
 30
0.0
  0
ENDBLK
  5
10F8
330
10ED
100
AcDbEntity
  8
0
100
AcDbBlockEnd
  0
BLOCK
  5
155A
330
1550
100
AcDbEntity
  8
0
100
AcDbBlockBegin
  2
*D4
 70
     1
 10
0.0
 20
0.0
 30
0.0
  3
*D4
  1

  0
LINE
  5
15CE
330
1550
100
AcDbEntity
  8
250
  6
CONTINUOUS
100
AcDbLine
 10
164.55147186
 20
-12.5
 30
0.0
 11
183.08759196
 21
-12.5
 31
0.0
  0
LINE
  5
15CF
330
1550
100
AcDbEntity
  8
250
  6
CONTINUOUS
100
AcDbLine
 10
164.55147186
 20
12.5
 30
0.0
 11
183.08759196
 21
12.5
 31
0.0
  0
LINE
  5
15D0
330
1550
100
AcDbEntity
  8
250
  6
CONTINUOUS
100
AcDbLine
 10
182.08759196
 20
-10.5
 30
0.0
 11
182.08759196
 21
10.5
 31
0.0
  0
INSERT
  5
15D1
330
1550
100
AcDbEntity
  8
250
  6
CONTINUOUS
100
AcDbBlockReference
  2
_OPEN
 10
182.08759196
 20
-12.5
 30
0.0
 41
2.0
 42
2.0
 43
2.0
 50
270.0
  0
INSERT
  5
15D2
330
1550
100
AcDbEntity
  8
250
  6
CONTINUOUS
100
AcDbBlockReference
  2
_OPEN
 10
182.08759196
 20
12.5
 30
0.0
 41
2.0
 42
2.0
 43
2.0
 50
90.0
  0
MTEXT
  5
15D3
330
1550
100
AcDbEntity
  8
250
  6
CONTINUOUS
 62
    40
100
AcDbMText
 10
179.68759196
 20
0.0
 30
0.0
 40
2.8
 41
0.0
 71
     5
 72
     1
  1
\A1;{\H2.8;\U+2205}25
 11
0.0
 21
1.0
 31
0.0
1001
ACAD
1000
MTEXTBEGIN
1070
    73
1070
     1
1070
    44
1040
1.0
1070
    74
1070
     0
1000
MTEXTEND
1000
MTEXTBEGIN
1070
    73
1070
     1
1070
    44
1040
1.0
1070
    74
1070
     0
1000
MTEXTEND
  0
POINT
  5
15D4
330
1550
100
AcDbEntity
  8
DEFPOINTS
  6
CONTINUOUS
 62
     0
100
AcDbPoint
 10
164.05147186
 20
-12.5
 30
0.0
  0
POINT
  5
15D5
330
1550
100
AcDbEntity
  8
DEFPOINTS
  6
CONTINUOUS
 62
     0
100
AcDbPoint
 10
164.05147186
 20
12.5
 30
0.0
  0
POINT
  5
15D6
330
1550
100
AcDbEntity
  8
DEFPOINTS
  6
CONTINUOUS
 62
     0
100
AcDbPoint
 10
182.08759196
 20
12.5
 30
0.0
  0
ENDBLK
  5
155B
330
1550
100
AcDbEntity
  8
0
100
AcDbBlockEnd
  0
BLOCK
  5
1565
330
155C
100
AcDbEntity
  8
0
100
AcDbBlockBegin
  2
*D5
 70
     1
 10
0.0
 20
0.0
 30
0.0
  3
*D5
  1

  0
LINE
  5
17BB
330
155C
100
AcDbEntity
  8
250
  6
CONTINUOUS
100
AcDbLine
 10
165.5
 20
4.0
 30
0.0
 11
175.90145155
 21
4.0
 31
0.0
  0
LINE
  5
17BC
330
155C
100
AcDbEntity
  8
250
  6
CONTINUOUS
100
AcDbLine
 10
174.90145155
 20
-2.0
 30
0.0
 11
174.90145155
 21
2.0
 31
0.0
  0
INSERT
  5
17BD
330
155C
100
AcDbEntity
  8
250
  6
CONTINUOUS
100
AcDbBlockReference
  2
矢印なし
 10
174.90145155
 20
-4.0
 30
0.0
 41
2.0
 42
2.0
 43
2.0
 50
270.0
  0
INSERT
  5
17BE
330
155C
100
AcDbEntity
  8
250
  6
CONTINUOUS
100
AcDbBlockReference
  2
_OPEN
 10
174.90145155
 20
4.0
 30
0.0
 41
2.0
 42
2.0
 43
2.0
 50
90.0
  0
MTEXT
  5
17BF
330
155C
100
AcDbEntity
  8
250
  6
CONTINUOUS
 62
    40
100
AcDbMText
 10
172.50145155
 20
0.0
 30
0.0
 40
2.8
 41
0.0
 71
     5
 72
     1
  1
\A1;max.φ8
 11
0.0
 21
1.0
 31
0.0
1001
ACAD
1000
MTEXTBEGIN
1070
    73
1070
     1
1070
    44
1040
1.0
1070
    74
1070
     0
1000
MTEXTEND
  0
POINT
  5
17C0
330
155C
100
AcDbEntity
  8
DEFPOINTS
  6
CONTINUOUS
 62
     0
100
AcDbPoint
 10
165.0
 20
-4.0
 30
0.0
  0
POINT
  5
17C1
330
155C
100
AcDbEntity
  8
DEFPOINTS
  6
CONTINUOUS
 62
     0
100
AcDbPoint
 10
165.0
 20
4.0
 30
0.0
  0
POINT
  5
17C2
330
155C
100
AcDbEntity
  8
DEFPOINTS
  6
CONTINUOUS
 62
     0
100
AcDbPoint
 10
174.90145155
 20
4.0
 30
0.0
  0
ENDBLK
  5
1566
330
155C
100
AcDbEntity
  8
0
100
AcDbBlockEnd
  0
BLOCK
  5
15A0
330
1596
100
AcDbEntity
  8
0
100
AcDbBlockBegin
  2
*D6
 70
     1
 10
0.0
 20
0.0
 30
0.0
  3
*D6
  1

  0
LINE
  5
1604
330
1596
100
AcDbEntity
  8
250
  6
CONTINUOUS
 62
     3
100
AcDbLine
 10
22.0
 20
30.9925
 30
0.0
 11
22.0
 21
39.5
 31
0.0
  0
LINE
  5
1605
330
1596
100
AcDbEntity
  8
250
  6
CONTINUOUS
 62
     3
100
AcDbLine
 10
165.0
 20
12.09289322
 30
0.0
 11
165.0
 21
39.5
 31
0.0
  0
LINE
  5
1606
330
1596
100
AcDbEntity
  8
250
  6
CONTINUOUS
 62
     3
100
AcDbLine
 10
24.23
 20
38.5
 30
0.0
 11
162.77
 21
38.5
 31
0.0
  0
INSERT
  5
1607
330
1596
100
AcDbEntity
  8
250
  6
CONTINUOUS
 62
     3
100
AcDbBlockReference
  2
_OPEN
 10
22.0
 20
38.5
 30
0.0
 41
2.23
 42
2.23
 43
2.23
 50
180.0
  0
INSERT
  5
1608
330
1596
100
AcDbEntity
  8
250
  6
CONTINUOUS
 62
     3
100
AcDbBlockReference
  2
_OPEN
 10
165.0
 20
38.5
 30
0.0
 41
2.23
 42
2.23
 43
2.23
  0
MTEXT
  5
1609
330
1596
100
AcDbEntity
  8
250
  6
CONTINUOUS
 62
    40
100
AcDbMText
 10
93.5
 20
41.0
 30
0.0
 40
3.0
 41
0.0
 71
     5
 72
     1
  1
\A1;143
1001
ACAD
1000
MTEXTBEGIN
1070
    73
1070
     1
1070
    44
1040
1.0
1070
    74
1070
     0
1000
MTEXTEND
1000
MTEXTBEGIN
1070
    73
1070
     1
1070
    44
1040
1.0
1070
    74
1070
     0
1000
MTEXTEND
  0
POINT
  5
160A
330
1596
100
AcDbEntity
  8
DEFPOINTS
  6
CONTINUOUS
 62
     0
100
AcDbPoint
 10
22.0
 20
30.4925
 30
0.0
  0
POINT
  5
160B
330
1596
100
AcDbEntity
  8
DEFPOINTS
  6
CONTINUOUS
 62
     0
100
AcDbPoint
 10
165.0
 20
11.59289322
 30
0.0
  0
POINT
  5
160C
330
1596
100
AcDbEntity
  8
DEFPOINTS
  6
CONTINUOUS
 62
     0
100
AcDbPoint
 10
165.0
 20
38.5
 30
0.0
  0
ENDBLK
  5
15A1
330
1596
100
AcDbEntity
  8
0
100
AcDbBlockEnd
  0
BLOCK
  5
1620
330
161F
100
AcDbEntity
  8
0
100
AcDbBlockBegin
  2
1
 70
     0
 10
0.0
 20
0.0
 30
0.0
  3
1
  1

  0
LINE
  5
1622
330
161F
100
AcDbEntity
  8
240
  6
CONTINUOUS
100
AcDbLine
 10
148.248
 20
12.25
 30
0.0
 11
32.0
 21
12.25
 31
0.0
  0
LINE
  5
1623
330
161F
100
AcDbEntity
  8
240
  6
CONTINUOUS
100
AcDbLine
 10
148.24799995
 20
-12.24999999
 30
0.0
 11
32.00000096
 21
-12.24998879
 31
0.0
  0
LINE
  5
1624
330
161F
100
AcDbEntity
  8
245
  6
CENTER2
100
AcDbLine
 10
-39.0
 20
0.0
 30
0.0
 11
166.0
 21
0.0
 31
0.0
  0
LINE
  5
1625
330
161F
100
AcDbEntity
  8
240
  6
CONTINUOUS
100
AcDbLine
 10
22.0
 20
-30.4925
 30
0.0
 11
22.0
 21
30.4925
 31
0.0
  0
LINE
  5
1626
330
161F
100
AcDbEntity
  8
240
  6
CONTINUOUS
100
AcDbLine
 10
0.0
 20
30.9925
 30
0.0
 11
0.0
 21
-30.9925
 31
0.0
  0
SPLINE
  5
1627
330
161F
100
AcDbEntity
  8
241
  6
CONTINUOUS
100
AcDbSpline
210
0.0
220
0.0
230
1.0
 70
     8
 71
     3
 72
     9
 73
     5
 74
     3
 42
0.0000000001
 43
0.0000000001
 44
0.0000000001
 40
0.0
 40
0.0
 40
0.0
 40
0.0
 40
10.74384375536296
 40
21.48768751072607
 40
21.48768751072607
 40
21.48768751072607
 40
21.48768751072607
 10
9.9500000000001
 20
8.992341421163501
 30
0.0
 10
9.057475418454039
 20
12.52384689373144
 30
0.0
 10
7.272426255361907
 20
19.58685783886736
 30
0.0
 10
9.057475418453993
 20
26.6498687840033
 30
0.0
 10
9.950000000000043
 20
30.1813742565713
 30
0.0
 11
9.9500000000001
 21
8.992341421163501
 31
0.0
 11
8.164950836907962
 21
19.58685783886732
 31
0.0
 11
9.950000000000043
 21
30.1813742565713
 31
0.0
  0
LINE
  5
1628
330
161F
100
AcDbEntity
  8
241
  6
CONTINUOUS
100
AcDbLine
 10
9.95
 20
8.99234142
 30
0.0
 11
9.95
 21
30.18137426
 31
0.0
  0
SPLINE
  5
1629
330
161F
100
AcDbEntity
  8
241
  6
CONTINUOUS
100
AcDbSpline
210
0.0
220
0.0
230
1.0
 70
     8
 71
     3
 72
     9
 73
     5
 74
     3
 42
0.0000000001
 43
0.0000000001
 44
0.0000000001
 40
0.0
 40
0.0
 40
0.0
 40
0.0
 40
10.74384375536299
 40
21.48768751072605
 40
21.48768751072605
 40
21.48768751072605
 40
21.48768751072605
 10
14.05000000000018
 20
30.1813742565713
 30
0.0
 10
14.94252458154622
 20
26.64986878400334
 30
0.0
 10
16.72757374463832
 20
19.58685783886741
 30
0.0
 10
14.94252458154617
 20
12.52384689373149
 30
0.0
 10
14.05000000000009
 20
8.992341421163525
 30
0.0
 11
14.05000000000018
 21
30.1813742565713
 31
0.0
 11
15.83504916309226
 21
19.58685783886744
 31
0.0
 11
14.05000000000009
 21
8.992341421163525
 31
0.0
  0
LINE
  5
162A
330
161F
100
AcDbEntity
  8
241
  6
CONTINUOUS
100
AcDbLine
 10
14.05
 20
8.99234142
 30
0.0
 11
14.05
 21
30.18137426
 31
0.0
  0
LINE
  5
162B
330
161F
100
AcDbEntity
  8
240
  6
CONTINUOUS
100
AcDbLine
 10
-2.19993752
 20
-20.62000332
 30
0.0
 11
-36.5
 21
-19.76242639
 31
0.0
  0
LINE
  5
162C
330
161F
100
AcDbEntity
  8
240
  6
CONTINUOUS
100
AcDbLine
 10
-36.5
 20
22.56242639
 30
0.0
 11
-1.98947881
 21
23.42526525
 31
0.0
  0
LINE
  5
162D
330
161F
100
AcDbEntity
  8
240
  6
CONTINUOUS
100
AcDbLine
 10
-38.0
 20
-18.26242639
 30
0.0
 11
-38.0
 21
21.69640099
 31
0.0
  0
LINE
  5
162E
330
161F
100
AcDbEntity
  8
241
  6
CONTINUOUS
100
AcDbLine
 10
-36.5
 20
-19.76242639
 30
0.0
 11
-36.5
 21
22.56242639
 31
0.0
  0
LINE
  5
162F
330
161F
100
AcDbEntity
  8
242
  6
HIDDEN2
100
AcDbLine
 10
-38.0
 20
-18.0
 30
0.0
 11
-31.8
 21
-18.0
 31
0.0
  0
LINE
  5
1630
330
161F
100
AcDbEntity
  8
240
  6
CONTINUOUS
100
AcDbLine
 10
-36.5
 20
-19.76242639
 30
0.0
 11
-38.0
 21
-18.26242639
 31
0.0
  0
LINE
  5
1631
330
161F
100
AcDbEntity
  8
242
  6
HIDDEN2
100
AcDbLine
 10
-29.87185543
 20
-19.92814457
 30
0.0
 11
-31.8
 21
-18.0
 31
0.0
  0
LINE
  5
1632
330
161F
100
AcDbEntity
  8
242
  6
HIDDEN2
100
AcDbLine
 10
-31.8
 20
-19.87993672
 30
0.0
 11
-31.8
 21
-18.0
 31
0.0
  0
LINE
  5
1633
330
161F
100
AcDbEntity
  8
240
  6
CONTINUOUS
100
AcDbLine
 10
-38.0
 20
21.69640099
 30
0.0
 11
-36.5
 21
22.56242639
 31
0.0
  0
ARC
  5
1634
330
161F
100
AcDbEntity
  8
240
  6
CONTINUOUS
100
AcDbCircle
 10
32.0
 20
-22.24998879
 30
0.0
 40
10.0
100
AcDbArc
 50
89.99999448
 51
180.0
  0
LINE
  5
1635
330
161F
100
AcDbEntity
  8
241
  6
CONTINUOUS
100
AcDbLine
 10
14.05
 20
-8.99234142
 30
0.0
 11
14.05
 21
-30.18137426
 31
0.0
  0
SPLINE
  5
1636
330
161F
100
AcDbEntity
  8
241
  6
CONTINUOUS
100
AcDbSpline
210
0.0
220
0.0
230
1.0
 70
     8
 71
     3
 72
     9
 73
     5
 74
     3
 42
0.0000000001
 43
0.0000000001
 44
0.0000000001
 40
0.0
 40
0.0
 40
0.0
 40
0.0
 40
10.74384375536302
 40
21.48768751072608
 40
21.48768751072608
 40
21.48768751072608
 40
21.48768751072608
 10
14.05000000000018
 20
-30.1813742565713
 30
0.0
 10
14.94252458154622
 20
-26.64986878400333
 30
0.0
 10
16.72757374463832
 20
-19.58685783886739
 30
0.0
 10
14.94252458154617
 20
-12.52384689373147
 30
0.0
 10
14.05000000000009
 20
-8.992341421163501
 30
0.0
 11
14.05000000000018
 21
-30.1813742565713
 31
0.0
 11
15.83504916309226
 21
-19.58685783886741
 31
0.0
 11
14.05000000000009
 21
-8.992341421163501
 31
0.0
  0
LINE
  5
1637
330
161F
100
AcDbEntity
  8
241
  6
CONTINUOUS
100
AcDbLine
 10
9.95
 20
-8.99234142
 30
0.0
 11
9.95
 21
-30.18137426
 31
0.0
  0
SPLINE
  5
1638
330
161F
100
AcDbEntity
  8
241
  6
CONTINUOUS
100
AcDbSpline
210
0.0
220
0.0
230
1.0
 70
     8
 71
     3
 72
     9
 73
     5
 74
     3
 42
0.0000000001
 43
0.0000000001
 44
0.0000000001
 40
0.0
 40
0.0
 40
0.0
 40
0.0
 40
10.74384375536299
 40
21.48768751072609
 40
21.48768751072609
 40
21.48768751072609
 40
21.48768751072609
 10
9.9500000000001
 20
-8.992341421163501
 30
0.0
 10
9.057475418454039
 20
-12.52384689373145
 30
0.0
 10
7.272426255361907
 20
-19.58685783886738
 30
0.0
 10
9.057475418453995
 20
-26.64986878400333
 30
0.0
 10
9.950000000000043
 20
-30.18137425657132
 30
0.0
 11
9.9500000000001
 21
-8.992341421163501
 31
0.0
 11
8.164950836907962
 21
-19.58685783886735
 31
0.0
 11
9.950000000000043
 21
-30.18137425657132
 31
0.0
  0
LINE
  5
1639
330
161F
100
AcDbEntity
  8
240
  6
CONTINUOUS
100
AcDbLine
 10
0.5
 20
-31.4925
 30
0.0
 11
21.0
 21
-31.4925
 31
0.0
  0
LINE
  5
163A
330
161F
100
AcDbEntity
  8
241
  6
CONTINUOUS
100
AcDbLine
 10
9.95
 20
-30.18137426
 30
0.0
 11
14.05
 21
-30.18137426
 31
0.0
  0
ARC
  5
163B
330
161F
100
AcDbEntity
  8
240
  6
CONTINUOUS
100
AcDbCircle
 10
0.5
 20
-30.9925
 30
0.0
 40
0.5
100
AcDbArc
 50
180.0
 51
270.0
  0
ARC
  5
163C
330
161F
100
AcDbEntity
  8
240
  6
CONTINUOUS
100
AcDbCircle
 10
21.0
 20
-30.4925
 30
0.0
 40
1.0
100
AcDbArc
 50
270.0
 51
0.0
  0
LINE
  5
163D
330
161F
100
AcDbEntity
  8
241
  6
CONTINUOUS
100
AcDbLine
 10
9.95
 20
-8.99234142
 30
0.0
 11
14.05
 21
-8.99234142
 31
0.0
  0
LINE
  5
163E
330
161F
100
AcDbEntity
  8
241
  6
CONTINUOUS
100
AcDbLine
 10
9.95
 20
8.99234142
 30
0.0
 11
14.05
 21
8.99234142
 31
0.0
  0
LINE
  5
163F
330
161F
100
AcDbEntity
  8
241
100
AcDbLine
 10
-2.19993752
 20
-20.62000332
 30
0.0
 11
-2.19993752
 21
23.42000332
 31
0.0
  0
LINE
  5
1640
330
161F
100
AcDbEntity
  8
240
100
AcDbLine
 10
-2.19993752
 20
-20.62000332
 30
0.0
 11
0.0
 21
-20.62000332
 31
0.0
  0
LINE
  5
1641
330
161F
100
AcDbEntity
  8
240
100
AcDbLine
 10
-2.19993752
 20
23.42000332
 30
0.0
 11
0.0
 21
23.42000332
 31
0.0
  0
ARC
  5
1642
330
161F
100
AcDbEntity
  8
240
  6
CONTINUOUS
100
AcDbCircle
 10
32.0
 20
22.25
 30
0.0
 40
10.0
100
AcDbArc
 50
180.0
 51
270.0
  0
LINE
  5
1643
330
161F
100
AcDbEntity
  8
240
  6
CONTINUOUS
100
AcDbLine
 10
0.5
 20
31.4925
 30
0.0
 11
21.0
 21
31.4925
 31
0.0
  0
LINE
  5
1644
330
161F
100
AcDbEntity
  8
241
  6
CONTINUOUS
100
AcDbLine
 10
9.95
 20
30.18137426
 30
0.0
 11
14.05
 21
30.18137426
 31
0.0
  0
ARC
  5
1645
330
161F
100
AcDbEntity
  8
240
  6
CONTINUOUS
100
AcDbCircle
 10
0.5
 20
30.9925
 30
0.0
 40
0.5
100
AcDbArc
 50
90.0
 51
180.0
  0
ARC
  5
1646
330
161F
100
AcDbEntity
  8
240
  6
CONTINUOUS
100
AcDbCircle
 10
21.0
 20
30.4925
 30
0.0
 40
1.0
100
AcDbArc
 50
0.0
 51
90.0
  0
ARC
  5
1647
330
161F
100
AcDbEntity
  8
240
  6
CONTINUOUS
100
AcDbCircle
 10
154.9
 20
11.9
 30
0.0
 40
0.6000000000000229
100
AcDbArc
 50
89.99999999
 51
179.99999999
1001
GRPNAME
1000
PASTMD0T
  0
LWPOLYLINE
  5
1648
330
161F
100
AcDbEntity
  8
241
  6
CONTINUOUS
100
AcDbPolyline
 90
       70
 70
     0
 43
0.0
 10
154.3
 20
4.60350372
 10
154.30015547
 20
4.61038492
 10
154.3006218
 20
4.61726256
 10
154.30139874
 20
4.62413306
 10
154.30248589
 20
4.63099287
 10
154.3038827
 20
4.63783844
 10
154.30558843
 20
4.64466622
 10
154.30760221
 20
4.65147266
 10
154.30992298
 20
4.65825424
 10
154.31254955
 20
4.66500745
 10
154.31548055
 20
4.67172879
 10
154.31871447
 20
4.67841477
 10
154.32224963
 20
4.68506193
 10
154.32608419
 20
4.69166683
 10
154.33021618
 20
4.69822603
 10
154.33464345
 20
4.70473615
 10
154.3393637
 20
4.71119381
 10
154.34437449
 20
4.71759565
 10
154.34967322
 20
4.72393838
 10
154.35525715
 20
4.73021868
 10
154.36112338
 20
4.73643333
 10
154.36726887
 20
4.74257908
 10
154.37369044
 20
4.74865276
 10
154.38038476
 20
4.75465122
 10
154.38734836
 20
4.76057135
 10
154.39457763
 20
4.76641008
 10
154.40206882
 20
4.77216439
 10
154.40981806
 20
4.7778313
 10
154.41782133
 20
4.78340786
 10
154.42607448
 20
4.78889119
 10
154.43457323
 20
4.79427845
 10
154.44331317
 20
4.79956684
 10
154.45228979
 20
4.80475363
 10
154.46149842
 20
4.80983612
 10
154.4709343
 20
4.81481169
 10
154.48059253
 20
4.81967774
 10
154.49046811
 20
4.82443178
 10
154.50055593
 20
4.82907132
 10
154.51085075
 20
4.83359396
 10
154.52134723
 20
4.83799736
 10
154.53203995
 20
4.84227924
 10
154.54292335
 20
4.84643739
 10
154.55399181
 20
4.85046963
 10
154.56523957
 20
4.85437389
 10
154.57666082
 20
4.85814814
 10
154.58824963
 20
4.86179043
 10
154.6
 20
4.86529887
 10
154.61190584
 20
4.86867163
 10
154.62396098
 20
4.87190698
 10
154.63615917
 20
4.87500323
 10
154.64849409
 20
4.87795879
 10
154.66095935
 20
4.88077211
 10
154.67354848
 20
4.88344174
 10
154.68625497
 20
4.8859663
 10
154.69907223
 20
4.88834448
 10
154.71199362
 20
4.89057505
 10
154.72501244
 20
4.89265685
 10
154.73812194
 20
4.8945888
 10
154.75131533
 20
4.8963699
 10
154.76458577
 20
4.89799923
 10
154.77792639
 20
4.89947594
 10
154.79133027
 20
4.90079927
 10
154.80479047
 20
4.90196854
 10
154.81830001
 20
4.90298313
 10
154.83185189
 20
4.90384252
 10
154.84543908
 20
4.90454626
 10
154.85905455
 20
4.905094
 10
154.87269124
 20
4.90548544
 10
154.88634208
 20
4.90572039
 10
154.9
 20
4.90579872
1001
GRPNAME
1000
PASTMD0T
  0
LWPOLYLINE
  5
1690
330
161F
100
AcDbEntity
  8
241
  6
CONTINUOUS
100
AcDbPolyline
 90
       70
 70
     0
 43
0.0
 10
154.3
 20
7.20157993
 10
154.30015547
 20
7.20846113
 10
154.3006218
 20
7.21533877
 10
154.30139874
 20
7.22220927
 10
154.30248589
 20
7.22906909
 10
154.3038827
 20
7.23591465
 10
154.30558843
 20
7.24274243
 10
154.30760221
 20
7.24954887
 10
154.30992298
 20
7.25633046
 10
154.31254955
 20
7.26308367
 10
154.31548055
 20
7.269805
 10
154.31871447
 20
7.27649099
 10
154.32224963
 20
7.28313815
 10
154.32608419
 20
7.28974304
 10
154.33021618
 20
7.29630225
 10
154.33464345
 20
7.30281236
 10
154.3393637
 20
7.30927002
 10
154.34437449
 20
7.31567187
 10
154.34967322
 20
7.32201459
 10
154.35525715
 20
7.3282949
 10
154.36112338
 20
7.33450954
 10
154.36726887
 20
7.34065529
 10
154.37369044
 20
7.34672897
 10
154.38038476
 20
7.35272743
 10
154.38734836
 20
7.35864756
 10
154.39457763
 20
7.36448629
 10
154.40206882
 20
7.3702406
 10
154.40981806
 20
7.37590751
 10
154.41782133
 20
7.38148407
 10
154.42607448
 20
7.3869674
 10
154.43457323
 20
7.39235466
 10
154.44331317
 20
7.39764305
 10
154.45228979
 20
7.40282984
 10
154.46149842
 20
7.40791233
 10
154.4709343
 20
7.4128879
 10
154.48059253
 20
7.41775396
 10
154.49046811
 20
7.42250799
 10
154.50055593
 20
7.42714753
 10
154.51085075
 20
7.43167017
 10
154.52134723
 20
7.43607357
 10
154.53203995
 20
7.44035546
 10
154.54292335
 20
7.4445136
 10
154.55399181
 20
7.44854584
 10
154.56523957
 20
7.4524501
 10
154.57666082
 20
7.45622436
 10
154.58824963
 20
7.45986664
 10
154.6
 20
7.46337508
 10
154.61190584
 20
7.46674784
 10
154.62396098
 20
7.46998319
 10
154.63615917
 20
7.47307944
 10
154.64849409
 20
7.476035
 10
154.66095935
 20
7.47884832
 10
154.67354848
 20
7.48151795
 10
154.68625497
 20
7.48404251
 10
154.69907223
 20
7.48642069
 10
154.71199362
 20
7.48865126
 10
154.72501244
 20
7.49073306
 10
154.73812194
 20
7.49266501
 10
154.75131533
 20
7.49444611
 10
154.76458577
 20
7.49607544
 10
154.77792639
 20
7.49755215
 10
154.79133027
 20
7.49887548
 10
154.80479047
 20
7.50004475
 10
154.81830001
 20
7.50105934
 10
154.83185189
 20
7.50191873
 10
154.84543908
 20
7.50262247
 10
154.85905455
 20
7.50317021
 10
154.87269124
 20
7.50356165
 10
154.88634208
 20
7.5037966
 10
154.9
 20
7.50387493
1001
GRPNAME
1000
PASTMD0T
  0
LINE
  5
16D8
330
161F
100
AcDbEntity
  8
241
  6
CONTINUOUS
100
AcDbLine
 10
154.3
 20
6.79903811
 30
0.0
 11
161.0
 21
6.79903811
 31
0.0
1001
GRPNAME
1000
PASTMD0T
  0
LWPOLYLINE
  5
16D9
330
161F
100
AcDbEntity
  8
241
  6
CONTINUOUS
100
AcDbPolyline
 90
       70
 70
     0
 43
0.0
 10
154.3
 20
-7.20157993
 10
154.30015547
 20
-7.20846113
 10
154.3006218
 20
-7.21533877
 10
154.30139874
 20
-7.22220927
 10
154.30248589
 20
-7.22906909
 10
154.3038827
 20
-7.23591465
 10
154.30558843
 20
-7.24274243
 10
154.30760221
 20
-7.24954887
 10
154.30992298
 20
-7.25633046
 10
154.31254955
 20
-7.26308367
 10
154.31548055
 20
-7.269805
 10
154.31871447
 20
-7.27649099
 10
154.32224963
 20
-7.28313815
 10
154.32608419
 20
-7.28974304
 10
154.33021618
 20
-7.29630225
 10
154.33464345
 20
-7.30281236
 10
154.3393637
 20
-7.30927002
 10
154.34437449
 20
-7.31567187
 10
154.34967322
 20
-7.32201459
 10
154.35525715
 20
-7.3282949
 10
154.36112338
 20
-7.33450954
 10
154.36726887
 20
-7.34065529
 10
154.37369044
 20
-7.34672897
 10
154.38038476
 20
-7.35272743
 10
154.38734836
 20
-7.35864756
 10
154.39457763
 20
-7.36448629
 10
154.40206882
 20
-7.3702406
 10
154.40981806
 20
-7.37590751
 10
154.41782133
 20
-7.38148407
 10
154.42607448
 20
-7.3869674
 10
154.43457323
 20
-7.39235466
 10
154.44331317
 20
-7.39764305
 10
154.45228979
 20
-7.40282984
 10
154.46149842
 20
-7.40791233
 10
154.4709343
 20
-7.4128879
 10
154.48059253
 20
-7.41775396
 10
154.49046811
 20
-7.42250799
 10
154.50055593
 20
-7.42714753
 10
154.51085075
 20
-7.43167017
 10
154.52134723
 20
-7.43607357
 10
154.53203995
 20
-7.44035546
 10
154.54292335
 20
-7.4445136
 10
154.55399181
 20
-7.44854584
 10
154.56523957
 20
-7.4524501
 10
154.57666082
 20
-7.45622436
 10
154.58824963
 20
-7.45986664
 10
154.6
 20
-7.46337508
 10
154.61190584
 20
-7.46674784
 10
154.62396098
 20
-7.46998319
 10
154.63615917
 20
-7.47307944
 10
154.64849409
 20
-7.476035
 10
154.66095935
 20
-7.47884832
 10
154.67354848
 20
-7.48151795
 10
154.68625497
 20
-7.48404251
 10
154.69907223
 20
-7.48642069
 10
154.71199362
 20
-7.48865126
 10
154.72501244
 20
-7.49073306
 10
154.73812194
 20
-7.49266501
 10
154.75131533
 20
-7.49444611
 10
154.76458577
 20
-7.49607544
 10
154.77792639
 20
-7.49755215
 10
154.79133027
 20
-7.49887548
 10
154.80479047
 20
-7.50004475
 10
154.81830001
 20
-7.50105934
 10
154.83185189
 20
-7.50191873
 10
154.84543908
 20
-7.50262247
 10
154.85905455
 20
-7.50317021
 10
154.87269124
 20
-7.50356165
 10
154.88634208
 20
-7.5037966
 10
154.9
 20
-7.50387493
1001
GRPNAME
1000
PASTMD0T
  0
LWPOLYLINE
  5
1721
330
161F
100
AcDbEntity
  8
241
  6
CONTINUOUS
100
AcDbPolyline
 90
       70
 70
     0
 43
0.0
 10
154.3
 20
-4.60350372
 10
154.30015547
 20
-4.61038492
 10
154.3006218
 20
-4.61726256
 10
154.30139874
 20
-4.62413306
 10
154.30248589
 20
-4.63099287
 10
154.3038827
 20
-4.63783844
 10
154.30558843
 20
-4.64466622
 10
154.30760221
 20
-4.65147266
 10
154.30992298
 20
-4.65825424
 10
154.31254955
 20
-4.66500745
 10
154.31548055
 20
-4.67172879
 10
154.31871447
 20
-4.67841477
 10
154.32224963
 20
-4.68506193
 10
154.32608419
 20
-4.69166683
 10
154.33021618
 20
-4.69822603
 10
154.33464345
 20
-4.70473615
 10
154.3393637
 20
-4.71119381
 10
154.34437449
 20
-4.71759565
 10
154.34967322
 20
-4.72393838
 10
154.35525715
 20
-4.73021868
 10
154.36112338
 20
-4.73643333
 10
154.36726887
 20
-4.74257908
 10
154.37369044
 20
-4.74865276
 10
154.38038476
 20
-4.75465122
 10
154.38734836
 20
-4.76057135
 10
154.39457763
 20
-4.76641008
 10
154.40206882
 20
-4.77216439
 10
154.40981806
 20
-4.7778313
 10
154.41782133
 20
-4.78340786
 10
154.42607448
 20
-4.78889119
 10
154.43457323
 20
-4.79427845
 10
154.44331317
 20
-4.79956684
 10
154.45228979
 20
-4.80475363
 10
154.46149842
 20
-4.80983612
 10
154.4709343
 20
-4.81481169
 10
154.48059253
 20
-4.81967774
 10
154.49046811
 20
-4.82443178
 10
154.50055593
 20
-4.82907132
 10
154.51085075
 20
-4.83359396
 10
154.52134723
 20
-4.83799736
 10
154.53203995
 20
-4.84227924
 10
154.54292335
 20
-4.84643739
 10
154.55399181
 20
-4.85046963
 10
154.56523957
 20
-4.85437389
 10
154.57666082
 20
-4.85814814
 10
154.58824963
 20
-4.86179043
 10
154.6
 20
-4.86529887
 10
154.61190584
 20
-4.86867163
 10
154.62396098
 20
-4.87190698
 10
154.63615917
 20
-4.87500323
 10
154.64849409
 20
-4.87795879
 10
154.66095935
 20
-4.88077211
 10
154.67354848
 20
-4.88344174
 10
154.68625497
 20
-4.8859663
 10
154.69907223
 20
-4.88834448
 10
154.71199362
 20
-4.89057505
 10
154.72501244
 20
-4.89265685
 10
154.73812194
 20
-4.8945888
 10
154.75131533
 20
-4.8963699
 10
154.76458577
 20
-4.89799923
 10
154.77792639
 20
-4.89947594
 10
154.79133027
 20
-4.90079927
 10
154.80479047
 20
-4.90196854
 10
154.81830001
 20
-4.90298313
 10
154.83185189
 20
-4.90384252
 10
154.84543908
 20
-4.90454626
 10
154.85905455
 20
-4.905094
 10
154.87269124
 20
-4.90548544
 10
154.88634208
 20
-4.90572039
 10
154.9
 20
-4.90579872
1001
GRPNAME
1000
PASTMD0T
  0
ARC
  5
1769
330
161F
100
AcDbEntity
  8
240
  6
CONTINUOUS
100
AcDbCircle
 10
154.9
 20
-11.9
 30
0.0
 40
0.6000000000000229
100
AcDbArc
 50
180.00000009
 51
270.00000009
1001
GRPNAME
1000
PASTMD0T
  0
LINE
  5
176A
330
161F
100
AcDbEntity
  8
241
  6
CONTINUOUS
100
AcDbLine
 10
154.3
 20
-6.79903811
 30
0.0
 11
161.0
 21
-6.79903811
 31
0.0
1001
GRPNAME
1000
PASTMD0T
  0
LINE
  5
176B
330
161F
100
AcDbEntity
  8
241
  6
HIDDEN2
100
AcDbLine
 10
146.748
 20
4.73876463
 30
0.0
 11
161.147853
 21
6.25225016
 31
0.0
1001
GRPNAME
1000
PASTMD0T
  0
LINE
  5
176C
330
161F
100
AcDbEntity
  8
241
  6
HIDDEN2
100
AcDbLine
 10
146.747853
 20
4.0
 30
0.0
 11
165.0
 21
4.0
 31
0.0
1001
GRPNAME
1000
PASTMD0T
  0
LINE
  5
176D
330
161F
100
AcDbEntity
  8
242
  6
CONTINUOUS
100
AcDbLine
 10
151.248
 20
8.0
 30
0.0
 11
151.248
 21
-7.5
 31
0.0
  0
LINE
  5
176E
330
161F
100
AcDbEntity
  8
241
  6
HIDDEN2
100
AcDbLine
 10
146.748
 20
4.73876463
 30
0.0
 11
146.748
 21
0.0
 31
0.0
  0
LINE
  5
176F
330
161F
100
AcDbEntity
  8
240
  6
CONTINUOUS
100
AcDbLine
 10
149.248
 20
-11.24999999
 30
0.0
 11
149.248
 21
11.25
 31
0.0
  0
LINE
  5
1770
330
161F
100
AcDbEntity
  8
240
  6
CONTINUOUS
100
AcDbLine
 10
154.0
 20
-9.5
 30
0.0
 11
154.0
 21
9.5
 31
0.0
1001
GRPNAME
1000
PASTMD0T
  0
LINE
  5
1771
330
161F
100
AcDbEntity
  8
240
  6
CONTINUOUS
100
AcDbLine
 10
154.3
 20
-11.9
 30
0.0
 11
154.3
 21
11.9
 31
0.0
1001
GRPNAME
1000
PASTMD0T
  0
ARC
  5
1772
330
161F
100
AcDbEntity
  8
240
  6
CONTINUOUS
100
AcDbCircle
 10
150.248
 20
-9.0
 30
0.0
 40
1.0
100
AcDbArc
 50
90.0
 51
180.0
  0
ARC
  5
1773
330
161F
100
AcDbEntity
  8
240
  6
CONTINUOUS
100
AcDbCircle
 10
148.248
 20
-11.24999999
 30
0.0
 40
1.0
100
AcDbArc
 50
269.99999723
 51
0.0
  0
LINE
  5
1774
330
161F
100
AcDbEntity
  8
240
  6
CONTINUOUS
100
AcDbLine
 10
154.3
 20
-9.8
 30
0.0
 11
154.0
 21
-9.5
 31
0.0
1001
GRPNAME
1000
PASTMD0T
  0
LINE
  5
1775
330
161F
100
AcDbEntity
  8
242
  6
CONTINUOUS
100
AcDbLine
 10
151.248
 20
-7.5
 30
0.0
 11
154.0
 21
-7.5
 31
0.0
  0
LINE
  5
1776
330
161F
100
AcDbEntity
  8
240
  6
CONTINUOUS
100
AcDbLine
 10
150.248
 20
-8.0
 30
0.0
 11
154.0
 21
-8.0
 31
0.0
  0
LINE
  5
1777
330
161F
100
AcDbEntity
  8
242
  6
CONTINUOUS
100
AcDbLine
 10
151.248
 20
-7.5
 30
0.0
 11
150.3819746
 21
-8.0
 31
0.0
  0
ARC
  5
1778
330
161F
100
AcDbEntity
  8
240
  6
CONTINUOUS
100
AcDbCircle
 10
150.248
 20
9.0
 30
0.0
 40
1.0
100
AcDbArc
 50
180.0
 51
270.0
  0
LINE
  5
1779
330
161F
100
AcDbEntity
  8
240
  6
CONTINUOUS
100
AcDbLine
 10
154.0
 20
9.5
 30
0.0
 11
154.3
 21
9.8
 31
0.0
1001
GRPNAME
1000
PASTMD0T
  0
LINE
  5
177A
330
161F
100
AcDbEntity
  8
242
  6
CONTINUOUS
100
AcDbLine
 10
151.248
 20
7.5
 30
0.0
 11
154.0
 21
7.5
 31
0.0
  0
LINE
  5
177B
330
161F
100
AcDbEntity
  8
240
  6
CONTINUOUS
100
AcDbLine
 10
150.248
 20
8.0
 30
0.0
 11
154.0
 21
8.0
 31
0.0
  0
LINE
  5
177C
330
161F
100
AcDbEntity
  8
242
  6
CONTINUOUS
100
AcDbLine
 10
150.3819746
 20
8.0
 30
0.0
 11
151.248
 21
7.5
 31
0.0
  0
ARC
  5
177D
330
161F
100
AcDbEntity
  8
240
  6
CONTINUOUS
100
AcDbCircle
 10
148.248
 20
11.25
 30
0.0
 40
1.0
100
AcDbArc
 50
0.0
 51
90.0
  0
LINE
  5
177E
330
161F
100
AcDbEntity
  8
241
  6
CONTINUOUS
100
AcDbLine
 10
154.9
 20
-4.90579872
 30
0.0
 11
154.9
 21
4.90579872
 31
0.0
1001
GRPNAME
1000
PASTMD0T
  0
LINE
  5
177F
330
161F
100
AcDbEntity
  8
240
  6
CONTINUOUS
100
AcDbLine
 10
165.0
 20
11.59289322
 30
0.0
 11
165.0
 21
-11.59289322
 31
0.0
1001
GRPNAME
1000
PASTMD0T
  0
LINE
  5
1780
330
161F
100
AcDbEntity
  8
241
  6
CONTINUOUS
100
AcDbLine
 10
164.3
 20
12.41326866
 30
0.0
 11
164.3
 21
-12.5
 31
0.0
1001
GRPNAME
1000
PASTMD0T
  0
LINE
  5
1781
330
161F
100
AcDbEntity
  8
241
  6
CONTINUOUS
100
AcDbLine
 10
154.9
 20
-12.5
 30
0.0
 11
154.9
 21
-7.50387493
 31
0.0
1001
GRPNAME
1000
PASTMD0T
  0
LINE
  5
1782
330
161F
100
AcDbEntity
  8
240
  6
CONTINUOUS
100
AcDbLine
 10
154.9
 20
-12.5
 30
0.0
 11
164.05147186
 21
-12.5
 31
0.0
1001
GRPNAME
1000
PASTMD0T
  0
LINE
  5
1783
330
161F
100
AcDbEntity
  8
240
  6
CONTINUOUS
100
AcDbLine
 10
164.47573593
 20
-12.32426407
 30
0.0
 11
164.85355339
 21
-11.94644661
 31
0.0
1001
GRPNAME
1000
PASTMD0T
  0
ARC
  5
1784
330
161F
100
AcDbEntity
  8
240
  6
CONTINUOUS
100
AcDbCircle
 10
164.05147186
 20
-11.9
 30
0.0
 40
0.5999999999999659
100
AcDbArc
 50
270.00000004
 51
315.00000004
1001
GRPNAME
1000
PASTMD0T
  0
ARC
  5
1785
330
161F
100
AcDbEntity
  8
240
  6
CONTINUOUS
100
AcDbCircle
 10
164.5
 20
-11.59289322
 30
0.0
 40
0.499999999999964
100
AcDbArc
 50
315.00000004
 51
0.00000004
1001
GRPNAME
1000
PASTMD0T
  0
LINE
  5
1786
330
161F
100
AcDbEntity
  8
241
  6
CONTINUOUS
100
AcDbLine
 10
154.9
 20
-7.50387493
 30
0.0
 11
161.0
 21
-7.50387493
 31
0.0
1001
GRPNAME
1000
PASTMD0T
  0
LINE
  5
1787
330
161F
100
AcDbEntity
  8
241
  6
CONTINUOUS
100
AcDbLine
 10
154.9
 20
-4.90579872
 30
0.0
 11
161.0
 21
-4.90579872
 31
0.0
1001
GRPNAME
1000
PASTMD0T
  0
LINE
  5
1788
330
161F
100
AcDbEntity
  8
241
  6
CONTINUOUS
100
AcDbLine
 10
161.0
 20
-7.50387493
 30
0.0
 11
161.0
 21
-4.90579872
 31
0.0
1001
GRPNAME
1000
PASTMD0T
  0
LINE
  5
1789
330
161F
100
AcDbEntity
  8
240
  6
CONTINUOUS
100
AcDbLine
 10
154.9
 20
12.5
 30
0.0
 11
164.05147186
 21
12.5
 31
0.0
1001
GRPNAME
1000
PASTMD0T
  0
LINE
  5
178A
330
161F
100
AcDbEntity
  8
241
  6
HIDDEN2
100
AcDbLine
 10
165.0
 20
5.18066243
 30
0.0
 11
163.147853
 21
6.25
 31
0.0
1001
GRPNAME
1000
PASTMD0T
  0
LINE
  5
178B
330
161F
100
AcDbEntity
  8
241
  6
CONTINUOUS
100
AcDbLine
 10
154.9
 20
12.5
 30
0.0
 11
154.9
 21
7.50387493
 31
0.0
1001
GRPNAME
1000
PASTMD0T
  0
LINE
  5
178C
330
161F
100
AcDbEntity
  8
241
  6
CONTINUOUS
100
AcDbLine
 10
154.9
 20
4.90579872
 30
0.0
 11
161.0
 21
4.90579872
 31
0.0
1001
GRPNAME
1000
PASTMD0T
  0
LINE
  5
178D
330
161F
100
AcDbEntity
  8
241
  6
CONTINUOUS
100
AcDbLine
 10
154.9
 20
7.50387493
 30
0.0
 11
161.0
 21
7.50387493
 31
0.0
1001
GRPNAME
1000
PASTMD0T
  0
LINE
  5
178E
330
161F
100
AcDbEntity
  8
241
  6
CONTINUOUS
100
AcDbLine
 10
161.0
 20
7.50387493
 30
0.0
 11
161.0
 21
4.90579872
 31
0.0
1001
GRPNAME
1000
PASTMD0T
  0
LINE
  5
178F
330
161F
100
AcDbEntity
  8
241
  6
HIDDEN2
100
AcDbLine
 10
161.147853
 20
5.25
 30
0.0
 11
163.047853
 21
5.25
 31
0.0
1001
GRPNAME
1000
PASTMD0T
  0
LINE
  5
1790
330
161F
100
AcDbEntity
  8
241
  6
HIDDEN2
100
AcDbLine
 10
161.147853
 20
5.25
 30
0.0
 11
161.147853
 21
6.25225016
 31
0.0
1001
GRPNAME
1000
PASTMD0T
  0
LINE
  5
1791
330
161F
100
AcDbEntity
  8
241
  6
HIDDEN2
100
AcDbLine
 10
163.047853
 20
5.25
 30
0.0
 11
163.047853
 21
6.25
 31
0.0
1001
GRPNAME
1000
PASTMD0T
  0
LINE
  5
1792
330
161F
100
AcDbEntity
  8
241
  6
HIDDEN2
100
AcDbLine
 10
163.047853
 20
6.25
 30
0.0
 11
163.147853
 21
6.25
 31
0.0
1001
GRPNAME
1000
PASTMD0T
  0
LINE
  5
1793
330
161F
100
AcDbEntity
  8
240
  6
CONTINUOUS
100
AcDbLine
 10
164.85355339
 20
11.94644661
 30
0.0
 11
164.47573593
 21
12.32426407
 31
0.0
1001
GRPNAME
1000
PASTMD0T
  0
ARC
  5
1794
330
161F
100
AcDbEntity
  8
240
  6
CONTINUOUS
100
AcDbCircle
 10
164.05147186
 20
11.9
 30
0.0
 40
0.5999999999999888
100
AcDbArc
 50
44.99999993
 51
89.99999993
1001
GRPNAME
1000
PASTMD0T
  0
ARC
  5
1795
330
161F
100
AcDbEntity
  8
240
  6
CONTINUOUS
100
AcDbCircle
 10
164.5
 20
11.59289322
 30
0.0
 40
0.4999999999999433
100
AcDbArc
 50
0.00000004
 51
45.00000004
1001
GRPNAME
1000
PASTMD0T
  0
ENDBLK
  5
1621
330
161F
100
AcDbEntity
  8
0
100
AcDbBlockEnd
  0
ENDSEC
  0
SECTION
  2
ENTITIES
  0
INSERT
  5
6E6
330
1A
100
AcDbEntity
  8
245
100
AcDbBlockReference
  2
矢印なし
 10
175.62382697
 20
90.55123572
 30
0.0
  0
DIMENSION
  5
BF9
330
1A
100
AcDbEntity
  8
250
  6
CONTINUOUS
100
AcDbDimension
  2
*D2
 10
165.0
 20
52.5
 30
0.0
 11
82.5
 21
52.5
 31
0.0
 70
   160
  3
BIGT$0
100
AcDbAlignedDimension
 13
0.0
 23
30.9925
 33
0.0
 14
165.0
 24
11.59289322
 34
0.0
100
AcDbRotatedDimension
  0
MTEXT
  5
BFA
330
1A
100
AcDbEntity
  8
251
  6
CONTINUOUS
100
AcDbMText
 10
-28.46666667
 20
-27.0
 30
0.0
 40
2.8
 41
0.0
 71
     7
 72
     1
  1
C6
  7
YOKO
1001
ITEMNAME
1000
LNSP3
1001
ACAD
1000
MTEXTBEGIN
1070
    73
1070
     1
1070
    44
1040
1.0
1070
    74
1070
     0
1000
MTEXTEND
1000
MTEXTBEGIN
1070
    73
1070
     1
1070
    44
1040
1.0
1070
    74
1070
     0
1000
MTEXTEND
1000
MTEXTBEGIN
1070
    73
1070
     1
1070
    44
1040
1.0
1070
    74
1070
     0
1000
MTEXTEND
1000
MTEXTBEGIN
1070
    73
1070
     1
1070
    44
1040
1.0
1070
    74
1070
     0
1000
MTEXTEND
1000
MTEXTBEGIN
1070
    73
1070
     1
1070
    44
1040
1.0
1070
    74
1070
     0
1000
MTEXTEND
1000
MTEXTBEGIN
1070
    73
1070
     1
1070
    44
1040
1.0
1070
    74
1070
     0
1000
MTEXTEND
1000
MTEXTBEGIN
1070
    73
1070
     1
1070
    44
1040
1.0
1070
    74
1070
     0
1000
MTEXTEND
1000
MTEXTBEGIN
1070
    73
1070
     1
1070
    44
1040
1.0
1070
    74
1070
     0
1000
MTEXTEND
1000
MTEXTBEGIN
1070
    73
1070
     1
1070
    44
1040
1.0
1070
    74
1070
     0
1000
MTEXTEND
1000
MTEXTBEGIN
1070
    73
1070
     1
1070
    44
1040
1.0
1070
    74
1070
     0
1000
MTEXTEND
  0
LINE
  5
BFB
330
1A
100
AcDbEntity
  8
250
  6
CONTINUOUS
100
AcDbLine
 10
-21.0
 20
-28.0
 30
0.0
 11
-31.26666667
 21
-28.0
 31
0.0
1001
ITEMNAME
1000
LNSP2
  0
LEADER
  5
BFC
330
1A
100
AcDbEntity
  8
250
  6
CONTINUOUS
100
AcDbLeader
  3
BIGT
 76
     2
 10
-16.47540101
 20
-20.26308537
 30
0.0
 10
-21.0
 20
-28.0
 30
0.0
1001
ACAD
1000
DSTYLE
1002
{
1070
     6
1000
OPEN
1070
    41
1040
2.0
1070
    42
1040
2.0
1070
    44
1040
2.0
1070
   140
1040
4.0
1070
   343
1005
594
1002
}
  0
TEXT
  5
BFD
330
1A
100
AcDbEntity
  8
241
100
AcDbText
 10
-38.0
 20
66.5
 30
0.0
 40
5.0
  1
C6-NBS8-165
  7
YOKO
 11
-38.0
 21
66.5
 31
0.0
100
AcDbText
 73
     1
  0
DIMENSION
  5
1093
330
1A
100
AcDbEntity
  8
250
  6
CONTINUOUS
100
AcDbDimension
  2
*D3
 10
165.0
 20
45.5
 30
0.0
 11
91.12579971
 21
45.5
 31
0.0
 70
   160
  1
（max.<>）
  3
BIGT
100
AcDbAlignedDimension
 13
9.0
 23
1.0
 33
0.0
 14
165.0
 24
11.59289322
 34
0.0
100
AcDbRotatedDimension
  0
DIMENSION
  5
13FF
330
1A
100
AcDbEntity
  8
250
  6
CONTINUOUS
100
AcDbDimension
  2
*D4
 10
182.08759196
 20
12.5
 30
0.0
 11
179.68759196
 21
0.0
 31
0.0
 70
    32
  1
{\H2.8;\U+2205}<>
  3
BIGT
100
AcDbAlignedDimension
 13
164.05147186
 23
-12.5
 33
0.0
 14
164.05147186
 24
12.5
 34
0.0
 50
90.0
100
AcDbRotatedDimension
1001
ACAD
1000
DSTYLE
1002
{
1070
    41
1040
2.0
1002
}
  0
DIMENSION
  5
1400
330
1A
100
AcDbEntity
  8
250
  6
CONTINUOUS
100
AcDbDimension
  2
*D5
 10
174.90145155
 20
4.0
 30
0.0
 11
174.90145155
 21
0.0
 31
0.0
 70
   160
  1
max.φ8
  3
BIGT
100
AcDbAlignedDimension
 13
165.0
 23
-4.0
 33
0.0
 14
165.0
 24
4.0
 34
0.0
 50
90.0
100
AcDbRotatedDimension
1001
ACAD
1000
DSTYLE
1002
{
1070
    41
1040
2.0
1070
    75
1070
     1
1070
     6
1000
矢印なし
1002
}
  0
DIMENSION
  5
1595
330
1A
100
AcDbEntity
  8
250
  6
CONTINUOUS
100
AcDbDimension
  2
*D6
 10
165.0
 20
38.5
 30
0.0
 11
93.5
 21
41.0
 31
0.0
 70
    32
  3
BIGT$0
100
AcDbAlignedDimension
 13
22.0
 23
30.4925
 33
0.0
 14
165.0
 24
11.59289322
 34
0.0
100
AcDbRotatedDimension
  0
INSERT
  5
1796
330
1A
100
AcDbEntity
  8
245
100
AcDbBlockReference
  2
1
 10
0.0
 20
0.0
 30
0.0
  0
VIEWPORT
  5
22
330
17
100
AcDbEntity
 67
     1
  8
0
100
AcDbViewport
 10
261.51769912
 20
148.5
 30
0.0
 40
523.03539823
 41
297.0
 68
     1
 69
     1
1001
ACAD
1000
MVIEW
1002
{
1070
    16
1010
0.0
1020
0.0
1030
0.0
1010
0.0
1020
0.0
1030
1.0
1040
0.0
1040
297.0
1040
261.51769912
1040
148.5
1040
50.0
1040
0.0
1040
0.0
1070
     0
1070
   100
1070
     1
1070
     1
1070
     0
1070
     0
1070
     0
1070
     0
1040
0.0
1040
0.0
1040
0.0
1040
1.0
1040
1.0
1040
10.0
1040
10.0
1070
     0
1002
{
1002
}
1002
}
  0
ENDSEC
  0
SECTION
  2
OBJECTS
  0
DICTIONARY
  5
C
330
0
100
AcDbDictionary
  3
ACAD_GROUP
350
D
  3
ACAD_LAYOUT
350
565
  3
ACAD_MLINESTYLE
350
E
  3
ACAD_PLOTSETTINGS
350
566
  3
ACAD_PLOTSTYLENAME
350
563
  3
ACDBHEADERROUNDTRIPXREC
350
1804
  3
GRADE_DWG
350
540
  0
DICTIONARY
  5
FA9
330
1A
100
AcDbDictionary
280
     1
  3
ACAD_LAYOUTSELFREF
360
1826
  0
DICTIONARY
  5
FA7
330
17
100
AcDbDictionary
280
     1
  3
ACAD_LAYOUTSELFREF
360
1825
  0
DICTIONARY
  5
D
102
{ACAD_REACTORS
330
C
102
}
330
C
100
AcDbDictionary
  3
*A1
350
6C7
  3
*A2
350
6C8
  3
*A3
350
6D4
  3
*A4
350
6D5
  3
DREC-1
350
5FC
  3
DREC-2
350
654
  3
DREC-3
350
673
  0
DICTIONARY
  5
565
102
{ACAD_REACTORS
330
C
102
}
330
C
100
AcDbDictionary
  0
DICTIONARY
  5
E
102
{ACAD_REACTORS
330
C
102
}
330
C
100
AcDbDictionary
  3
STANDARD
350
13
  0
DICTIONARY
  5
566
102
{ACAD_REACTORS
330
C
102
}
330
C
100
AcDbDictionary
  3
A3_0_5倍_
350
758
  3
A3_1倍_
350
757
  3
A3_1倍__2000_
350
707
  3
A3_2倍_
350
759
  3
A4_0_5倍_
350
755
  3
A4_1倍_
350
754
  3
A4_1倍__2000_
350
708
  3
A4_2倍_
350
756
  0
ACDBDICTIONARYWDFLT
  5
563
102
{ACAD_REACTORS
330
C
102
}
330
C
100
AcDbDictionary
281
     1
  3
Normal
350
564
100
AcDbDictionaryWithDefault
340
564
  0
DICTIONARY
  5
1804
102
{ACAD_REACTORS
330
C
102
}
330
C
100
AcDbDictionary
  3
CEPSNTYPE
350
180E
  3
DIMSTYLEDATA
350
1812
  3
FINGERPRINTGUID
350
180F
  3
HYPERLINKBASE
350
1807
  3
INSUNITS
350
180D
  3
LAYOUTDICT
350
1809
  3
LWETCUNION
350
180C
  3
PLOTSETDICT
350
180A
  3
PLOTSTYLNAMDICT
350
180B
  3
PSVPSCALE
350
1811
  3
PUCSBASE
350
1815
  3
PUCSORGBACK
350
181B
  3
PUCSORGBOTTOM
350
1817
  3
PUCSORGFRONT
350
181A
  3
PUCSORGLEFT
350
1818
  3
PUCSORGRIGHT
350
1819
  3
PUCSORGTOP
350
1816
  3
PUCSORTHOREF
350
1813
  3
PUCSORTHOVIEW
350
1814
  3
STYLESHEET
350
1808
  3
TSTACKALIGN
350
1805
  3
TSTACKSIZE
350
1806
  3
UCSBASE
350
181E
  3
UCSORGBACK
350
1824
  3
UCSORGBOTTOM
350
1820
  3
UCSORGFRONT
350
1823
  3
UCSORGLEFT
350
1821
  3
UCSORGRIGHT
350
1822
  3
UCSORGTOP
350
181F
  3
UCSORTHOREF
350
181C
  3
UCSORTHOVIEW
350
181D
  3
VERSIONGUID
350
1810
  0
DICTIONARY
  5
540
102
{ACAD_REACTORS
330
C
102
}
330
C
100
AcDbDictionary
  3
VERSION
350
560
  0
XRECORD
  5
1826
102
{ACAD_REACTORS
330
FA9
102
}
330
FA9
100
AcDbXrecord
340
1A
  0
XRECORD
  5
1825
102
{ACAD_REACTORS
330
FA7
102
}
330
FA7
100
AcDbXrecord
340
17
  0
GROUP
  5
6C7
102
{ACAD_REACTORS
330
D
102
}
330
D
100
AcDbGroup
300

 70
     0
 71
     1
1001
GRPNAME
1000
DMA00
  0
GROUP
  5
6C8
102
{ACAD_REACTORS
330
D
102
}
330
D
100
AcDbGroup
300

 70
     0
 71
     1
1001
GRPNAME
1000
DMA00
  0
GROUP
  5
6D4
102
{ACAD_REACTORS
330
D
102
}
330
D
100
AcDbGroup
300

 70
     0
 71
     1
1001
GRPNAME
1000
DMA00
  0
GROUP
  5
6D5
102
{ACAD_REACTORS
330
D
102
}
330
D
100
AcDbGroup
300

 70
     0
 71
     1
1001
GRPNAME
1000
DMA00
  0
GROUP
  5
5FC
102
{ACAD_REACTORS
330
D
102
}
330
D
100
AcDbGroup
300

 70
     0
 71
     1
1001
GRPNAME
1000
DREC-
1001
GPARA
1000
xsiz
1000
44.182
1000
ysiz
1000
40.677
1000
angl
1000
0
1000
ctyp
1000
0
1000
csiz
1000
5
1000
lfnt
1000
cont
1000
hcnt
1000
hoff
1000
vcnt
1000
voff
1000
opnt
1000
4
1000
dxpt
1000
0
1000
dypt
1000
0
  0
GROUP
  5
654
102
{ACAD_REACTORS
330
D
102
}
330
D
100
AcDbGroup
300

 70
     0
 71
     1
1001
GRPNAME
1000
DREC-
1001
GPARA
1000
xsiz
1000
54.592
1000
ysiz
1000
53.036
1000
angl
1000
0
1000
ctyp
1000
0
1000
csiz
1000
5
1000
lfnt
1000
cont
1000
hcnt
1000
hoff
1000
vcnt
1000
voff
1000
opnt
1000
4
1000
dxpt
1000
0
1000
dypt
1000
0
  0
GROUP
  5
673
102
{ACAD_REACTORS
330
D
102
}
330
D
100
AcDbGroup
300

 70
     0
 71
     1
1001
GRPNAME
1000
DREC-
1001
GPARA
1000
xsiz
1000
30.363
1000
ysiz
1000
36.175
1000
angl
1000
0
1000
ctyp
1000
0
1000
csiz
1000
5
1000
lfnt
1000
cont
1000
hcnt
1000
hoff
1000
vcnt
1000
voff
1000
opnt
1000
4
1000
dxpt
1000
0
1000
dypt
1000
0
  0
MLINESTYLE
  5
13
102
{ACAD_REACTORS
330
E
102
}
330
E
100
AcDbMlineStyle
  2
STANDARD
 70
     0
  3

 62
     0
 51
90.0
 52
90.0
 71
     2
 49
0.5
 62
   256
  6
BYLAYER
 49
-0.5
 62
   256
  6
BYLAYER
  0
PLOTSETTINGS
  5
758
102
{ACAD_REACTORS
330
566
102
}
330
566
100
AcDbPlotSettings
  1
A3(0.5倍)
  2
\\AWTECPC05\HP DeskJet 1120C
  4
A3
  6

 40
5.95841646
 41
13.49375153
 42
6.04309082
 43
3.67242432
 44
296.92599487
 45
419.94665527
 46
89.96
 47
127.14
 48
0.0
 49
0.0
140
0.0
141
0.0
142
1.0
143
2.0
 70
  1716
 72
     1
 73
     1
 74
     2
  7
big.ctb
 75
    17
147
0.5
148
0.0
149
0.0
  0
PLOTSETTINGS
  5
757
102
{ACAD_REACTORS
330
566
102
}
330
566
100
AcDbPlotSettings
  1
A3(1倍)
  2
\\AWTECPC05\HP DeskJet 1120C
  4
A3
  6

 40
5.95841646
 41
13.49375153
 42
6.04309082
 43
3.67242432
 44
296.92599487
 45
419.94665527
 46
37.46
 47
52.89
 48
0.0
 49
0.0
140
0.0
141
0.0
142
1.0
143
1.0
 70
  1716
 72
     1
 73
     1
 74
     2
  7
big.ctb
 75
    16
147
1.0
148
0.0
149
0.0
  0
PLOTSETTINGS
  5
707
102
{ACAD_REACTORS
330
566
102
}
330
566
100
AcDbPlotSettings
  1
A3(1倍)(2000)
  2
SII LS-1300 (D-SCAN)
  4
User258
  6

 40
3.17499995
 41
3.17499995
 42
3.17498779
 43
3.17498779
 44
419.98898315
 45
296.98950195
 46
58.32
 47
40.32
 48
0.0
 49
0.0
140
0.0
141
0.0
142
1.0
143
1.0
 70
  1716
 72
     1
 73
     0
 74
     2
  7
big.ctb
 75
    16
147
1.0
148
0.0
149
0.0
  0
PLOTSETTINGS
  5
759
102
{ACAD_REACTORS
330
566
102
}
330
566
100
AcDbPlotSettings
  1
A3(2倍)
  2
\\AWTECPC05\HP DeskJet 1120C
  4
A3
  6

 40
5.95841646
 41
13.49375153
 42
6.04309082
 43
3.67242432
 44
296.92599487
 45
419.94665527
 46
-67.54
 47
-95.61
 48
0.0
 49
0.0
140
0.0
141
0.0
142
1.0
143
0.5
 70
  1716
 72
     1
 73
     1
 74
     2
  7
big.ctb
 75
    27
147
2.0
148
0.0
149
0.0
  0
PLOTSETTINGS
  5
755
102
{ACAD_REACTORS
330
566
102
}
330
566
100
AcDbPlotSettings
  1
A4(0.5倍)
  2
\\AWTECPC05\HP DeskJet 1120C
  4
A4
  6

 40
4.18041658
 41
13.49374962
 42
4.18040466
 43
3.92642212
 44
209.97332764
 45
296.92599487
 46
48.31
 47
65.5
 48
0.0
 49
0.0
140
0.0
141
0.0
142
1.0
143
2.0
 70
  1716
 72
     1
 73
     1
 74
     2
  7
big.ctb
 75
    17
147
0.5
148
0.0
149
0.0
  0
PLOTSETTINGS
  5
754
102
{ACAD_REACTORS
330
566
102
}
330
566
100
AcDbPlotSettings
  1
A4(1倍)
  2
\\AWTECPC05\HP DeskJet 1120C
  4
A4
  6

 40
4.18041658
 41
13.49374962
 42
4.18040466
 43
3.92642212
 44
209.97332764
 45
296.92599487
 46
-4.19
 47
-8.75
 48
0.0
 49
0.0
140
0.0
141
0.0
142
1.0
143
1.0
 70
  1716
 72
     1
 73
     1
 74
     2
  7
big.ctb
 75
    16
147
1.0
148
0.0
149
0.0
  0
PLOTSETTINGS
  5
708
102
{ACAD_REACTORS
330
566
102
}
330
566
100
AcDbPlotSettings
  1
A4(1倍)(2000)
  2
SII LS-1300 (D-SCAN)
  4
User259
  6

 40
3.17499995
 41
3.17499995
 42
3.17498779
 43
3.17500305
 44
296.98950195
 45
209.99449158
 46
-3.18
 47
-3.18
 48
0.0
 49
0.0
140
0.0
141
0.0
142
1.0
143
1.0
 70
  1716
 72
     1
 73
     0
 74
     2
  7
big.ctb
 75
    16
147
1.0
148
0.0
149
0.0
  0
PLOTSETTINGS
  5
756
102
{ACAD_REACTORS
330
566
102
}
330
566
100
AcDbPlotSettings
  1
A4(2倍)
  2
\\AWTECPC05\HP DeskJet 1120C
  4
A4
  6

 40
4.18041658
 41
13.49374962
 42
4.18040466
 43
3.92642212
 44
209.97332764
 45
296.92599487
 46
-109.19
 47
-157.25
 48
0.0
 49
0.0
140
0.0
141
0.0
142
1.0
143
0.5
 70
  1716
 72
     1
 73
     1
 74
     2
  7
big.ctb
 75
    27
147
2.0
148
0.0
149
0.0
  0
ACDBPLACEHOLDER
  5
564
102
{ACAD_REACTORS
330
563
102
}
330
563
100
AcDbPlaceHolder
280
     0
  0
XRECORD
  5
180E
102
{ACAD_REACTORS
330
1804
102
}
330
1804
100
AcDbXrecord
 90
        0
  0
XRECORD
  5
1812
102
{ACAD_REACTORS
330
1804
102
}
330
1804
100
AcDbXrecord
1000
DSTYLE
1002
{
1070
   341
340
594
1070
   343
340
594
1070
   344
340
594
1002
}
  0
XRECORD
  5
180F
102
{ACAD_REACTORS
330
1804
102
}
330
1804
100
AcDbXrecord
  1
{51294030-9CB4-11D3-8E18-00A0C925D94D}
  0
XRECORD
  5
1807
102
{ACAD_REACTORS
330
1804
102
}
330
1804
100
AcDbXrecord
  1

  0
XRECORD
  5
180D
102
{ACAD_REACTORS
330
1804
102
}
330
1804
100
AcDbXrecord
 90
        0
  0
XRECORD
  5
1809
102
{ACAD_REACTORS
330
1804
102
}
330
1804
100
AcDbXrecord
340
565
  0
XRECORD
  5
180C
102
{ACAD_REACTORS
330
1804
102
}
330
1804
100
AcDbXrecord
 90
    10781
  0
XRECORD
  5
180A
102
{ACAD_REACTORS
330
1804
102
}
330
1804
100
AcDbXrecord
340
566
  0
XRECORD
  5
180B
102
{ACAD_REACTORS
330
1804
102
}
330
1804
100
AcDbXrecord
340
563
  0
XRECORD
  5
1811
102
{ACAD_REACTORS
330
1804
102
}
330
1804
100
AcDbXrecord
 40
0.0
  0
XRECORD
  5
1815
102
{ACAD_REACTORS
330
1804
102
}
330
1804
100
AcDbXrecord
340
0
  0
XRECORD
  5
181B
102
{ACAD_REACTORS
330
1804
102
}
330
1804
100
AcDbXrecord
 10
0.0
 20
0.0
 30
0.0
  0
XRECORD
  5
1817
102
{ACAD_REACTORS
330
1804
102
}
330
1804
100
AcDbXrecord
 10
0.0
 20
0.0
 30
0.0
  0
XRECORD
  5
181A
102
{ACAD_REACTORS
330
1804
102
}
330
1804
100
AcDbXrecord
 10
0.0
 20
0.0
 30
0.0
  0
XRECORD
  5
1818
102
{ACAD_REACTORS
330
1804
102
}
330
1804
100
AcDbXrecord
 10
0.0
 20
0.0
 30
0.0
  0
XRECORD
  5
1819
102
{ACAD_REACTORS
330
1804
102
}
330
1804
100
AcDbXrecord
 10
0.0
 20
0.0
 30
0.0
  0
XRECORD
  5
1816
102
{ACAD_REACTORS
330
1804
102
}
330
1804
100
AcDbXrecord
 10
0.0
 20
0.0
 30
0.0
  0
XRECORD
  5
1813
102
{ACAD_REACTORS
330
1804
102
}
330
1804
100
AcDbXrecord
340
0
  0
XRECORD
  5
1814
102
{ACAD_REACTORS
330
1804
102
}
330
1804
100
AcDbXrecord
 70
     0
  0
XRECORD
  5
1808
102
{ACAD_REACTORS
330
1804
102
}
330
1804
100
AcDbXrecord
  1
big.ctb
  0
XRECORD
  5
1805
102
{ACAD_REACTORS
330
1804
102
}
330
1804
100
AcDbXrecord
 90
        1
  0
XRECORD
  5
1806
102
{ACAD_REACTORS
330
1804
102
}
330
1804
100
AcDbXrecord
 90
       70
  0
XRECORD
  5
181E
102
{ACAD_REACTORS
330
1804
102
}
330
1804
100
AcDbXrecord
340
0
  0
XRECORD
  5
1824
102
{ACAD_REACTORS
330
1804
102
}
330
1804
100
AcDbXrecord
 10
0.0
 20
0.0
 30
0.0
  0
XRECORD
  5
1820
102
{ACAD_REACTORS
330
1804
102
}
330
1804
100
AcDbXrecord
 10
0.0
 20
0.0
 30
0.0
  0
XRECORD
  5
1823
102
{ACAD_REACTORS
330
1804
102
}
330
1804
100
AcDbXrecord
 10
0.0
 20
0.0
 30
0.0
  0
XRECORD
  5
1821
102
{ACAD_REACTORS
330
1804
102
}
330
1804
100
AcDbXrecord
 10
0.0
 20
0.0
 30
0.0
  0
XRECORD
  5
1822
102
{ACAD_REACTORS
330
1804
102
}
330
1804
100
AcDbXrecord
 10
0.0
 20
0.0
 30
0.0
  0
XRECORD
  5
181F
102
{ACAD_REACTORS
330
1804
102
}
330
1804
100
AcDbXrecord
 10
0.0
 20
0.0
 30
0.0
  0
XRECORD
  5
181C
102
{ACAD_REACTORS
330
1804
102
}
330
1804
100
AcDbXrecord
340
0
  0
XRECORD
  5
181D
102
{ACAD_REACTORS
330
1804
102
}
330
1804
100
AcDbXrecord
 70
     0
  0
XRECORD
  5
1810
102
{ACAD_REACTORS
330
1804
102
}
330
1804
100
AcDbXrecord
  1
{7855F3C5-1FB9-4DD3-A2DC-F8F6B10B7A97}
  0
XRECORD
  5
560
102
{ACAD_REACTORS
330
540
102
}
330
540
100
AcDbXrecord
  1
2.0.0
  0
ENDSEC
  0
EOF
