  0
SECTION
  2
HEADER
  9
$ACADVER
  1
AC1014
  9
$ACADMAINTVER
 70
     9
  9
$DWGCODEPAGE
  3
ANSI_932
  9
$INSBASE
 10
0.0
 20
0.0
 30
0.0
  9
$EXTMIN
 10
-39.0140065
 20
-31.70963713
 30
-0.00152582
  9
$EXTMAX
 10
120.00691295
 20
71.51054552
 30
0.00000003
  9
$LIMMIN
 10
0.0
 20
0.0
  9
$LIMMAX
 10
420.0
 20
297.0
  9
$ORTHOMODE
 70
     0
  9
$REGENMODE
 70
     1
  9
$FILLMODE
 70
     1
  9
$QTEXTMODE
 70
     0
  9
$MIRRTEXT
 70
     1
  9
$DRAGMODE
 70
     2
  9
$LTSCALE
 40
10.0
  9
$OSMODE
 70
   549
  9
$ATTMODE
 70
     1
  9
$TEXTSIZE
 40
3.0
  9
$TRACEWID
 40
1.0
  9
$TEXTSTYLE
  7
YOKO
  9
$CLAYER
  8
245
  9
$CELTYPE
  6
BYLAYER
  9
$CECOLOR
 62
   256
  9
$CELTSCALE
 40
1.0
  9
$DELOBJ
 70
     1
  9
$DISPSILH
 70
     0
  9
$DIMSCALE
 40
1.0
  9
$DIMASZ
 40
2.0
  9
$DIMEXO
 40
2.0
  9
$DIMDLI
 40
2.5
  9
$DIMRND
 40
0.0
  9
$DIMDLE
 40
0.0
  9
$DIMEXE
 40
2.0
  9
$DIMTP
 40
0.0
  9
$DIMTM
 40
0.0
  9
$DIMTXT
 40
4.0
  9
$DIMCEN
 40
0.0
  9
$DIMTSZ
 40
0.0
  9
$DIMTOL
 70
     0
  9
$DIMLIM
 70
     0
  9
$DIMTIH
 70
     0
  9
$DIMTOH
 70
     0
  9
$DIMSE1
 70
     0
  9
$DIMSE2
 70
     0
  9
$DIMTAD
 70
     3
  9
$DIMZIN
 70
     8
  9
$DIMBLK
  1

  9
$DIMASO
 70
     1
  9
$DIMSHO
 70
     1
  9
$DIMPOST
  1

  9
$DIMAPOST
  1

  9
$DIMALT
 70
     0
  9
$DIMALTD
 70
     2
  9
$DIMALTF
 40
25.4
  9
$DIMLFAC
 40
1.0
  9
$DIMTOFL
 70
     1
  9
$DIMTVP
 40
0.0
  9
$DIMTIX
 70
     1
  9
$DIMSOXD
 70
     0
  9
$DIMSAH
 70
     1
  9
$DIMBLK1
  1
OPEN
  9
$DIMBLK2
  1
OPEN
  9
$DIMSTYLE
  2
BIGT
  9
$DIMCLRD
 70
   256
  9
$DIMCLRE
 70
   256
  9
$DIMCLRT
 70
    40
  9
$DIMTFAC
 40
1.0
  9
$DIMGAP
 40
1.0
  9
$DIMJUST
 70
     0
  9
$DIMSD1
 70
     0
  9
$DIMSD2
 70
     0
  9
$DIMTOLJ
 70
     1
  9
$DIMTZIN
 70
     8
  9
$DIMALTZ
 70
     0
  9
$DIMALTTZ
 70
     0
  9
$DIMFIT
 70
     3
  9
$DIMUPT
 70
     0
  9
$DIMUNIT
 70
     2
  9
$DIMDEC
 70
     3
  9
$DIMTDEC
 70
     3
  9
$DIMALTU
 70
     2
  9
$DIMALTTD
 70
     2
  9
$DIMTXSTY
  7
STANDARD
  9
$DIMAUNIT
 70
     0
  9
$LUNITS
 70
     2
  9
$LUPREC
 70
     3
  9
$SKETCHINC
 40
1.0
  9
$FILLETRAD
 40
10.0
  9
$AUNITS
 70
     0
  9
$AUPREC
 70
     3
  9
$MENU
  1
.
  9
$ELEVATION
 40
0.0
  9
$PELEVATION
 40
0.0
  9
$THICKNESS
 40
0.0
  9
$LIMCHECK
 70
     0
  9
$BLIPMODE
 70
     0
  9
$CHAMFERA
 40
10.0
  9
$CHAMFERB
 40
10.0
  9
$CHAMFERC
 40
0.0
  9
$CHAMFERD
 40
0.0
  9
$SKPOLY
 70
     0
  9
$TDCREATE
 40
2454970.450149189
  9
$TDUPDATE
 40
2455173.654039884
  9
$TDINDWG
 40
0.0189769560
  9
$TDUSRTIMER
 40
0.0189765972
  9
$USRTIMER
 70
     1
  9
$ANGBASE
 50
0.0
  9
$ANGDIR
 70
     0
  9
$PDMODE
 70
    35
  9
$PDSIZE
 40
-5.0
  9
$PLINEWID
 40
0.0
  9
$COORDS
 70
     0
  9
$SPLFRAME
 70
     0
  9
$SPLINETYPE
 70
     6
  9
$SPLINESEGS
 70
     8
  9
$ATTDIA
 70
     0
  9
$ATTREQ
 70
     1
  9
$HANDLING
 70
-16383
  9
$HANDSEED
  5
150A
  9
$SURFTAB1
 70
     6
  9
$SURFTAB2
 70
     6
  9
$SURFTYPE
 70
     6
  9
$SURFU
 70
     6
  9
$SURFV
 70
     6
  9
$UCSNAME
  2

  9
$UCSORG
 10
0.0
 20
0.0
 30
0.0
  9
$UCSXDIR
 10
1.0
 20
0.0
 30
0.0
  9
$UCSYDIR
 10
0.0
 20
1.0
 30
0.0
  9
$PUCSNAME
  2

  9
$PUCSORG
 10
0.0
 20
0.0
 30
0.0
  9
$PUCSXDIR
 10
1.0
 20
0.0
 30
0.0
  9
$PUCSYDIR
 10
0.0
 20
1.0
 30
0.0
  9
$USERI1
 70
     1
  9
$USERI2
 70
     0
  9
$USERI3
 70
     0
  9
$USERI4
 70
     0
  9
$USERI5
 70
     0
  9
$USERR1
 40
0.0
  9
$USERR2
 40
0.0
  9
$USERR3
 40
0.0
  9
$USERR4
 40
0.0
  9
$USERR5
 40
0.0
  9
$WORLDVIEW
 70
     1
  9
$SHADEDGE
 70
     3
  9
$SHADEDIF
 70
    70
  9
$TILEMODE
 70
     1
  9
$MAXACTVP
 70
    16
  9
$PINSBASE
 10
0.0
 20
0.0
 30
0.0
  9
$PLIMCHECK
 70
     0
  9
$PEXTMIN
 10
1.00000000E+20
 20
1.00000000E+20
 30
1.00000000E+20
  9
$PEXTMAX
 10
-1.00000000E+20
 20
-1.00000000E+20
 30
-1.00000000E+20
  9
$PLIMMIN
 10
0.0
 20
0.0
  9
$PLIMMAX
 10
420.0
 20
297.0
  9
$UNITMODE
 70
     0
  9
$VISRETAIN
 70
     0
  9
$PLINEGEN
 70
     0
  9
$PSLTSCALE
 70
     1
  9
$TREEDEPTH
 70
  3020
  9
$PICKSTYLE
 70
     0
  9
$CMLSTYLE
  2
STANDARD
  9
$CMLJUST
 70
     0
  9
$CMLSCALE
 40
1.0
  9
$PROXYGRAPHICS
 70
     1
  9
$MEASUREMENT
 70
     1
  0
ENDSEC
  0
SECTION
  2
CLASSES
  0
CLASS
  1
XRECORD
  2
AcDbXrecord
  3
AutoCAD 2000
 90
        0
280
     0
281
     0
  0
CLASS
  1
ACDBDICTIONARYWDFLT
  2
AcDbDictionaryWithDefault
  3
AutoCAD 2000
 90
        0
280
     0
281
     0
  0
CLASS
  1
ACDBPLACEHOLDER
  2
AcDbPlaceHolder
  3
AutoCAD 2000
 90
        0
280
     0
281
     0
  0
CLASS
  1
LAYOUT
  2
AcDbLayout
  3
AutoCAD 2000
 90
        0
280
     0
281
     0
  0
CLASS
  1
PLOTSETTINGS
  2
AcDbPlotSettings
  3
AutoCAD 2000
 90
        0
280
     0
281
     0
  0
CLASS
  1
LONG_TRANSACTION
  2
AcDbLongTransaction
  3
AutoCAD 2000
 90
        0
280
     0
281
     0
  0
CLASS
  1
LWPOLYLINE
  2
AcDbPolyline
  3
AutoCAD 2000
 90
        0
280
     0
281
     1
  0
CLASS
  1
HATCH
  2
AcDbHatch
  3
AutoCAD 2000
 90
        0
280
     0
281
     1
  0
CLASS
  1
XRECORD
  2
AcDbXrecord
  3
AutoCAD 2000
 90
        0
280
     0
281
     0
  0
CLASS
  1
LONG_TRANSACTION
  2
AcDbLongTransaction
  3
AutoCAD 2000
 90
        0
280
     0
281
     0
  0
CLASS
  1
LWPOLYLINE
  2
AcDbPolyline
  3
AutoCAD 2000
 90
        0
280
     0
281
     1
  0
CLASS
  1
HATCH
  2
AcDbHatch
  3
AutoCAD 2000
 90
        0
280
     0
281
     1
  0
CLASS
  1
XRECORD
  2
AcDbXrecord
  3
AutoCAD 2000
 90
        0
280
     0
281
     0
  0
CLASS
  1
LONG_TRANSACTION
  2
AcDbLongTransaction
  3
AutoCAD 2000
 90
        0
280
     0
281
     0
  0
CLASS
  1
LWPOLYLINE
  2
AcDbPolyline
  3
AutoCAD 2000
 90
        0
280
     0
281
     1
  0
CLASS
  1
HATCH
  2
AcDbHatch
  3
AutoCAD 2000
 90
        0
280
     0
281
     1
  0
CLASS
  1
XRECORD
  2
AcDbXrecord
  3
AutoCAD 2000
 90
        0
280
     0
281
     0
  0
CLASS
  1
LONG_TRANSACTION
  2
AcDbLongTransaction
  3
AutoCAD 2000
 90
        0
280
     0
281
     0
  0
CLASS
  1
LWPOLYLINE
  2
AcDbPolyline
  3
AutoCAD 2000
 90
        0
280
     0
281
     1
  0
CLASS
  1
HATCH
  2
AcDbHatch
  3
AutoCAD 2000
 90
        0
280
     0
281
     1
  0
CLASS
  1
XRECORD
  2
AcDbXrecord
  3
AutoCAD 2000
 90
        0
280
     0
281
     0
  0
ENDSEC
  0
SECTION
  2
TABLES
  0
TABLE
  2
VPORT
  5
8
330
0
100
AcDbSymbolTable
 70
     3
  0
VPORT
  5
14E5
330
8
100
AcDbSymbolTableRecord
100
AcDbViewportTableRecord
  2
*ACTIVE
 70
     0
 10
0.0
 20
0.0
 11
1.0
 21
1.0
 12
40.49645323
 22
19.90045419
 13
0.0
 23
0.0
 14
7.0
 24
7.0
 15
7.0
 25
7.0
 16
0.0
 26
0.0
 36
1.0
 17
0.0
 27
0.0
 37
0.0
 40
111.65207641
 41
1.43184713
 42
50.0
 43
0.0
 44
0.0
 50
0.0
 51
0.0
 71
     0
 72
  2000
 73
     1
 74
     0
 75
     0
 76
     0
 77
     0
 78
     0
  0
ENDTAB
  0
TABLE
  2
LTYPE
  5
5
330
0
100
AcDbSymbolTable
 70
     3
  0
LTYPE
  5
14
330
5
100
AcDbSymbolTableRecord
100
AcDbLinetypeTableRecord
  2
BYBLOCK
 70
     0
  3

 72
    65
 73
     0
 40
0.0
  0
LTYPE
  5
15
330
5
100
AcDbSymbolTableRecord
100
AcDbLinetypeTableRecord
  2
BYLAYER
 70
     0
  3

 72
    65
 73
     0
 40
0.0
  0
LTYPE
  5
16
330
5
100
AcDbSymbolTableRecord
100
AcDbLinetypeTableRecord
  2
CONTINUOUS
 70
     0
  3
Solid line
 72
    65
 73
     0
 40
0.0
  0
LTYPE
  5
258
330
5
100
AcDbSymbolTableRecord
100
AcDbLinetypeTableRecord
  2
CENTER2
 70
     0
  3
___ _ ___ _ ___ _ ___ _ ___ _ ___ _ ___ _ ___ _
 72
    65
 73
     4
 40
1.125
 49
0.75
 74
     0
 49
-0.125
 74
     0
 49
0.125
 74
     0
 49
-0.125
 74
     0
  0
LTYPE
  5
25C
330
5
100
AcDbSymbolTableRecord
100
AcDbLinetypeTableRecord
  2
HIDDEN2
 70
     0
  3
_ _ _ _ _ _ _ _ _ _ _ _ _ _ _ _ _ _ _ _ _ _ _ _
 72
    65
 73
     2
 40
0.1875
 49
0.125
 74
     0
 49
-0.0625
 74
     0
  0
ENDTAB
  0
TABLE
  2
LAYER
  5
2
330
0
100
AcDbSymbolTable
 70
    11
  0
LAYER
  5
F
330
2
100
AcDbSymbolTableRecord
100
AcDbLayerTableRecord
  2
0
 70
     0
 62
     7
  6
CONTINUOUS
  0
LAYER
  5
1AA
330
2
100
AcDbSymbolTableRecord
100
AcDbLayerTableRecord
  2
240
 70
     0
 62
     4
  6
CONTINUOUS
  0
LAYER
  5
1AB
330
2
100
AcDbSymbolTableRecord
100
AcDbLayerTableRecord
  2
241
 70
     0
 62
   211
  6
CONTINUOUS
  0
LAYER
  5
1AC
330
2
100
AcDbSymbolTableRecord
100
AcDbLayerTableRecord
  2
242
 70
     0
 62
     3
  6
CONTINUOUS
  0
LAYER
  5
1AF
330
2
100
AcDbSymbolTableRecord
100
AcDbLayerTableRecord
  2
245
 70
     0
 62
     2
  6
CENTER2
  0
LAYER
  5
21E
330
2
100
AcDbSymbolTableRecord
100
AcDbLayerTableRecord
  2
250
 70
     0
 62
     3
  6
CONTINUOUS
  0
LAYER
  5
21F
330
2
100
AcDbSymbolTableRecord
100
AcDbLayerTableRecord
  2
251
 70
     0
 62
    40
  6
CONTINUOUS
  0
LAYER
  5
5C4
330
2
100
AcDbSymbolTableRecord
100
AcDbLayerTableRecord
  2
DEFPOINTS
 70
     0
 62
     7
  6
CONTINUOUS
  0
ENDTAB
  0
TABLE
  2
STYLE
  5
3
330
0
100
AcDbSymbolTable
 70
     2
  0
STYLE
  5
10
330
3
100
AcDbSymbolTableRecord
100
AcDbTextStyleTableRecord
  2
STANDARD
 70
     0
 40
0.0
 41
1.0
 50
0.0
 71
     0
 42
3.0
  3
romans.shx
  4
BIGFONT.SHX
  0
STYLE
  5
339
330
3
100
AcDbSymbolTableRecord
100
AcDbTextStyleTableRecord
  2
YOKO
 70
     0
 40
0.0
 41
1.0
 50
0.0
 71
     0
 42
3.0
  3
romans.shx
  4
extfont.shx
  0
ENDTAB
  0
TABLE
  2
VIEW
  5
6
330
0
100
AcDbSymbolTable
 70
     0
  0
ENDTAB
  0
TABLE
  2
UCS
  5
7
330
0
100
AcDbSymbolTable
 70
     0
  0
ENDTAB
  0
TABLE
  2
APPID
  5
9
330
0
100
AcDbSymbolTable
 70
     9
  0
APPID
  5
11
330
9
100
AcDbSymbolTableRecord
100
AcDbRegAppTableRecord
  2
ACAD
 70
     0
  0
APPID
  5
1B1
330
9
100
AcDbSymbolTableRecord
100
AcDbRegAppTableRecord
  2
GLOBAL
 70
     0
  0
APPID
  5
2A4
330
9
100
AcDbSymbolTableRecord
100
AcDbRegAppTableRecord
  2
DETAIL
 70
     0
  0
APPID
  5
5FD
330
9
100
AcDbSymbolTableRecord
100
AcDbRegAppTableRecord
  2
GRPNAME
 70
     0
  0
APPID
  5
5FE
330
9
100
AcDbSymbolTableRecord
100
AcDbRegAppTableRecord
  2
GPARA
 70
     0
  0
APPID
  5
6C4
330
9
100
AcDbSymbolTableRecord
100
AcDbRegAppTableRecord
  2
DCO15
 70
     0
  0
APPID
  5
6C5
330
9
100
AcDbSymbolTableRecord
100
AcDbRegAppTableRecord
  2
ITEMNAME
 70
     0
  0
APPID
  5
6C6
330
9
100
AcDbSymbolTableRecord
100
AcDbRegAppTableRecord
  2
GRADE_0
 70
     0
  0
APPID
  5
CAB
330
9
100
AcDbSymbolTableRecord
100
AcDbRegAppTableRecord
  2
CONTENTBLOCKICON
 70
     0
  0
ENDTAB
  0
TABLE
  2
DIMSTYLE
  5
A
330
0
100
AcDbSymbolTable
 70
     2
  0
DIMSTYLE
105
725
102
{ACAD_REACTORS
330
D8C
102
}
330
A
100
AcDbSymbolTableRecord
100
AcDbDimStyleTableRecord
  2
BIGT
 70
     0
  3

  4

  5

  6
OPEN
  7
OPEN
 40
1.0
 41
2.23
 42
0.5
 43
2.5
 44
1.0
 45
0.0
 46
0.0
 47
0.0
 48
0.0
140
2.8
141
0.0
142
0.0
143
25.4
144
1.0
145
0.0
146
1.0
147
1.0
 71
     0
 72
     0
 73
     0
 74
     0
 75
     0
 76
     0
 77
     3
 78
     8
170
     0
171
     2
172
     1
173
     1
174
     1
175
     0
176
   256
177
   256
178
    40
270
     2
271
     3
272
     3
273
     2
274
     2
340
10
275
     0
280
     0
281
     0
282
     0
283
     1
284
     8
285
     0
286
     0
287
     3
288
     0
  0
DIMSTYLE
105
784
102
{ACAD_REACTORS
330
90D
330
1128
330
1297
102
}
330
A
100
AcDbSymbolTableRecord
100
AcDbDimStyleTableRecord
  2
BIGT$0
 70
     0
  3

  4
"
  5
OPEN
  6

  7

 40
1.0
 41
2.23
 42
0.5
 43
7.0
 44
1.0
 45
0.0
 46
0.0
 47
0.1
 48
0.1
140
3.0
141
0.0
142
0.0
143
0.0393701
144
1.0
145
0.0
146
0.71
147
1.0
 71
     0
 72
     0
 73
     0
 74
     0
 75
     0
 76
     0
 77
     3
 78
     8
170
     0
171
     2
172
     1
173
     0
174
     0
175
     0
176
     3
177
     3
178
    40
270
     2
271
     3
272
     3
273
     2
274
     2
340
10
275
     0
280
     0
281
     0
282
     0
283
     1
284
     8
285
     0
286
     0
287
     3
288
     0
  0
ENDTAB
  0
TABLE
  2
BLOCK_RECORD
  5
1
330
0
100
AcDbSymbolTable
 70
     8
  0
BLOCK_RECORD
  5
1A
102
{ACAD_XDICTIONARY
360
CA9
102
}
330
1
100
AcDbSymbolTableRecord
100
AcDbBlockTableRecord
  2
*MODEL_SPACE
  0
BLOCK_RECORD
  5
17
102
{ACAD_XDICTIONARY
360
CA7
102
}
330
1
100
AcDbSymbolTableRecord
100
AcDbBlockTableRecord
  2
*PAPER_SPACE
  0
BLOCK_RECORD
  5
594
330
1
100
AcDbSymbolTableRecord
100
AcDbBlockTableRecord
  2
_OPEN
  0
BLOCK_RECORD
  5
6E3
330
1
100
AcDbSymbolTableRecord
100
AcDbBlockTableRecord
  2
矢印なし
  0
BLOCK_RECORD
  5
A8B
330
1
100
AcDbSymbolTableRecord
100
AcDbBlockTableRecord
  2
*D2
  0
BLOCK_RECORD
  5
DEA
330
1
100
AcDbSymbolTableRecord
100
AcDbBlockTableRecord
  2
*D3
  0
BLOCK_RECORD
  5
122E
330
1
100
AcDbSymbolTableRecord
100
AcDbBlockTableRecord
  2
*D4
  0
BLOCK_RECORD
  5
1298
330
1
100
AcDbSymbolTableRecord
100
AcDbBlockTableRecord
  2
*D5
  0
BLOCK_RECORD
  5
12C8
330
1
100
AcDbSymbolTableRecord
100
AcDbBlockTableRecord
  2
1
1001
CONTENTBLOCKICON
1071
        0
1004
2800000020000000200000000100080000000000000400000000000000000000000000000000000000000000000080000080000000808000800000008000800080800000C0C0C000C0DCC000F0CAA6000020400000206000002080000020A0000020C0000020E00000400000004020000040400000406000004080000040A0
1004
000040C0000040E00000600000006020000060400000606000006080000060A0000060C0000060E00000800000008020000080400000806000008080000080A0000080C0000080E00000A0000000A0200000A0400000A0600000A0800000A0A00000A0C00000A0E00000C0000000C0200000C0400000C0600000C0800000C0
1004
A00000C0C00000C0E00000E0000000E0200000E0400000E0600000E0800000E0A00000E0C00000E0E00040000000400020004000400040006000400080004000A0004000C0004000E00040200000402020004020400040206000402080004020A0004020C0004020E000404000004040200040404000404060004040800040
1004
40A0004040C0004040E00040600000406020004060400040606000406080004060A0004060C0004060E00040800000408020004080400040806000408080004080A0004080C0004080E00040A0000040A0200040A0400040A0600040A0800040A0A00040A0C00040A0E00040C0000040C0200040C0400040C0600040C08000
1004
40C0A00040C0C00040C0E00040E0000040E0200040E0400040E0600040E0800040E0A00040E0C00040E0E00080000000800020008000400080006000800080008000A0008000C0008000E00080200000802020008020400080206000802080008020A0008020C0008020E00080400000804020008040400080406000804080
1004
008040A0008040C0008040E00080600000806020008060400080606000806080008060A0008060C0008060E00080800000808020008080400080806000808080008080A0008080C0008080E00080A0000080A0200080A0400080A0600080A0800080A0A00080A0C00080A0E00080C0000080C0200080C0400080C0600080C0
1004
800080C0A00080C0C00080C0E00080E0000080E0200080E0400080E0600080E0800080E0A00080E0C00080E0E000C0000000C0002000C0004000C0006000C0008000C000A000C000C000C000E000C0200000C0202000C0204000C0206000C0208000C020A000C020C000C020E000C0400000C0402000C0404000C0406000C0
1004
408000C040A000C040C000C040E000C0600000C0602000C0604000C0606000C0608000C060A000C060C000C060E000C0800000C0802000C0804000C0806000C0808000C080A000C080C000C080E000C0A00000C0A02000C0A04000C0A06000C0A08000C0A0A000C0A0C000C0A0E000C0C00000C0C02000C0C04000C0C06000
1004
C0C08000C0C0A000F0FBFF00A4A0A000808080000000FF0000FF000000FFFF00FF000000FF00FF00FFFF0000FFFFFF0000000000000000000000000000000000000000000000000000000000000000000000000000000000000000000000000000000000000000000000000000000000000000000000000000000000000000
1004
00000000000000000000000000000000000000000000000000000000000000000000000000000000000000000000000000000000000000000000000000000000000000000000000000000000000000000000000000000000000000000000000000000000000000000000000000000000000000000000000000000000000000
1004
00000000000000000000000000000000000000000000000000000000000000000000000000000000000000000000000000000000000000000000000000000000000000000000000000000000000000000000000000000000000000FEFEFEFEFE000000000000000000000000000000000000000000000000000000FE00E7E7
1004
FE000000000000000000000000000000000000000000000000FEFEFEFE00E7E7FE0000000000000000000000000000000000000000FEFAFEFE000000E700E7E7FE0000000000000000000000000000000000000000E7000000000000E700E7E7FEFE00000000000000000000000000000000000000E7000000000000E700E7
1004
E7FE00FEFEFEFEFEFEFEFEFEFEFEFEFEFEE700000000E7000000000000E7000000FE00000000000000000000000000FEE7E7000000FBE7FBFBFBFBFBFBE7FBFBFBFEFBFBFBFBFBFBFBFBFBFBFBFBFBE7E7E7FB000000E7000000000000E700E7E7FE00FEFEFEFEFEFEFEFEFEFEFEFEFEE7FE00000000E7000000000000E700
1004
E7E7FEFE00000000000000000000000000000000000000E7000000000000E700E7E7FE0000000000000000000000000000000000000000FEFEFEFEFEFEFEFE00E7E7FE000000000000000000000000000000000000000000000000000000FE00E7E7FE000000000000000000000000000000000000000000000000000000FE
1004
FEFEFEFE000000000000000000000000000000000000000000000000000000000000000000000000000000000000000000000000000000000000000000000000000000000000000000000000000000000000000000000000000000000000000000000000000000000000000000000000000000000000000000000000000000
1004
00000000000000000000000000000000000000000000000000000000000000000000000000000000000000000000000000000000000000000000000000000000000000000000000000000000000000000000000000000000000000000000000000000000000000000000000000000000000000000000000000000000000000
1004
0000000000000000000000000000000000000000000000000000000000000000000000000000000000000000000000000000000000000000
  0
ENDTAB
  0
ENDSEC
  0
SECTION
  2
BLOCKS
  0
BLOCK
  5
1B
330
1A
100
AcDbEntity
  8
0
100
AcDbBlockBegin
  2
*MODEL_SPACE
 70
     0
 10
0.0
 20
0.0
 30
0.0
  3
*MODEL_SPACE
  1

  0
ENDBLK
  5
1C
330
1A
100
AcDbEntity
  8
0
100
AcDbBlockEnd
  0
BLOCK
  5
18
330
17
100
AcDbEntity
 67
     1
  8
0
100
AcDbBlockBegin
  2
*PAPER_SPACE
 70
     0
 10
0.0
 20
0.0
 30
0.0
  3
*PAPER_SPACE
  1

  0
ENDBLK
  5
19
330
17
100
AcDbEntity
 67
     1
  8
0
100
AcDbBlockEnd
  0
BLOCK
  5
598
330
594
100
AcDbEntity
  8
0
100
AcDbBlockBegin
  2
_OPEN
 70
     0
 10
0.0
 20
0.0
 30
0.0
  3
_OPEN
  1

  0
LINE
  5
595
330
594
100
AcDbEntity
  8
0
  6
BYBLOCK
 62
     0
100
AcDbLine
 10
-1.0
 20
0.16666667
 30
0.0
 11
0.0
 21
0.0
 31
0.0
  0
LINE
  5
596
330
594
100
AcDbEntity
  8
0
  6
BYBLOCK
 62
     0
100
AcDbLine
 10
-1.0
 20
-0.16666667
 30
0.0
 11
0.0
 21
0.0
 31
0.0
  0
LINE
  5
597
330
594
100
AcDbEntity
  8
0
  6
BYBLOCK
 62
     0
100
AcDbLine
 10
0.0
 20
0.0
 30
0.0
 11
-1.0
 21
0.0
 31
0.0
  0
ENDBLK
  5
599
330
594
100
AcDbEntity
  8
0
100
AcDbBlockEnd
  0
BLOCK
  5
6E4
330
6E3
100
AcDbEntity
  8
0
100
AcDbBlockBegin
  2
矢印なし
 70
     0
 10
0.0
 20
0.0
 30
0.0
  3
矢印なし
  1

  0
ENDBLK
  5
6E5
330
6E3
100
AcDbEntity
  8
0
100
AcDbBlockEnd
  0
BLOCK
  5
A95
330
A8B
100
AcDbEntity
  8
0
100
AcDbBlockBegin
  2
*D2
 70
     1
 10
0.0
 20
0.0
 30
0.0
  3
*D2
  1

  0
LINE
  5
1465
330
A8B
100
AcDbEntity
  8
250
  6
CONTINUOUS
 62
     3
100
AcDbLine
 10
0.0
 20
31.4925
 30
0.0
 11
0.0
 21
53.5
 31
0.0
  0
LINE
  5
1466
330
A8B
100
AcDbEntity
  8
250
  6
CONTINUOUS
 62
     3
100
AcDbLine
 10
105.0
 20
9.59289322
 30
0.0
 11
105.0
 21
53.5
 31
0.0
  0
LINE
  5
1467
330
A8B
100
AcDbEntity
  8
250
  6
CONTINUOUS
 62
     3
100
AcDbLine
 10
2.23
 20
52.5
 30
0.0
 11
102.77
 21
52.5
 31
0.0
  0
INSERT
  5
1468
330
A8B
100
AcDbEntity
  8
250
  6
CONTINUOUS
 62
     3
100
AcDbBlockReference
  2
_OPEN
 10
0.0
 20
52.5
 30
0.0
 41
2.23
 42
2.23
 43
2.23
 50
180.0
  0
INSERT
  5
1469
330
A8B
100
AcDbEntity
  8
250
  6
CONTINUOUS
 62
     3
100
AcDbBlockReference
  2
_OPEN
 10
105.0
 20
52.5
 30
0.0
 41
2.23
 42
2.23
 43
2.23
  0
MTEXT
  5
146A
330
A8B
100
AcDbEntity
  8
250
  6
CONTINUOUS
 62
    40
100
AcDbMText
 10
55.75424552
 20
55.0
 30
0.0
 40
3.0
 41
0.0
 71
     5
 72
     1
  1
\A1;105
1001
ACAD
1000
MTEXTBEGIN
1070
    73
1070
     1
1070
    44
1040
1.0
1070
    74
1070
     0
1000
MTEXTEND
1000
MTEXTBEGIN
1070
    73
1070
     1
1070
    44
1040
1.0
1070
    74
1070
     0
1000
MTEXTEND
  0
POINT
  5
146B
330
A8B
100
AcDbEntity
  8
DEFPOINTS
  6
CONTINUOUS
 62
     0
100
AcDbPoint
 10
0.0
 20
30.9925
 30
0.0
  0
POINT
  5
146C
330
A8B
100
AcDbEntity
  8
DEFPOINTS
  6
CONTINUOUS
 62
     0
100
AcDbPoint
 10
105.0
 20
9.09289322
 30
0.0
  0
POINT
  5
146D
330
A8B
100
AcDbEntity
  8
DEFPOINTS
  6
CONTINUOUS
 62
     0
100
AcDbPoint
 10
105.0
 20
52.5
 30
0.0
  0
ENDBLK
  5
A96
330
A8B
100
AcDbEntity
  8
0
100
AcDbBlockEnd
  0
BLOCK
  5
DF4
330
DEA
100
AcDbEntity
  8
0
100
AcDbBlockBegin
  2
*D3
 70
     1
 10
0.0
 20
0.0
 30
0.0
  3
*D3
  1

  0
LINE
  5
14B7
330
DEA
100
AcDbEntity
  8
250
  6
CONTINUOUS
100
AcDbLine
 10
9.0
 20
1.5
 30
0.0
 11
9.0
 21
46.5
 31
0.0
  0
LINE
  5
14B8
330
DEA
100
AcDbEntity
  8
250
  6
CONTINUOUS
100
AcDbLine
 10
105.0
 20
9.59289322
 30
0.0
 11
105.0
 21
46.5
 31
0.0
  0
LINE
  5
14B9
330
DEA
100
AcDbEntity
  8
250
  6
CONTINUOUS
100
AcDbLine
 10
11.23
 20
45.5
 30
0.0
 11
102.77
 21
45.5
 31
0.0
  0
INSERT
  5
14BA
330
DEA
100
AcDbEntity
  8
250
  6
CONTINUOUS
100
AcDbBlockReference
  2
_OPEN
 10
9.0
 20
45.5
 30
0.0
 41
2.23
 42
2.23
 43
2.23
 50
180.0
  0
INSERT
  5
14BB
330
DEA
100
AcDbEntity
  8
250
  6
CONTINUOUS
100
AcDbBlockReference
  2
_OPEN
 10
105.0
 20
45.5
 30
0.0
 41
2.23
 42
2.23
 43
2.23
  0
MTEXT
  5
14BC
330
DEA
100
AcDbEntity
  8
250
  6
CONTINUOUS
 62
    40
100
AcDbMText
 10
57.0
 20
47.9
 30
0.0
 40
2.8
 41
0.0
 71
     5
 72
     1
  1
\A1;（max.96）
1001
ACAD
1000
MTEXTBEGIN
1070
    73
1070
     1
1070
    44
1040
1.0
1070
    74
1070
     0
1000
MTEXTEND
  0
POINT
  5
14BD
330
DEA
100
AcDbEntity
  8
DEFPOINTS
  6
CONTINUOUS
 62
     0
100
AcDbPoint
 10
9.0
 20
1.0
 30
0.0
  0
POINT
  5
14BE
330
DEA
100
AcDbEntity
  8
DEFPOINTS
  6
CONTINUOUS
 62
     0
100
AcDbPoint
 10
105.0
 20
9.09289322
 30
0.0
  0
POINT
  5
14BF
330
DEA
100
AcDbEntity
  8
DEFPOINTS
  6
CONTINUOUS
 62
     0
100
AcDbPoint
 10
105.0
 20
45.5
 30
0.0
  0
ENDBLK
  5
DF5
330
DEA
100
AcDbEntity
  8
0
100
AcDbBlockEnd
  0
BLOCK
  5
1238
330
122E
100
AcDbEntity
  8
0
100
AcDbBlockBegin
  2
*D4
 70
     1
 10
0.0
 20
0.0
 30
0.0
  3
*D4
  1

  0
LINE
  5
14A8
330
122E
100
AcDbEntity
  8
250
  6
CONTINUOUS
 62
     3
100
AcDbLine
 10
104.55147186
 20
-10.0
 30
0.0
 11
120.0
 21
-10.0
 31
0.0
  0
LINE
  5
14A9
330
122E
100
AcDbEntity
  8
250
  6
CONTINUOUS
 62
     3
100
AcDbLine
 10
104.55147186
 20
10.0
 30
0.0
 11
120.0
 21
10.0
 31
0.0
  0
LINE
  5
14AA
330
122E
100
AcDbEntity
  8
250
  6
CONTINUOUS
 62
     3
100
AcDbLine
 10
119.0
 20
-7.77
 30
0.0
 11
119.0
 21
7.77
 31
0.0
  0
INSERT
  5
14AB
330
122E
100
AcDbEntity
  8
250
  6
CONTINUOUS
 62
     3
100
AcDbBlockReference
  2
_OPEN
 10
119.0
 20
-10.0
 30
0.0
 41
2.23
 42
2.23
 43
2.23
 50
270.0
  0
INSERT
  5
14AC
330
122E
100
AcDbEntity
  8
250
  6
CONTINUOUS
 62
     3
100
AcDbBlockReference
  2
_OPEN
 10
119.0
 20
10.0
 30
0.0
 41
2.23
 42
2.23
 43
2.23
 50
90.0
  0
MTEXT
  5
14AD
330
122E
100
AcDbEntity
  8
250
  6
CONTINUOUS
 62
    40
100
AcDbMText
 10
116.5
 20
0.0
 30
0.0
 40
3.0
 41
0.0
 71
     5
 72
     1
  1
\A1;{\H3;\U+2205}20
 11
0.0
 21
1.0
 31
0.0
1001
ACAD
1000
MTEXTBEGIN
1070
    73
1070
     1
1070
    44
1040
1.0
1070
    74
1070
     0
1000
MTEXTEND
  0
POINT
  5
14AE
330
122E
100
AcDbEntity
  8
DEFPOINTS
  6
CONTINUOUS
 62
     0
100
AcDbPoint
 10
104.05147186
 20
-10.0
 30
0.0
  0
POINT
  5
14AF
330
122E
100
AcDbEntity
  8
DEFPOINTS
  6
CONTINUOUS
 62
     0
100
AcDbPoint
 10
104.05147186
 20
10.0
 30
0.0
  0
POINT
  5
14B0
330
122E
100
AcDbEntity
  8
DEFPOINTS
  6
CONTINUOUS
 62
     0
100
AcDbPoint
 10
119.0
 20
10.0
 30
0.0
  0
ENDBLK
  5
1239
330
122E
100
AcDbEntity
  8
0
100
AcDbBlockEnd
  0
BLOCK
  5
12A2
330
1298
100
AcDbEntity
  8
0
100
AcDbBlockBegin
  2
*D5
 70
     1
 10
0.0
 20
0.0
 30
0.0
  3
*D5
  1

  0
LINE
  5
12AD
330
1298
100
AcDbEntity
  8
250
  6
CONTINUOUS
 62
     3
100
AcDbLine
 10
22.0
 20
30.9925
 30
0.0
 11
22.0
 21
39.5
 31
0.0
  0
LINE
  5
12AE
330
1298
100
AcDbEntity
  8
250
  6
CONTINUOUS
 62
     3
100
AcDbLine
 10
105.0
 20
9.59289322
 30
0.0
 11
105.0
 21
39.5
 31
0.0
  0
LINE
  5
12AF
330
1298
100
AcDbEntity
  8
250
  6
CONTINUOUS
 62
     3
100
AcDbLine
 10
24.23
 20
38.5
 30
0.0
 11
102.77
 21
38.5
 31
0.0
  0
INSERT
  5
12B0
330
1298
100
AcDbEntity
  8
250
  6
CONTINUOUS
 62
     3
100
AcDbBlockReference
  2
_OPEN
 10
22.0
 20
38.5
 30
0.0
 41
2.23
 42
2.23
 43
2.23
 50
180.0
  0
INSERT
  5
12B1
330
1298
100
AcDbEntity
  8
250
  6
CONTINUOUS
 62
     3
100
AcDbBlockReference
  2
_OPEN
 10
105.0
 20
38.5
 30
0.0
 41
2.23
 42
2.23
 43
2.23
  0
MTEXT
  5
12B2
330
1298
100
AcDbEntity
  8
250
  6
CONTINUOUS
 62
    40
100
AcDbMText
 10
63.5
 20
41.0
 30
0.0
 40
3.0
 41
0.0
 71
     5
 72
     1
  1
\A1;83
1001
ACAD
1000
MTEXTBEGIN
1070
    73
1070
     1
1070
    44
1040
1.0
1070
    74
1070
     0
1000
MTEXTEND
1000
MTEXTBEGIN
1070
    73
1070
     1
1070
    44
1040
1.0
1070
    74
1070
     0
1000
MTEXTEND
  0
POINT
  5
12B3
330
1298
100
AcDbEntity
  8
DEFPOINTS
  6
CONTINUOUS
 62
     0
100
AcDbPoint
 10
22.0
 20
30.4925
 30
0.0
  0
POINT
  5
12B4
330
1298
100
AcDbEntity
  8
DEFPOINTS
  6
CONTINUOUS
 62
     0
100
AcDbPoint
 10
105.0
 20
9.09289322
 30
0.0
  0
POINT
  5
12B5
330
1298
100
AcDbEntity
  8
DEFPOINTS
  6
CONTINUOUS
 62
     0
100
AcDbPoint
 10
105.0
 20
38.5
 30
0.0
  0
ENDBLK
  5
12A3
330
1298
100
AcDbEntity
  8
0
100
AcDbBlockEnd
  0
BLOCK
  5
12C9
330
12C8
100
AcDbEntity
  8
0
100
AcDbBlockBegin
  2
1
 70
     0
 10
0.0
 20
0.0
 30
0.0
  3
1
  1

  0
LINE
  5
12CB
330
12C8
100
AcDbEntity
  8
240
  6
CONTINUOUS
100
AcDbLine
 10
90.69766113
 20
9.75
 30
0.0
 11
32.0
 21
9.75
 31
0.0
1001
GRPNAME
1000
PASTMD0X
  0
LINE
  5
12CC
330
12C8
100
AcDbEntity
  8
240
  6
CONTINUOUS
100
AcDbLine
 10
90.69766113
 20
-9.75
 30
0.0
 11
32.0
 21
-9.75
 31
0.0
1001
GRPNAME
1000
PASTMD0X
  0
LINE
  5
12CD
330
12C8
100
AcDbEntity
  8
245
  6
CENTER2
100
AcDbLine
 10
-39.0
 20
0.0
 30
0.0
 11
106.0
 21
0.0
 31
0.0
  0
LINE
  5
12CE
330
12C8
100
AcDbEntity
  8
240
  6
CONTINUOUS
100
AcDbLine
 10
22.0
 20
-30.4925
 30
0.0
 11
22.0
 21
30.4925
 31
0.0
  0
LINE
  5
12CF
330
12C8
100
AcDbEntity
  8
240
  6
CONTINUOUS
100
AcDbLine
 10
0.0
 20
30.9925
 30
0.0
 11
0.0
 21
-30.9925
 31
0.0
  0
SPLINE
  5
12D0
330
12C8
100
AcDbEntity
  8
241
  6
CONTINUOUS
100
AcDbSpline
210
0.0
220
0.0
230
1.0
 70
     8
 71
     3
 72
     9
 73
     5
 74
     3
 42
0.0000000001
 43
0.0000000001
 44
0.0000000001
 40
0.0
 40
0.0
 40
0.0
 40
0.0
 40
10.74384375536296
 40
21.48768751072607
 40
21.48768751072607
 40
21.48768751072607
 40
21.48768751072607
 10
9.9500000000001
 20
8.992341421163501
 30
0.0
 10
9.057475418454039
 20
12.52384689373144
 30
0.0
 10
7.272426255361907
 20
19.58685783886736
 30
0.0
 10
9.057475418453993
 20
26.6498687840033
 30
0.0
 10
9.950000000000043
 20
30.1813742565713
 30
0.0
 11
9.9500000000001
 21
8.992341421163501
 31
0.0
 11
8.164950836907962
 21
19.58685783886732
 31
0.0
 11
9.950000000000043
 21
30.1813742565713
 31
0.0
  0
LINE
  5
12D1
330
12C8
100
AcDbEntity
  8
241
  6
CONTINUOUS
100
AcDbLine
 10
9.95
 20
8.99234142
 30
0.0
 11
9.95
 21
30.18137426
 31
0.0
  0
SPLINE
  5
12D2
330
12C8
100
AcDbEntity
  8
241
  6
CONTINUOUS
100
AcDbSpline
210
0.0
220
0.0
230
1.0
 70
     8
 71
     3
 72
     9
 73
     5
 74
     3
 42
0.0000000001
 43
0.0000000001
 44
0.0000000001
 40
0.0
 40
0.0
 40
0.0
 40
0.0
 40
10.74384375536299
 40
21.48768751072605
 40
21.48768751072605
 40
21.48768751072605
 40
21.48768751072605
 10
14.05000000000018
 20
30.1813742565713
 30
0.0
 10
14.94252458154622
 20
26.64986878400334
 30
0.0
 10
16.72757374463832
 20
19.58685783886741
 30
0.0
 10
14.94252458154617
 20
12.52384689373149
 30
0.0
 10
14.05000000000009
 20
8.992341421163525
 30
0.0
 11
14.05000000000018
 21
30.1813742565713
 31
0.0
 11
15.83504916309226
 21
19.58685783886744
 31
0.0
 11
14.05000000000009
 21
8.992341421163525
 31
0.0
  0
LINE
  5
12D3
330
12C8
100
AcDbEntity
  8
241
  6
CONTINUOUS
100
AcDbLine
 10
14.05
 20
8.99234142
 30
0.0
 11
14.05
 21
30.18137426
 31
0.0
  0
LINE
  5
12D4
330
12C8
100
AcDbEntity
  8
240
  6
CONTINUOUS
100
AcDbLine
 10
-2.19993752
 20
-20.62000332
 30
0.0
 11
-36.5
 21
-19.76242639
 31
0.0
  0
LINE
  5
12D5
330
12C8
100
AcDbEntity
  8
240
  6
CONTINUOUS
100
AcDbLine
 10
-36.5
 20
22.56242639
 30
0.0
 11
-1.98947881
 21
23.42526525
 31
0.0
  0
LINE
  5
12D6
330
12C8
100
AcDbEntity
  8
240
  6
CONTINUOUS
100
AcDbLine
 10
-38.0
 20
-18.26242639
 30
0.0
 11
-38.0
 21
21.69640099
 31
0.0
  0
LINE
  5
12D7
330
12C8
100
AcDbEntity
  8
241
  6
CONTINUOUS
100
AcDbLine
 10
-36.5
 20
-19.76242639
 30
0.0
 11
-36.5
 21
22.56242639
 31
0.0
  0
LINE
  5
12D8
330
12C8
100
AcDbEntity
  8
242
  6
HIDDEN2
100
AcDbLine
 10
-38.0
 20
-18.0
 30
0.0
 11
-31.8
 21
-18.0
 31
0.0
  0
LINE
  5
12D9
330
12C8
100
AcDbEntity
  8
240
  6
CONTINUOUS
100
AcDbLine
 10
-36.5
 20
-19.76242639
 30
0.0
 11
-38.0
 21
-18.26242639
 31
0.0
  0
LINE
  5
12DA
330
12C8
100
AcDbEntity
  8
242
  6
HIDDEN2
100
AcDbLine
 10
-29.87185543
 20
-19.92814457
 30
0.0
 11
-31.8
 21
-18.0
 31
0.0
  0
LINE
  5
12DB
330
12C8
100
AcDbEntity
  8
242
  6
HIDDEN2
100
AcDbLine
 10
-31.8
 20
-19.87993672
 30
0.0
 11
-31.8
 21
-18.0
 31
0.0
  0
LINE
  5
12DC
330
12C8
100
AcDbEntity
  8
240
  6
CONTINUOUS
100
AcDbLine
 10
-38.0
 20
21.69640099
 30
0.0
 11
-36.5
 21
22.56242639
 31
0.0
  0
LINE
  5
12DD
330
12C8
100
AcDbEntity
  8
241
  6
CONTINUOUS
100
AcDbLine
 10
14.05
 20
-8.99234142
 30
0.0
 11
14.05
 21
-30.18137426
 31
0.0
  0
SPLINE
  5
12DE
330
12C8
100
AcDbEntity
  8
241
  6
CONTINUOUS
100
AcDbSpline
210
0.0
220
0.0
230
1.0
 70
     8
 71
     3
 72
     9
 73
     5
 74
     3
 42
0.0000000001
 43
0.0000000001
 44
0.0000000001
 40
0.0
 40
0.0
 40
0.0
 40
0.0
 40
10.74384375536302
 40
21.48768751072608
 40
21.48768751072608
 40
21.48768751072608
 40
21.48768751072608
 10
14.05000000000018
 20
-30.1813742565713
 30
0.0
 10
14.94252458154622
 20
-26.64986878400333
 30
0.0
 10
16.72757374463832
 20
-19.58685783886739
 30
0.0
 10
14.94252458154617
 20
-12.52384689373147
 30
0.0
 10
14.05000000000009
 20
-8.992341421163501
 30
0.0
 11
14.05000000000018
 21
-30.1813742565713
 31
0.0
 11
15.83504916309226
 21
-19.58685783886741
 31
0.0
 11
14.05000000000009
 21
-8.992341421163501
 31
0.0
  0
LINE
  5
12DF
330
12C8
100
AcDbEntity
  8
241
  6
CONTINUOUS
100
AcDbLine
 10
9.95
 20
-8.99234142
 30
0.0
 11
9.95
 21
-30.18137426
 31
0.0
  0
SPLINE
  5
12E0
330
12C8
100
AcDbEntity
  8
241
  6
CONTINUOUS
100
AcDbSpline
210
0.0
220
0.0
230
1.0
 70
     8
 71
     3
 72
     9
 73
     5
 74
     3
 42
0.0000000001
 43
0.0000000001
 44
0.0000000001
 40
0.0
 40
0.0
 40
0.0
 40
0.0
 40
10.74384375536299
 40
21.48768751072609
 40
21.48768751072609
 40
21.48768751072609
 40
21.48768751072609
 10
9.9500000000001
 20
-8.992341421163501
 30
0.0
 10
9.057475418454039
 20
-12.52384689373145
 30
0.0
 10
7.272426255361907
 20
-19.58685783886738
 30
0.0
 10
9.057475418453995
 20
-26.64986878400333
 30
0.0
 10
9.950000000000043
 20
-30.18137425657132
 30
0.0
 11
9.9500000000001
 21
-8.992341421163501
 31
0.0
 11
8.164950836907962
 21
-19.58685783886735
 31
0.0
 11
9.950000000000043
 21
-30.18137425657132
 31
0.0
  0
LINE
  5
12E1
330
12C8
100
AcDbEntity
  8
240
  6
CONTINUOUS
100
AcDbLine
 10
0.5
 20
-31.4925
 30
0.0
 11
21.0
 21
-31.4925
 31
0.0
  0
LINE
  5
12E2
330
12C8
100
AcDbEntity
  8
241
  6
CONTINUOUS
100
AcDbLine
 10
9.95
 20
-30.18137426
 30
0.0
 11
14.05
 21
-30.18137426
 31
0.0
  0
ARC
  5
12E3
330
12C8
100
AcDbEntity
  8
240
  6
CONTINUOUS
100
AcDbCircle
 10
0.5
 20
-30.9925
 30
0.0
 40
0.5
100
AcDbArc
 50
180.0
 51
270.0
  0
ARC
  5
12E4
330
12C8
100
AcDbEntity
  8
240
  6
CONTINUOUS
100
AcDbCircle
 10
21.0
 20
-30.4925
 30
0.0
 40
1.0
100
AcDbArc
 50
270.0
 51
0.0
  0
LINE
  5
12E5
330
12C8
100
AcDbEntity
  8
241
  6
CONTINUOUS
100
AcDbLine
 10
9.95
 20
-8.99234142
 30
0.0
 11
14.05
 21
-8.99234142
 31
0.0
  0
LINE
  5
12E6
330
12C8
100
AcDbEntity
  8
241
  6
CONTINUOUS
100
AcDbLine
 10
9.95
 20
8.99234142
 30
0.0
 11
14.05
 21
8.99234142
 31
0.0
  0
LINE
  5
12E7
330
12C8
100
AcDbEntity
  8
241
100
AcDbLine
 10
-2.19993752
 20
-20.62000332
 30
0.0
 11
-2.19993752
 21
23.42000332
 31
0.0
  0
LINE
  5
12E8
330
12C8
100
AcDbEntity
  8
240
100
AcDbLine
 10
-2.19993752
 20
-20.62000332
 30
0.0
 11
0.0
 21
-20.62000332
 31
0.0
  0
LINE
  5
12E9
330
12C8
100
AcDbEntity
  8
240
100
AcDbLine
 10
-2.19993752
 20
23.42000332
 30
0.0
 11
0.0
 21
23.42000332
 31
0.0
  0
ARC
  5
12EA
330
12C8
100
AcDbEntity
  8
240
  6
CONTINUOUS
100
AcDbCircle
 10
32.0
 20
-19.75
 30
0.0
 40
10.0
100
AcDbArc
 50
90.0
 51
180.0
  0
ARC
  5
12EB
330
12C8
100
AcDbEntity
  8
240
  6
CONTINUOUS
100
AcDbCircle
 10
32.0
 20
19.75
 30
0.0
 40
10.0
100
AcDbArc
 50
180.0
 51
270.0
  0
LINE
  5
12EC
330
12C8
100
AcDbEntity
  8
240
  6
CONTINUOUS
100
AcDbLine
 10
0.5
 20
31.4925
 30
0.0
 11
21.0
 21
31.4925
 31
0.0
  0
LINE
  5
12ED
330
12C8
100
AcDbEntity
  8
241
  6
CONTINUOUS
100
AcDbLine
 10
9.95
 20
30.18137426
 30
0.0
 11
14.05
 21
30.18137426
 31
0.0
  0
ARC
  5
12EE
330
12C8
100
AcDbEntity
  8
240
  6
CONTINUOUS
100
AcDbCircle
 10
0.5
 20
30.9925
 30
0.0
 40
0.5
100
AcDbArc
 50
90.0
 51
180.0
  0
ARC
  5
12EF
330
12C8
100
AcDbEntity
  8
240
  6
CONTINUOUS
100
AcDbCircle
 10
21.0
 20
30.4925
 30
0.0
 40
1.0
100
AcDbArc
 50
0.0
 51
90.0
  0
LINE
  5
12F0
330
12C8
100
AcDbEntity
  8
241
  6
HIDDEN2
100
AcDbLine
 10
103.44622469
 20
4.1
 30
0.0
 11
103.44622469
 21
4.75
 31
0.0
1001
GRPNAME
1000
PASTMD0X
  0
LINE
  5
12F1
330
12C8
100
AcDbEntity
  8
241
  6
HIDDEN2
100
AcDbLine
 10
105.0
 20
3.91066243
 30
0.0
 11
103.54622469
 21
4.75
 31
0.0
1001
GRPNAME
1000
PASTMD0X
  0
LINE
  5
12F2
330
12C8
100
AcDbEntity
  8
241
  6
CONTINUOUS
100
AcDbLine
 10
101.5
 20
6.04331546
 30
0.0
 11
101.5
 21
3.87825195
 31
0.0
1001
GRPNAME
1000
PASTMD0X
  0
LINE
  5
12F3
330
12C8
100
AcDbEntity
  8
241
  6
HIDDEN2
100
AcDbLine
 10
102.14622469
 20
4.1
 30
0.0
 11
102.14622469
 21
4.75225016
 31
0.0
1001
GRPNAME
1000
PASTMD0X
  0
LINE
  5
12F4
330
12C8
100
AcDbEntity
  8
241
  6
HIDDEN2
100
AcDbLine
 10
90.69766113
 20
3.54895765
 30
0.0
 11
102.14622469
 21
4.75225016
 31
0.0
1001
GRPNAME
1000
PASTMD0X
  0
LINE
  5
12F5
330
12C8
100
AcDbEntity
  8
242
  6
CONTINUOUS
100
AcDbLine
 10
93.69766113
 20
-6.0
 30
0.0
 11
93.69766113
 21
6.0
 31
0.0
1001
GRPNAME
1000
PASTMD0X
  0
LINE
  5
12F6
330
12C8
100
AcDbEntity
  8
240
  6
CONTINUOUS
100
AcDbLine
 10
91.69766113
 20
-8.75
 30
0.0
 11
91.69766113
 21
8.75
 31
0.0
1001
GRPNAME
1000
PASTMD0X
  0
LINE
  5
12F7
330
12C8
100
AcDbEntity
  8
240
  6
CONTINUOUS
100
AcDbLine
 10
105.0
 20
-9.09289322
 30
0.0
 11
105.0
 21
9.09289322
 31
0.0
1001
GRPNAME
1000
PASTMD0X
  0
LINE
  5
12F8
330
12C8
100
AcDbEntity
  8
241
  6
CONTINUOUS
100
AcDbLine
 10
104.3
 20
9.94610783
 30
0.0
 11
104.3
 21
-9.94610783
 31
0.0
1001
GRPNAME
1000
PASTMD0X
  0
LINE
  5
12F9
330
12C8
100
AcDbEntity
  8
240
  6
CONTINUOUS
100
AcDbLine
 10
95.5
 20
-7.25
 30
0.0
 11
95.5
 21
7.25
 31
0.0
1001
GRPNAME
1000
PASTMD0X
  0
LINE
  5
12FA
330
12C8
100
AcDbEntity
  8
240
  6
CONTINUOUS
100
AcDbLine
 10
95.8
 20
-9.4
 30
0.0
 11
95.8
 21
9.4
 31
0.0
1001
GRPNAME
1000
PASTMD0X
  0
LINE
  5
12FB
330
12C8
100
AcDbEntity
  8
241
  6
CONTINUOUS
100
AcDbLine
 10
96.4
 20
3.87825195
 30
0.0
 11
101.5
 21
3.87825195
 31
0.0
1001
GRPNAME
1000
PASTMD0X
  0
LINE
  5
12FC
330
12C8
100
AcDbEntity
  8
241
  6
HIDDEN2
100
AcDbLine
 10
90.74622469
 20
3.0
 30
0.0
 11
105.0
 21
3.0
 31
0.0
1001
GRPNAME
1000
PASTMD0X
  0
LINE
  5
12FD
330
12C8
100
AcDbEntity
  8
240
  6
CONTINUOUS
100
AcDbLine
 10
96.4
 20
-10.0
 30
0.0
 11
104.05147186
 21
-10.0
 31
0.0
1001
GRPNAME
1000
PASTMD0X
  0
LINE
  5
12FE
330
12C8
100
AcDbEntity
  8
241
  6
CONTINUOUS
100
AcDbLine
 10
95.8
 20
-5.33253175
 30
0.0
 11
101.5
 21
-5.33253175
 31
0.0
1001
GRPNAME
1000
PASTMD0X
  0
LINE
  5
12FF
330
12C8
100
AcDbEntity
  8
241
  6
CONTINUOUS
100
AcDbLine
 10
96.4
 20
-6.04331546
 30
0.0
 11
101.5
 21
-6.04331546
 31
0.0
1001
GRPNAME
1000
PASTMD0X
  0
LINE
  5
1300
330
12C8
100
AcDbEntity
  8
241
  6
CONTINUOUS
100
AcDbLine
 10
96.4
 20
-3.87825195
 30
0.0
 11
101.5
 21
-3.87825195
 31
0.0
1001
GRPNAME
1000
PASTMD0X
  0
LINE
  5
1301
330
12C8
100
AcDbEntity
  8
241
  6
CONTINUOUS
100
AcDbLine
 10
96.4
 20
-10.0
 30
0.0
 11
96.4
 21
-6.04331546
 31
0.0
1001
GRPNAME
1000
PASTMD0X
  0
ARC
  5
1302
330
12C8
100
AcDbEntity
  8
240
  6
CONTINUOUS
100
AcDbCircle
 10
90.69766113
 20
-8.75
 30
0.0
 40
1.0
100
AcDbArc
 50
269.99999998
 51
359.99999998
1001
GRPNAME
1000
PASTMD0X
  0
ARC
  5
1303
330
12C8
100
AcDbEntity
  8
240
  6
CONTINUOUS
100
AcDbCircle
 10
96.4
 20
-9.4
 30
0.0
 40
0.6000000000000229
100
AcDbArc
 50
180.00000009
 51
270.00000009
1001
GRPNAME
1000
PASTMD0X
  0
ARC
  5
1304
330
12C8
100
AcDbEntity
  8
240
  6
CONTINUOUS
100
AcDbCircle
 10
92.69766113
 20
-7.0
 30
0.0
 40
1.0
100
AcDbArc
 50
89.99999999
 51
179.99999999
1001
GRPNAME
1000
PASTMD0X
  0
LINE
  5
1305
330
12C8
100
AcDbEntity
  8
241
  6
HIDDEN2
100
AcDbLine
 10
90.69766113
 20
3.54895765
 30
0.0
 11
90.69766113
 21
0.0
 31
0.0
1001
GRPNAME
1000
PASTMD0X
  0
LINE
  5
1306
330
12C8
100
AcDbEntity
  8
241
  6
CONTINUOUS
100
AcDbLine
 10
96.4
 20
3.87825195
 30
0.0
 11
96.4
 21
-3.87825195
 31
0.0
  0
LWPOLYLINE
  5
1307
330
12C8
100
AcDbEntity
  8
241
  6
CONTINUOUS
100
AcDbPolyline
 90
       70
 70
     0
 43
0.0
 10
95.8
 20
-3.57572704
 10
95.80015547
 20
-3.58261347
 10
95.8006218
 20
-3.58949634
 10
95.80139874
 20
-3.59637207
 10
95.80248589
 20
-3.6032371
 10
95.8038827
 20
-3.61008788
 10
95.80558843
 20
-3.61692084
 10
95.80760221
 20
-3.62373246
 10
95.80992298
 20
-3.63051921
 10
95.81254955
 20
-3.63727755
 10
95.81548055
 20
-3.644004
 10
95.81871447
 20
-3.65069507
 10
95.82224963
 20
-3.65734728
 10
95.82608419
 20
-3.6639572
 10
95.83021618
 20
-3.6705214
 10
95.83464345
 20
-3.67703647
 10
95.8393637
 20
-3.68349903
 10
95.84437449
 20
-3.68990575
 10
95.84967322
 20
-3.6962533
 10
95.85525715
 20
-3.70253838
 10
95.86112338
 20
-3.70875775
 10
95.86726887
 20
-3.71490818
 10
95.87369044
 20
-3.72098648
 10
95.88038476
 20
-3.7269895
 10
95.88734836
 20
-3.73291413
 10
95.89457763
 20
-3.7387573
 10
95.90206882
 20
-3.74451599
 10
95.90981806
 20
-3.7501872
 10
95.91782133
 20
-3.75576801
 10
95.92607448
 20
-3.76125551
 10
95.93457323
 20
-3.76664687
 10
95.94331317
 20
-3.77193928
 10
95.95228979
 20
-3.77713001
 10
95.96149842
 20
-3.78221637
 10
95.9709343
 20
-3.78719572
 10
95.98059253
 20
-3.79206548
 10
95.99046811
 20
-3.79682313
 10
96.00055593
 20
-3.8014662
 10
96.01085075
 20
-3.80599228
 10
96.02134723
 20
-3.81039903
 10
96.03203995
 20
-3.81468417
 10
96.04292335
 20
-3.81884547
 10
96.05399181
 20
-3.82288079
 10
96.06523957
 20
-3.82678802
 10
96.07666082
 20
-3.83056514
 10
96.08824963
 20
-3.8342102
 10
96.1
 20
-3.8377213
 10
96.11190584
 20
-3.84109663
 10
96.12396098
 20
-3.84433444
 10
96.13615917
 20
-3.84743305
 10
96.14849409
 20
-3.85039085
 10
96.16095935
 20
-3.85320631
 10
96.17354848
 20
-3.85587797
 10
96.18625497
 20
-3.85840445
 10
96.19907223
 20
-3.86078444
 10
96.21199362
 20
-3.86301671
 10
96.22501244
 20
-3.86510009
 10
96.23812194
 20
-3.86703351
 10
96.25131533
 20
-3.86881596
 10
96.26458577
 20
-3.87044653
 10
96.27792639
 20
-3.87192437
 10
96.29133027
 20
-3.87324871
 10
96.30479047
 20
-3.87441886
 10
96.31830001
 20
-3.87543422
 10
96.33185189
 20
-3.87629426
 10
96.34543908
 20
-3.87699855
 10
96.35905455
 20
-3.8775467
 10
96.37269124
 20
-3.87793844
 10
96.38634208
 20
-3.87817356
 10
96.4
 20
-3.87825195
1001
GRPNAME
1000
PASTMD0X
  0
LWPOLYLINE
  5
134F
330
12C8
100
AcDbEntity
  8
241
  6
CONTINUOUS
100
AcDbPolyline
 90
       70
 70
     0
 43
0.0
 10
95.8
 20
-5.74079055
 10
95.80015547
 20
-5.74767698
 10
95.8006218
 20
-5.75455985
 10
95.80139874
 20
-5.76143558
 10
95.80248589
 20
-5.76830061
 10
95.8038827
 20
-5.77515139
 10
95.80558843
 20
-5.78198435
 10
95.80760221
 20
-5.78879597
 10
95.80992298
 20
-5.79558272
 10
95.81254955
 20
-5.80234106
 10
95.81548055
 20
-5.80906751
 10
95.81871447
 20
-5.81575858
 10
95.82224963
 20
-5.82241079
 10
95.82608419
 20
-5.82902071
 10
95.83021618
 20
-5.83558491
 10
95.83464345
 20
-5.84209998
 10
95.8393637
 20
-5.84856254
 10
95.84437449
 20
-5.85496926
 10
95.84967322
 20
-5.8613168
 10
95.85525715
 20
-5.86760189
 10
95.86112338
 20
-5.87382126
 10
95.86726887
 20
-5.87997169
 10
95.87369044
 20
-5.88604998
 10
95.88038476
 20
-5.89205301
 10
95.88734836
 20
-5.89797764
 10
95.89457763
 20
-5.90382081
 10
95.90206882
 20
-5.9095795
 10
95.90981806
 20
-5.91525071
 10
95.91782133
 20
-5.92083152
 10
95.92607448
 20
-5.92631902
 10
95.93457323
 20
-5.93171038
 10
95.94331317
 20
-5.93700279
 10
95.95228979
 20
-5.94219352
 10
95.96149842
 20
-5.94727988
 10
95.9709343
 20
-5.95225923
 10
95.98059253
 20
-5.95712899
 10
95.99046811
 20
-5.96188664
 10
96.00055593
 20
-5.9665297
 10
96.01085075
 20
-5.97105579
 10
96.02134723
 20
-5.97546254
 10
96.03203995
 20
-5.97974768
 10
96.04292335
 20
-5.98390898
 10
96.05399181
 20
-5.9879443
 10
96.06523957
 20
-5.99185153
 10
96.07666082
 20
-5.99562865
 10
96.08824963
 20
-5.99927371
 10
96.1
 20
-6.00278481
 10
96.11190584
 20
-6.00616014
 10
96.12396098
 20
-6.00939795
 10
96.13615917
 20
-6.01249656
 10
96.14849409
 20
-6.01545436
 10
96.16095935
 20
-6.01826982
 10
96.17354848
 20
-6.02094148
 10
96.18625497
 20
-6.02346796
 10
96.19907223
 20
-6.02584795
 10
96.21199362
 20
-6.02808022
 10
96.22501244
 20
-6.0301636
 10
96.23812194
 20
-6.03209702
 10
96.25131533
 20
-6.03387947
 10
96.26458577
 20
-6.03551004
 10
96.27792639
 20
-6.03698788
 10
96.29133027
 20
-6.03831222
 10
96.30479047
 20
-6.03948237
 10
96.31830001
 20
-6.04049773
 10
96.33185189
 20
-6.04135777
 10
96.34543908
 20
-6.04206205
 10
96.35905455
 20
-6.04261021
 10
96.37269124
 20
-6.04300195
 10
96.38634208
 20
-6.04323707
 10
96.4
 20
-6.04331546
1001
GRPNAME
1000
PASTMD0X
  0
LINE
  5
1397
330
12C8
100
AcDbEntity
  8
240
  6
CONTINUOUS
100
AcDbLine
 10
95.8
 20
-7.55
 30
0.0
 11
95.5
 21
-7.25
 31
0.0
1001
GRPNAME
1000
PASTMD0X
  0
LINE
  5
1398
330
12C8
100
AcDbEntity
  8
242
  6
CONTINUOUS
100
AcDbLine
 10
93.19766113
 20
-6.0
 30
0.0
 11
93.69766113
 21
-5.5
 31
0.0
1001
GRPNAME
1000
PASTMD0X
  0
LINE
  5
1399
330
12C8
100
AcDbEntity
  8
242
  6
CONTINUOUS
100
AcDbLine
 10
95.5
 20
-5.5
 30
0.0
 11
93.69766113
 21
-5.5
 31
0.0
1001
GRPNAME
1000
PASTMD0X
  0
LINE
  5
139A
330
12C8
100
AcDbEntity
  8
240
  6
CONTINUOUS
100
AcDbLine
 10
95.5
 20
-6.0
 30
0.0
 11
92.69766113
 21
-6.0
 31
0.0
1001
GRPNAME
1000
PASTMD0X
  0
LWPOLYLINE
  5
139B
330
12C8
100
AcDbEntity
  8
241
  6
CONTINUOUS
100
AcDbPolyline
 90
       70
 70
     0
 43
0.0
 10
95.8
 20
3.57572704
 10
95.80015547
 20
3.58261347
 10
95.8006218
 20
3.58949634
 10
95.80139874
 20
3.59637207
 10
95.80248589
 20
3.6032371
 10
95.8038827
 20
3.61008788
 10
95.80558843
 20
3.61692084
 10
95.80760221
 20
3.62373246
 10
95.80992298
 20
3.63051921
 10
95.81254955
 20
3.63727755
 10
95.81548055
 20
3.644004
 10
95.81871447
 20
3.65069507
 10
95.82224963
 20
3.65734728
 10
95.82608419
 20
3.6639572
 10
95.83021618
 20
3.6705214
 10
95.83464345
 20
3.67703647
 10
95.8393637
 20
3.68349903
 10
95.84437449
 20
3.68990575
 10
95.84967322
 20
3.6962533
 10
95.85525715
 20
3.70253838
 10
95.86112338
 20
3.70875775
 10
95.86726887
 20
3.71490818
 10
95.87369044
 20
3.72098648
 10
95.88038476
 20
3.7269895
 10
95.88734836
 20
3.73291413
 10
95.89457763
 20
3.7387573
 10
95.90206882
 20
3.74451599
 10
95.90981806
 20
3.7501872
 10
95.91782133
 20
3.75576801
 10
95.92607448
 20
3.76125551
 10
95.93457323
 20
3.76664687
 10
95.94331317
 20
3.77193928
 10
95.95228979
 20
3.77713001
 10
95.96149842
 20
3.78221637
 10
95.9709343
 20
3.78719572
 10
95.98059253
 20
3.79206548
 10
95.99046811
 20
3.79682313
 10
96.00055593
 20
3.8014662
 10
96.01085075
 20
3.80599228
 10
96.02134723
 20
3.81039903
 10
96.03203995
 20
3.81468417
 10
96.04292335
 20
3.81884547
 10
96.05399181
 20
3.82288079
 10
96.06523957
 20
3.82678802
 10
96.07666082
 20
3.83056514
 10
96.08824963
 20
3.8342102
 10
96.1
 20
3.8377213
 10
96.11190584
 20
3.84109663
 10
96.12396098
 20
3.84433444
 10
96.13615917
 20
3.84743305
 10
96.14849409
 20
3.85039085
 10
96.16095935
 20
3.85320631
 10
96.17354848
 20
3.85587797
 10
96.18625497
 20
3.85840445
 10
96.19907223
 20
3.86078444
 10
96.21199362
 20
3.86301671
 10
96.22501244
 20
3.86510009
 10
96.23812194
 20
3.86703351
 10
96.25131533
 20
3.86881596
 10
96.26458577
 20
3.87044653
 10
96.27792639
 20
3.87192437
 10
96.29133027
 20
3.87324871
 10
96.30479047
 20
3.87441886
 10
96.31830001
 20
3.87543422
 10
96.33185189
 20
3.87629426
 10
96.34543908
 20
3.87699855
 10
96.35905455
 20
3.8775467
 10
96.37269124
 20
3.87793844
 10
96.38634208
 20
3.87817356
 10
96.4
 20
3.87825195
1001
GRPNAME
1000
PASTMD0X
  0
ARC
  5
13E3
330
12C8
100
AcDbEntity
  8
240
  6
CONTINUOUS
100
AcDbCircle
 10
104.5
 20
-9.09289322
 30
0.0
 40
0.500000000000004
100
AcDbArc
 50
315.00000004
 51
0.00000004
1001
GRPNAME
1000
PASTMD0X
  0
ARC
  5
13E4
330
12C8
100
AcDbEntity
  8
240
  6
CONTINUOUS
100
AcDbCircle
 10
104.05147186
 20
-9.4
 30
0.0
 40
0.5999999999999659
100
AcDbArc
 50
270.00000004
 51
315.00000004
1001
GRPNAME
1000
PASTMD0X
  0
LINE
  5
13E5
330
12C8
100
AcDbEntity
  8
240
  6
CONTINUOUS
100
AcDbLine
 10
104.47573593
 20
-9.82426407
 30
0.0
 11
104.85355339
 21
-9.44644661
 31
0.0
1001
GRPNAME
1000
PASTMD0X
  0
LINE
  5
13E6
330
12C8
100
AcDbEntity
  8
241
  6
CONTINUOUS
100
AcDbLine
 10
101.5
 20
-6.04331546
 30
0.0
 11
101.5
 21
-3.87825195
 31
0.0
1001
GRPNAME
1000
PASTMD0X
  0
LINE
  5
13E7
330
12C8
100
AcDbEntity
  8
241
  6
HIDDEN2
100
AcDbLine
 10
102.14622469
 20
4.1
 30
0.0
 11
103.44622469
 21
4.1
 31
0.0
1001
GRPNAME
1000
PASTMD0X
  0
LINE
  5
13E8
330
12C8
100
AcDbEntity
  8
240
  6
CONTINUOUS
100
AcDbLine
 10
96.4
 20
10.0
 30
0.0
 11
104.05147186
 21
10.0
 31
0.0
1001
GRPNAME
1000
PASTMD0X
  0
LINE
  5
13E9
330
12C8
100
AcDbEntity
  8
241
  6
CONTINUOUS
100
AcDbLine
 10
95.8
 20
5.33253175
 30
0.0
 11
101.5
 21
5.33253175
 31
0.0
1001
GRPNAME
1000
PASTMD0X
  0
LINE
  5
13EA
330
12C8
100
AcDbEntity
  8
241
  6
CONTINUOUS
100
AcDbLine
 10
96.4
 20
6.04331546
 30
0.0
 11
101.5
 21
6.04331546
 31
0.0
1001
GRPNAME
1000
PASTMD0X
  0
ARC
  5
13EB
330
12C8
100
AcDbEntity
  8
240
  6
CONTINUOUS
100
AcDbCircle
 10
92.69766113
 20
7.0
 30
0.0
 40
1.0
100
AcDbArc
 50
179.99999998
 51
269.99999998
1001
GRPNAME
1000
PASTMD0X
  0
ARC
  5
13EC
330
12C8
100
AcDbEntity
  8
240
  6
CONTINUOUS
100
AcDbCircle
 10
90.69766113
 20
8.75
 30
0.0
 40
1.0
100
AcDbArc
 50
359.99999999
 51
89.99999999
1001
GRPNAME
1000
PASTMD0X
  0
ARC
  5
13ED
330
12C8
100
AcDbEntity
  8
240
  6
CONTINUOUS
100
AcDbCircle
 10
96.4
 20
9.4
 30
0.0
 40
0.6000000000000229
100
AcDbArc
 50
89.99999999
 51
179.99999999
1001
GRPNAME
1000
PASTMD0X
  0
LWPOLYLINE
  5
13EE
330
12C8
100
AcDbEntity
  8
241
  6
CONTINUOUS
100
AcDbPolyline
 90
       70
 70
     0
 43
0.0
 10
95.8
 20
5.74079055
 10
95.80015547
 20
5.74767698
 10
95.8006218
 20
5.75455985
 10
95.80139874
 20
5.76143558
 10
95.80248589
 20
5.76830061
 10
95.8038827
 20
5.77515139
 10
95.80558843
 20
5.78198435
 10
95.80760221
 20
5.78879597
 10
95.80992298
 20
5.79558272
 10
95.81254955
 20
5.80234106
 10
95.81548055
 20
5.80906751
 10
95.81871447
 20
5.81575858
 10
95.82224963
 20
5.82241079
 10
95.82608419
 20
5.82902071
 10
95.83021618
 20
5.83558491
 10
95.83464345
 20
5.84209998
 10
95.8393637
 20
5.84856254
 10
95.84437449
 20
5.85496926
 10
95.84967322
 20
5.8613168
 10
95.85525715
 20
5.86760189
 10
95.86112338
 20
5.87382126
 10
95.86726887
 20
5.87997169
 10
95.87369044
 20
5.88604998
 10
95.88038476
 20
5.89205301
 10
95.88734836
 20
5.89797764
 10
95.89457763
 20
5.90382081
 10
95.90206882
 20
5.9095795
 10
95.90981806
 20
5.91525071
 10
95.91782133
 20
5.92083152
 10
95.92607448
 20
5.92631902
 10
95.93457323
 20
5.93171038
 10
95.94331317
 20
5.93700279
 10
95.95228979
 20
5.94219352
 10
95.96149842
 20
5.94727988
 10
95.9709343
 20
5.95225923
 10
95.98059253
 20
5.95712899
 10
95.99046811
 20
5.96188664
 10
96.00055593
 20
5.9665297
 10
96.01085075
 20
5.97105579
 10
96.02134723
 20
5.97546254
 10
96.03203995
 20
5.97974768
 10
96.04292335
 20
5.98390898
 10
96.05399181
 20
5.9879443
 10
96.06523957
 20
5.99185153
 10
96.07666082
 20
5.99562865
 10
96.08824963
 20
5.99927371
 10
96.1
 20
6.00278481
 10
96.11190584
 20
6.00616014
 10
96.12396098
 20
6.00939795
 10
96.13615917
 20
6.01249656
 10
96.14849409
 20
6.01545436
 10
96.16095935
 20
6.01826982
 10
96.17354848
 20
6.02094148
 10
96.18625497
 20
6.02346796
 10
96.19907223
 20
6.02584795
 10
96.21199362
 20
6.02808022
 10
96.22501244
 20
6.0301636
 10
96.23812194
 20
6.03209702
 10
96.25131533
 20
6.03387947
 10
96.26458577
 20
6.03551004
 10
96.27792639
 20
6.03698788
 10
96.29133027
 20
6.03831222
 10
96.30479047
 20
6.03948237
 10
96.31830001
 20
6.04049773
 10
96.33185189
 20
6.04135777
 10
96.34543908
 20
6.04206205
 10
96.35905455
 20
6.04261021
 10
96.37269124
 20
6.04300195
 10
96.38634208
 20
6.04323707
 10
96.4
 20
6.04331546
1001
GRPNAME
1000
PASTMD0X
  0
LINE
  5
1436
330
12C8
100
AcDbEntity
  8
240
  6
CONTINUOUS
100
AcDbLine
 10
95.5
 20
7.25
 30
0.0
 11
95.8
 21
7.55
 31
0.0
1001
GRPNAME
1000
PASTMD0X
  0
LINE
  5
1437
330
12C8
100
AcDbEntity
  8
242
  6
CONTINUOUS
100
AcDbLine
 10
93.19766113
 20
6.0
 30
0.0
 11
93.69766113
 21
5.5
 31
0.0
1001
GRPNAME
1000
PASTMD0X
  0
LINE
  5
1438
330
12C8
100
AcDbEntity
  8
242
  6
CONTINUOUS
100
AcDbLine
 10
93.69766113
 20
5.5
 30
0.0
 11
95.5
 21
5.5
 31
0.0
1001
GRPNAME
1000
PASTMD0X
  0
LINE
  5
1439
330
12C8
100
AcDbEntity
  8
240
  6
CONTINUOUS
100
AcDbLine
 10
95.5
 20
6.0
 30
0.0
 11
92.69766113
 21
6.0
 31
0.0
1001
GRPNAME
1000
PASTMD0X
  0
LINE
  5
143A
330
12C8
100
AcDbEntity
  8
241
  6
CONTINUOUS
100
AcDbLine
 10
96.4
 20
10.0
 30
0.0
 11
96.4
 21
6.04331546
 31
0.0
  0
LINE
  5
143B
330
12C8
100
AcDbEntity
  8
240
  6
CONTINUOUS
100
AcDbLine
 10
104.85355339
 20
9.44644661
 30
0.0
 11
104.47573593
 21
9.82426407
 31
0.0
1001
GRPNAME
1000
PASTMD0X
  0
ARC
  5
143C
330
12C8
100
AcDbEntity
  8
240
  6
CONTINUOUS
100
AcDbCircle
 10
104.5
 20
9.09289322
 30
0.0
 40
0.4999999999999434
100
AcDbArc
 50
0.00000004
 51
45.00000004
1001
GRPNAME
1000
PASTMD0X
  0
ARC
  5
143D
330
12C8
100
AcDbEntity
  8
240
  6
CONTINUOUS
100
AcDbCircle
 10
104.05147186
 20
9.4
 30
0.0
 40
0.600000000000029
100
AcDbArc
 50
44.99999993
 51
89.99999993
1001
GRPNAME
1000
PASTMD0X
  0
LINE
  5
143E
330
12C8
100
AcDbEntity
  8
241
  6
CONTINUOUS
100
AcDbLine
 10
103.44622469
 20
4.75
 30
0.0
 11
103.54622469
 21
4.75
 31
0.0
1001
GRPNAME
1000
PASTMD0X
  0
ENDBLK
  5
12CA
330
12C8
100
AcDbEntity
  8
0
100
AcDbBlockEnd
  0
ENDSEC
  0
SECTION
  2
ENTITIES
  0
INSERT
  5
6E6
330
1A
100
AcDbEntity
  8
245
100
AcDbBlockReference
  2
矢印なし
 10
175.62382697
 20
90.55123572
 30
0.0
  0
TEXT
  5
905
330
1A
100
AcDbEntity
  8
241
100
AcDbText
 10
-38.0
 20
66.5
 30
0.0
 40
5.0
  1
C6-NBS6-105
  7
YOKO
 11
-38.0
 21
66.5
 31
0.0
100
AcDbText
 73
     1
  0
DIMENSION
  5
90D
330
1A
100
AcDbEntity
  8
250
  6
CONTINUOUS
100
AcDbDimension
  2
*D2
 10
105.0
 20
52.5
 30
0.0
 11
55.75424552
 21
52.5
 31
0.0
 70
   160
  3
BIGT$0
100
AcDbAlignedDimension
 13
0.0
 23
30.9925
 33
0.0
 14
105.0
 24
9.09289322
 34
0.0
100
AcDbRotatedDimension
  0
LEADER
  5
91D
330
1A
100
AcDbEntity
  8
250
  6
CONTINUOUS
100
AcDbLeader
  3
BIGT
 76
     2
 10
-16.47540101
 20
-20.26308537
 30
0.0
 10
-21.0
 20
-28.0
 30
0.0
1001
ACAD
1000
DSTYLE
1002
{
1070
     6
1000
OPEN
1070
    41
1040
2.0
1070
    42
1040
2.0
1070
    44
1040
2.0
1070
   140
1040
4.0
1070
   343
1005
594
1002
}
  0
MTEXT
  5
91E
330
1A
100
AcDbEntity
  8
251
  6
CONTINUOUS
100
AcDbMText
 10
-28.46666667
 20
-27.0
 30
0.0
 40
2.8
 41
0.0
 71
     7
 72
     1
  1
C6
  7
YOKO
1001
ITEMNAME
1000
LNSP3
1001
ACAD
1000
MTEXTBEGIN
1070
    73
1070
     1
1070
    44
1040
1.0
1070
    74
1070
     0
1000
MTEXTEND
1000
MTEXTBEGIN
1070
    73
1070
     1
1070
    44
1040
1.0
1070
    74
1070
     0
1000
MTEXTEND
1000
MTEXTBEGIN
1070
    73
1070
     1
1070
    44
1040
1.0
1070
    74
1070
     0
1000
MTEXTEND
1000
MTEXTBEGIN
1070
    73
1070
     1
1070
    44
1040
1.0
1070
    74
1070
     0
1000
MTEXTEND
1000
MTEXTBEGIN
1070
    73
1070
     1
1070
    44
1040
1.0
1070
    74
1070
     0
1000
MTEXTEND
1000
MTEXTBEGIN
1070
    73
1070
     1
1070
    44
1040
1.0
1070
    74
1070
     0
1000
MTEXTEND
1000
MTEXTBEGIN
1070
    73
1070
     1
1070
    44
1040
1.0
1070
    74
1070
     0
1000
MTEXTEND
1000
MTEXTBEGIN
1070
    73
1070
     1
1070
    44
1040
1.0
1070
    74
1070
     0
1000
MTEXTEND
1000
MTEXTBEGIN
1070
    73
1070
     1
1070
    44
1040
1.0
1070
    74
1070
     0
1000
MTEXTEND
  0
LINE
  5
91F
330
1A
100
AcDbEntity
  8
250
  6
CONTINUOUS
100
AcDbLine
 10
-21.0
 20
-28.0
 30
0.0
 11
-31.26666667
 21
-28.0
 31
0.0
1001
ITEMNAME
1000
LNSP2
  0
DIMENSION
  5
D8C
330
1A
100
AcDbEntity
  8
250
  6
CONTINUOUS
100
AcDbDimension
  2
*D3
 10
105.0
 20
45.5
 30
0.0
 11
57.0
 21
45.5
 31
0.0
 70
   160
  1
（max.<>）
  3
BIGT
100
AcDbAlignedDimension
 13
9.0
 23
1.0
 33
0.0
 14
105.0
 24
9.09289322
 34
0.0
100
AcDbRotatedDimension
  0
MTEXT
  5
10DA
330
1A
100
AcDbEntity
  8
250
  6
CONTINUOUS
 62
    40
100
AcDbMText
 10
109.54542796
 20
0.6833302
 30
0.0
 40
2.8
 41
0.0
 71
     5
 72
     1
  1
\A1;max.{\H2.8;\U+2205}6
 11
0.0
 21
1.0
 31
0.0
1001
ACAD
1000
MTEXTBEGIN
1070
    73
1070
     1
1070
    44
1040
1.0
1070
    74
1070
     0
1000
MTEXTEND
1000
MTEXTBEGIN
1070
    73
1070
     1
1070
    44
1040
1.0
1070
    74
1070
     0
1000
MTEXTEND
1000
MTEXTBEGIN
1070
    73
1070
     1
1070
    44
1040
1.0
1070
    74
1070
     0
1000
MTEXTEND
  0
DIMENSION
  5
1128
330
1A
100
AcDbEntity
  8
250
  6
CONTINUOUS
100
AcDbDimension
  2
*D4
 10
119.0
 20
10.0
 30
0.0
 11
116.5
 21
0.0
 31
0.0
 70
    32
  1
{\H3;\U+2205}<>
  3
BIGT$0
100
AcDbAlignedDimension
 13
104.05147186
 23
-10.0
 33
0.0
 14
104.05147186
 24
10.0
 34
0.0
 50
90.0
100
AcDbRotatedDimension
  0
LINE
  5
1183
330
1A
100
AcDbEntity
  8
250
  6
CONTINUOUS
100
AcDbLine
 10
105.5
 20
3.0
 30
0.0
 11
112.94423646
 21
3.0
 31
0.0
  0
INSERT
  5
122C
330
1A
100
AcDbEntity
  8
250
  6
CONTINUOUS
100
AcDbBlockReference
  2
_OPEN
 10
111.94423646
 20
3.0
 30
0.0
 41
-2.23
 42
2.23
 43
2.23
 50
270.0
  0
LINE
  5
122D
330
1A
100
AcDbEntity
  8
250
  6
CONTINUOUS
100
AcDbLine
 10
111.94423646
 20
-3.0
 30
0.0
 11
111.94423646
 21
3.0
 31
0.0
  0
DIMENSION
  5
1297
330
1A
100
AcDbEntity
  8
250
  6
CONTINUOUS
100
AcDbDimension
  2
*D5
 10
105.0
 20
38.5
 30
0.0
 11
63.5
 21
41.0
 31
0.0
 70
    32
  3
BIGT$0
100
AcDbAlignedDimension
 13
22.0
 23
30.4925
 33
0.0
 14
105.0
 24
9.09289322
 34
0.0
100
AcDbRotatedDimension
  0
INSERT
  5
143F
330
1A
100
AcDbEntity
  8
245
100
AcDbBlockReference
  2
1
 10
0.0
 20
0.0
 30
0.0
  0
VIEWPORT
  5
22
330
17
100
AcDbEntity
 67
     1
  8
0
100
AcDbViewport
 10
261.51769912
 20
148.5
 30
0.0
 40
523.03539823
 41
297.0
 68
     1
 69
     1
1001
ACAD
1000
MVIEW
1002
{
1070
    16
1010
0.0
1020
0.0
1030
0.0
1010
0.0
1020
0.0
1030
1.0
1040
0.0
1040
297.0
1040
261.51769912
1040
148.5
1040
50.0
1040
0.0
1040
0.0
1070
     0
1070
   100
1070
     1
1070
     1
1070
     0
1070
     0
1070
     0
1070
     0
1040
0.0
1040
0.0
1040
0.0
1040
1.0
1040
1.0
1040
10.0
1040
10.0
1070
     0
1002
{
1002
}
1002
}
  0
ENDSEC
  0
SECTION
  2
OBJECTS
  0
DICTIONARY
  5
C
330
0
100
AcDbDictionary
  3
ACAD_GROUP
350
D
  3
ACAD_LAYOUT
350
565
  3
ACAD_MLINESTYLE
350
E
  3
ACAD_PLOTSETTINGS
350
566
  3
ACAD_PLOTSTYLENAME
350
563
  3
ACDBHEADERROUNDTRIPXREC
350
14E6
  3
GRADE_DWG
350
540
  0
DICTIONARY
  5
CA9
330
1A
100
AcDbDictionary
280
     1
  3
ACAD_LAYOUTSELFREF
360
1508
  0
DICTIONARY
  5
CA7
330
17
100
AcDbDictionary
280
     1
  3
ACAD_LAYOUTSELFREF
360
1507
  0
DICTIONARY
  5
D
102
{ACAD_REACTORS
330
C
102
}
330
C
100
AcDbDictionary
  3
*A1
350
6C7
  3
*A2
350
6C8
  3
*A3
350
6D4
  3
*A4
350
6D5
  3
DREC-1
350
5FC
  3
DREC-2
350
654
  3
DREC-3
350
673
  0
DICTIONARY
  5
565
102
{ACAD_REACTORS
330
C
102
}
330
C
100
AcDbDictionary
  0
DICTIONARY
  5
E
102
{ACAD_REACTORS
330
C
102
}
330
C
100
AcDbDictionary
  3
STANDARD
350
13
  0
DICTIONARY
  5
566
102
{ACAD_REACTORS
330
C
102
}
330
C
100
AcDbDictionary
  3
A3_0_5倍_
350
758
  3
A3_1倍_
350
757
  3
A3_1倍__2000_
350
707
  3
A3_2倍_
350
759
  3
A4_0_5倍_
350
755
  3
A4_1倍_
350
754
  3
A4_1倍__2000_
350
708
  3
A4_2倍_
350
756
  0
ACDBDICTIONARYWDFLT
  5
563
102
{ACAD_REACTORS
330
C
102
}
330
C
100
AcDbDictionary
281
     1
  3
Normal
350
564
100
AcDbDictionaryWithDefault
340
564
  0
DICTIONARY
  5
14E6
102
{ACAD_REACTORS
330
C
102
}
330
C
100
AcDbDictionary
  3
CEPSNTYPE
350
14F0
  3
DIMSTYLEDATA
350
14F4
  3
FINGERPRINTGUID
350
14F1
  3
HYPERLINKBASE
350
14E9
  3
INSUNITS
350
14EF
  3
LAYOUTDICT
350
14EB
  3
LWETCUNION
350
14EE
  3
PLOTSETDICT
350
14EC
  3
PLOTSTYLNAMDICT
350
14ED
  3
PSVPSCALE
350
14F3
  3
PUCSBASE
350
14F7
  3
PUCSORGBACK
350
14FD
  3
PUCSORGBOTTOM
350
14F9
  3
PUCSORGFRONT
350
14FC
  3
PUCSORGLEFT
350
14FA
  3
PUCSORGRIGHT
350
14FB
  3
PUCSORGTOP
350
14F8
  3
PUCSORTHOREF
350
14F5
  3
PUCSORTHOVIEW
350
14F6
  3
STYLESHEET
350
14EA
  3
TSTACKALIGN
350
14E7
  3
TSTACKSIZE
350
14E8
  3
UCSBASE
350
1500
  3
UCSORGBACK
350
1506
  3
UCSORGBOTTOM
350
1502
  3
UCSORGFRONT
350
1505
  3
UCSORGLEFT
350
1503
  3
UCSORGRIGHT
350
1504
  3
UCSORGTOP
350
1501
  3
UCSORTHOREF
350
14FE
  3
UCSORTHOVIEW
350
14FF
  3
VERSIONGUID
350
14F2
  0
DICTIONARY
  5
540
102
{ACAD_REACTORS
330
C
102
}
330
C
100
AcDbDictionary
  3
VERSION
350
560
  0
XRECORD
  5
1508
102
{ACAD_REACTORS
330
CA9
102
}
330
CA9
100
AcDbXrecord
340
1A
  0
XRECORD
  5
1507
102
{ACAD_REACTORS
330
CA7
102
}
330
CA7
100
AcDbXrecord
340
17
  0
GROUP
  5
6C7
102
{ACAD_REACTORS
330
D
102
}
330
D
100
AcDbGroup
300

 70
     0
 71
     1
1001
GRPNAME
1000
DMA00
  0
GROUP
  5
6C8
102
{ACAD_REACTORS
330
D
102
}
330
D
100
AcDbGroup
300

 70
     0
 71
     1
1001
GRPNAME
1000
DMA00
  0
GROUP
  5
6D4
102
{ACAD_REACTORS
330
D
102
}
330
D
100
AcDbGroup
300

 70
     0
 71
     1
1001
GRPNAME
1000
DMA00
  0
GROUP
  5
6D5
102
{ACAD_REACTORS
330
D
102
}
330
D
100
AcDbGroup
300

 70
     0
 71
     1
1001
GRPNAME
1000
DMA00
  0
GROUP
  5
5FC
102
{ACAD_REACTORS
330
D
102
}
330
D
100
AcDbGroup
300

 70
     0
 71
     1
1001
GRPNAME
1000
DREC-
1001
GPARA
1000
xsiz
1000
44.182
1000
ysiz
1000
40.677
1000
angl
1000
0
1000
ctyp
1000
0
1000
csiz
1000
5
1000
lfnt
1000
cont
1000
hcnt
1000
hoff
1000
vcnt
1000
voff
1000
opnt
1000
4
1000
dxpt
1000
0
1000
dypt
1000
0
  0
GROUP
  5
654
102
{ACAD_REACTORS
330
D
102
}
330
D
100
AcDbGroup
300

 70
     0
 71
     1
1001
GRPNAME
1000
DREC-
1001
GPARA
1000
xsiz
1000
54.592
1000
ysiz
1000
53.036
1000
angl
1000
0
1000
ctyp
1000
0
1000
csiz
1000
5
1000
lfnt
1000
cont
1000
hcnt
1000
hoff
1000
vcnt
1000
voff
1000
opnt
1000
4
1000
dxpt
1000
0
1000
dypt
1000
0
  0
GROUP
  5
673
102
{ACAD_REACTORS
330
D
102
}
330
D
100
AcDbGroup
300

 70
     0
 71
     1
1001
GRPNAME
1000
DREC-
1001
GPARA
1000
xsiz
1000
30.363
1000
ysiz
1000
36.175
1000
angl
1000
0
1000
ctyp
1000
0
1000
csiz
1000
5
1000
lfnt
1000
cont
1000
hcnt
1000
hoff
1000
vcnt
1000
voff
1000
opnt
1000
4
1000
dxpt
1000
0
1000
dypt
1000
0
  0
MLINESTYLE
  5
13
102
{ACAD_REACTORS
330
E
102
}
330
E
100
AcDbMlineStyle
  2
STANDARD
 70
     0
  3

 62
     0
 51
90.0
 52
90.0
 71
     2
 49
0.5
 62
   256
  6
BYLAYER
 49
-0.5
 62
   256
  6
BYLAYER
  0
PLOTSETTINGS
  5
758
102
{ACAD_REACTORS
330
566
102
}
330
566
100
AcDbPlotSettings
  1
A3(0.5倍)
  2
\\AWTECPC05\HP DeskJet 1120C
  4
A3
  6

 40
5.95841646
 41
13.49375153
 42
6.04309082
 43
3.67242432
 44
296.92599487
 45
419.94665527
 46
89.96
 47
127.14
 48
0.0
 49
0.0
140
0.0
141
0.0
142
1.0
143
2.0
 70
  1716
 72
     1
 73
     1
 74
     2
  7
big.ctb
 75
    17
147
0.5
148
0.0
149
0.0
  0
PLOTSETTINGS
  5
757
102
{ACAD_REACTORS
330
566
102
}
330
566
100
AcDbPlotSettings
  1
A3(1倍)
  2
\\AWTECPC05\HP DeskJet 1120C
  4
A3
  6

 40
5.95841646
 41
13.49375153
 42
6.04309082
 43
3.67242432
 44
296.92599487
 45
419.94665527
 46
37.46
 47
52.89
 48
0.0
 49
0.0
140
0.0
141
0.0
142
1.0
143
1.0
 70
  1716
 72
     1
 73
     1
 74
     2
  7
big.ctb
 75
    16
147
1.0
148
0.0
149
0.0
  0
PLOTSETTINGS
  5
707
102
{ACAD_REACTORS
330
566
102
}
330
566
100
AcDbPlotSettings
  1
A3(1倍)(2000)
  2
SII LS-1300 (D-SCAN)
  4
User258
  6

 40
3.17499995
 41
3.17499995
 42
3.17498779
 43
3.17498779
 44
419.98898315
 45
296.98950195
 46
58.32
 47
40.32
 48
0.0
 49
0.0
140
0.0
141
0.0
142
1.0
143
1.0
 70
  1716
 72
     1
 73
     0
 74
     2
  7
big.ctb
 75
    16
147
1.0
148
0.0
149
0.0
  0
PLOTSETTINGS
  5
759
102
{ACAD_REACTORS
330
566
102
}
330
566
100
AcDbPlotSettings
  1
A3(2倍)
  2
\\AWTECPC05\HP DeskJet 1120C
  4
A3
  6

 40
5.95841646
 41
13.49375153
 42
6.04309082
 43
3.67242432
 44
296.92599487
 45
419.94665527
 46
-67.54
 47
-95.61
 48
0.0
 49
0.0
140
0.0
141
0.0
142
1.0
143
0.5
 70
  1716
 72
     1
 73
     1
 74
     2
  7
big.ctb
 75
    27
147
2.0
148
0.0
149
0.0
  0
PLOTSETTINGS
  5
755
102
{ACAD_REACTORS
330
566
102
}
330
566
100
AcDbPlotSettings
  1
A4(0.5倍)
  2
\\AWTECPC05\HP DeskJet 1120C
  4
A4
  6

 40
4.18041658
 41
13.49374962
 42
4.18040466
 43
3.92642212
 44
209.97332764
 45
296.92599487
 46
48.31
 47
65.5
 48
0.0
 49
0.0
140
0.0
141
0.0
142
1.0
143
2.0
 70
  1716
 72
     1
 73
     1
 74
     2
  7
big.ctb
 75
    17
147
0.5
148
0.0
149
0.0
  0
PLOTSETTINGS
  5
754
102
{ACAD_REACTORS
330
566
102
}
330
566
100
AcDbPlotSettings
  1
A4(1倍)
  2
\\AWTECPC05\HP DeskJet 1120C
  4
A4
  6

 40
4.18041658
 41
13.49374962
 42
4.18040466
 43
3.92642212
 44
209.97332764
 45
296.92599487
 46
-4.19
 47
-8.75
 48
0.0
 49
0.0
140
0.0
141
0.0
142
1.0
143
1.0
 70
  1716
 72
     1
 73
     1
 74
     2
  7
big.ctb
 75
    16
147
1.0
148
0.0
149
0.0
  0
PLOTSETTINGS
  5
708
102
{ACAD_REACTORS
330
566
102
}
330
566
100
AcDbPlotSettings
  1
A4(1倍)(2000)
  2
SII LS-1300 (D-SCAN)
  4
User259
  6

 40
3.17499995
 41
3.17499995
 42
3.17498779
 43
3.17500305
 44
296.98950195
 45
209.99449158
 46
-3.18
 47
-3.18
 48
0.0
 49
0.0
140
0.0
141
0.0
142
1.0
143
1.0
 70
  1716
 72
     1
 73
     0
 74
     2
  7
big.ctb
 75
    16
147
1.0
148
0.0
149
0.0
  0
PLOTSETTINGS
  5
756
102
{ACAD_REACTORS
330
566
102
}
330
566
100
AcDbPlotSettings
  1
A4(2倍)
  2
\\AWTECPC05\HP DeskJet 1120C
  4
A4
  6

 40
4.18041658
 41
13.49374962
 42
4.18040466
 43
3.92642212
 44
209.97332764
 45
296.92599487
 46
-109.19
 47
-157.25
 48
0.0
 49
0.0
140
0.0
141
0.0
142
1.0
143
0.5
 70
  1716
 72
     1
 73
     1
 74
     2
  7
big.ctb
 75
    27
147
2.0
148
0.0
149
0.0
  0
ACDBPLACEHOLDER
  5
564
102
{ACAD_REACTORS
330
563
102
}
330
563
100
AcDbPlaceHolder
280
     0
  0
XRECORD
  5
14F0
102
{ACAD_REACTORS
330
14E6
102
}
330
14E6
100
AcDbXrecord
 90
        0
  0
XRECORD
  5
14F4
102
{ACAD_REACTORS
330
14E6
102
}
330
14E6
100
AcDbXrecord
1000
DSTYLE
1002
{
1070
   341
340
594
1070
   343
340
594
1070
   344
340
594
1002
}
  0
XRECORD
  5
14F1
102
{ACAD_REACTORS
330
14E6
102
}
330
14E6
100
AcDbXrecord
  1
{51294030-9CB4-11D3-8E18-00A0C925D94D}
  0
XRECORD
  5
14E9
102
{ACAD_REACTORS
330
14E6
102
}
330
14E6
100
AcDbXrecord
  1

  0
XRECORD
  5
14EF
102
{ACAD_REACTORS
330
14E6
102
}
330
14E6
100
AcDbXrecord
 90
        0
  0
XRECORD
  5
14EB
102
{ACAD_REACTORS
330
14E6
102
}
330
14E6
100
AcDbXrecord
340
565
  0
XRECORD
  5
14EE
102
{ACAD_REACTORS
330
14E6
102
}
330
14E6
100
AcDbXrecord
 90
    10781
  0
XRECORD
  5
14EC
102
{ACAD_REACTORS
330
14E6
102
}
330
14E6
100
AcDbXrecord
340
566
  0
XRECORD
  5
14ED
102
{ACAD_REACTORS
330
14E6
102
}
330
14E6
100
AcDbXrecord
340
563
  0
XRECORD
  5
14F3
102
{ACAD_REACTORS
330
14E6
102
}
330
14E6
100
AcDbXrecord
 40
0.0
  0
XRECORD
  5
14F7
102
{ACAD_REACTORS
330
14E6
102
}
330
14E6
100
AcDbXrecord
340
0
  0
XRECORD
  5
14FD
102
{ACAD_REACTORS
330
14E6
102
}
330
14E6
100
AcDbXrecord
 10
0.0
 20
0.0
 30
0.0
  0
XRECORD
  5
14F9
102
{ACAD_REACTORS
330
14E6
102
}
330
14E6
100
AcDbXrecord
 10
0.0
 20
0.0
 30
0.0
  0
XRECORD
  5
14FC
102
{ACAD_REACTORS
330
14E6
102
}
330
14E6
100
AcDbXrecord
 10
0.0
 20
0.0
 30
0.0
  0
XRECORD
  5
14FA
102
{ACAD_REACTORS
330
14E6
102
}
330
14E6
100
AcDbXrecord
 10
0.0
 20
0.0
 30
0.0
  0
XRECORD
  5
14FB
102
{ACAD_REACTORS
330
14E6
102
}
330
14E6
100
AcDbXrecord
 10
0.0
 20
0.0
 30
0.0
  0
XRECORD
  5
14F8
102
{ACAD_REACTORS
330
14E6
102
}
330
14E6
100
AcDbXrecord
 10
0.0
 20
0.0
 30
0.0
  0
XRECORD
  5
14F5
102
{ACAD_REACTORS
330
14E6
102
}
330
14E6
100
AcDbXrecord
340
0
  0
XRECORD
  5
14F6
102
{ACAD_REACTORS
330
14E6
102
}
330
14E6
100
AcDbXrecord
 70
     0
  0
XRECORD
  5
14EA
102
{ACAD_REACTORS
330
14E6
102
}
330
14E6
100
AcDbXrecord
  1
big.ctb
  0
XRECORD
  5
14E7
102
{ACAD_REACTORS
330
14E6
102
}
330
14E6
100
AcDbXrecord
 90
        1
  0
XRECORD
  5
14E8
102
{ACAD_REACTORS
330
14E6
102
}
330
14E6
100
AcDbXrecord
 90
       70
  0
XRECORD
  5
1500
102
{ACAD_REACTORS
330
14E6
102
}
330
14E6
100
AcDbXrecord
340
0
  0
XRECORD
  5
1506
102
{ACAD_REACTORS
330
14E6
102
}
330
14E6
100
AcDbXrecord
 10
0.0
 20
0.0
 30
0.0
  0
XRECORD
  5
1502
102
{ACAD_REACTORS
330
14E6
102
}
330
14E6
100
AcDbXrecord
 10
0.0
 20
0.0
 30
0.0
  0
XRECORD
  5
1505
102
{ACAD_REACTORS
330
14E6
102
}
330
14E6
100
AcDbXrecord
 10
0.0
 20
0.0
 30
0.0
  0
XRECORD
  5
1503
102
{ACAD_REACTORS
330
14E6
102
}
330
14E6
100
AcDbXrecord
 10
0.0
 20
0.0
 30
0.0
  0
XRECORD
  5
1504
102
{ACAD_REACTORS
330
14E6
102
}
330
14E6
100
AcDbXrecord
 10
0.0
 20
0.0
 30
0.0
  0
XRECORD
  5
1501
102
{ACAD_REACTORS
330
14E6
102
}
330
14E6
100
AcDbXrecord
 10
0.0
 20
0.0
 30
0.0
  0
XRECORD
  5
14FE
102
{ACAD_REACTORS
330
14E6
102
}
330
14E6
100
AcDbXrecord
340
0
  0
XRECORD
  5
14FF
102
{ACAD_REACTORS
330
14E6
102
}
330
14E6
100
AcDbXrecord
 70
     0
  0
XRECORD
  5
14F2
102
{ACAD_REACTORS
330
14E6
102
}
330
14E6
100
AcDbXrecord
  1
{0745D31E-D618-4C94-A352-2373F24F5C6D}
  0
XRECORD
  5
560
102
{ACAD_REACTORS
330
540
102
}
330
540
100
AcDbXrecord
  1
2.0.0
  0
ENDSEC
  0
EOF
