  0
SECTION
  2
HEADER
  9
$ACADVER
  1
AC1014
  9
$ACADMAINTVER
 70
     9
  9
$DWGCODEPAGE
  3
ANSI_932
  9
$INSBASE
 10
0.0
 20
0.0
 30
0.0
  9
$EXTMIN
 10
-39.0140065
 20
-31.70963713
 30
-0.00152582
  9
$EXTMAX
 10
218.02487266
 20
71.51054552
 30
0.00000003
  9
$LIMMIN
 10
0.0
 20
0.0
  9
$LIMMAX
 10
420.0
 20
297.0
  9
$ORTHOMODE
 70
     0
  9
$REGENMODE
 70
     1
  9
$FILLMODE
 70
     1
  9
$QTEXTMODE
 70
     0
  9
$MIRRTEXT
 70
     1
  9
$DRAGMODE
 70
     2
  9
$LTSCALE
 40
10.0
  9
$OSMODE
 70
   549
  9
$ATTMODE
 70
     1
  9
$TEXTSIZE
 40
3.0
  9
$TRACEWID
 40
1.0
  9
$TEXTSTYLE
  7
YOKO
  9
$CLAYER
  8
245
  9
$CELTYPE
  6
BYLAYER
  9
$CECOLOR
 62
   256
  9
$CELTSCALE
 40
1.0
  9
$DELOBJ
 70
     1
  9
$DISPSILH
 70
     0
  9
$DIMSCALE
 40
1.0
  9
$DIMASZ
 40
2.0
  9
$DIMEXO
 40
2.0
  9
$DIMDLI
 40
2.5
  9
$DIMRND
 40
0.0
  9
$DIMDLE
 40
0.0
  9
$DIMEXE
 40
2.0
  9
$DIMTP
 40
0.0
  9
$DIMTM
 40
0.0
  9
$DIMTXT
 40
4.0
  9
$DIMCEN
 40
0.0
  9
$DIMTSZ
 40
0.0
  9
$DIMTOL
 70
     0
  9
$DIMLIM
 70
     0
  9
$DIMTIH
 70
     0
  9
$DIMTOH
 70
     0
  9
$DIMSE1
 70
     0
  9
$DIMSE2
 70
     0
  9
$DIMTAD
 70
     3
  9
$DIMZIN
 70
     8
  9
$DIMBLK
  1

  9
$DIMASO
 70
     1
  9
$DIMSHO
 70
     1
  9
$DIMPOST
  1

  9
$DIMAPOST
  1

  9
$DIMALT
 70
     0
  9
$DIMALTD
 70
     2
  9
$DIMALTF
 40
25.4
  9
$DIMLFAC
 40
1.0
  9
$DIMTOFL
 70
     1
  9
$DIMTVP
 40
0.0
  9
$DIMTIX
 70
     1
  9
$DIMSOXD
 70
     0
  9
$DIMSAH
 70
     1
  9
$DIMBLK1
  1
OPEN
  9
$DIMBLK2
  1
OPEN
  9
$DIMSTYLE
  2
BIGT
  9
$DIMCLRD
 70
   256
  9
$DIMCLRE
 70
   256
  9
$DIMCLRT
 70
    40
  9
$DIMTFAC
 40
1.0
  9
$DIMGAP
 40
1.0
  9
$DIMJUST
 70
     0
  9
$DIMSD1
 70
     0
  9
$DIMSD2
 70
     0
  9
$DIMTOLJ
 70
     1
  9
$DIMTZIN
 70
     8
  9
$DIMALTZ
 70
     0
  9
$DIMALTTZ
 70
     0
  9
$DIMFIT
 70
     3
  9
$DIMUPT
 70
     0
  9
$DIMUNIT
 70
     2
  9
$DIMDEC
 70
     3
  9
$DIMTDEC
 70
     3
  9
$DIMALTU
 70
     2
  9
$DIMALTTD
 70
     2
  9
$DIMTXSTY
  7
STANDARD
  9
$DIMAUNIT
 70
     0
  9
$LUNITS
 70
     2
  9
$LUPREC
 70
     3
  9
$SKETCHINC
 40
1.0
  9
$FILLETRAD
 40
6.0
  9
$AUNITS
 70
     0
  9
$AUPREC
 70
     3
  9
$MENU
  1
.
  9
$ELEVATION
 40
0.0
  9
$PELEVATION
 40
0.0
  9
$THICKNESS
 40
0.0
  9
$LIMCHECK
 70
     0
  9
$BLIPMODE
 70
     0
  9
$CHAMFERA
 40
10.0
  9
$CHAMFERB
 40
10.0
  9
$CHAMFERC
 40
0.0
  9
$CHAMFERD
 40
0.0
  9
$SKPOLY
 70
     0
  9
$TDCREATE
 40
2454970.475582859
  9
$TDUPDATE
 40
2455173.654763264
  9
$TDINDWG
 40
0.0949300231
  9
$TDUSRTIMER
 40
0.0949300231
  9
$USRTIMER
 70
     1
  9
$ANGBASE
 50
0.0
  9
$ANGDIR
 70
     0
  9
$PDMODE
 70
    35
  9
$PDSIZE
 40
-5.0
  9
$PLINEWID
 40
0.0
  9
$COORDS
 70
     0
  9
$SPLFRAME
 70
     0
  9
$SPLINETYPE
 70
     6
  9
$SPLINESEGS
 70
     8
  9
$ATTDIA
 70
     0
  9
$ATTREQ
 70
     1
  9
$HANDLING
 70
-16383
  9
$HANDSEED
  5
1AF8
  9
$SURFTAB1
 70
     6
  9
$SURFTAB2
 70
     6
  9
$SURFTYPE
 70
     6
  9
$SURFU
 70
     6
  9
$SURFV
 70
     6
  9
$UCSNAME
  2

  9
$UCSORG
 10
0.0
 20
0.0
 30
0.0
  9
$UCSXDIR
 10
1.0
 20
0.0
 30
0.0
  9
$UCSYDIR
 10
0.0
 20
1.0
 30
0.0
  9
$PUCSNAME
  2

  9
$PUCSORG
 10
0.0
 20
0.0
 30
0.0
  9
$PUCSXDIR
 10
1.0
 20
0.0
 30
0.0
  9
$PUCSYDIR
 10
0.0
 20
1.0
 30
0.0
  9
$USERI1
 70
     1
  9
$USERI2
 70
     0
  9
$USERI3
 70
     0
  9
$USERI4
 70
     0
  9
$USERI5
 70
     0
  9
$USERR1
 40
0.0
  9
$USERR2
 40
0.0
  9
$USERR3
 40
0.0
  9
$USERR4
 40
0.0
  9
$USERR5
 40
0.0
  9
$WORLDVIEW
 70
     1
  9
$SHADEDGE
 70
     3
  9
$SHADEDIF
 70
    70
  9
$TILEMODE
 70
     1
  9
$MAXACTVP
 70
    16
  9
$PINSBASE
 10
0.0
 20
0.0
 30
0.0
  9
$PLIMCHECK
 70
     0
  9
$PEXTMIN
 10
1.00000000E+20
 20
1.00000000E+20
 30
1.00000000E+20
  9
$PEXTMAX
 10
-1.00000000E+20
 20
-1.00000000E+20
 30
-1.00000000E+20
  9
$PLIMMIN
 10
0.0
 20
0.0
  9
$PLIMMAX
 10
420.0
 20
297.0
  9
$UNITMODE
 70
     0
  9
$VISRETAIN
 70
     0
  9
$PLINEGEN
 70
     0
  9
$PSLTSCALE
 70
     1
  9
$TREEDEPTH
 70
  3020
  9
$PICKSTYLE
 70
     0
  9
$CMLSTYLE
  2
STANDARD
  9
$CMLJUST
 70
     0
  9
$CMLSCALE
 40
1.0
  9
$PROXYGRAPHICS
 70
     1
  9
$MEASUREMENT
 70
     1
  0
ENDSEC
  0
SECTION
  2
CLASSES
  0
CLASS
  1
XRECORD
  2
AcDbXrecord
  3
AutoCAD 2000
 90
        0
280
     0
281
     0
  0
CLASS
  1
ACDBDICTIONARYWDFLT
  2
AcDbDictionaryWithDefault
  3
AutoCAD 2000
 90
        0
280
     0
281
     0
  0
CLASS
  1
ACDBPLACEHOLDER
  2
AcDbPlaceHolder
  3
AutoCAD 2000
 90
        0
280
     0
281
     0
  0
CLASS
  1
LAYOUT
  2
AcDbLayout
  3
AutoCAD 2000
 90
        0
280
     0
281
     0
  0
CLASS
  1
PLOTSETTINGS
  2
AcDbPlotSettings
  3
AutoCAD 2000
 90
        0
280
     0
281
     0
  0
CLASS
  1
LONG_TRANSACTION
  2
AcDbLongTransaction
  3
AutoCAD 2000
 90
        0
280
     0
281
     0
  0
CLASS
  1
LWPOLYLINE
  2
AcDbPolyline
  3
AutoCAD 2000
 90
        0
280
     0
281
     1
  0
CLASS
  1
HATCH
  2
AcDbHatch
  3
AutoCAD 2000
 90
        0
280
     0
281
     1
  0
CLASS
  1
XRECORD
  2
AcDbXrecord
  3
AutoCAD 2000
 90
        0
280
     0
281
     0
  0
CLASS
  1
LONG_TRANSACTION
  2
AcDbLongTransaction
  3
AutoCAD 2000
 90
        0
280
     0
281
     0
  0
CLASS
  1
LWPOLYLINE
  2
AcDbPolyline
  3
AutoCAD 2000
 90
        0
280
     0
281
     1
  0
CLASS
  1
HATCH
  2
AcDbHatch
  3
AutoCAD 2000
 90
        0
280
     0
281
     1
  0
CLASS
  1
XRECORD
  2
AcDbXrecord
  3
AutoCAD 2000
 90
        0
280
     0
281
     0
  0
CLASS
  1
LONG_TRANSACTION
  2
AcDbLongTransaction
  3
AutoCAD 2000
 90
        0
280
     0
281
     0
  0
CLASS
  1
LWPOLYLINE
  2
AcDbPolyline
  3
AutoCAD 2000
 90
        0
280
     0
281
     1
  0
CLASS
  1
HATCH
  2
AcDbHatch
  3
AutoCAD 2000
 90
        0
280
     0
281
     1
  0
CLASS
  1
XRECORD
  2
AcDbXrecord
  3
AutoCAD 2000
 90
        0
280
     0
281
     0
  0
CLASS
  1
LONG_TRANSACTION
  2
AcDbLongTransaction
  3
AutoCAD 2000
 90
        0
280
     0
281
     0
  0
CLASS
  1
LWPOLYLINE
  2
AcDbPolyline
  3
AutoCAD 2000
 90
        0
280
     0
281
     1
  0
CLASS
  1
HATCH
  2
AcDbHatch
  3
AutoCAD 2000
 90
        0
280
     0
281
     1
  0
CLASS
  1
XRECORD
  2
AcDbXrecord
  3
AutoCAD 2000
 90
        0
280
     0
281
     0
  0
ENDSEC
  0
SECTION
  2
TABLES
  0
TABLE
  2
VPORT
  5
8
330
0
100
AcDbSymbolTable
 70
     3
  0
VPORT
  5
1AD3
330
8
100
AcDbSymbolTableRecord
100
AcDbViewportTableRecord
  2
*ACTIVE
 70
     0
 10
0.0
 20
0.0
 11
1.0
 21
1.0
 12
89.50543308
 22
19.90045419
 13
0.0
 23
0.0
 14
7.0
 24
7.0
 15
7.0
 25
7.0
 16
0.0
 26
0.0
 36
1.0
 17
0.0
 27
0.0
 37
0.0
 40
180.4726364
 41
1.43184713
 42
50.0
 43
0.0
 44
0.0
 50
0.0
 51
0.0
 71
     0
 72
  2000
 73
     1
 74
     0
 75
     0
 76
     0
 77
     0
 78
     0
  0
ENDTAB
  0
TABLE
  2
LTYPE
  5
5
330
0
100
AcDbSymbolTable
 70
     3
  0
LTYPE
  5
14
330
5
100
AcDbSymbolTableRecord
100
AcDbLinetypeTableRecord
  2
BYBLOCK
 70
     0
  3

 72
    65
 73
     0
 40
0.0
  0
LTYPE
  5
15
330
5
100
AcDbSymbolTableRecord
100
AcDbLinetypeTableRecord
  2
BYLAYER
 70
     0
  3

 72
    65
 73
     0
 40
0.0
  0
LTYPE
  5
16
330
5
100
AcDbSymbolTableRecord
100
AcDbLinetypeTableRecord
  2
CONTINUOUS
 70
     0
  3
Solid line
 72
    65
 73
     0
 40
0.0
  0
LTYPE
  5
258
330
5
100
AcDbSymbolTableRecord
100
AcDbLinetypeTableRecord
  2
CENTER2
 70
     0
  3
___ _ ___ _ ___ _ ___ _ ___ _ ___ _ ___ _ ___ _
 72
    65
 73
     4
 40
1.125
 49
0.75
 74
     0
 49
-0.125
 74
     0
 49
0.125
 74
     0
 49
-0.125
 74
     0
  0
LTYPE
  5
25C
330
5
100
AcDbSymbolTableRecord
100
AcDbLinetypeTableRecord
  2
HIDDEN2
 70
     0
  3
_ _ _ _ _ _ _ _ _ _ _ _ _ _ _ _ _ _ _ _ _ _ _ _
 72
    65
 73
     2
 40
0.1875
 49
0.125
 74
     0
 49
-0.0625
 74
     0
  0
ENDTAB
  0
TABLE
  2
LAYER
  5
2
330
0
100
AcDbSymbolTable
 70
    10
  0
LAYER
  5
F
330
2
100
AcDbSymbolTableRecord
100
AcDbLayerTableRecord
  2
0
 70
     0
 62
     7
  6
CONTINUOUS
  0
LAYER
  5
1AA
330
2
100
AcDbSymbolTableRecord
100
AcDbLayerTableRecord
  2
240
 70
     0
 62
     4
  6
CONTINUOUS
  0
LAYER
  5
1AB
330
2
100
AcDbSymbolTableRecord
100
AcDbLayerTableRecord
  2
241
 70
     0
 62
   211
  6
CONTINUOUS
  0
LAYER
  5
1AC
330
2
100
AcDbSymbolTableRecord
100
AcDbLayerTableRecord
  2
242
 70
     0
 62
     3
  6
CONTINUOUS
  0
LAYER
  5
1AF
330
2
100
AcDbSymbolTableRecord
100
AcDbLayerTableRecord
  2
245
 70
     0
 62
     2
  6
CENTER2
  0
LAYER
  5
21E
330
2
100
AcDbSymbolTableRecord
100
AcDbLayerTableRecord
  2
250
 70
     0
 62
     3
  6
CONTINUOUS
  0
LAYER
  5
21F
330
2
100
AcDbSymbolTableRecord
100
AcDbLayerTableRecord
  2
251
 70
     0
 62
    40
  6
CONTINUOUS
  0
LAYER
  5
5C4
330
2
100
AcDbSymbolTableRecord
100
AcDbLayerTableRecord
  2
DEFPOINTS
 70
     0
 62
     7
  6
CONTINUOUS
  0
ENDTAB
  0
TABLE
  2
STYLE
  5
3
330
0
100
AcDbSymbolTable
 70
     2
  0
STYLE
  5
10
330
3
100
AcDbSymbolTableRecord
100
AcDbTextStyleTableRecord
  2
STANDARD
 70
     0
 40
0.0
 41
1.0
 50
0.0
 71
     0
 42
3.0
  3
romans.shx
  4
BIGFONT.SHX
  0
STYLE
  5
339
330
3
100
AcDbSymbolTableRecord
100
AcDbTextStyleTableRecord
  2
YOKO
 70
     0
 40
0.0
 41
1.0
 50
0.0
 71
     0
 42
3.0
  3
romans.shx
  4
extfont.shx
  0
ENDTAB
  0
TABLE
  2
VIEW
  5
6
330
0
100
AcDbSymbolTable
 70
     0
  0
ENDTAB
  0
TABLE
  2
UCS
  5
7
330
0
100
AcDbSymbolTable
 70
     0
  0
ENDTAB
  0
TABLE
  2
APPID
  5
9
330
0
100
AcDbSymbolTable
 70
     9
  0
APPID
  5
11
330
9
100
AcDbSymbolTableRecord
100
AcDbRegAppTableRecord
  2
ACAD
 70
     0
  0
APPID
  5
1B1
330
9
100
AcDbSymbolTableRecord
100
AcDbRegAppTableRecord
  2
GLOBAL
 70
     0
  0
APPID
  5
2A4
330
9
100
AcDbSymbolTableRecord
100
AcDbRegAppTableRecord
  2
DETAIL
 70
     0
  0
APPID
  5
5FD
330
9
100
AcDbSymbolTableRecord
100
AcDbRegAppTableRecord
  2
GRPNAME
 70
     0
  0
APPID
  5
5FE
330
9
100
AcDbSymbolTableRecord
100
AcDbRegAppTableRecord
  2
GPARA
 70
     0
  0
APPID
  5
6C4
330
9
100
AcDbSymbolTableRecord
100
AcDbRegAppTableRecord
  2
DCO15
 70
     0
  0
APPID
  5
6C5
330
9
100
AcDbSymbolTableRecord
100
AcDbRegAppTableRecord
  2
ITEMNAME
 70
     0
  0
APPID
  5
6C6
330
9
100
AcDbSymbolTableRecord
100
AcDbRegAppTableRecord
  2
GRADE_0
 70
     0
  0
APPID
  5
F0A
330
9
100
AcDbSymbolTableRecord
100
AcDbRegAppTableRecord
  2
CONTENTBLOCKICON
 70
     0
  0
ENDTAB
  0
TABLE
  2
DIMSTYLE
  5
A
330
0
100
AcDbSymbolTable
 70
     2
  0
DIMSTYLE
105
725
102
{ACAD_REACTORS
330
1377
330
1727
102
}
330
A
100
AcDbSymbolTableRecord
100
AcDbDimStyleTableRecord
  2
BIGT
 70
     0
  3

  4

  5

  6
OPEN
  7
OPEN
 40
1.0
 41
2.23
 42
0.5
 43
2.5
 44
1.0
 45
0.0
 46
0.0
 47
0.0
 48
0.0
140
2.8
141
0.0
142
0.0
143
25.4
144
1.0
145
0.0
146
1.0
147
1.0
 71
     0
 72
     0
 73
     0
 74
     0
 75
     0
 76
     0
 77
     3
 78
     8
170
     0
171
     2
172
     1
173
     1
174
     1
175
     0
176
   256
177
   256
178
    40
270
     2
271
     3
272
     3
273
     2
274
     2
340
10
275
     0
280
     0
281
     0
282
     0
283
     1
284
     8
285
     0
286
     0
287
     3
288
     0
  0
DIMSTYLE
105
78F
102
{ACAD_REACTORS
330
8DA
330
171B
330
18B4
102
}
330
A
100
AcDbSymbolTableRecord
100
AcDbDimStyleTableRecord
  2
BIGT$0
 70
     0
  3

  4
"
  5
OPEN
  6

  7

 40
1.0
 41
2.23
 42
0.5
 43
7.0
 44
1.0
 45
0.0
 46
0.0
 47
0.1
 48
0.1
140
3.0
141
0.0
142
0.0
143
0.0393701
144
1.0
145
0.0
146
0.71
147
1.0
 71
     0
 72
     0
 73
     0
 74
     0
 75
     0
 76
     0
 77
     3
 78
     8
170
     0
171
     2
172
     1
173
     0
174
     0
175
     0
176
     3
177
     3
178
    40
270
     2
271
     3
272
     3
273
     2
274
     2
340
10
275
     0
280
     0
281
     0
282
     0
283
     1
284
     8
285
     0
286
     0
287
     3
288
     0
  0
ENDTAB
  0
TABLE
  2
BLOCK_RECORD
  5
1
330
0
100
AcDbSymbolTable
 70
     9
  0
BLOCK_RECORD
  5
1A
102
{ACAD_XDICTIONARY
360
F08
102
}
330
1
100
AcDbSymbolTableRecord
100
AcDbBlockTableRecord
  2
*MODEL_SPACE
  0
BLOCK_RECORD
  5
17
102
{ACAD_XDICTIONARY
360
F06
102
}
330
1
100
AcDbSymbolTableRecord
100
AcDbBlockTableRecord
  2
*PAPER_SPACE
  0
BLOCK_RECORD
  5
594
330
1
100
AcDbSymbolTableRecord
100
AcDbBlockTableRecord
  2
_OPEN
  0
BLOCK_RECORD
  5
6E3
330
1
100
AcDbSymbolTableRecord
100
AcDbBlockTableRecord
  2
矢印なし
  0
BLOCK_RECORD
  5
9F4
330
1
100
AcDbSymbolTableRecord
100
AcDbBlockTableRecord
  2
*D2
  0
BLOCK_RECORD
  5
13EE
330
1
100
AcDbSymbolTableRecord
100
AcDbBlockTableRecord
  2
*D3
  0
BLOCK_RECORD
  5
1862
330
1
100
AcDbSymbolTableRecord
100
AcDbBlockTableRecord
  2
*D4
  0
BLOCK_RECORD
  5
186E
330
1
100
AcDbSymbolTableRecord
100
AcDbBlockTableRecord
  2
*D5
  0
BLOCK_RECORD
  5
18B5
330
1
100
AcDbSymbolTableRecord
100
AcDbBlockTableRecord
  2
*D6
  0
BLOCK_RECORD
  5
18E6
330
1
100
AcDbSymbolTableRecord
100
AcDbBlockTableRecord
  2
1
1001
CONTENTBLOCKICON
1071
        0
1004
2800000020000000200000000100080000000000000400000000000000000000000000000000000000000000000080000080000000808000800000008000800080800000C0C0C000C0DCC000F0CAA6000020400000206000002080000020A0000020C0000020E00000400000004020000040400000406000004080000040A0
1004
000040C0000040E00000600000006020000060400000606000006080000060A0000060C0000060E00000800000008020000080400000806000008080000080A0000080C0000080E00000A0000000A0200000A0400000A0600000A0800000A0A00000A0C00000A0E00000C0000000C0200000C0400000C0600000C0800000C0
1004
A00000C0C00000C0E00000E0000000E0200000E0400000E0600000E0800000E0A00000E0C00000E0E00040000000400020004000400040006000400080004000A0004000C0004000E00040200000402020004020400040206000402080004020A0004020C0004020E000404000004040200040404000404060004040800040
1004
40A0004040C0004040E00040600000406020004060400040606000406080004060A0004060C0004060E00040800000408020004080400040806000408080004080A0004080C0004080E00040A0000040A0200040A0400040A0600040A0800040A0A00040A0C00040A0E00040C0000040C0200040C0400040C0600040C08000
1004
40C0A00040C0C00040C0E00040E0000040E0200040E0400040E0600040E0800040E0A00040E0C00040E0E00080000000800020008000400080006000800080008000A0008000C0008000E00080200000802020008020400080206000802080008020A0008020C0008020E00080400000804020008040400080406000804080
1004
008040A0008040C0008040E00080600000806020008060400080606000806080008060A0008060C0008060E00080800000808020008080400080806000808080008080A0008080C0008080E00080A0000080A0200080A0400080A0600080A0800080A0A00080A0C00080A0E00080C0000080C0200080C0400080C0600080C0
1004
800080C0A00080C0C00080C0E00080E0000080E0200080E0400080E0600080E0800080E0A00080E0C00080E0E000C0000000C0002000C0004000C0006000C0008000C000A000C000C000C000E000C0200000C0202000C0204000C0206000C0208000C020A000C020C000C020E000C0400000C0402000C0404000C0406000C0
1004
408000C040A000C040C000C040E000C0600000C0602000C0604000C0606000C0608000C060A000C060C000C060E000C0800000C0802000C0804000C0806000C0808000C080A000C080C000C080E000C0A00000C0A02000C0A04000C0A06000C0A08000C0A0A000C0A0C000C0A0E000C0C00000C0C02000C0C04000C0C06000
1004
C0C08000C0C0A000F0FBFF00A4A0A000808080000000FF0000FF000000FFFF00FF000000FF00FF00FFFF0000FFFFFF0000000000000000000000000000000000000000000000000000000000000000000000000000000000000000000000000000000000000000000000000000000000000000000000000000000000000000
1004
00000000000000000000000000000000000000000000000000000000000000000000000000000000000000000000000000000000000000000000000000000000000000000000000000000000000000000000000000000000000000000000000000000000000000000000000000000000000000000000000000000000000000
1004
00000000000000000000000000000000000000000000000000000000000000000000000000000000000000000000000000000000000000000000000000000000000000000000000000000000000000000000000000000000000000000000000000000000000000000000000000000000000000000000000000000000000000
1004
000000000000000000000000000000000000000000000000000000000000000000000000000000000000000000000000000000000000000000FEE7FEFE000000000000000000000000000000000000000000000000FAFEFEFEFEE7E7FEFEFEFEFEFEFEFEFEFEFEFEFEFEFEFEFEFEFAFEFE00000000E7000000E7E7E7FE0000
1004
000000000000000000000000000000FAE7E700000000E7000000E70000FE0000000000000000000000000000000000FAFEFE000000FBE7FBFBFBE7FBFBFEFBFBFBFBFBFBFBFBFBFBFBFBFBFBFBE7FBFAFEFEFB000000E7000000E7E7E7FE000000000000000000000000000000E7E7FAE7E700000000FEFEFEFEFEE7E7FEFE
1004
FEFEFEFEFEFEFEFEFEFEFEFEFEFEFEFEFAFEFE0000000000000000FEE7FEFE000000000000000000000000000000000000000000000000000000000000000000000000000000000000000000000000000000000000000000000000000000000000000000000000000000000000000000000000000000000000000000000000
1004
00000000000000000000000000000000000000000000000000000000000000000000000000000000000000000000000000000000000000000000000000000000000000000000000000000000000000000000000000000000000000000000000000000000000000000000000000000000000000000000000000000000000000
1004
00000000000000000000000000000000000000000000000000000000000000000000000000000000000000000000000000000000000000000000000000000000000000000000000000000000000000000000000000000000000000000000000000000000000000000000000000000000000000000000000000000000000000
1004
0000000000000000000000000000000000000000000000000000000000000000000000000000000000000000000000000000000000000000
  0
ENDTAB
  0
ENDSEC
  0
SECTION
  2
BLOCKS
  0
BLOCK
  5
1B
330
1A
100
AcDbEntity
  8
0
100
AcDbBlockBegin
  2
*MODEL_SPACE
 70
     0
 10
0.0
 20
0.0
 30
0.0
  3
*MODEL_SPACE
  1

  0
ENDBLK
  5
1C
330
1A
100
AcDbEntity
  8
0
100
AcDbBlockEnd
  0
BLOCK
  5
18
330
17
100
AcDbEntity
 67
     1
  8
0
100
AcDbBlockBegin
  2
*PAPER_SPACE
 70
     0
 10
0.0
 20
0.0
 30
0.0
  3
*PAPER_SPACE
  1

  0
ENDBLK
  5
19
330
17
100
AcDbEntity
 67
     1
  8
0
100
AcDbBlockEnd
  0
BLOCK
  5
598
330
594
100
AcDbEntity
  8
0
100
AcDbBlockBegin
  2
_OPEN
 70
     0
 10
0.0
 20
0.0
 30
0.0
  3
_OPEN
  1

  0
LINE
  5
595
330
594
100
AcDbEntity
  8
0
  6
BYBLOCK
 62
     0
100
AcDbLine
 10
-1.0
 20
0.16666667
 30
0.0
 11
0.0
 21
0.0
 31
0.0
  0
LINE
  5
596
330
594
100
AcDbEntity
  8
0
  6
BYBLOCK
 62
     0
100
AcDbLine
 10
-1.0
 20
-0.16666667
 30
0.0
 11
0.0
 21
0.0
 31
0.0
  0
LINE
  5
597
330
594
100
AcDbEntity
  8
0
  6
BYBLOCK
 62
     0
100
AcDbLine
 10
0.0
 20
0.0
 30
0.0
 11
-1.0
 21
0.0
 31
0.0
  0
ENDBLK
  5
599
330
594
100
AcDbEntity
  8
0
100
AcDbBlockEnd
  0
BLOCK
  5
6E4
330
6E3
100
AcDbEntity
  8
0
100
AcDbBlockBegin
  2
矢印なし
 70
     0
 10
0.0
 20
0.0
 30
0.0
  3
矢印なし
  1

  0
ENDBLK
  5
6E5
330
6E3
100
AcDbEntity
  8
0
100
AcDbBlockEnd
  0
BLOCK
  5
9FE
330
9F4
100
AcDbEntity
  8
0
100
AcDbBlockBegin
  2
*D2
 70
     1
 10
0.0
 20
0.0
 30
0.0
  3
*D2
  1

  0
LINE
  5
18DD
330
9F4
100
AcDbEntity
  8
250
  6
CONTINUOUS
 62
     3
100
AcDbLine
 10
0.0
 20
31.4925
 30
0.0
 11
0.0
 21
53.5
 31
0.0
  0
LINE
  5
18DE
330
9F4
100
AcDbEntity
  8
250
  6
CONTINUOUS
 62
     3
100
AcDbLine
 10
200.0
 20
21.62720779
 30
0.0
 11
200.0
 21
53.5
 31
0.0
  0
LINE
  5
18DF
330
9F4
100
AcDbEntity
  8
250
  6
CONTINUOUS
 62
     3
100
AcDbLine
 10
2.23
 20
52.5
 30
0.0
 11
197.77
 21
52.5
 31
0.0
  0
INSERT
  5
18E0
330
9F4
100
AcDbEntity
  8
250
  6
CONTINUOUS
 62
     3
100
AcDbBlockReference
  2
_OPEN
 10
0.0
 20
52.5
 30
0.0
 41
2.23
 42
2.23
 43
2.23
 50
180.0
  0
INSERT
  5
18E1
330
9F4
100
AcDbEntity
  8
250
  6
CONTINUOUS
 62
     3
100
AcDbBlockReference
  2
_OPEN
 10
200.0
 20
52.5
 30
0.0
 41
2.23
 42
2.23
 43
2.23
  0
MTEXT
  5
18E2
330
9F4
100
AcDbEntity
  8
250
  6
CONTINUOUS
 62
    40
100
AcDbMText
 10
100.0
 20
55.0
 30
0.0
 40
3.0
 41
0.0
 71
     5
 72
     1
  1
\A1;200
1001
ACAD
1000
MTEXTBEGIN
1070
    73
1070
     1
1070
    44
1040
1.0
1070
    74
1070
     0
1000
MTEXTEND
1000
MTEXTBEGIN
1070
    73
1070
     1
1070
    44
1040
1.0
1070
    74
1070
     0
1000
MTEXTEND
  0
POINT
  5
18E3
330
9F4
100
AcDbEntity
  8
DEFPOINTS
  6
CONTINUOUS
 62
     0
100
AcDbPoint
 10
0.0
 20
30.9925
 30
0.0
  0
POINT
  5
18E4
330
9F4
100
AcDbEntity
  8
DEFPOINTS
  6
CONTINUOUS
 62
     0
100
AcDbPoint
 10
200.0
 20
21.12720779
 30
0.0
  0
POINT
  5
18E5
330
9F4
100
AcDbEntity
  8
DEFPOINTS
  6
CONTINUOUS
 62
     0
100
AcDbPoint
 10
200.0
 20
52.5
 30
0.0
  0
ENDBLK
  5
9FF
330
9F4
100
AcDbEntity
  8
0
100
AcDbBlockEnd
  0
BLOCK
  5
13F8
330
13EE
100
AcDbEntity
  8
0
100
AcDbBlockBegin
  2
*D3
 70
     1
 10
0.0
 20
0.0
 30
0.0
  3
*D3
  1

  0
LINE
  5
1AA5
330
13EE
100
AcDbEntity
  8
250
  6
CONTINUOUS
100
AcDbLine
 10
9.0
 20
1.5
 30
0.0
 11
9.0
 21
46.5
 31
0.0
  0
LINE
  5
1AA6
330
13EE
100
AcDbEntity
  8
250
  6
CONTINUOUS
100
AcDbLine
 10
200.0
 20
21.62720779
 30
0.0
 11
200.0
 21
46.5
 31
0.0
  0
LINE
  5
1AA7
330
13EE
100
AcDbEntity
  8
250
  6
CONTINUOUS
100
AcDbLine
 10
11.23
 20
45.5
 30
0.0
 11
197.77
 21
45.5
 31
0.0
  0
INSERT
  5
1AA8
330
13EE
100
AcDbEntity
  8
250
  6
CONTINUOUS
100
AcDbBlockReference
  2
_OPEN
 10
9.0
 20
45.5
 30
0.0
 41
2.23
 42
2.23
 43
2.23
 50
180.0
  0
INSERT
  5
1AA9
330
13EE
100
AcDbEntity
  8
250
  6
CONTINUOUS
100
AcDbBlockReference
  2
_OPEN
 10
200.0
 20
45.5
 30
0.0
 41
2.23
 42
2.23
 43
2.23
  0
MTEXT
  5
1AAA
330
13EE
100
AcDbEntity
  8
250
  6
CONTINUOUS
 62
    40
100
AcDbMText
 10
104.19912479
 20
47.9
 30
0.0
 40
2.8
 41
0.0
 71
     5
 72
     1
  1
\A1;（max.191）
1001
ACAD
1000
MTEXTBEGIN
1070
    73
1070
     1
1070
    44
1040
1.0
1070
    74
1070
     0
1000
MTEXTEND
  0
POINT
  5
1AAB
330
13EE
100
AcDbEntity
  8
DEFPOINTS
  6
CONTINUOUS
 62
     0
100
AcDbPoint
 10
9.0
 20
1.0
 30
0.0
  0
POINT
  5
1AAC
330
13EE
100
AcDbEntity
  8
DEFPOINTS
  6
CONTINUOUS
 62
     0
100
AcDbPoint
 10
200.0
 20
21.12720779
 30
0.0
  0
POINT
  5
1AAD
330
13EE
100
AcDbEntity
  8
DEFPOINTS
  6
CONTINUOUS
 62
     0
100
AcDbPoint
 10
200.0
 20
45.5
 30
0.0
  0
ENDBLK
  5
13F9
330
13EE
100
AcDbEntity
  8
0
100
AcDbBlockEnd
  0
BLOCK
  5
186C
330
1862
100
AcDbEntity
  8
0
100
AcDbBlockBegin
  2
*D4
 70
     1
 10
0.0
 20
0.0
 30
0.0
  3
*D4
  1

  0
LINE
  5
1A9C
330
1862
100
AcDbEntity
  8
250
  6
CONTINUOUS
 62
     3
100
AcDbLine
 10
198.58578644
 20
-23.0
 30
0.0
 11
218.0
 21
-23.0
 31
0.0
  0
LINE
  5
1A9D
330
1862
100
AcDbEntity
  8
250
  6
CONTINUOUS
 62
     3
100
AcDbLine
 10
198.62720779
 20
23.0
 30
0.0
 11
218.0
 21
23.0
 31
0.0
  0
LINE
  5
1A9E
330
1862
100
AcDbEntity
  8
250
  6
CONTINUOUS
 62
     3
100
AcDbLine
 10
217.0
 20
-20.77
 30
0.0
 11
217.0
 21
20.77
 31
0.0
  0
INSERT
  5
1A9F
330
1862
100
AcDbEntity
  8
250
  6
CONTINUOUS
 62
     3
100
AcDbBlockReference
  2
_OPEN
 10
217.0
 20
-23.0
 30
0.0
 41
2.23
 42
2.23
 43
2.23
 50
270.0
  0
INSERT
  5
1AA0
330
1862
100
AcDbEntity
  8
250
  6
CONTINUOUS
 62
     3
100
AcDbBlockReference
  2
_OPEN
 10
217.0
 20
23.0
 30
0.0
 41
2.23
 42
2.23
 43
2.23
 50
90.0
  0
MTEXT
  5
1AA1
330
1862
100
AcDbEntity
  8
250
  6
CONTINUOUS
 62
    40
100
AcDbMText
 10
214.5
 20
0.0
 30
0.0
 40
3.0
 41
0.0
 71
     5
 72
     1
  1
\A1;{\H3;\U+2205}46
 11
0.0
 21
1.0
 31
0.0
1001
ACAD
1000
MTEXTBEGIN
1070
    73
1070
     1
1070
    44
1040
1.0
1070
    74
1070
     0
1000
MTEXTEND
  0
POINT
  5
1AA2
330
1862
100
AcDbEntity
  8
DEFPOINTS
  6
CONTINUOUS
 62
     0
100
AcDbPoint
 10
198.08578644
 20
-23.0
 30
0.0
  0
POINT
  5
1AA3
330
1862
100
AcDbEntity
  8
DEFPOINTS
  6
CONTINUOUS
 62
     0
100
AcDbPoint
 10
198.12720779
 20
23.0
 30
0.0
  0
POINT
  5
1AA4
330
1862
100
AcDbEntity
  8
DEFPOINTS
  6
CONTINUOUS
 62
     0
100
AcDbPoint
 10
217.0
 20
23.0
 30
0.0
  0
ENDBLK
  5
186D
330
1862
100
AcDbEntity
  8
0
100
AcDbBlockEnd
  0
BLOCK
  5
1877
330
186E
100
AcDbEntity
  8
0
100
AcDbBlockBegin
  2
*D5
 70
     1
 10
0.0
 20
0.0
 30
0.0
  3
*D5
  1

  0
LINE
  5
1A94
330
186E
100
AcDbEntity
  8
250
  6
CONTINUOUS
100
AcDbLine
 10
200.5
 20
10.0
 30
0.0
 11
211.0
 21
10.0
 31
0.0
  0
LINE
  5
1A95
330
186E
100
AcDbEntity
  8
250
  6
CONTINUOUS
100
AcDbLine
 10
210.0
 20
-8.0
 30
0.0
 11
210.0
 21
8.0
 31
0.0
  0
INSERT
  5
1A96
330
186E
100
AcDbEntity
  8
250
  6
CONTINUOUS
100
AcDbBlockReference
  2
矢印なし
 10
210.0
 20
-10.0
 30
0.0
 41
2.0
 42
2.0
 43
2.0
 50
270.0
  0
INSERT
  5
1A97
330
186E
100
AcDbEntity
  8
250
  6
CONTINUOUS
100
AcDbBlockReference
  2
_OPEN
 10
210.0
 20
10.0
 30
0.0
 41
2.0
 42
2.0
 43
2.0
 50
90.0
  0
MTEXT
  5
1A98
330
186E
100
AcDbEntity
  8
250
  6
CONTINUOUS
 62
    40
100
AcDbMText
 10
207.6
 20
0.0
 30
0.0
 40
2.8
 41
0.0
 71
     5
 72
     1
  1
\A1;max.φ20
 11
0.0
 21
1.0
 31
0.0
1001
ACAD
1000
MTEXTBEGIN
1070
    73
1070
     1
1070
    44
1040
1.0
1070
    74
1070
     0
1000
MTEXTEND
  0
POINT
  5
1A99
330
186E
100
AcDbEntity
  8
DEFPOINTS
  6
CONTINUOUS
 62
     0
100
AcDbPoint
 10
200.0
 20
-10.0
 30
0.0
  0
POINT
  5
1A9A
330
186E
100
AcDbEntity
  8
DEFPOINTS
  6
CONTINUOUS
 62
     0
100
AcDbPoint
 10
200.0
 20
10.0
 30
0.0
  0
POINT
  5
1A9B
330
186E
100
AcDbEntity
  8
DEFPOINTS
  6
CONTINUOUS
 62
     0
100
AcDbPoint
 10
210.0
 20
10.0
 30
0.0
  0
ENDBLK
  5
1878
330
186E
100
AcDbEntity
  8
0
100
AcDbBlockEnd
  0
BLOCK
  5
18BF
330
18B5
100
AcDbEntity
  8
0
100
AcDbBlockBegin
  2
*D6
 70
     1
 10
0.0
 20
0.0
 30
0.0
  3
*D6
  1

  0
LINE
  5
18CB
330
18B5
100
AcDbEntity
  8
250
  6
CONTINUOUS
 62
     3
100
AcDbLine
 10
22.0
 20
30.9925
 30
0.0
 11
22.0
 21
39.5
 31
0.0
  0
LINE
  5
18CC
330
18B5
100
AcDbEntity
  8
250
  6
CONTINUOUS
 62
     3
100
AcDbLine
 10
200.0
 20
21.62720779
 30
0.0
 11
200.0
 21
39.5
 31
0.0
  0
LINE
  5
18CD
330
18B5
100
AcDbEntity
  8
250
  6
CONTINUOUS
 62
     3
100
AcDbLine
 10
24.23
 20
38.5
 30
0.0
 11
197.77
 21
38.5
 31
0.0
  0
INSERT
  5
18CE
330
18B5
100
AcDbEntity
  8
250
  6
CONTINUOUS
 62
     3
100
AcDbBlockReference
  2
_OPEN
 10
22.0
 20
38.5
 30
0.0
 41
2.23
 42
2.23
 43
2.23
 50
180.0
  0
INSERT
  5
18CF
330
18B5
100
AcDbEntity
  8
250
  6
CONTINUOUS
 62
     3
100
AcDbBlockReference
  2
_OPEN
 10
200.0
 20
38.5
 30
0.0
 41
2.23
 42
2.23
 43
2.23
  0
MTEXT
  5
18D0
330
18B5
100
AcDbEntity
  8
250
  6
CONTINUOUS
 62
    40
100
AcDbMText
 10
111.0
 20
41.0
 30
0.0
 40
3.0
 41
0.0
 71
     5
 72
     1
  1
\A1;178
1001
ACAD
1000
MTEXTBEGIN
1070
    73
1070
     1
1070
    44
1040
1.0
1070
    74
1070
     0
1000
MTEXTEND
1000
MTEXTBEGIN
1070
    73
1070
     1
1070
    44
1040
1.0
1070
    74
1070
     0
1000
MTEXTEND
  0
POINT
  5
18D1
330
18B5
100
AcDbEntity
  8
DEFPOINTS
  6
CONTINUOUS
 62
     0
100
AcDbPoint
 10
22.0
 20
30.4925
 30
0.0
  0
POINT
  5
18D2
330
18B5
100
AcDbEntity
  8
DEFPOINTS
  6
CONTINUOUS
 62
     0
100
AcDbPoint
 10
200.0
 20
21.12720779
 30
0.0
  0
POINT
  5
18D3
330
18B5
100
AcDbEntity
  8
DEFPOINTS
  6
CONTINUOUS
 62
     0
100
AcDbPoint
 10
200.0
 20
38.5
 30
0.0
  0
ENDBLK
  5
18C0
330
18B5
100
AcDbEntity
  8
0
100
AcDbBlockEnd
  0
BLOCK
  5
18E7
330
18E6
100
AcDbEntity
  8
0
100
AcDbBlockBegin
  2
1
 70
     0
 10
0.0
 20
0.0
 30
0.0
  3
1
  1

  0
LINE
  5
18E9
330
18E6
100
AcDbEntity
  8
241
  6
CONTINUOUS
100
AcDbLine
 10
185.5
 20
9.72438843
 30
0.0
 11
193.5
 21
9.72438843
 31
0.0
1001
GRPNAME
1000
PASTMD02
  0
LINE
  5
18EA
330
18E6
100
AcDbEntity
  8
241
  6
CONTINUOUS
100
AcDbLine
 10
184.5
 20
11.73205081
 30
0.0
 11
193.5
 21
11.73205081
 31
0.0
1001
GRPNAME
1000
PASTMD02
  0
LINE
  5
18EB
330
18E6
100
AcDbEntity
  8
241
  6
CONTINUOUS
100
AcDbLine
 10
185.5
 20
13.18849004
 30
0.0
 11
193.5
 21
13.18849004
 31
0.0
1001
GRPNAME
1000
PASTMD02
  0
LINE
  5
18EC
330
18E6
100
AcDbEntity
  8
240
  6
CONTINUOUS
100
AcDbLine
 10
185.5
 20
23.0
 30
0.0
 11
198.08578644
 21
23.0
 31
0.0
1001
GRPNAME
1000
PASTMD02
  0
LINE
  5
18ED
330
18E6
100
AcDbEntity
  8
241
  6
CONTINUOUS
100
AcDbLine
 10
184.5
 20
-11.73205081
 30
0.0
 11
193.5
 21
-11.73205081
 31
0.0
1001
GRPNAME
1000
PASTMD02
  0
LINE
  5
18EE
330
18E6
100
AcDbEntity
  8
241
  6
CONTINUOUS
100
AcDbLine
 10
185.5
 20
-13.18849004
 30
0.0
 11
193.5
 21
-13.18849004
 31
0.0
1001
GRPNAME
1000
PASTMD02
  0
LINE
  5
18EF
330
18E6
100
AcDbEntity
  8
241
  6
CONTINUOUS
100
AcDbLine
 10
185.5
 20
-9.72438843
 30
0.0
 11
193.5
 21
-9.72438843
 31
0.0
1001
GRPNAME
1000
PASTMD02
  0
LINE
  5
18F0
330
18E6
100
AcDbEntity
  8
240
  6
CONTINUOUS
100
AcDbLine
 10
185.5
 20
-23.0
 30
0.0
 11
198.08578644
 21
-23.0
 31
0.0
1001
GRPNAME
1000
PASTMD02
  0
LINE
  5
18F1
330
18E6
100
AcDbEntity
  8
241
  6
HIDDEN2
100
AcDbLine
 10
161.45384962
 20
10.81537294
 30
0.0
 11
194.1535521
 21
14.25225016
 31
0.0
1001
GRPNAME
1000
PASTMD02
  0
LINE
  5
18F2
330
18E6
100
AcDbEntity
  8
241
  6
HIDDEN2
100
AcDbLine
 10
200.0
 20
10.0
 30
0.0
 11
161.45384962
 21
10.0
 31
0.0
1001
GRPNAME
1000
PASTMD02
  0
LINE
  5
18F3
330
18E6
100
AcDbEntity
  8
245
  6
CENTER2
100
AcDbLine
 10
-39.0
 20
0.0
 30
0.0
 11
201.0
 21
0.0
 31
0.0
  0
LINE
  5
18F4
330
18E6
100
AcDbEntity
  8
240
  6
CONTINUOUS
100
AcDbLine
 10
177.95384962
 20
22.75
 30
0.0
 11
28.0
 21
22.75
 31
0.0
1001
GRPNAME
1000
PASTMD02
  0
LINE
  5
18F5
330
18E6
100
AcDbEntity
  8
240
  6
CONTINUOUS
100
AcDbLine
 10
177.95384962
 20
-22.75
 30
0.0
 11
28.0
 21
-22.75
 31
0.0
1001
GRPNAME
1000
PASTMD02
  0
LINE
  5
18F6
330
18E6
100
AcDbEntity
  8
240
  6
CONTINUOUS
100
AcDbLine
 10
22.0
 20
-30.4925
 30
0.0
 11
22.0
 21
30.4925
 31
0.0
  0
LINE
  5
18F7
330
18E6
100
AcDbEntity
  8
240
  6
CONTINUOUS
100
AcDbLine
 10
0.0
 20
30.9925
 30
0.0
 11
0.0
 21
-30.9925
 31
0.0
  0
SPLINE
  5
18F8
330
18E6
100
AcDbEntity
  8
241
  6
CONTINUOUS
100
AcDbSpline
210
0.0
220
0.0
230
1.0
 70
     8
 71
     3
 72
     9
 73
     5
 74
     3
 42
0.0000000001
 43
0.0000000001
 44
0.0000000001
 40
0.0
 40
0.0
 40
0.0
 40
0.0
 40
10.74384375536296
 40
21.48768751072607
 40
21.48768751072607
 40
21.48768751072607
 40
21.48768751072607
 10
9.9500000000001
 20
8.992341421163501
 30
0.0
 10
9.057475418454039
 20
12.52384689373144
 30
0.0
 10
7.272426255361907
 20
19.58685783886736
 30
0.0
 10
9.057475418453993
 20
26.6498687840033
 30
0.0
 10
9.950000000000043
 20
30.1813742565713
 30
0.0
 11
9.9500000000001
 21
8.992341421163501
 31
0.0
 11
8.164950836907962
 21
19.58685783886732
 31
0.0
 11
9.950000000000043
 21
30.1813742565713
 31
0.0
  0
LINE
  5
18F9
330
18E6
100
AcDbEntity
  8
241
  6
CONTINUOUS
100
AcDbLine
 10
9.95
 20
8.99234142
 30
0.0
 11
9.95
 21
30.18137426
 31
0.0
  0
SPLINE
  5
18FA
330
18E6
100
AcDbEntity
  8
241
  6
CONTINUOUS
100
AcDbSpline
210
0.0
220
0.0
230
1.0
 70
     8
 71
     3
 72
     9
 73
     5
 74
     3
 42
0.0000000001
 43
0.0000000001
 44
0.0000000001
 40
0.0
 40
0.0
 40
0.0
 40
0.0
 40
10.74384375536299
 40
21.48768751072605
 40
21.48768751072605
 40
21.48768751072605
 40
21.48768751072605
 10
14.05000000000018
 20
30.1813742565713
 30
0.0
 10
14.94252458154622
 20
26.64986878400334
 30
0.0
 10
16.72757374463832
 20
19.58685783886741
 30
0.0
 10
14.94252458154617
 20
12.52384689373149
 30
0.0
 10
14.05000000000009
 20
8.992341421163525
 30
0.0
 11
14.05000000000018
 21
30.1813742565713
 31
0.0
 11
15.83504916309226
 21
19.58685783886744
 31
0.0
 11
14.05000000000009
 21
8.992341421163525
 31
0.0
  0
LINE
  5
18FB
330
18E6
100
AcDbEntity
  8
241
  6
CONTINUOUS
100
AcDbLine
 10
14.05
 20
8.99234142
 30
0.0
 11
14.05
 21
30.18137426
 31
0.0
  0
LINE
  5
18FC
330
18E6
100
AcDbEntity
  8
240
  6
CONTINUOUS
100
AcDbLine
 10
-2.19993752
 20
-20.62000332
 30
0.0
 11
-36.5
 21
-19.76242639
 31
0.0
  0
LINE
  5
18FD
330
18E6
100
AcDbEntity
  8
240
  6
CONTINUOUS
100
AcDbLine
 10
-36.5
 20
22.56242639
 30
0.0
 11
-1.98947881
 21
23.42526525
 31
0.0
  0
LINE
  5
18FE
330
18E6
100
AcDbEntity
  8
240
  6
CONTINUOUS
100
AcDbLine
 10
-38.0
 20
-18.26242639
 30
0.0
 11
-38.0
 21
21.69640099
 31
0.0
  0
LINE
  5
18FF
330
18E6
100
AcDbEntity
  8
241
  6
CONTINUOUS
100
AcDbLine
 10
-36.5
 20
-19.76242639
 30
0.0
 11
-36.5
 21
22.56242639
 31
0.0
  0
LINE
  5
1900
330
18E6
100
AcDbEntity
  8
242
  6
HIDDEN2
100
AcDbLine
 10
-38.0
 20
-18.0
 30
0.0
 11
-31.8
 21
-18.0
 31
0.0
  0
LINE
  5
1901
330
18E6
100
AcDbEntity
  8
240
  6
CONTINUOUS
100
AcDbLine
 10
-36.5
 20
-19.76242639
 30
0.0
 11
-38.0
 21
-18.26242639
 31
0.0
  0
LINE
  5
1902
330
18E6
100
AcDbEntity
  8
242
  6
HIDDEN2
100
AcDbLine
 10
-29.87185543
 20
-19.92814457
 30
0.0
 11
-31.8
 21
-18.0
 31
0.0
  0
LINE
  5
1903
330
18E6
100
AcDbEntity
  8
242
  6
HIDDEN2
100
AcDbLine
 10
-31.8
 20
-19.87993672
 30
0.0
 11
-31.8
 21
-18.0
 31
0.0
  0
LINE
  5
1904
330
18E6
100
AcDbEntity
  8
240
  6
CONTINUOUS
100
AcDbLine
 10
-38.0
 20
21.69640099
 30
0.0
 11
-36.5
 21
22.56242639
 31
0.0
  0
SPLINE
  5
1905
330
18E6
100
AcDbEntity
  8
241
  6
CONTINUOUS
100
AcDbSpline
210
0.0
220
0.0
230
1.0
 70
     8
 71
     3
 72
     9
 73
     5
 74
     3
 42
0.0000000001
 43
0.0000000001
 44
0.0000000001
 40
0.0
 40
0.0
 40
0.0
 40
0.0
 40
10.74384375536299
 40
21.48768751072609
 40
21.48768751072609
 40
21.48768751072609
 40
21.48768751072609
 10
9.9500000000001
 20
-8.992341421163501
 30
0.0
 10
9.057475418454039
 20
-12.52384689373145
 30
0.0
 10
7.272426255361907
 20
-19.58685783886738
 30
0.0
 10
9.057475418453995
 20
-26.64986878400333
 30
0.0
 10
9.950000000000043
 20
-30.18137425657132
 30
0.0
 11
9.9500000000001
 21
-8.992341421163501
 31
0.0
 11
8.164950836907962
 21
-19.58685783886735
 31
0.0
 11
9.950000000000043
 21
-30.18137425657132
 31
0.0
  0
LINE
  5
1906
330
18E6
100
AcDbEntity
  8
241
  6
CONTINUOUS
100
AcDbLine
 10
14.05
 20
-8.99234142
 30
0.0
 11
14.05
 21
-30.18137426
 31
0.0
  0
SPLINE
  5
1907
330
18E6
100
AcDbEntity
  8
241
  6
CONTINUOUS
100
AcDbSpline
210
0.0
220
0.0
230
1.0
 70
     8
 71
     3
 72
     9
 73
     5
 74
     3
 42
0.0000000001
 43
0.0000000001
 44
0.0000000001
 40
0.0
 40
0.0
 40
0.0
 40
0.0
 40
10.74384375536302
 40
21.48768751072608
 40
21.48768751072608
 40
21.48768751072608
 40
21.48768751072608
 10
14.05000000000018
 20
-30.1813742565713
 30
0.0
 10
14.94252458154622
 20
-26.64986878400333
 30
0.0
 10
16.72757374463832
 20
-19.58685783886739
 30
0.0
 10
14.94252458154617
 20
-12.52384689373147
 30
0.0
 10
14.05000000000009
 20
-8.992341421163501
 30
0.0
 11
14.05000000000018
 21
-30.1813742565713
 31
0.0
 11
15.83504916309226
 21
-19.58685783886741
 31
0.0
 11
14.05000000000009
 21
-8.992341421163501
 31
0.0
  0
LINE
  5
1908
330
18E6
100
AcDbEntity
  8
241
  6
CONTINUOUS
100
AcDbLine
 10
9.95
 20
-8.99234142
 30
0.0
 11
9.95
 21
-30.18137426
 31
0.0
  0
LINE
  5
1909
330
18E6
100
AcDbEntity
  8
240
  6
CONTINUOUS
100
AcDbLine
 10
0.5
 20
-31.4925
 30
0.0
 11
21.0
 21
-31.4925
 31
0.0
  0
LINE
  5
190A
330
18E6
100
AcDbEntity
  8
241
  6
CONTINUOUS
100
AcDbLine
 10
9.95
 20
-30.18137426
 30
0.0
 11
14.05
 21
-30.18137426
 31
0.0
  0
ARC
  5
190B
330
18E6
100
AcDbEntity
  8
240
  6
CONTINUOUS
100
AcDbCircle
 10
0.5
 20
-30.9925
 30
0.0
 40
0.5
100
AcDbArc
 50
180.0
 51
270.0
  0
ARC
  5
190C
330
18E6
100
AcDbEntity
  8
240
  6
CONTINUOUS
100
AcDbCircle
 10
28.0
 20
-28.75
 30
0.0
 40
6.0
100
AcDbArc
 50
90.0
 51
180.0
  0
ARC
  5
190D
330
18E6
100
AcDbEntity
  8
240
  6
CONTINUOUS
100
AcDbCircle
 10
21.0
 20
-30.4925
 30
0.0
 40
1.0
100
AcDbArc
 50
270.0
 51
0.0
  0
LINE
  5
190E
330
18E6
100
AcDbEntity
  8
241
  6
CONTINUOUS
100
AcDbLine
 10
9.95
 20
-8.99234142
 30
0.0
 11
14.05
 21
-8.99234142
 31
0.0
  0
LINE
  5
190F
330
18E6
100
AcDbEntity
  8
241
  6
CONTINUOUS
100
AcDbLine
 10
9.95
 20
8.99234142
 30
0.0
 11
14.05
 21
8.99234142
 31
0.0
  0
LINE
  5
1910
330
18E6
100
AcDbEntity
  8
241
100
AcDbLine
 10
-2.19993752
 20
-20.62000332
 30
0.0
 11
-2.19993752
 21
23.42000332
 31
0.0
  0
LINE
  5
1911
330
18E6
100
AcDbEntity
  8
240
100
AcDbLine
 10
-2.19993752
 20
-20.62000332
 30
0.0
 11
0.0
 21
-20.62000332
 31
0.0
  0
LINE
  5
1912
330
18E6
100
AcDbEntity
  8
240
100
AcDbLine
 10
-2.19993752
 20
23.42000332
 30
0.0
 11
0.0
 21
23.42000332
 31
0.0
  0
ARC
  5
1913
330
18E6
100
AcDbEntity
  8
240
  6
CONTINUOUS
100
AcDbCircle
 10
28.0
 20
28.75
 30
0.0
 40
6.0
100
AcDbArc
 50
180.0
 51
270.0
  0
LINE
  5
1914
330
18E6
100
AcDbEntity
  8
240
  6
CONTINUOUS
100
AcDbLine
 10
0.5
 20
31.4925
 30
0.0
 11
21.0
 21
31.4925
 31
0.0
  0
LINE
  5
1915
330
18E6
100
AcDbEntity
  8
241
  6
CONTINUOUS
100
AcDbLine
 10
9.95
 20
30.18137426
 30
0.0
 11
14.05
 21
30.18137426
 31
0.0
  0
ARC
  5
1916
330
18E6
100
AcDbEntity
  8
240
  6
CONTINUOUS
100
AcDbCircle
 10
0.5
 20
30.9925
 30
0.0
 40
0.5
100
AcDbArc
 50
90.0
 51
180.0
  0
ARC
  5
1917
330
18E6
100
AcDbEntity
  8
240
  6
CONTINUOUS
100
AcDbCircle
 10
21.0
 20
30.4925
 30
0.0
 40
1.0
100
AcDbArc
 50
0.0
 51
90.0
  0
LINE
  5
1918
330
18E6
100
AcDbEntity
  8
240
  6
CONTINUOUS
100
AcDbLine
 10
184.5
 20
-22.0
 30
0.0
 11
184.5
 21
22.0
 31
0.0
1001
GRPNAME
1000
PASTMD02
  0
LINE
  5
1919
330
18E6
100
AcDbEntity
  8
240
  6
CONTINUOUS
100
AcDbLine
 10
178.95384962
 20
21.75
 30
0.0
 11
178.95384962
 21
-21.75
 31
0.0
1001
GRPNAME
1000
PASTMD02
  0
LINE
  5
191A
330
18E6
100
AcDbEntity
  8
241
  6
CONTINUOUS
100
AcDbLine
 10
185.5
 20
-23.0
 30
0.0
 11
185.5
 21
-13.18849004
 31
0.0
1001
GRPNAME
1000
PASTMD02
  0
ARC
  5
191B
330
18E6
100
AcDbEntity
  8
240
  6
CONTINUOUS
100
AcDbCircle
 10
177.95384962
 20
-21.75
 30
0.0
 40
1.0
100
AcDbArc
 50
270.0
 51
0.0
1001
GRPNAME
1000
PASTMD02
  0
ARC
  5
191C
330
18E6
100
AcDbEntity
  8
240
  6
CONTINUOUS
100
AcDbCircle
 10
185.5
 20
-22.0
 30
0.0
 40
1.0
100
AcDbArc
 50
180.00000009
 51
270.00000009
1001
GRPNAME
1000
PASTMD02
  0
LINE
  5
191D
330
18E6
100
AcDbEntity
  8
241
  6
CONTINUOUS
100
AcDbLine
 10
185.5
 20
-9.72438843
 30
0.0
 11
185.5
 21
9.72438843
 31
0.0
1001
GRPNAME
1000
PASTMD02
  0
LINE
  5
191E
330
18E6
100
AcDbEntity
  8
242
  6
CONTINUOUS
100
AcDbLine
 10
180.95384962
 20
-18.0
 30
0.0
 11
180.95384962
 21
18.0
 31
0.0
1001
GRPNAME
1000
PASTMD02
  0
LINE
  5
191F
330
18E6
100
AcDbEntity
  8
240
  6
CONTINUOUS
100
AcDbLine
 10
184.0
 20
19.5
 30
0.0
 11
184.0
 21
-19.5
 31
0.0
1001
GRPNAME
1000
PASTMD02
  0
LINE
  5
1920
330
18E6
100
AcDbEntity
  8
241
  6
HIDDEN2
100
AcDbLine
 10
161.45384962
 20
10.81537294
 30
0.0
 11
161.45384962
 21
0.0
 31
0.0
1001
GRPNAME
1000
PASTMD02
  0
LINE
  5
1921
330
18E6
100
AcDbEntity
  8
242
  6
CONTINUOUS
100
AcDbLine
 10
184.0
 20
-17.5
 30
0.0
 11
180.95384962
 21
-17.5
 31
0.0
1001
GRPNAME
1000
PASTMD02
  0
LINE
  5
1922
330
18E6
100
AcDbEntity
  8
240
  6
CONTINUOUS
100
AcDbLine
 10
184.0
 20
-18.0
 30
0.0
 11
179.95384962
 21
-18.0
 31
0.0
1001
GRPNAME
1000
PASTMD02
  0
ARC
  5
1923
330
18E6
100
AcDbEntity
  8
240
  6
CONTINUOUS
100
AcDbCircle
 10
179.95384962
 20
-19.0
 30
0.0
 40
1.0
100
AcDbArc
 50
89.99999999
 51
179.99999999
1001
GRPNAME
1000
PASTMD02
  0
LINE
  5
1924
330
18E6
100
AcDbEntity
  8
242
  6
CONTINUOUS
100
AcDbLine
 10
180.45384962
 20
-18.0
 30
0.0
 11
180.95384962
 21
-17.5
 31
0.0
1001
GRPNAME
1000
PASTMD02
  0
LINE
  5
1925
330
18E6
100
AcDbEntity
  8
240
  6
CONTINUOUS
100
AcDbLine
 10
184.5
 20
-20.0
 30
0.0
 11
184.0
 21
-19.5
 31
0.0
1001
GRPNAME
1000
PASTMD02
  0
LWPOLYLINE
  5
1926
330
18E6
100
AcDbEntity
  8
241
  6
CONTINUOUS
100
AcDbPolyline
 90
       70
 70
     0
 43
0.0
 10
184.5
 20
-12.68650196
 10
184.50025912
 20
-12.69792881
 10
184.50103633
 20
-12.70934974
 10
184.50233123
 20
-12.72075884
 10
184.50414316
 20
-12.73215018
 10
184.50647117
 20
-12.74351786
 10
184.50931405
 20
-12.75485599
 10
184.51267034
 20
-12.76615871
 10
184.5165383
 20
-12.77742014
 10
184.52091591
 20
-12.78863445
 10
184.52580092
 20
-12.79979584
 10
184.53119078
 20
-12.81089851
 10
184.53708271
 20
-12.82193672
 10
184.54347366
 20
-12.83290474
 10
184.5503603
 20
-12.8437969
 10
184.55773908
 20
-12.85460753
 10
184.56560616
 20
-12.86533105
 10
184.57395748
 20
-12.8759619
 10
184.5827887
 20
-12.88649456
 10
184.59209524
 20
-12.89692358
 10
184.60187229
 20
-12.90724355
 10
184.61211478
 20
-12.91744913
 10
184.6228174
 20
-12.92753502
 10
184.6339746
 20
-12.937496
 10
184.6455806
 20
-12.94732691
 10
184.65762938
 20
-12.95702265
 10
184.67011471
 20
-12.9665782
 10
184.68303011
 20
-12.97598861
 10
184.69636888
 20
-12.98524899
 10
184.71012413
 20
-12.99435456
 10
184.72428871
 20
-13.00330059
 10
184.73885529
 20
-13.01208244
 10
184.75381631
 20
-13.02069557
 10
184.76916404
 20
-13.0291355
 10
184.7848905
 20
-13.03739788
 10
184.80098755
 20
-13.04547841
 10
184.81744686
 20
-13.05337291
 10
184.83425988
 20
-13.06107728
 10
184.85141791
 20
-13.06858754
 10
184.86891206
 20
-13.07589978
 10
184.88673325
 20
-13.08301024
 10
184.90487226
 20
-13.0899152
 10
184.92331968
 20
-13.09661111
 10
184.94206595
 20
-13.10309449
 10
184.96110136
 20
-13.10936197
 10
184.98041605
 20
-13.11541032
 10
185.0
 20
-13.12123639
 10
185.01984307
 20
-13.12683717
 10
185.03993496
 20
-13.13220976
 10
185.06026528
 20
-13.13735137
 10
185.08082348
 20
-13.14225933
 10
185.10159891
 20
-13.1469311
 10
185.1225808
 20
-13.15136427
 10
185.14375829
 20
-13.15555653
 10
185.16512039
 20
-13.15950572
 10
185.18665603
 20
-13.16320977
 10
185.20835406
 20
-13.16666679
 10
185.23020323
 20
-13.16987496
 10
185.25219221
 20
-13.17283264
 10
185.27430962
 20
-13.17553829
 10
185.29654399
 20
-13.17799051
 10
185.31888379
 20
-13.18018802
 10
185.34131745
 20
-13.18212968
 10
185.36383335
 20
-13.1838145
 10
185.38641981
 20
-13.1852416
 10
185.40906514
 20
-13.18641023
 10
185.43175759
 20
-13.18731979
 10
185.4544854
 20
-13.18796982
 10
185.4772368
 20
-13.18835997
 10
185.5
 20
-13.18849004
1001
GRPNAME
1000
PASTMD02
  0
LWPOLYLINE
  5
196E
330
18E6
100
AcDbEntity
  8
241
  6
CONTINUOUS
100
AcDbPolyline
 90
       70
 70
     0
 43
0.0
 10
184.5
 20
-9.22240034
 10
184.50025912
 20
-9.2338272
 10
184.50103633
 20
-9.24524813
 10
184.50233123
 20
-9.25665722
 10
184.50414316
 20
-9.26804856
 10
184.50647117
 20
-9.27941624
 10
184.50931405
 20
-9.29075438
 10
184.51267034
 20
-9.30205709
 10
184.5165383
 20
-9.31331852
 10
184.52091591
 20
-9.32453284
 10
184.52580092
 20
-9.33569422
 10
184.53119078
 20
-9.3467969
 10
184.53708271
 20
-9.35783511
 10
184.54347366
 20
-9.36880313
 10
184.5503603
 20
-9.37969528
 10
184.55773908
 20
-9.39050592
 10
184.56560616
 20
-9.40122944
 10
184.57395748
 20
-9.41186028
 10
184.5827887
 20
-9.42239294
 10
184.59209524
 20
-9.43282196
 10
184.60187229
 20
-9.44314193
 10
184.61211478
 20
-9.45334751
 10
184.6228174
 20
-9.4634334
 10
184.6339746
 20
-9.47339439
 10
184.6455806
 20
-9.4832253
 10
184.65762938
 20
-9.49292104
 10
184.67011471
 20
-9.50247659
 10
184.68303011
 20
-9.51188699
 10
184.69636888
 20
-9.52114738
 10
184.71012413
 20
-9.53025295
 10
184.72428871
 20
-9.53919897
 10
184.73885529
 20
-9.54798083
 10
184.75381631
 20
-9.55659395
 10
184.76916404
 20
-9.56503389
 10
184.7848905
 20
-9.57329626
 10
184.80098755
 20
-9.58137679
 10
184.81744686
 20
-9.58927129
 10
184.83425988
 20
-9.59697566
 10
184.85141791
 20
-9.60448592
 10
184.86891206
 20
-9.61179817
 10
184.88673325
 20
-9.61890862
 10
184.90487226
 20
-9.62581359
 10
184.92331968
 20
-9.6325095
 10
184.94206595
 20
-9.63899287
 10
184.96110136
 20
-9.64526036
 10
184.98041605
 20
-9.65130871
 10
185.0
 20
-9.65713478
 10
185.01984307
 20
-9.66273556
 10
185.03993496
 20
-9.66810815
 10
185.06026528
 20
-9.67324975
 10
185.08082348
 20
-9.67815771
 10
185.10159891
 20
-9.68282949
 10
185.1225808
 20
-9.68726266
 10
185.14375829
 20
-9.69145492
 10
185.16512039
 20
-9.6954041
 10
185.18665603
 20
-9.69910816
 10
185.20835406
 20
-9.70256517
 10
185.23020323
 20
-9.70577335
 10
185.25219221
 20
-9.70873103
 10
185.27430962
 20
-9.71143668
 10
185.29654399
 20
-9.71388889
 10
185.31888379
 20
-9.7160864
 10
185.34131745
 20
-9.71802807
 10
185.36383335
 20
-9.71971289
 10
185.38641981
 20
-9.72113998
 10
185.40906514
 20
-9.72230861
 10
185.43175759
 20
-9.72321818
 10
185.4544854
 20
-9.72386821
 10
185.4772368
 20
-9.72425836
 10
185.5
 20
-9.72438843
1001
GRPNAME
1000
PASTMD02
  0
LINE
  5
19B6
330
18E6
100
AcDbEntity
  8
241
  6
CONTINUOUS
100
AcDbLine
 10
185.5
 20
23.0
 30
0.0
 11
185.5
 21
13.18849004
 31
0.0
1001
GRPNAME
1000
PASTMD02
  0
LWPOLYLINE
  5
19B7
330
18E6
100
AcDbEntity
  8
241
  6
CONTINUOUS
100
AcDbPolyline
 90
       70
 70
     0
 43
0.0
 10
184.5
 20
9.22240034
 10
184.50025912
 20
9.2338272
 10
184.50103633
 20
9.24524813
 10
184.50233123
 20
9.25665722
 10
184.50414316
 20
9.26804856
 10
184.50647117
 20
9.27941624
 10
184.50931405
 20
9.29075438
 10
184.51267034
 20
9.30205709
 10
184.5165383
 20
9.31331852
 10
184.52091591
 20
9.32453284
 10
184.52580092
 20
9.33569422
 10
184.53119078
 20
9.3467969
 10
184.53708271
 20
9.35783511
 10
184.54347366
 20
9.36880313
 10
184.5503603
 20
9.37969528
 10
184.55773908
 20
9.39050592
 10
184.56560616
 20
9.40122944
 10
184.57395748
 20
9.41186028
 10
184.5827887
 20
9.42239294
 10
184.59209524
 20
9.43282196
 10
184.60187229
 20
9.44314193
 10
184.61211478
 20
9.45334751
 10
184.6228174
 20
9.4634334
 10
184.6339746
 20
9.47339439
 10
184.6455806
 20
9.4832253
 10
184.65762938
 20
9.49292104
 10
184.67011471
 20
9.50247659
 10
184.68303011
 20
9.51188699
 10
184.69636888
 20
9.52114738
 10
184.71012413
 20
9.53025295
 10
184.72428871
 20
9.53919897
 10
184.73885529
 20
9.54798083
 10
184.75381631
 20
9.55659395
 10
184.76916404
 20
9.56503389
 10
184.7848905
 20
9.57329626
 10
184.80098755
 20
9.58137679
 10
184.81744686
 20
9.58927129
 10
184.83425988
 20
9.59697566
 10
184.85141791
 20
9.60448592
 10
184.86891206
 20
9.61179817
 10
184.88673325
 20
9.61890862
 10
184.90487226
 20
9.62581359
 10
184.92331968
 20
9.6325095
 10
184.94206595
 20
9.63899287
 10
184.96110136
 20
9.64526036
 10
184.98041605
 20
9.65130871
 10
185.0
 20
9.65713478
 10
185.01984307
 20
9.66273556
 10
185.03993496
 20
9.66810815
 10
185.06026528
 20
9.67324975
 10
185.08082348
 20
9.67815771
 10
185.10159891
 20
9.68282949
 10
185.1225808
 20
9.68726266
 10
185.14375829
 20
9.69145492
 10
185.16512039
 20
9.6954041
 10
185.18665603
 20
9.69910816
 10
185.20835406
 20
9.70256517
 10
185.23020323
 20
9.70577335
 10
185.25219221
 20
9.70873103
 10
185.27430962
 20
9.71143668
 10
185.29654399
 20
9.71388889
 10
185.31888379
 20
9.7160864
 10
185.34131745
 20
9.71802807
 10
185.36383335
 20
9.71971289
 10
185.38641981
 20
9.72113998
 10
185.40906514
 20
9.72230861
 10
185.43175759
 20
9.72321818
 10
185.4544854
 20
9.72386821
 10
185.4772368
 20
9.72425836
 10
185.5
 20
9.72438843
1001
GRPNAME
1000
PASTMD02
  0
LWPOLYLINE
  5
19FF
330
18E6
100
AcDbEntity
  8
241
  6
CONTINUOUS
100
AcDbPolyline
 90
       70
 70
     0
 43
0.0
 10
184.5
 20
12.68650196
 10
184.50025912
 20
12.69792881
 10
184.50103633
 20
12.70934974
 10
184.50233123
 20
12.72075884
 10
184.50414316
 20
12.73215018
 10
184.50647117
 20
12.74351786
 10
184.50931405
 20
12.75485599
 10
184.51267034
 20
12.76615871
 10
184.5165383
 20
12.77742014
 10
184.52091591
 20
12.78863445
 10
184.52580092
 20
12.79979584
 10
184.53119078
 20
12.81089851
 10
184.53708271
 20
12.82193672
 10
184.54347366
 20
12.83290474
 10
184.5503603
 20
12.8437969
 10
184.55773908
 20
12.85460753
 10
184.56560616
 20
12.86533105
 10
184.57395748
 20
12.8759619
 10
184.5827887
 20
12.88649456
 10
184.59209524
 20
12.89692358
 10
184.60187229
 20
12.90724355
 10
184.61211478
 20
12.91744913
 10
184.6228174
 20
12.92753502
 10
184.6339746
 20
12.937496
 10
184.6455806
 20
12.94732691
 10
184.65762938
 20
12.95702265
 10
184.67011471
 20
12.9665782
 10
184.68303011
 20
12.97598861
 10
184.69636888
 20
12.98524899
 10
184.71012413
 20
12.99435456
 10
184.72428871
 20
13.00330059
 10
184.73885529
 20
13.01208244
 10
184.75381631
 20
13.02069557
 10
184.76916404
 20
13.0291355
 10
184.7848905
 20
13.03739788
 10
184.80098755
 20
13.04547841
 10
184.81744686
 20
13.05337291
 10
184.83425988
 20
13.06107728
 10
184.85141791
 20
13.06858754
 10
184.86891206
 20
13.07589978
 10
184.88673325
 20
13.08301024
 10
184.90487226
 20
13.0899152
 10
184.92331968
 20
13.09661111
 10
184.94206595
 20
13.10309449
 10
184.96110136
 20
13.10936197
 10
184.98041605
 20
13.11541032
 10
185.0
 20
13.12123639
 10
185.01984307
 20
13.12683717
 10
185.03993496
 20
13.13220976
 10
185.06026528
 20
13.13735137
 10
185.08082348
 20
13.14225933
 10
185.10159891
 20
13.1469311
 10
185.1225808
 20
13.15136427
 10
185.14375829
 20
13.15555653
 10
185.16512039
 20
13.15950572
 10
185.18665603
 20
13.16320977
 10
185.20835406
 20
13.16666679
 10
185.23020323
 20
13.16987496
 10
185.25219221
 20
13.17283264
 10
185.27430962
 20
13.17553829
 10
185.29654399
 20
13.17799051
 10
185.31888379
 20
13.18018802
 10
185.34131745
 20
13.18212968
 10
185.36383335
 20
13.1838145
 10
185.38641981
 20
13.1852416
 10
185.40906514
 20
13.18641023
 10
185.43175759
 20
13.18731979
 10
185.4544854
 20
13.18796982
 10
185.4772368
 20
13.18835997
 10
185.5
 20
13.18849004
1001
GRPNAME
1000
PASTMD02
  0
LINE
  5
1A47
330
18E6
100
AcDbEntity
  8
242
  6
CONTINUOUS
100
AcDbLine
 10
184.0
 20
17.5
 30
0.0
 11
180.95384962
 21
17.5
 31
0.0
1001
GRPNAME
1000
PASTMD02
  0
LINE
  5
1A48
330
18E6
100
AcDbEntity
  8
240
  6
CONTINUOUS
100
AcDbLine
 10
184.0
 20
18.0
 30
0.0
 11
179.95384962
 21
18.0
 31
0.0
1001
GRPNAME
1000
PASTMD02
  0
ARC
  5
1A49
330
18E6
100
AcDbEntity
  8
240
  6
CONTINUOUS
100
AcDbCircle
 10
177.95384962
 20
21.75
 30
0.0
 40
1.0
100
AcDbArc
 50
0.0
 51
90.0
1001
GRPNAME
1000
PASTMD02
  0
ARC
  5
1A4A
330
18E6
100
AcDbEntity
  8
240
  6
CONTINUOUS
100
AcDbCircle
 10
179.95384962
 20
19.0
 30
0.0
 40
1.0
100
AcDbArc
 50
179.99999998
 51
269.99999998
1001
GRPNAME
1000
PASTMD02
  0
LINE
  5
1A4B
330
18E6
100
AcDbEntity
  8
242
  6
CONTINUOUS
100
AcDbLine
 10
180.45384962
 20
18.0
 30
0.0
 11
180.95384962
 21
17.5
 31
0.0
1001
GRPNAME
1000
PASTMD02
  0
ARC
  5
1A4C
330
18E6
100
AcDbEntity
  8
240
  6
CONTINUOUS
100
AcDbCircle
 10
185.5
 20
22.0
 30
0.0
 40
1.0
100
AcDbArc
 50
89.99999999
 51
179.99999999
1001
GRPNAME
1000
PASTMD02
  0
LINE
  5
1A4D
330
18E6
100
AcDbEntity
  8
240
  6
CONTINUOUS
100
AcDbLine
 10
184.0
 20
19.5
 30
0.0
 11
184.5
 21
20.0
 31
0.0
1001
GRPNAME
1000
PASTMD02
  0
ARC
  5
1A4E
330
18E6
100
AcDbEntity
  8
240
  6
CONTINUOUS
100
AcDbCircle
 10
199.1
 20
-21.12720779
 30
0.0
 40
0.9000000000000031
100
AcDbArc
 50
315.00000004
 51
0.00000004
1001
GRPNAME
1000
PASTMD02
  0
LINE
  5
1A4F
330
18E6
100
AcDbEntity
  8
241
  6
CONTINUOUS
100
AcDbLine
 10
198.5
 20
22.91017972
 30
0.0
 11
198.5
 21
-22.91017972
 31
0.0
1001
GRPNAME
1000
PASTMD02
  0
LINE
  5
1A50
330
18E6
100
AcDbEntity
  8
240
  6
CONTINUOUS
100
AcDbLine
 10
198.79289322
 20
-22.70710678
 30
0.0
 11
199.7363961
 21
-21.7636039
 31
0.0
1001
GRPNAME
1000
PASTMD02
  0
ARC
  5
1A51
330
18E6
100
AcDbEntity
  8
240
  6
CONTINUOUS
100
AcDbCircle
 10
198.08578644
 20
-22.0
 30
0.0
 40
1.0
100
AcDbArc
 50
270.00000004
 51
315.00000004
1001
GRPNAME
1000
PASTMD02
  0
LINE
  5
1A52
330
18E6
100
AcDbEntity
  8
240
  6
CONTINUOUS
100
AcDbLine
 10
200.0
 20
-21.12720779
 30
0.0
 11
200.0
 21
21.12720779
 31
0.0
1001
GRPNAME
1000
PASTMD02
  0
LINE
  5
1A53
330
18E6
100
AcDbEntity
  8
241
  6
CONTINUOUS
100
AcDbLine
 10
193.5
 20
-13.18849004
 30
0.0
 11
193.5
 21
-9.72438843
 31
0.0
1001
GRPNAME
1000
PASTMD02
  0
LINE
  5
1A54
330
18E6
100
AcDbEntity
  8
241
  6
HIDDEN2
100
AcDbLine
 10
200.0
 20
12.37566243
 30
0.0
 11
196.7535521
 21
14.25
 31
0.0
1001
GRPNAME
1000
PASTMD02
  0
LINE
  5
1A55
330
18E6
100
AcDbEntity
  8
241
  6
CONTINUOUS
100
AcDbLine
 10
193.5
 20
13.18849004
 30
0.0
 11
193.5
 21
9.72438843
 31
0.0
1001
GRPNAME
1000
PASTMD02
  0
LINE
  5
1A56
330
18E6
100
AcDbEntity
  8
241
  6
HIDDEN2
100
AcDbLine
 10
194.1535521
 20
12.5
 30
0.0
 11
196.5535521
 21
12.5
 31
0.0
1001
GRPNAME
1000
PASTMD02
  0
LINE
  5
1A57
330
18E6
100
AcDbEntity
  8
241
  6
HIDDEN2
100
AcDbLine
 10
194.1535521
 20
12.5
 30
0.0
 11
194.1535521
 21
14.25225016
 31
0.0
1001
GRPNAME
1000
PASTMD02
  0
LINE
  5
1A58
330
18E6
100
AcDbEntity
  8
241
  6
HIDDEN2
100
AcDbLine
 10
196.5535521
 20
12.5
 30
0.0
 11
196.5535521
 21
14.25
 31
0.0
1001
GRPNAME
1000
PASTMD02
  0
LINE
  5
1A59
330
18E6
100
AcDbEntity
  8
241
  6
HIDDEN2
100
AcDbLine
 10
196.5535521
 20
14.25
 30
0.0
 11
196.7535521
 21
14.25
 31
0.0
1001
GRPNAME
1000
PASTMD02
  0
LINE
  5
1A5A
330
18E6
100
AcDbEntity
  8
240
  6
CONTINUOUS
100
AcDbLine
 10
199.7363961
 20
21.7636039
 30
0.0
 11
198.79289322
 21
22.70710678
 31
0.0
1001
GRPNAME
1000
PASTMD02
  0
ARC
  5
1A5B
330
18E6
100
AcDbEntity
  8
240
  6
CONTINUOUS
100
AcDbCircle
 10
198.08578644
 20
22.0
 30
0.0
 40
1.000000000000007
100
AcDbArc
 50
44.99999989
 51
89.99999989
1001
GRPNAME
1000
PASTMD02
  0
ARC
  5
1A5C
330
18E6
100
AcDbEntity
  8
240
  6
CONTINUOUS
100
AcDbCircle
 10
199.1
 20
21.12720779
 30
0.0
 40
0.9000000000000341
100
AcDbArc
 50
0.00000004
 51
45.00000004
1001
GRPNAME
1000
PASTMD02
  0
ENDBLK
  5
18E8
330
18E6
100
AcDbEntity
  8
0
100
AcDbBlockEnd
  0
ENDSEC
  0
SECTION
  2
ENTITIES
  0
INSERT
  5
6E6
330
1A
100
AcDbEntity
  8
245
100
AcDbBlockReference
  2
矢印なし
 10
175.62382697
 20
90.55123572
 30
0.0
  0
TEXT
  5
8C5
330
1A
100
AcDbEntity
  8
241
100
AcDbText
 10
-38.0
 20
66.5
 30
0.0
 40
5.0
  1
C6-NBS20-200
  7
YOKO
 11
-38.0
 21
66.5
 31
0.0
100
AcDbText
 73
     1
  0
LEADER
  5
8C7
330
1A
100
AcDbEntity
  8
250
  6
CONTINUOUS
100
AcDbLeader
  3
BIGT
 76
     2
 10
-16.47540101
 20
-20.26308537
 30
0.0
 10
-21.0
 20
-28.0
 30
0.0
1001
ACAD
1000
DSTYLE
1002
{
1070
     6
1000
OPEN
1070
    41
1040
2.0
1070
    42
1040
2.0
1070
    44
1040
2.0
1070
   140
1040
4.0
1070
   343
1005
594
1002
}
  0
LINE
  5
8C9
330
1A
100
AcDbEntity
  8
250
  6
CONTINUOUS
100
AcDbLine
 10
-21.0
 20
-28.0
 30
0.0
 11
-31.26666667
 21
-28.0
 31
0.0
1001
ITEMNAME
1000
LNSP2
  0
MTEXT
  5
8CD
330
1A
100
AcDbEntity
  8
251
  6
CONTINUOUS
100
AcDbMText
 10
-28.46666667
 20
-27.0
 30
0.0
 40
2.8
 41
0.0
 71
     7
 72
     1
  1
C6
  7
YOKO
1001
ITEMNAME
1000
LNSP3
1001
ACAD
1000
MTEXTBEGIN
1070
    73
1070
     1
1070
    44
1040
1.0
1070
    74
1070
     0
1000
MTEXTEND
1000
MTEXTBEGIN
1070
    73
1070
     1
1070
    44
1040
1.0
1070
    74
1070
     0
1000
MTEXTEND
1000
MTEXTBEGIN
1070
    73
1070
     1
1070
    44
1040
1.0
1070
    74
1070
     0
1000
MTEXTEND
1000
MTEXTBEGIN
1070
    73
1070
     1
1070
    44
1040
1.0
1070
    74
1070
     0
1000
MTEXTEND
1000
MTEXTBEGIN
1070
    73
1070
     1
1070
    44
1040
1.0
1070
    74
1070
     0
1000
MTEXTEND
1000
MTEXTBEGIN
1070
    73
1070
     1
1070
    44
1040
1.0
1070
    74
1070
     0
1000
MTEXTEND
1000
MTEXTBEGIN
1070
    73
1070
     1
1070
    44
1040
1.0
1070
    74
1070
     0
1000
MTEXTEND
1000
MTEXTBEGIN
1070
    73
1070
     1
1070
    44
1040
1.0
1070
    74
1070
     0
1000
MTEXTEND
1000
MTEXTBEGIN
1070
    73
1070
     1
1070
    44
1040
1.0
1070
    74
1070
     0
1000
MTEXTEND
1000
MTEXTBEGIN
1070
    73
1070
     1
1070
    44
1040
1.0
1070
    74
1070
     0
1000
MTEXTEND
  0
DIMENSION
  5
8DA
330
1A
100
AcDbEntity
  8
250
  6
CONTINUOUS
100
AcDbDimension
  2
*D2
 10
200.0
 20
52.5
 30
0.0
 11
100.0
 21
52.5
 31
0.0
 70
   160
  3
BIGT$0
100
AcDbAlignedDimension
 13
0.0
 23
30.9925
 33
0.0
 14
200.0
 24
21.12720779
 34
0.0
100
AcDbRotatedDimension
  0
DIMENSION
  5
1377
330
1A
100
AcDbEntity
  8
250
  6
CONTINUOUS
100
AcDbDimension
  2
*D3
 10
200.0
 20
45.5
 30
0.0
 11
104.19912479
 21
45.5
 31
0.0
 70
   160
  1
（max.<>）
  3
BIGT
100
AcDbAlignedDimension
 13
9.0
 23
1.0
 33
0.0
 14
200.0
 24
21.12720779
 34
0.0
100
AcDbRotatedDimension
  0
DIMENSION
  5
171B
330
1A
100
AcDbEntity
  8
250
  6
CONTINUOUS
100
AcDbDimension
  2
*D4
 10
217.0
 20
23.0
 30
0.0
 11
217.0
 21
0.0
 31
0.0
 70
   160
  1
{\H3;\U+2205}<>
  3
BIGT$0
100
AcDbAlignedDimension
 13
198.08578644
 23
-23.0
 33
0.0
 14
198.12720779
 24
23.0
 34
0.0
 50
90.0
100
AcDbRotatedDimension
  0
DIMENSION
  5
1727
330
1A
100
AcDbEntity
  8
250
  6
CONTINUOUS
100
AcDbDimension
  2
*D5
 10
210.0
 20
10.0
 30
0.0
 11
210.0
 21
0.0
 31
0.0
 70
   160
  1
max.φ20
  3
BIGT
100
AcDbAlignedDimension
 13
200.0
 23
-10.0
 33
0.0
 14
200.0
 24
10.0
 34
0.0
 50
90.0
100
AcDbRotatedDimension
1001
ACAD
1000
DSTYLE
1002
{
1070
    41
1040
2.0
1070
    75
1070
     1
1070
     6
1000
矢印なし
1002
}
  0
DIMENSION
  5
18B4
330
1A
100
AcDbEntity
  8
250
  6
CONTINUOUS
100
AcDbDimension
  2
*D6
 10
200.0
 20
38.5
 30
0.0
 11
111.0
 21
41.0
 31
0.0
 70
    32
  3
BIGT$0
100
AcDbAlignedDimension
 13
22.0
 23
30.4925
 33
0.0
 14
200.0
 24
21.12720779
 34
0.0
100
AcDbRotatedDimension
  0
INSERT
  5
1A5D
330
1A
100
AcDbEntity
  8
245
100
AcDbBlockReference
  2
1
 10
0.0
 20
0.0
 30
0.0
  0
VIEWPORT
  5
22
330
17
100
AcDbEntity
 67
     1
  8
0
100
AcDbViewport
 10
261.51769912
 20
148.5
 30
0.0
 40
523.03539823
 41
297.0
 68
     1
 69
     1
1001
ACAD
1000
MVIEW
1002
{
1070
    16
1010
0.0
1020
0.0
1030
0.0
1010
0.0
1020
0.0
1030
1.0
1040
0.0
1040
297.0
1040
261.51769912
1040
148.5
1040
50.0
1040
0.0
1040
0.0
1070
     0
1070
   100
1070
     1
1070
     1
1070
     0
1070
     0
1070
     0
1070
     0
1040
0.0
1040
0.0
1040
0.0
1040
1.0
1040
1.0
1040
10.0
1040
10.0
1070
     0
1002
{
1002
}
1002
}
  0
ENDSEC
  0
SECTION
  2
OBJECTS
  0
DICTIONARY
  5
C
330
0
100
AcDbDictionary
  3
ACAD_GROUP
350
D
  3
ACAD_LAYOUT
350
565
  3
ACAD_MLINESTYLE
350
E
  3
ACAD_PLOTSETTINGS
350
566
  3
ACAD_PLOTSTYLENAME
350
563
  3
ACDBHEADERROUNDTRIPXREC
350
1AD4
  3
GRADE_DWG
350
540
  0
DICTIONARY
  5
F08
330
1A
100
AcDbDictionary
280
     1
  3
ACAD_LAYOUTSELFREF
360
1AF6
  0
DICTIONARY
  5
F06
330
17
100
AcDbDictionary
280
     1
  3
ACAD_LAYOUTSELFREF
360
1AF5
  0
DICTIONARY
  5
D
102
{ACAD_REACTORS
330
C
102
}
330
C
100
AcDbDictionary
  3
*A1
350
6C7
  3
*A2
350
6C8
  3
*A3
350
6D4
  3
*A4
350
6D5
  3
DREC-1
350
5FC
  3
DREC-2
350
654
  3
DREC-3
350
673
  0
DICTIONARY
  5
565
102
{ACAD_REACTORS
330
C
102
}
330
C
100
AcDbDictionary
  0
DICTIONARY
  5
E
102
{ACAD_REACTORS
330
C
102
}
330
C
100
AcDbDictionary
  3
STANDARD
350
13
  0
DICTIONARY
  5
566
102
{ACAD_REACTORS
330
C
102
}
330
C
100
AcDbDictionary
  3
A3_0_5倍_
350
758
  3
A3_1倍_
350
757
  3
A3_1倍__2000_
350
707
  3
A3_2倍_
350
759
  3
A4_0_5倍_
350
755
  3
A4_1倍_
350
754
  3
A4_1倍__2000_
350
708
  3
A4_2倍_
350
756
  0
ACDBDICTIONARYWDFLT
  5
563
102
{ACAD_REACTORS
330
C
102
}
330
C
100
AcDbDictionary
281
     1
  3
Normal
350
564
100
AcDbDictionaryWithDefault
340
564
  0
DICTIONARY
  5
1AD4
102
{ACAD_REACTORS
330
C
102
}
330
C
100
AcDbDictionary
  3
CEPSNTYPE
350
1ADE
  3
DIMSTYLEDATA
350
1AE2
  3
FINGERPRINTGUID
350
1ADF
  3
HYPERLINKBASE
350
1AD7
  3
INSUNITS
350
1ADD
  3
LAYOUTDICT
350
1AD9
  3
LWETCUNION
350
1ADC
  3
PLOTSETDICT
350
1ADA
  3
PLOTSTYLNAMDICT
350
1ADB
  3
PSVPSCALE
350
1AE1
  3
PUCSBASE
350
1AE5
  3
PUCSORGBACK
350
1AEB
  3
PUCSORGBOTTOM
350
1AE7
  3
PUCSORGFRONT
350
1AEA
  3
PUCSORGLEFT
350
1AE8
  3
PUCSORGRIGHT
350
1AE9
  3
PUCSORGTOP
350
1AE6
  3
PUCSORTHOREF
350
1AE3
  3
PUCSORTHOVIEW
350
1AE4
  3
STYLESHEET
350
1AD8
  3
TSTACKALIGN
350
1AD5
  3
TSTACKSIZE
350
1AD6
  3
UCSBASE
350
1AEE
  3
UCSORGBACK
350
1AF4
  3
UCSORGBOTTOM
350
1AF0
  3
UCSORGFRONT
350
1AF3
  3
UCSORGLEFT
350
1AF1
  3
UCSORGRIGHT
350
1AF2
  3
UCSORGTOP
350
1AEF
  3
UCSORTHOREF
350
1AEC
  3
UCSORTHOVIEW
350
1AED
  3
VERSIONGUID
350
1AE0
  0
DICTIONARY
  5
540
102
{ACAD_REACTORS
330
C
102
}
330
C
100
AcDbDictionary
  3
VERSION
350
560
  0
XRECORD
  5
1AF6
102
{ACAD_REACTORS
330
F08
102
}
330
F08
100
AcDbXrecord
340
1A
  0
XRECORD
  5
1AF5
102
{ACAD_REACTORS
330
F06
102
}
330
F06
100
AcDbXrecord
340
17
  0
GROUP
  5
6C7
102
{ACAD_REACTORS
330
D
102
}
330
D
100
AcDbGroup
300

 70
     0
 71
     1
1001
GRPNAME
1000
DMA00
  0
GROUP
  5
6C8
102
{ACAD_REACTORS
330
D
102
}
330
D
100
AcDbGroup
300

 70
     0
 71
     1
1001
GRPNAME
1000
DMA00
  0
GROUP
  5
6D4
102
{ACAD_REACTORS
330
D
102
}
330
D
100
AcDbGroup
300

 70
     0
 71
     1
1001
GRPNAME
1000
DMA00
  0
GROUP
  5
6D5
102
{ACAD_REACTORS
330
D
102
}
330
D
100
AcDbGroup
300

 70
     0
 71
     1
1001
GRPNAME
1000
DMA00
  0
GROUP
  5
5FC
102
{ACAD_REACTORS
330
D
102
}
330
D
100
AcDbGroup
300

 70
     0
 71
     1
1001
GRPNAME
1000
DREC-
1001
GPARA
1000
xsiz
1000
44.182
1000
ysiz
1000
40.677
1000
angl
1000
0
1000
ctyp
1000
0
1000
csiz
1000
5
1000
lfnt
1000
cont
1000
hcnt
1000
hoff
1000
vcnt
1000
voff
1000
opnt
1000
4
1000
dxpt
1000
0
1000
dypt
1000
0
  0
GROUP
  5
654
102
{ACAD_REACTORS
330
D
102
}
330
D
100
AcDbGroup
300

 70
     0
 71
     1
1001
GRPNAME
1000
DREC-
1001
GPARA
1000
xsiz
1000
54.592
1000
ysiz
1000
53.036
1000
angl
1000
0
1000
ctyp
1000
0
1000
csiz
1000
5
1000
lfnt
1000
cont
1000
hcnt
1000
hoff
1000
vcnt
1000
voff
1000
opnt
1000
4
1000
dxpt
1000
0
1000
dypt
1000
0
  0
GROUP
  5
673
102
{ACAD_REACTORS
330
D
102
}
330
D
100
AcDbGroup
300

 70
     0
 71
     1
1001
GRPNAME
1000
DREC-
1001
GPARA
1000
xsiz
1000
30.363
1000
ysiz
1000
36.175
1000
angl
1000
0
1000
ctyp
1000
0
1000
csiz
1000
5
1000
lfnt
1000
cont
1000
hcnt
1000
hoff
1000
vcnt
1000
voff
1000
opnt
1000
4
1000
dxpt
1000
0
1000
dypt
1000
0
  0
MLINESTYLE
  5
13
102
{ACAD_REACTORS
330
E
102
}
330
E
100
AcDbMlineStyle
  2
STANDARD
 70
     0
  3

 62
     0
 51
90.0
 52
90.0
 71
     2
 49
0.5
 62
   256
  6
BYLAYER
 49
-0.5
 62
   256
  6
BYLAYER
  0
PLOTSETTINGS
  5
758
102
{ACAD_REACTORS
330
566
102
}
330
566
100
AcDbPlotSettings
  1
A3(0.5倍)
  2
\\AWTECPC05\HP DeskJet 1120C
  4
A3
  6

 40
5.95841646
 41
13.49375153
 42
6.04309082
 43
3.67242432
 44
296.92599487
 45
419.94665527
 46
89.96
 47
127.14
 48
0.0
 49
0.0
140
0.0
141
0.0
142
1.0
143
2.0
 70
  1716
 72
     1
 73
     1
 74
     2
  7
big.ctb
 75
    17
147
0.5
148
0.0
149
0.0
  0
PLOTSETTINGS
  5
757
102
{ACAD_REACTORS
330
566
102
}
330
566
100
AcDbPlotSettings
  1
A3(1倍)
  2
\\AWTECPC05\HP DeskJet 1120C
  4
A3
  6

 40
5.95841646
 41
13.49375153
 42
6.04309082
 43
3.67242432
 44
296.92599487
 45
419.94665527
 46
37.46
 47
52.89
 48
0.0
 49
0.0
140
0.0
141
0.0
142
1.0
143
1.0
 70
  1716
 72
     1
 73
     1
 74
     2
  7
big.ctb
 75
    16
147
1.0
148
0.0
149
0.0
  0
PLOTSETTINGS
  5
707
102
{ACAD_REACTORS
330
566
102
}
330
566
100
AcDbPlotSettings
  1
A3(1倍)(2000)
  2
SII LS-1300 (D-SCAN)
  4
User258
  6

 40
3.17499995
 41
3.17499995
 42
3.17498779
 43
3.17498779
 44
419.98898315
 45
296.98950195
 46
58.32
 47
40.32
 48
0.0
 49
0.0
140
0.0
141
0.0
142
1.0
143
1.0
 70
  1716
 72
     1
 73
     0
 74
     2
  7
big.ctb
 75
    16
147
1.0
148
0.0
149
0.0
  0
PLOTSETTINGS
  5
759
102
{ACAD_REACTORS
330
566
102
}
330
566
100
AcDbPlotSettings
  1
A3(2倍)
  2
\\AWTECPC05\HP DeskJet 1120C
  4
A3
  6

 40
5.95841646
 41
13.49375153
 42
6.04309082
 43
3.67242432
 44
296.92599487
 45
419.94665527
 46
-67.54
 47
-95.61
 48
0.0
 49
0.0
140
0.0
141
0.0
142
1.0
143
0.5
 70
  1716
 72
     1
 73
     1
 74
     2
  7
big.ctb
 75
    27
147
2.0
148
0.0
149
0.0
  0
PLOTSETTINGS
  5
755
102
{ACAD_REACTORS
330
566
102
}
330
566
100
AcDbPlotSettings
  1
A4(0.5倍)
  2
\\AWTECPC05\HP DeskJet 1120C
  4
A4
  6

 40
4.18041658
 41
13.49374962
 42
4.18040466
 43
3.92642212
 44
209.97332764
 45
296.92599487
 46
48.31
 47
65.5
 48
0.0
 49
0.0
140
0.0
141
0.0
142
1.0
143
2.0
 70
  1716
 72
     1
 73
     1
 74
     2
  7
big.ctb
 75
    17
147
0.5
148
0.0
149
0.0
  0
PLOTSETTINGS
  5
754
102
{ACAD_REACTORS
330
566
102
}
330
566
100
AcDbPlotSettings
  1
A4(1倍)
  2
\\AWTECPC05\HP DeskJet 1120C
  4
A4
  6

 40
4.18041658
 41
13.49374962
 42
4.18040466
 43
3.92642212
 44
209.97332764
 45
296.92599487
 46
-4.19
 47
-8.75
 48
0.0
 49
0.0
140
0.0
141
0.0
142
1.0
143
1.0
 70
  1716
 72
     1
 73
     1
 74
     2
  7
big.ctb
 75
    16
147
1.0
148
0.0
149
0.0
  0
PLOTSETTINGS
  5
708
102
{ACAD_REACTORS
330
566
102
}
330
566
100
AcDbPlotSettings
  1
A4(1倍)(2000)
  2
SII LS-1300 (D-SCAN)
  4
User259
  6

 40
3.17499995
 41
3.17499995
 42
3.17498779
 43
3.17500305
 44
296.98950195
 45
209.99449158
 46
-3.18
 47
-3.18
 48
0.0
 49
0.0
140
0.0
141
0.0
142
1.0
143
1.0
 70
  1716
 72
     1
 73
     0
 74
     2
  7
big.ctb
 75
    16
147
1.0
148
0.0
149
0.0
  0
PLOTSETTINGS
  5
756
102
{ACAD_REACTORS
330
566
102
}
330
566
100
AcDbPlotSettings
  1
A4(2倍)
  2
\\AWTECPC05\HP DeskJet 1120C
  4
A4
  6

 40
4.18041658
 41
13.49374962
 42
4.18040466
 43
3.92642212
 44
209.97332764
 45
296.92599487
 46
-109.19
 47
-157.25
 48
0.0
 49
0.0
140
0.0
141
0.0
142
1.0
143
0.5
 70
  1716
 72
     1
 73
     1
 74
     2
  7
big.ctb
 75
    27
147
2.0
148
0.0
149
0.0
  0
ACDBPLACEHOLDER
  5
564
102
{ACAD_REACTORS
330
563
102
}
330
563
100
AcDbPlaceHolder
280
     0
  0
XRECORD
  5
1ADE
102
{ACAD_REACTORS
330
1AD4
102
}
330
1AD4
100
AcDbXrecord
 90
        0
  0
XRECORD
  5
1AE2
102
{ACAD_REACTORS
330
1AD4
102
}
330
1AD4
100
AcDbXrecord
1000
DSTYLE
1002
{
1070
   341
340
594
1070
   343
340
594
1070
   344
340
594
1002
}
  0
XRECORD
  5
1ADF
102
{ACAD_REACTORS
330
1AD4
102
}
330
1AD4
100
AcDbXrecord
  1
{51294030-9CB4-11D3-8E18-00A0C925D94D}
  0
XRECORD
  5
1AD7
102
{ACAD_REACTORS
330
1AD4
102
}
330
1AD4
100
AcDbXrecord
  1

  0
XRECORD
  5
1ADD
102
{ACAD_REACTORS
330
1AD4
102
}
330
1AD4
100
AcDbXrecord
 90
        0
  0
XRECORD
  5
1AD9
102
{ACAD_REACTORS
330
1AD4
102
}
330
1AD4
100
AcDbXrecord
340
565
  0
XRECORD
  5
1ADC
102
{ACAD_REACTORS
330
1AD4
102
}
330
1AD4
100
AcDbXrecord
 90
    10781
  0
XRECORD
  5
1ADA
102
{ACAD_REACTORS
330
1AD4
102
}
330
1AD4
100
AcDbXrecord
340
566
  0
XRECORD
  5
1ADB
102
{ACAD_REACTORS
330
1AD4
102
}
330
1AD4
100
AcDbXrecord
340
563
  0
XRECORD
  5
1AE1
102
{ACAD_REACTORS
330
1AD4
102
}
330
1AD4
100
AcDbXrecord
 40
0.0
  0
XRECORD
  5
1AE5
102
{ACAD_REACTORS
330
1AD4
102
}
330
1AD4
100
AcDbXrecord
340
0
  0
XRECORD
  5
1AEB
102
{ACAD_REACTORS
330
1AD4
102
}
330
1AD4
100
AcDbXrecord
 10
0.0
 20
0.0
 30
0.0
  0
XRECORD
  5
1AE7
102
{ACAD_REACTORS
330
1AD4
102
}
330
1AD4
100
AcDbXrecord
 10
0.0
 20
0.0
 30
0.0
  0
XRECORD
  5
1AEA
102
{ACAD_REACTORS
330
1AD4
102
}
330
1AD4
100
AcDbXrecord
 10
0.0
 20
0.0
 30
0.0
  0
XRECORD
  5
1AE8
102
{ACAD_REACTORS
330
1AD4
102
}
330
1AD4
100
AcDbXrecord
 10
0.0
 20
0.0
 30
0.0
  0
XRECORD
  5
1AE9
102
{ACAD_REACTORS
330
1AD4
102
}
330
1AD4
100
AcDbXrecord
 10
0.0
 20
0.0
 30
0.0
  0
XRECORD
  5
1AE6
102
{ACAD_REACTORS
330
1AD4
102
}
330
1AD4
100
AcDbXrecord
 10
0.0
 20
0.0
 30
0.0
  0
XRECORD
  5
1AE3
102
{ACAD_REACTORS
330
1AD4
102
}
330
1AD4
100
AcDbXrecord
340
0
  0
XRECORD
  5
1AE4
102
{ACAD_REACTORS
330
1AD4
102
}
330
1AD4
100
AcDbXrecord
 70
     0
  0
XRECORD
  5
1AD8
102
{ACAD_REACTORS
330
1AD4
102
}
330
1AD4
100
AcDbXrecord
  1
big.ctb
  0
XRECORD
  5
1AD5
102
{ACAD_REACTORS
330
1AD4
102
}
330
1AD4
100
AcDbXrecord
 90
        1
  0
XRECORD
  5
1AD6
102
{ACAD_REACTORS
330
1AD4
102
}
330
1AD4
100
AcDbXrecord
 90
       70
  0
XRECORD
  5
1AEE
102
{ACAD_REACTORS
330
1AD4
102
}
330
1AD4
100
AcDbXrecord
340
0
  0
XRECORD
  5
1AF4
102
{ACAD_REACTORS
330
1AD4
102
}
330
1AD4
100
AcDbXrecord
 10
0.0
 20
0.0
 30
0.0
  0
XRECORD
  5
1AF0
102
{ACAD_REACTORS
330
1AD4
102
}
330
1AD4
100
AcDbXrecord
 10
0.0
 20
0.0
 30
0.0
  0
XRECORD
  5
1AF3
102
{ACAD_REACTORS
330
1AD4
102
}
330
1AD4
100
AcDbXrecord
 10
0.0
 20
0.0
 30
0.0
  0
XRECORD
  5
1AF1
102
{ACAD_REACTORS
330
1AD4
102
}
330
1AD4
100
AcDbXrecord
 10
0.0
 20
0.0
 30
0.0
  0
XRECORD
  5
1AF2
102
{ACAD_REACTORS
330
1AD4
102
}
330
1AD4
100
AcDbXrecord
 10
0.0
 20
0.0
 30
0.0
  0
XRECORD
  5
1AEF
102
{ACAD_REACTORS
330
1AD4
102
}
330
1AD4
100
AcDbXrecord
 10
0.0
 20
0.0
 30
0.0
  0
XRECORD
  5
1AEC
102
{ACAD_REACTORS
330
1AD4
102
}
330
1AD4
100
AcDbXrecord
340
0
  0
XRECORD
  5
1AED
102
{ACAD_REACTORS
330
1AD4
102
}
330
1AD4
100
AcDbXrecord
 70
     0
  0
XRECORD
  5
1AE0
102
{ACAD_REACTORS
330
1AD4
102
}
330
1AD4
100
AcDbXrecord
  1
{50412464-D313-456A-A469-DE088B08ECCA}
  0
XRECORD
  5
560
102
{ACAD_REACTORS
330
540
102
}
330
540
100
AcDbXrecord
  1
2.0.0
  0
ENDSEC
  0
EOF
