  0
SECTION
  2
HEADER
  9
$ACADVER
  1
AC1014
  9
$ACADMAINTVER
 70
     9
  9
$DWGCODEPAGE
  3
ANSI_932
  9
$INSBASE
 10
0.0
 20
0.0
 30
0.0
  9
$EXTMIN
 10
-39.0140065
 20
-31.70963713
 30
-0.00152582
  9
$EXTMAX
 10
124.03408886
 20
71.51054552
 30
0.00000003
  9
$LIMMIN
 10
0.0
 20
0.0
  9
$LIMMAX
 10
420.0
 20
297.0
  9
$ORTHOMODE
 70
     0
  9
$REGENMODE
 70
     1
  9
$FILLMODE
 70
     1
  9
$QTEXTMODE
 70
     0
  9
$MIRRTEXT
 70
     1
  9
$DRAGMODE
 70
     2
  9
$LTSCALE
 40
10.0
  9
$OSMODE
 70
   549
  9
$ATTMODE
 70
     1
  9
$TEXTSIZE
 40
3.0
  9
$TRACEWID
 40
1.0
  9
$TEXTSTYLE
  7
YOKO
  9
$CLAYER
  8
245
  9
$CELTYPE
  6
BYLAYER
  9
$CECOLOR
 62
   256
  9
$CELTSCALE
 40
1.0
  9
$DELOBJ
 70
     1
  9
$DISPSILH
 70
     0
  9
$DIMSCALE
 40
1.0
  9
$DIMASZ
 40
2.0
  9
$DIMEXO
 40
2.0
  9
$DIMDLI
 40
2.5
  9
$DIMRND
 40
0.0
  9
$DIMDLE
 40
0.0
  9
$DIMEXE
 40
2.0
  9
$DIMTP
 40
0.0
  9
$DIMTM
 40
0.0
  9
$DIMTXT
 40
4.0
  9
$DIMCEN
 40
0.0
  9
$DIMTSZ
 40
0.0
  9
$DIMTOL
 70
     0
  9
$DIMLIM
 70
     0
  9
$DIMTIH
 70
     0
  9
$DIMTOH
 70
     0
  9
$DIMSE1
 70
     0
  9
$DIMSE2
 70
     0
  9
$DIMTAD
 70
     3
  9
$DIMZIN
 70
     8
  9
$DIMBLK
  1

  9
$DIMASO
 70
     1
  9
$DIMSHO
 70
     1
  9
$DIMPOST
  1

  9
$DIMAPOST
  1

  9
$DIMALT
 70
     0
  9
$DIMALTD
 70
     2
  9
$DIMALTF
 40
25.4
  9
$DIMLFAC
 40
1.0
  9
$DIMTOFL
 70
     1
  9
$DIMTVP
 40
0.0
  9
$DIMTIX
 70
     1
  9
$DIMSOXD
 70
     0
  9
$DIMSAH
 70
     1
  9
$DIMBLK1
  1
OPEN
  9
$DIMBLK2
  1
OPEN
  9
$DIMSTYLE
  2
BIGT
  9
$DIMCLRD
 70
   256
  9
$DIMCLRE
 70
   256
  9
$DIMCLRT
 70
    40
  9
$DIMTFAC
 40
1.0
  9
$DIMGAP
 40
1.0
  9
$DIMJUST
 70
     0
  9
$DIMSD1
 70
     0
  9
$DIMSD2
 70
     0
  9
$DIMTOLJ
 70
     1
  9
$DIMTZIN
 70
     8
  9
$DIMALTZ
 70
     0
  9
$DIMALTTZ
 70
     0
  9
$DIMFIT
 70
     3
  9
$DIMUPT
 70
     0
  9
$DIMUNIT
 70
     2
  9
$DIMDEC
 70
     3
  9
$DIMTDEC
 70
     3
  9
$DIMALTU
 70
     2
  9
$DIMALTTD
 70
     2
  9
$DIMTXSTY
  7
STANDARD
  9
$DIMAUNIT
 70
     0
  9
$LUNITS
 70
     2
  9
$LUPREC
 70
     3
  9
$SKETCHINC
 40
1.0
  9
$FILLETRAD
 40
8.0
  9
$AUNITS
 70
     0
  9
$AUPREC
 70
     3
  9
$MENU
  1
.
  9
$ELEVATION
 40
0.0
  9
$PELEVATION
 40
0.0
  9
$THICKNESS
 40
0.0
  9
$LIMCHECK
 70
     0
  9
$BLIPMODE
 70
     0
  9
$CHAMFERA
 40
10.0
  9
$CHAMFERB
 40
10.0
  9
$CHAMFERC
 40
0.0
  9
$CHAMFERD
 40
0.0
  9
$SKPOLY
 70
     0
  9
$TDCREATE
 40
2454970.473423391
  9
$TDUPDATE
 40
2455173.656995798
  9
$TDINDWG
 40
0.0849196991
  9
$TDUSRTIMER
 40
0.0849196991
  9
$USRTIMER
 70
     1
  9
$ANGBASE
 50
0.0
  9
$ANGDIR
 70
     0
  9
$PDMODE
 70
    35
  9
$PDSIZE
 40
-5.0
  9
$PLINEWID
 40
0.0
  9
$COORDS
 70
     0
  9
$SPLFRAME
 70
     0
  9
$SPLINETYPE
 70
     6
  9
$SPLINESEGS
 70
     8
  9
$ATTDIA
 70
     0
  9
$ATTREQ
 70
     1
  9
$HANDLING
 70
-16383
  9
$HANDSEED
  5
1324
  9
$SURFTAB1
 70
     6
  9
$SURFTAB2
 70
     6
  9
$SURFTYPE
 70
     6
  9
$SURFU
 70
     6
  9
$SURFV
 70
     6
  9
$UCSNAME
  2

  9
$UCSORG
 10
0.0
 20
0.0
 30
0.0
  9
$UCSXDIR
 10
1.0
 20
0.0
 30
0.0
  9
$UCSYDIR
 10
0.0
 20
1.0
 30
0.0
  9
$PUCSNAME
  2

  9
$PUCSORG
 10
0.0
 20
0.0
 30
0.0
  9
$PUCSXDIR
 10
1.0
 20
0.0
 30
0.0
  9
$PUCSYDIR
 10
0.0
 20
1.0
 30
0.0
  9
$USERI1
 70
     1
  9
$USERI2
 70
     0
  9
$USERI3
 70
     0
  9
$USERI4
 70
     0
  9
$USERI5
 70
     0
  9
$USERR1
 40
0.0
  9
$USERR2
 40
0.0
  9
$USERR3
 40
0.0
  9
$USERR4
 40
0.0
  9
$USERR5
 40
0.0
  9
$WORLDVIEW
 70
     1
  9
$SHADEDGE
 70
     3
  9
$SHADEDIF
 70
    70
  9
$TILEMODE
 70
     1
  9
$MAXACTVP
 70
    16
  9
$PINSBASE
 10
0.0
 20
0.0
 30
0.0
  9
$PLIMCHECK
 70
     0
  9
$PEXTMIN
 10
1.00000000E+20
 20
1.00000000E+20
 30
1.00000000E+20
  9
$PEXTMAX
 10
-1.00000000E+20
 20
-1.00000000E+20
 30
-1.00000000E+20
  9
$PLIMMIN
 10
0.0
 20
0.0
  9
$PLIMMAX
 10
420.0
 20
297.0
  9
$UNITMODE
 70
     0
  9
$VISRETAIN
 70
     0
  9
$PLINEGEN
 70
     0
  9
$PSLTSCALE
 70
     1
  9
$TREEDEPTH
 70
  3020
  9
$PICKSTYLE
 70
     0
  9
$CMLSTYLE
  2
STANDARD
  9
$CMLJUST
 70
     0
  9
$CMLSCALE
 40
1.0
  9
$PROXYGRAPHICS
 70
     1
  9
$MEASUREMENT
 70
     1
  0
ENDSEC
  0
SECTION
  2
CLASSES
  0
CLASS
  1
XRECORD
  2
AcDbXrecord
  3
AutoCAD 2000
 90
        0
280
     0
281
     0
  0
CLASS
  1
ACDBDICTIONARYWDFLT
  2
AcDbDictionaryWithDefault
  3
AutoCAD 2000
 90
        0
280
     0
281
     0
  0
CLASS
  1
ACDBPLACEHOLDER
  2
AcDbPlaceHolder
  3
AutoCAD 2000
 90
        0
280
     0
281
     0
  0
CLASS
  1
LAYOUT
  2
AcDbLayout
  3
AutoCAD 2000
 90
        0
280
     0
281
     0
  0
CLASS
  1
PLOTSETTINGS
  2
AcDbPlotSettings
  3
AutoCAD 2000
 90
        0
280
     0
281
     0
  0
CLASS
  1
LONG_TRANSACTION
  2
AcDbLongTransaction
  3
AutoCAD 2000
 90
        0
280
     0
281
     0
  0
CLASS
  1
LWPOLYLINE
  2
AcDbPolyline
  3
AutoCAD 2000
 90
        0
280
     0
281
     1
  0
CLASS
  1
HATCH
  2
AcDbHatch
  3
AutoCAD 2000
 90
        0
280
     0
281
     1
  0
CLASS
  1
XRECORD
  2
AcDbXrecord
  3
AutoCAD 2000
 90
        0
280
     0
281
     0
  0
CLASS
  1
LONG_TRANSACTION
  2
AcDbLongTransaction
  3
AutoCAD 2000
 90
        0
280
     0
281
     0
  0
CLASS
  1
LWPOLYLINE
  2
AcDbPolyline
  3
AutoCAD 2000
 90
        0
280
     0
281
     1
  0
CLASS
  1
HATCH
  2
AcDbHatch
  3
AutoCAD 2000
 90
        0
280
     0
281
     1
  0
CLASS
  1
XRECORD
  2
AcDbXrecord
  3
AutoCAD 2000
 90
        0
280
     0
281
     0
  0
CLASS
  1
LONG_TRANSACTION
  2
AcDbLongTransaction
  3
AutoCAD 2000
 90
        0
280
     0
281
     0
  0
CLASS
  1
LWPOLYLINE
  2
AcDbPolyline
  3
AutoCAD 2000
 90
        0
280
     0
281
     1
  0
CLASS
  1
HATCH
  2
AcDbHatch
  3
AutoCAD 2000
 90
        0
280
     0
281
     1
  0
CLASS
  1
XRECORD
  2
AcDbXrecord
  3
AutoCAD 2000
 90
        0
280
     0
281
     0
  0
CLASS
  1
LONG_TRANSACTION
  2
AcDbLongTransaction
  3
AutoCAD 2000
 90
        0
280
     0
281
     0
  0
CLASS
  1
LWPOLYLINE
  2
AcDbPolyline
  3
AutoCAD 2000
 90
        0
280
     0
281
     1
  0
CLASS
  1
HATCH
  2
AcDbHatch
  3
AutoCAD 2000
 90
        0
280
     0
281
     1
  0
CLASS
  1
XRECORD
  2
AcDbXrecord
  3
AutoCAD 2000
 90
        0
280
     0
281
     0
  0
ENDSEC
  0
SECTION
  2
TABLES
  0
TABLE
  2
VPORT
  5
8
330
0
100
AcDbSymbolTable
 70
     3
  0
VPORT
  5
12FF
330
8
100
AcDbSymbolTableRecord
100
AcDbViewportTableRecord
  2
*ACTIVE
 70
     0
 10
0.0
 20
0.0
 11
1.0
 21
1.0
 12
42.51004118
 22
19.90045419
 13
0.0
 23
0.0
 14
7.0
 24
7.0
 15
7.0
 25
7.0
 16
0.0
 26
0.0
 36
1.0
 17
0.0
 27
0.0
 37
0.0
 40
114.47964497
 41
1.43184713
 42
50.0
 43
0.0
 44
0.0
 50
0.0
 51
0.0
 71
     0
 72
  2000
 73
     1
 74
     0
 75
     0
 76
     0
 77
     0
 78
     0
  0
ENDTAB
  0
TABLE
  2
LTYPE
  5
5
330
0
100
AcDbSymbolTable
 70
     3
  0
LTYPE
  5
14
330
5
100
AcDbSymbolTableRecord
100
AcDbLinetypeTableRecord
  2
BYBLOCK
 70
     0
  3

 72
    65
 73
     0
 40
0.0
  0
LTYPE
  5
15
330
5
100
AcDbSymbolTableRecord
100
AcDbLinetypeTableRecord
  2
BYLAYER
 70
     0
  3

 72
    65
 73
     0
 40
0.0
  0
LTYPE
  5
16
330
5
100
AcDbSymbolTableRecord
100
AcDbLinetypeTableRecord
  2
CONTINUOUS
 70
     0
  3
Solid line
 72
    65
 73
     0
 40
0.0
  0
LTYPE
  5
258
330
5
100
AcDbSymbolTableRecord
100
AcDbLinetypeTableRecord
  2
CENTER2
 70
     0
  3
___ _ ___ _ ___ _ ___ _ ___ _ ___ _ ___ _ ___ _
 72
    65
 73
     4
 40
1.125
 49
0.75
 74
     0
 49
-0.125
 74
     0
 49
0.125
 74
     0
 49
-0.125
 74
     0
  0
LTYPE
  5
25C
330
5
100
AcDbSymbolTableRecord
100
AcDbLinetypeTableRecord
  2
HIDDEN2
 70
     0
  3
_ _ _ _ _ _ _ _ _ _ _ _ _ _ _ _ _ _ _ _ _ _ _ _
 72
    65
 73
     2
 40
0.1875
 49
0.125
 74
     0
 49
-0.0625
 74
     0
  0
ENDTAB
  0
TABLE
  2
LAYER
  5
2
330
0
100
AcDbSymbolTable
 70
    10
  0
LAYER
  5
F
330
2
100
AcDbSymbolTableRecord
100
AcDbLayerTableRecord
  2
0
 70
     0
 62
     7
  6
CONTINUOUS
  0
LAYER
  5
1AA
330
2
100
AcDbSymbolTableRecord
100
AcDbLayerTableRecord
  2
240
 70
     0
 62
     4
  6
CONTINUOUS
  0
LAYER
  5
1AB
330
2
100
AcDbSymbolTableRecord
100
AcDbLayerTableRecord
  2
241
 70
     0
 62
   211
  6
CONTINUOUS
  0
LAYER
  5
1AC
330
2
100
AcDbSymbolTableRecord
100
AcDbLayerTableRecord
  2
242
 70
     0
 62
     3
  6
CONTINUOUS
  0
LAYER
  5
1AF
330
2
100
AcDbSymbolTableRecord
100
AcDbLayerTableRecord
  2
245
 70
     0
 62
     2
  6
CENTER2
  0
LAYER
  5
21E
330
2
100
AcDbSymbolTableRecord
100
AcDbLayerTableRecord
  2
250
 70
     0
 62
     3
  6
CONTINUOUS
  0
LAYER
  5
21F
330
2
100
AcDbSymbolTableRecord
100
AcDbLayerTableRecord
  2
251
 70
     0
 62
    40
  6
CONTINUOUS
  0
LAYER
  5
5C4
330
2
100
AcDbSymbolTableRecord
100
AcDbLayerTableRecord
  2
DEFPOINTS
 70
     0
 62
     7
  6
CONTINUOUS
  0
ENDTAB
  0
TABLE
  2
STYLE
  5
3
330
0
100
AcDbSymbolTable
 70
     2
  0
STYLE
  5
10
330
3
100
AcDbSymbolTableRecord
100
AcDbTextStyleTableRecord
  2
STANDARD
 70
     0
 40
0.0
 41
1.0
 50
0.0
 71
     0
 42
3.0
  3
romans.shx
  4
BIGFONT.SHX
  0
STYLE
  5
339
330
3
100
AcDbSymbolTableRecord
100
AcDbTextStyleTableRecord
  2
YOKO
 70
     0
 40
0.0
 41
1.0
 50
0.0
 71
     0
 42
3.0
  3
romans.shx
  4
extfont.shx
  0
ENDTAB
  0
TABLE
  2
VIEW
  5
6
330
0
100
AcDbSymbolTable
 70
     0
  0
ENDTAB
  0
TABLE
  2
UCS
  5
7
330
0
100
AcDbSymbolTable
 70
     0
  0
ENDTAB
  0
TABLE
  2
APPID
  5
9
330
0
100
AcDbSymbolTable
 70
     9
  0
APPID
  5
11
330
9
100
AcDbSymbolTableRecord
100
AcDbRegAppTableRecord
  2
ACAD
 70
     0
  0
APPID
  5
1B1
330
9
100
AcDbSymbolTableRecord
100
AcDbRegAppTableRecord
  2
GLOBAL
 70
     0
  0
APPID
  5
2A4
330
9
100
AcDbSymbolTableRecord
100
AcDbRegAppTableRecord
  2
DETAIL
 70
     0
  0
APPID
  5
5FD
330
9
100
AcDbSymbolTableRecord
100
AcDbRegAppTableRecord
  2
GRPNAME
 70
     0
  0
APPID
  5
5FE
330
9
100
AcDbSymbolTableRecord
100
AcDbRegAppTableRecord
  2
GPARA
 70
     0
  0
APPID
  5
6C4
330
9
100
AcDbSymbolTableRecord
100
AcDbRegAppTableRecord
  2
DCO15
 70
     0
  0
APPID
  5
6C5
330
9
100
AcDbSymbolTableRecord
100
AcDbRegAppTableRecord
  2
ITEMNAME
 70
     0
  0
APPID
  5
6C6
330
9
100
AcDbSymbolTableRecord
100
AcDbRegAppTableRecord
  2
GRADE_0
 70
     0
  0
APPID
  5
BE9
330
9
100
AcDbSymbolTableRecord
100
AcDbRegAppTableRecord
  2
CONTENTBLOCKICON
 70
     0
  0
ENDTAB
  0
TABLE
  2
DIMSTYLE
  5
A
330
0
100
AcDbSymbolTable
 70
     2
  0
DIMSTYLE
105
725
102
{ACAD_REACTORS
330
CFF
330
FED
102
}
330
A
100
AcDbSymbolTableRecord
100
AcDbDimStyleTableRecord
  2
BIGT
 70
     0
  3

  4

  5

  6
OPEN
  7
OPEN
 40
1.0
 41
2.23
 42
0.5
 43
2.5
 44
1.0
 45
0.0
 46
0.0
 47
0.0
 48
0.0
140
2.8
141
0.0
142
0.0
143
25.4
144
1.0
145
0.0
146
1.0
147
1.0
 71
     0
 72
     0
 73
     0
 74
     0
 75
     0
 76
     0
 77
     3
 78
     8
170
     0
171
     2
172
     1
173
     1
174
     1
175
     0
176
   256
177
   256
178
    40
270
     2
271
     3
272
     3
273
     2
274
     2
340
10
275
     0
280
     0
281
     0
282
     0
283
     1
284
     8
285
     0
286
     0
287
     3
288
     0
  0
DIMSTYLE
105
78F
102
{ACAD_REACTORS
330
8CF
330
FE1
330
1139
102
}
330
A
100
AcDbSymbolTableRecord
100
AcDbDimStyleTableRecord
  2
BIGT$0
 70
     0
  3

  4
"
  5
OPEN
  6

  7

 40
1.0
 41
2.23
 42
0.5
 43
7.0
 44
1.0
 45
0.0
 46
0.0
 47
0.1
 48
0.1
140
3.0
141
0.0
142
0.0
143
0.0393701
144
1.0
145
0.0
146
0.71
147
1.0
 71
     0
 72
     0
 73
     0
 74
     0
 75
     0
 76
     0
 77
     3
 78
     8
170
     0
171
     2
172
     1
173
     0
174
     0
175
     0
176
     3
177
     3
178
    40
270
     2
271
     3
272
     3
273
     2
274
     2
340
10
275
     0
280
     0
281
     0
282
     0
283
     1
284
     8
285
     0
286
     0
287
     3
288
     0
  0
ENDTAB
  0
TABLE
  2
BLOCK_RECORD
  5
1
330
0
100
AcDbSymbolTable
 70
     9
  0
BLOCK_RECORD
  5
1A
102
{ACAD_XDICTIONARY
360
BE7
102
}
330
1
100
AcDbSymbolTableRecord
100
AcDbBlockTableRecord
  2
*MODEL_SPACE
  0
BLOCK_RECORD
  5
17
102
{ACAD_XDICTIONARY
360
BE5
102
}
330
1
100
AcDbSymbolTableRecord
100
AcDbBlockTableRecord
  2
*PAPER_SPACE
  0
BLOCK_RECORD
  5
594
330
1
100
AcDbSymbolTableRecord
100
AcDbBlockTableRecord
  2
_OPEN
  0
BLOCK_RECORD
  5
6E3
330
1
100
AcDbSymbolTableRecord
100
AcDbBlockTableRecord
  2
矢印なし
  0
BLOCK_RECORD
  5
9F4
330
1
100
AcDbSymbolTableRecord
100
AcDbBlockTableRecord
  2
*D2
  0
BLOCK_RECORD
  5
D3D
330
1
100
AcDbSymbolTableRecord
100
AcDbBlockTableRecord
  2
*D3
  0
BLOCK_RECORD
  5
10E7
330
1
100
AcDbSymbolTableRecord
100
AcDbBlockTableRecord
  2
*D4
  0
BLOCK_RECORD
  5
10F3
330
1
100
AcDbSymbolTableRecord
100
AcDbBlockTableRecord
  2
*D5
  0
BLOCK_RECORD
  5
113A
330
1
100
AcDbSymbolTableRecord
100
AcDbBlockTableRecord
  2
*D6
  0
BLOCK_RECORD
  5
116B
330
1
100
AcDbSymbolTableRecord
100
AcDbBlockTableRecord
  2
1
1001
CONTENTBLOCKICON
1071
        0
1004
2800000020000000200000000100080000000000000400000000000000000000000000000000000000000000000080000080000000808000800000008000800080800000C0C0C000C0DCC000F0CAA6000020400000206000002080000020A0000020C0000020E00000400000004020000040400000406000004080000040A0
1004
000040C0000040E00000600000006020000060400000606000006080000060A0000060C0000060E00000800000008020000080400000806000008080000080A0000080C0000080E00000A0000000A0200000A0400000A0600000A0800000A0A00000A0C00000A0E00000C0000000C0200000C0400000C0600000C0800000C0
1004
A00000C0C00000C0E00000E0000000E0200000E0400000E0600000E0800000E0A00000E0C00000E0E00040000000400020004000400040006000400080004000A0004000C0004000E00040200000402020004020400040206000402080004020A0004020C0004020E000404000004040200040404000404060004040800040
1004
40A0004040C0004040E00040600000406020004060400040606000406080004060A0004060C0004060E00040800000408020004080400040806000408080004080A0004080C0004080E00040A0000040A0200040A0400040A0600040A0800040A0A00040A0C00040A0E00040C0000040C0200040C0400040C0600040C08000
1004
40C0A00040C0C00040C0E00040E0000040E0200040E0400040E0600040E0800040E0A00040E0C00040E0E00080000000800020008000400080006000800080008000A0008000C0008000E00080200000802020008020400080206000802080008020A0008020C0008020E00080400000804020008040400080406000804080
1004
008040A0008040C0008040E00080600000806020008060400080606000806080008060A0008060C0008060E00080800000808020008080400080806000808080008080A0008080C0008080E00080A0000080A0200080A0400080A0600080A0800080A0A00080A0C00080A0E00080C0000080C0200080C0400080C0600080C0
1004
800080C0A00080C0C00080C0E00080E0000080E0200080E0400080E0600080E0800080E0A00080E0C00080E0E000C0000000C0002000C0004000C0006000C0008000C000A000C000C000C000E000C0200000C0202000C0204000C0206000C0208000C020A000C020C000C020E000C0400000C0402000C0404000C0406000C0
1004
408000C040A000C040C000C040E000C0600000C0602000C0604000C0606000C0608000C060A000C060C000C060E000C0800000C0802000C0804000C0806000C0808000C080A000C080C000C080E000C0A00000C0A02000C0A04000C0A06000C0A08000C0A0A000C0A0C000C0A0E000C0C00000C0C02000C0C04000C0C06000
1004
C0C08000C0C0A000F0FBFF00A4A0A000808080000000FF0000FF000000FFFF00FF000000FF00FF00FFFF0000FFFFFF0000000000000000000000000000000000000000000000000000000000000000000000000000000000000000000000000000000000000000000000000000000000000000000000000000000000000000
1004
00000000000000000000000000000000000000000000000000000000000000000000000000000000000000000000000000000000000000000000000000000000000000000000000000000000000000000000000000000000000000000000000000000000000000000000000000000000000000000000000000000000000000
1004
00000000000000000000000000000000000000000000000000000000000000000000000000000000000000000000000000000000000000000000000000000000000000000000000000000000000000000000000000000000000000FEFEFEFEFE000000000000000000000000000000000000000000000000000000FE00E7E7
1004
FE000000000000000000000000000000000000000000000000FEFEFEFE00E7E7FEFEFEFEFEFEFEFEFEFEFEFEFE00FEFEFE00000000FEFAFEFE000000E700E7E7FE0000000000000000000000FEFEE700FE00000000E7000000000000E700E7E7FE0000000000000000000000FEE7E7E7E700000000E7000000000000E700E7
1004
E7FE0000000000000000000000FEE7E7E7E700000000E7000000000000E7000000FE0000000000000000000000FEFEE700E7000000FBE7FBFBFBFBFBFBE7FBFBFBFEFBFBFBFBFBFBFBFBE7FBFBFEFEE7FBE7FB000000E7000000000000E700E7E7FE0000000000000000E7E7E7FEE7E7E7E700000000E7000000000000E700
1004
E7E7FE0000000000000000000000FEE7E7E7E700000000E7000000000000E700E7E7FE0000000000000000000000FEFEE700FE00000000FEFEFEFEFEFEFEFE00E7E7FEFEFEFEFEFEFEFEFEFEFEFEFE00FEFEFE0000000000000000000000FE00E7E7FE000000000000000000000000000000000000000000000000000000FE
1004
FEFEFEFE000000000000000000000000000000000000000000000000000000000000000000000000000000000000000000000000000000000000000000000000000000000000000000000000000000000000000000000000000000000000000000000000000000000000000000000000000000000000000000000000000000
1004
00000000000000000000000000000000000000000000000000000000000000000000000000000000000000000000000000000000000000000000000000000000000000000000000000000000000000000000000000000000000000000000000000000000000000000000000000000000000000000000000000000000000000
1004
0000000000000000000000000000000000000000000000000000000000000000000000000000000000000000000000000000000000000000
  0
ENDTAB
  0
ENDSEC
  0
SECTION
  2
BLOCKS
  0
BLOCK
  5
1B
330
1A
100
AcDbEntity
  8
0
100
AcDbBlockBegin
  2
*MODEL_SPACE
 70
     0
 10
0.0
 20
0.0
 30
0.0
  3
*MODEL_SPACE
  1

  0
ENDBLK
  5
1C
330
1A
100
AcDbEntity
  8
0
100
AcDbBlockEnd
  0
BLOCK
  5
18
330
17
100
AcDbEntity
 67
     1
  8
0
100
AcDbBlockBegin
  2
*PAPER_SPACE
 70
     0
 10
0.0
 20
0.0
 30
0.0
  3
*PAPER_SPACE
  1

  0
ENDBLK
  5
19
330
17
100
AcDbEntity
 67
     1
  8
0
100
AcDbBlockEnd
  0
BLOCK
  5
598
330
594
100
AcDbEntity
  8
0
100
AcDbBlockBegin
  2
_OPEN
 70
     0
 10
0.0
 20
0.0
 30
0.0
  3
_OPEN
  1

  0
LINE
  5
595
330
594
100
AcDbEntity
  8
0
  6
BYBLOCK
 62
     0
100
AcDbLine
 10
-1.0
 20
0.16666667
 30
0.0
 11
0.0
 21
0.0
 31
0.0
  0
LINE
  5
596
330
594
100
AcDbEntity
  8
0
  6
BYBLOCK
 62
     0
100
AcDbLine
 10
-1.0
 20
-0.16666667
 30
0.0
 11
0.0
 21
0.0
 31
0.0
  0
LINE
  5
597
330
594
100
AcDbEntity
  8
0
  6
BYBLOCK
 62
     0
100
AcDbLine
 10
0.0
 20
0.0
 30
0.0
 11
-1.0
 21
0.0
 31
0.0
  0
ENDBLK
  5
599
330
594
100
AcDbEntity
  8
0
100
AcDbBlockEnd
  0
BLOCK
  5
6E4
330
6E3
100
AcDbEntity
  8
0
100
AcDbBlockBegin
  2
矢印なし
 70
     0
 10
0.0
 20
0.0
 30
0.0
  3
矢印なし
  1

  0
ENDBLK
  5
6E5
330
6E3
100
AcDbEntity
  8
0
100
AcDbBlockEnd
  0
BLOCK
  5
9FE
330
9F4
100
AcDbEntity
  8
0
100
AcDbBlockBegin
  2
*D2
 70
     1
 10
0.0
 20
0.0
 30
0.0
  3
*D2
  1

  0
LINE
  5
1162
330
9F4
100
AcDbEntity
  8
250
  6
CONTINUOUS
 62
     3
100
AcDbLine
 10
0.0
 20
31.4925
 30
0.0
 11
0.0
 21
53.5
 31
0.0
  0
LINE
  5
1163
330
9F4
100
AcDbEntity
  8
250
  6
CONTINUOUS
 62
     3
100
AcDbLine
 10
105.0
 20
19.66862915
 30
0.0
 11
105.0
 21
53.5
 31
0.0
  0
LINE
  5
1164
330
9F4
100
AcDbEntity
  8
250
  6
CONTINUOUS
 62
     3
100
AcDbLine
 10
2.23
 20
52.5
 30
0.0
 11
102.77
 21
52.5
 31
0.0
  0
INSERT
  5
1165
330
9F4
100
AcDbEntity
  8
250
  6
CONTINUOUS
 62
     3
100
AcDbBlockReference
  2
_OPEN
 10
0.0
 20
52.5
 30
0.0
 41
2.23
 42
2.23
 43
2.23
 50
180.0
  0
INSERT
  5
1166
330
9F4
100
AcDbEntity
  8
250
  6
CONTINUOUS
 62
     3
100
AcDbBlockReference
  2
_OPEN
 10
105.0
 20
52.5
 30
0.0
 41
2.23
 42
2.23
 43
2.23
  0
MTEXT
  5
1167
330
9F4
100
AcDbEntity
  8
250
  6
CONTINUOUS
 62
    40
100
AcDbMText
 10
52.5
 20
55.0
 30
0.0
 40
3.0
 41
0.0
 71
     5
 72
     1
  1
\A1;105
1001
ACAD
1000
MTEXTBEGIN
1070
    73
1070
     1
1070
    44
1040
1.0
1070
    74
1070
     0
1000
MTEXTEND
1000
MTEXTBEGIN
1070
    73
1070
     1
1070
    44
1040
1.0
1070
    74
1070
     0
1000
MTEXTEND
  0
POINT
  5
1168
330
9F4
100
AcDbEntity
  8
DEFPOINTS
  6
CONTINUOUS
 62
     0
100
AcDbPoint
 10
0.0
 20
30.9925
 30
0.0
  0
POINT
  5
1169
330
9F4
100
AcDbEntity
  8
DEFPOINTS
  6
CONTINUOUS
 62
     0
100
AcDbPoint
 10
105.0
 20
19.16862915
 30
0.0
  0
POINT
  5
116A
330
9F4
100
AcDbEntity
  8
DEFPOINTS
  6
CONTINUOUS
 62
     0
100
AcDbPoint
 10
105.0
 20
52.5
 30
0.0
  0
ENDBLK
  5
9FF
330
9F4
100
AcDbEntity
  8
0
100
AcDbBlockEnd
  0
BLOCK
  5
D47
330
D3D
100
AcDbEntity
  8
0
100
AcDbBlockBegin
  2
*D3
 70
     1
 10
0.0
 20
0.0
 30
0.0
  3
*D3
  1

  0
LINE
  5
12D1
330
D3D
100
AcDbEntity
  8
250
  6
CONTINUOUS
100
AcDbLine
 10
9.0
 20
1.5
 30
0.0
 11
9.0
 21
46.5
 31
0.0
  0
LINE
  5
12D2
330
D3D
100
AcDbEntity
  8
250
  6
CONTINUOUS
100
AcDbLine
 10
105.0
 20
19.66862915
 30
0.0
 11
105.0
 21
46.5
 31
0.0
  0
LINE
  5
12D3
330
D3D
100
AcDbEntity
  8
250
  6
CONTINUOUS
100
AcDbLine
 10
11.23
 20
45.5
 30
0.0
 11
102.77
 21
45.5
 31
0.0
  0
INSERT
  5
12D4
330
D3D
100
AcDbEntity
  8
250
  6
CONTINUOUS
100
AcDbBlockReference
  2
_OPEN
 10
9.0
 20
45.5
 30
0.0
 41
2.23
 42
2.23
 43
2.23
 50
180.0
  0
INSERT
  5
12D5
330
D3D
100
AcDbEntity
  8
250
  6
CONTINUOUS
100
AcDbBlockReference
  2
_OPEN
 10
105.0
 20
45.5
 30
0.0
 41
2.23
 42
2.23
 43
2.23
  0
MTEXT
  5
12D6
330
D3D
100
AcDbEntity
  8
250
  6
CONTINUOUS
 62
    40
100
AcDbMText
 10
57.0
 20
47.9
 30
0.0
 40
2.8
 41
0.0
 71
     5
 72
     1
  1
\A1;（max.96）
1001
ACAD
1000
MTEXTBEGIN
1070
    73
1070
     1
1070
    44
1040
1.0
1070
    74
1070
     0
1000
MTEXTEND
  0
POINT
  5
12D7
330
D3D
100
AcDbEntity
  8
DEFPOINTS
  6
CONTINUOUS
 62
     0
100
AcDbPoint
 10
9.0
 20
1.0
 30
0.0
  0
POINT
  5
12D8
330
D3D
100
AcDbEntity
  8
DEFPOINTS
  6
CONTINUOUS
 62
     0
100
AcDbPoint
 10
105.0
 20
19.16862915
 30
0.0
  0
POINT
  5
12D9
330
D3D
100
AcDbEntity
  8
DEFPOINTS
  6
CONTINUOUS
 62
     0
100
AcDbPoint
 10
105.0
 20
45.5
 30
0.0
  0
ENDBLK
  5
D48
330
D3D
100
AcDbEntity
  8
0
100
AcDbBlockEnd
  0
BLOCK
  5
10F1
330
10E7
100
AcDbEntity
  8
0
100
AcDbBlockBegin
  2
*D4
 70
     1
 10
0.0
 20
0.0
 30
0.0
  3
*D4
  1

  0
LINE
  5
10FE
330
10E7
100
AcDbEntity
  8
250
  6
CONTINUOUS
 62
     3
100
AcDbLine
 10
103.62720779
 20
-21.0
 30
0.0
 11
124.0
 21
-21.0
 31
0.0
  0
LINE
  5
10FF
330
10E7
100
AcDbEntity
  8
250
  6
CONTINUOUS
 62
     3
100
AcDbLine
 10
103.62720779
 20
21.0
 30
0.0
 11
124.0
 21
21.0
 31
0.0
  0
LINE
  5
1100
330
10E7
100
AcDbEntity
  8
250
  6
CONTINUOUS
 62
     3
100
AcDbLine
 10
123.0
 20
-18.77
 30
0.0
 11
123.0
 21
18.77
 31
0.0
  0
INSERT
  5
1101
330
10E7
100
AcDbEntity
  8
250
  6
CONTINUOUS
 62
     3
100
AcDbBlockReference
  2
_OPEN
 10
123.0
 20
-21.0
 30
0.0
 41
2.23
 42
2.23
 43
2.23
 50
270.0
  0
INSERT
  5
1102
330
10E7
100
AcDbEntity
  8
250
  6
CONTINUOUS
 62
     3
100
AcDbBlockReference
  2
_OPEN
 10
123.0
 20
21.0
 30
0.0
 41
2.23
 42
2.23
 43
2.23
 50
90.0
  0
MTEXT
  5
1103
330
10E7
100
AcDbEntity
  8
250
  6
CONTINUOUS
 62
    40
100
AcDbMText
 10
120.5
 20
0.0
 30
0.0
 40
3.0
 41
0.0
 71
     5
 72
     1
  1
\A1;{\H3;\U+2205}42
 11
0.0
 21
1.0
 31
0.0
1001
ACAD
1000
MTEXTBEGIN
1070
    73
1070
     1
1070
    44
1040
1.0
1070
    74
1070
     0
1000
MTEXTEND
1000
MTEXTBEGIN
1070
    73
1070
     1
1070
    44
1040
1.0
1070
    74
1070
     0
1000
MTEXTEND
  0
POINT
  5
1104
330
10E7
100
AcDbEntity
  8
DEFPOINTS
  6
CONTINUOUS
 62
     0
100
AcDbPoint
 10
103.12720779
 20
-21.0
 30
0.0
  0
POINT
  5
1105
330
10E7
100
AcDbEntity
  8
DEFPOINTS
  6
CONTINUOUS
 62
     0
100
AcDbPoint
 10
103.12720779
 20
21.0
 30
0.0
  0
POINT
  5
1106
330
10E7
100
AcDbEntity
  8
DEFPOINTS
  6
CONTINUOUS
 62
     0
100
AcDbPoint
 10
123.0
 20
21.0
 30
0.0
  0
ENDBLK
  5
10F2
330
10E7
100
AcDbEntity
  8
0
100
AcDbBlockEnd
  0
BLOCK
  5
10FC
330
10F3
100
AcDbEntity
  8
0
100
AcDbBlockBegin
  2
*D5
 70
     1
 10
0.0
 20
0.0
 30
0.0
  3
*D5
  1

  0
LINE
  5
1107
330
10F3
100
AcDbEntity
  8
250
  6
CONTINUOUS
100
AcDbLine
 10
105.5
 20
8.0
 30
0.0
 11
117.0
 21
8.0
 31
0.0
  0
LINE
  5
1108
330
10F3
100
AcDbEntity
  8
250
  6
CONTINUOUS
100
AcDbLine
 10
116.0
 20
-6.0
 30
0.0
 11
116.0
 21
6.0
 31
0.0
  0
INSERT
  5
1109
330
10F3
100
AcDbEntity
  8
250
  6
CONTINUOUS
100
AcDbBlockReference
  2
矢印なし
 10
116.0
 20
-8.0
 30
0.0
 41
2.0
 42
2.0
 43
2.0
 50
270.0
  0
INSERT
  5
110A
330
10F3
100
AcDbEntity
  8
250
  6
CONTINUOUS
100
AcDbBlockReference
  2
_OPEN
 10
116.0
 20
8.0
 30
0.0
 41
2.0
 42
2.0
 43
2.0
 50
90.0
  0
MTEXT
  5
110B
330
10F3
100
AcDbEntity
  8
250
  6
CONTINUOUS
 62
    40
100
AcDbMText
 10
113.6
 20
-2.39200615
 30
0.0
 40
2.8
 41
0.0
 71
     5
 72
     1
  1
\A1;max.φ16
 11
0.0
 21
1.0
 31
0.0
1001
ACAD
1000
MTEXTBEGIN
1070
    73
1070
     1
1070
    44
1040
1.0
1070
    74
1070
     0
1000
MTEXTEND
1000
MTEXTBEGIN
1070
    73
1070
     1
1070
    44
1040
1.0
1070
    74
1070
     0
1000
MTEXTEND
  0
POINT
  5
110C
330
10F3
100
AcDbEntity
  8
DEFPOINTS
  6
CONTINUOUS
 62
     0
100
AcDbPoint
 10
105.0
 20
-8.0
 30
0.0
  0
POINT
  5
110D
330
10F3
100
AcDbEntity
  8
DEFPOINTS
  6
CONTINUOUS
 62
     0
100
AcDbPoint
 10
105.0
 20
8.0
 30
0.0
  0
POINT
  5
110E
330
10F3
100
AcDbEntity
  8
DEFPOINTS
  6
CONTINUOUS
 62
     0
100
AcDbPoint
 10
116.0
 20
8.0
 30
0.0
  0
ENDBLK
  5
10FD
330
10F3
100
AcDbEntity
  8
0
100
AcDbBlockEnd
  0
BLOCK
  5
1144
330
113A
100
AcDbEntity
  8
0
100
AcDbBlockBegin
  2
*D6
 70
     1
 10
0.0
 20
0.0
 30
0.0
  3
*D6
  1

  0
LINE
  5
1150
330
113A
100
AcDbEntity
  8
250
  6
CONTINUOUS
 62
     3
100
AcDbLine
 10
22.0
 20
30.9925
 30
0.0
 11
22.0
 21
39.5
 31
0.0
  0
LINE
  5
1151
330
113A
100
AcDbEntity
  8
250
  6
CONTINUOUS
 62
     3
100
AcDbLine
 10
105.0
 20
19.66862915
 30
0.0
 11
105.0
 21
39.5
 31
0.0
  0
LINE
  5
1152
330
113A
100
AcDbEntity
  8
250
  6
CONTINUOUS
 62
     3
100
AcDbLine
 10
24.23
 20
38.5
 30
0.0
 11
102.77
 21
38.5
 31
0.0
  0
INSERT
  5
1153
330
113A
100
AcDbEntity
  8
250
  6
CONTINUOUS
 62
     3
100
AcDbBlockReference
  2
_OPEN
 10
22.0
 20
38.5
 30
0.0
 41
2.23
 42
2.23
 43
2.23
 50
180.0
  0
INSERT
  5
1154
330
113A
100
AcDbEntity
  8
250
  6
CONTINUOUS
 62
     3
100
AcDbBlockReference
  2
_OPEN
 10
105.0
 20
38.5
 30
0.0
 41
2.23
 42
2.23
 43
2.23
  0
MTEXT
  5
1155
330
113A
100
AcDbEntity
  8
250
  6
CONTINUOUS
 62
    40
100
AcDbMText
 10
63.5
 20
41.0
 30
0.0
 40
3.0
 41
0.0
 71
     5
 72
     1
  1
\A1;83
1001
ACAD
1000
MTEXTBEGIN
1070
    73
1070
     1
1070
    44
1040
1.0
1070
    74
1070
     0
1000
MTEXTEND
1000
MTEXTBEGIN
1070
    73
1070
     1
1070
    44
1040
1.0
1070
    74
1070
     0
1000
MTEXTEND
  0
POINT
  5
1156
330
113A
100
AcDbEntity
  8
DEFPOINTS
  6
CONTINUOUS
 62
     0
100
AcDbPoint
 10
22.0
 20
30.4925
 30
0.0
  0
POINT
  5
1157
330
113A
100
AcDbEntity
  8
DEFPOINTS
  6
CONTINUOUS
 62
     0
100
AcDbPoint
 10
105.0
 20
19.16862915
 30
0.0
  0
POINT
  5
1158
330
113A
100
AcDbEntity
  8
DEFPOINTS
  6
CONTINUOUS
 62
     0
100
AcDbPoint
 10
105.0
 20
38.5
 30
0.0
  0
ENDBLK
  5
1145
330
113A
100
AcDbEntity
  8
0
100
AcDbBlockEnd
  0
BLOCK
  5
116C
330
116B
100
AcDbEntity
  8
0
100
AcDbBlockBegin
  2
1
 70
     0
 10
0.0
 20
0.0
 30
0.0
  3
1
  1

  0
LINE
  5
116E
330
116B
100
AcDbEntity
  8
240
  6
CONTINUOUS
100
AcDbLine
 10
30.0
 20
20.75
 30
0.0
 11
82.954
 21
20.75
 31
0.0
  0
LINE
  5
116F
330
116B
100
AcDbEntity
  8
240
  6
CONTINUOUS
100
AcDbLine
 10
30.0
 20
-20.75
 30
0.0
 11
82.954
 21
-20.75
 31
0.0
  0
LINE
  5
1170
330
116B
100
AcDbEntity
  8
245
  6
CENTER2
100
AcDbLine
 10
-39.0
 20
0.0
 30
0.0
 11
106.0
 21
0.0
 31
0.0
  0
LINE
  5
1171
330
116B
100
AcDbEntity
  8
240
  6
CONTINUOUS
100
AcDbLine
 10
22.0
 20
-30.4925
 30
0.0
 11
22.0
 21
30.4925
 31
0.0
  0
LINE
  5
1172
330
116B
100
AcDbEntity
  8
241
  6
CONTINUOUS
100
AcDbLine
 10
14.05
 20
8.99234142
 30
0.0
 11
14.05
 21
30.18137426
 31
0.0
  0
SPLINE
  5
1173
330
116B
100
AcDbEntity
  8
241
  6
CONTINUOUS
100
AcDbSpline
210
0.0
220
0.0
230
1.0
 70
     8
 71
     3
 72
     9
 73
     5
 74
     3
 42
0.0000000001
 43
0.0000000001
 44
0.0000000001
 40
0.0
 40
0.0
 40
0.0
 40
0.0
 40
10.74384375536299
 40
21.48768751072605
 40
21.48768751072605
 40
21.48768751072605
 40
21.48768751072605
 10
14.05000000000018
 20
30.1813742565713
 30
0.0
 10
14.94252458154622
 20
26.64986878400334
 30
0.0
 10
16.72757374463832
 20
19.58685783886741
 30
0.0
 10
14.94252458154617
 20
12.52384689373149
 30
0.0
 10
14.05000000000009
 20
8.992341421163525
 30
0.0
 11
14.05000000000018
 21
30.1813742565713
 31
0.0
 11
15.83504916309226
 21
19.58685783886744
 31
0.0
 11
14.05000000000009
 21
8.992341421163525
 31
0.0
  0
LINE
  5
1174
330
116B
100
AcDbEntity
  8
241
  6
CONTINUOUS
100
AcDbLine
 10
9.95
 20
8.99234142
 30
0.0
 11
9.95
 21
30.18137426
 31
0.0
  0
LINE
  5
1175
330
116B
100
AcDbEntity
  8
240
  6
CONTINUOUS
100
AcDbLine
 10
0.0
 20
30.9925
 30
0.0
 11
0.0
 21
-30.9925
 31
0.0
  0
SPLINE
  5
1176
330
116B
100
AcDbEntity
  8
241
  6
CONTINUOUS
100
AcDbSpline
210
0.0
220
0.0
230
1.0
 70
     8
 71
     3
 72
     9
 73
     5
 74
     3
 42
0.0000000001
 43
0.0000000001
 44
0.0000000001
 40
0.0
 40
0.0
 40
0.0
 40
0.0
 40
10.74384375536296
 40
21.48768751072607
 40
21.48768751072607
 40
21.48768751072607
 40
21.48768751072607
 10
9.9500000000001
 20
8.992341421163501
 30
0.0
 10
9.057475418454039
 20
12.52384689373144
 30
0.0
 10
7.272426255361907
 20
19.58685783886736
 30
0.0
 10
9.057475418453993
 20
26.6498687840033
 30
0.0
 10
9.950000000000043
 20
30.1813742565713
 30
0.0
 11
9.9500000000001
 21
8.992341421163501
 31
0.0
 11
8.164950836907962
 21
19.58685783886732
 31
0.0
 11
9.950000000000043
 21
30.1813742565713
 31
0.0
  0
LINE
  5
1177
330
116B
100
AcDbEntity
  8
240
  6
CONTINUOUS
100
AcDbLine
 10
-2.19993752
 20
-20.62000332
 30
0.0
 11
-36.5
 21
-19.76242639
 31
0.0
  0
LINE
  5
1178
330
116B
100
AcDbEntity
  8
240
  6
CONTINUOUS
100
AcDbLine
 10
-36.5
 20
22.56242639
 30
0.0
 11
-1.98947881
 21
23.42526525
 31
0.0
  0
LINE
  5
1179
330
116B
100
AcDbEntity
  8
240
  6
CONTINUOUS
100
AcDbLine
 10
-38.0
 20
-18.26242639
 30
0.0
 11
-38.0
 21
21.69640099
 31
0.0
  0
LINE
  5
117A
330
116B
100
AcDbEntity
  8
241
  6
CONTINUOUS
100
AcDbLine
 10
-36.5
 20
-19.76242639
 30
0.0
 11
-36.5
 21
22.56242639
 31
0.0
  0
LINE
  5
117B
330
116B
100
AcDbEntity
  8
242
  6
HIDDEN2
100
AcDbLine
 10
-38.0
 20
-18.0
 30
0.0
 11
-31.8
 21
-18.0
 31
0.0
  0
LINE
  5
117C
330
116B
100
AcDbEntity
  8
240
  6
CONTINUOUS
100
AcDbLine
 10
-36.5
 20
-19.76242639
 30
0.0
 11
-38.0
 21
-18.26242639
 31
0.0
  0
LINE
  5
117D
330
116B
100
AcDbEntity
  8
242
  6
HIDDEN2
100
AcDbLine
 10
-29.87185543
 20
-19.92814457
 30
0.0
 11
-31.8
 21
-18.0
 31
0.0
  0
LINE
  5
117E
330
116B
100
AcDbEntity
  8
242
  6
HIDDEN2
100
AcDbLine
 10
-31.8
 20
-19.87993672
 30
0.0
 11
-31.8
 21
-18.0
 31
0.0
  0
LINE
  5
117F
330
116B
100
AcDbEntity
  8
240
  6
CONTINUOUS
100
AcDbLine
 10
-38.0
 20
21.69640099
 30
0.0
 11
-36.5
 21
22.56242639
 31
0.0
  0
ARC
  5
1180
330
116B
100
AcDbEntity
  8
240
  6
CONTINUOUS
100
AcDbCircle
 10
30.0
 20
-28.75
 30
0.0
 40
8.0
100
AcDbArc
 50
90.0
 51
180.0
  0
LINE
  5
1181
330
116B
100
AcDbEntity
  8
241
  6
CONTINUOUS
100
AcDbLine
 10
9.95
 20
-8.99234142
 30
0.0
 11
9.95
 21
-30.18137426
 31
0.0
  0
SPLINE
  5
1182
330
116B
100
AcDbEntity
  8
241
  6
CONTINUOUS
100
AcDbSpline
210
0.0
220
0.0
230
1.0
 70
     8
 71
     3
 72
     9
 73
     5
 74
     3
 42
0.0000000001
 43
0.0000000001
 44
0.0000000001
 40
0.0
 40
0.0
 40
0.0
 40
0.0
 40
10.74384375536302
 40
21.48768751072608
 40
21.48768751072608
 40
21.48768751072608
 40
21.48768751072608
 10
14.05000000000018
 20
-30.1813742565713
 30
0.0
 10
14.94252458154622
 20
-26.64986878400333
 30
0.0
 10
16.72757374463832
 20
-19.58685783886739
 30
0.0
 10
14.94252458154617
 20
-12.52384689373147
 30
0.0
 10
14.05000000000009
 20
-8.992341421163501
 30
0.0
 11
14.05000000000018
 21
-30.1813742565713
 31
0.0
 11
15.83504916309226
 21
-19.58685783886741
 31
0.0
 11
14.05000000000009
 21
-8.992341421163501
 31
0.0
  0
LINE
  5
1183
330
116B
100
AcDbEntity
  8
241
  6
CONTINUOUS
100
AcDbLine
 10
14.05
 20
-8.99234142
 30
0.0
 11
14.05
 21
-30.18137426
 31
0.0
  0
SPLINE
  5
1184
330
116B
100
AcDbEntity
  8
241
  6
CONTINUOUS
100
AcDbSpline
210
0.0
220
0.0
230
1.0
 70
     8
 71
     3
 72
     9
 73
     5
 74
     3
 42
0.0000000001
 43
0.0000000001
 44
0.0000000001
 40
0.0
 40
0.0
 40
0.0
 40
0.0
 40
10.74384375536299
 40
21.48768751072609
 40
21.48768751072609
 40
21.48768751072609
 40
21.48768751072609
 10
9.9500000000001
 20
-8.992341421163501
 30
0.0
 10
9.057475418454039
 20
-12.52384689373145
 30
0.0
 10
7.272426255361907
 20
-19.58685783886738
 30
0.0
 10
9.057475418453995
 20
-26.64986878400333
 30
0.0
 10
9.950000000000043
 20
-30.18137425657132
 30
0.0
 11
9.9500000000001
 21
-8.992341421163501
 31
0.0
 11
8.164950836907962
 21
-19.58685783886735
 31
0.0
 11
9.950000000000043
 21
-30.18137425657132
 31
0.0
  0
LINE
  5
1185
330
116B
100
AcDbEntity
  8
240
  6
CONTINUOUS
100
AcDbLine
 10
0.5
 20
-31.4925
 30
0.0
 11
21.0
 21
-31.4925
 31
0.0
  0
LINE
  5
1186
330
116B
100
AcDbEntity
  8
241
  6
CONTINUOUS
100
AcDbLine
 10
9.95
 20
-30.18137426
 30
0.0
 11
14.05
 21
-30.18137426
 31
0.0
  0
ARC
  5
1187
330
116B
100
AcDbEntity
  8
240
  6
CONTINUOUS
100
AcDbCircle
 10
0.5
 20
-30.9925
 30
0.0
 40
0.5
100
AcDbArc
 50
180.0
 51
270.0
  0
ARC
  5
1188
330
116B
100
AcDbEntity
  8
240
  6
CONTINUOUS
100
AcDbCircle
 10
21.0
 20
-30.4925
 30
0.0
 40
1.0
100
AcDbArc
 50
270.0
 51
0.0
  0
LINE
  5
1189
330
116B
100
AcDbEntity
  8
241
  6
CONTINUOUS
100
AcDbLine
 10
9.95
 20
-8.99234142
 30
0.0
 11
14.05
 21
-8.99234142
 31
0.0
  0
LINE
  5
118A
330
116B
100
AcDbEntity
  8
241
  6
CONTINUOUS
100
AcDbLine
 10
9.95
 20
8.99234142
 30
0.0
 11
14.05
 21
8.99234142
 31
0.0
  0
LINE
  5
118B
330
116B
100
AcDbEntity
  8
241
100
AcDbLine
 10
-2.19993752
 20
-20.62000332
 30
0.0
 11
-2.19993752
 21
23.42000332
 31
0.0
  0
LINE
  5
118C
330
116B
100
AcDbEntity
  8
240
100
AcDbLine
 10
-2.19993752
 20
-20.62000332
 30
0.0
 11
0.0
 21
-20.62000332
 31
0.0
  0
LINE
  5
118D
330
116B
100
AcDbEntity
  8
240
100
AcDbLine
 10
-2.19993752
 20
23.42000332
 30
0.0
 11
0.0
 21
23.42000332
 31
0.0
  0
ARC
  5
118E
330
116B
100
AcDbEntity
  8
240
  6
CONTINUOUS
100
AcDbCircle
 10
30.0
 20
28.75
 30
0.0
 40
8.0
100
AcDbArc
 50
180.0
 51
270.0
  0
LINE
  5
118F
330
116B
100
AcDbEntity
  8
240
  6
CONTINUOUS
100
AcDbLine
 10
0.5
 20
31.4925
 30
0.0
 11
21.0
 21
31.4925
 31
0.0
  0
LINE
  5
1190
330
116B
100
AcDbEntity
  8
241
  6
CONTINUOUS
100
AcDbLine
 10
9.95
 20
30.18137426
 30
0.0
 11
14.05
 21
30.18137426
 31
0.0
  0
ARC
  5
1191
330
116B
100
AcDbEntity
  8
240
  6
CONTINUOUS
100
AcDbCircle
 10
0.5
 20
30.9925
 30
0.0
 40
0.5
100
AcDbArc
 50
90.0
 51
180.0
  0
ARC
  5
1192
330
116B
100
AcDbEntity
  8
240
  6
CONTINUOUS
100
AcDbCircle
 10
21.0
 20
30.4925
 30
0.0
 40
1.0
100
AcDbArc
 50
0.0
 51
90.0
  0
LINE
  5
1193
330
116B
100
AcDbEntity
  8
241
  6
HIDDEN2
100
AcDbLine
 10
99.1535521
 20
12.75225016
 30
0.0
 11
69.45384962
 21
9.63068565
 31
0.0
1001
GRPNAME
1000
PASTMD09
  0
LINE
  5
1194
330
116B
100
AcDbEntity
  8
241
  6
HIDDEN2
100
AcDbLine
 10
105.0
 20
8.0
 30
0.0
 11
69.45384962
 21
8.0
 31
0.0
1001
GRPNAME
1000
PASTMD09
  0
LINE
  5
1195
330
116B
100
AcDbEntity
  8
241
  6
HIDDEN2
100
AcDbLine
 10
69.45384962
 20
9.63068565
 30
0.0
 11
69.45384962
 21
0.0
 31
0.0
1001
GRPNAME
1000
PASTMD09
  0
LINE
  5
1196
330
116B
100
AcDbEntity
  8
241
  6
CONTINUOUS
100
AcDbLine
 10
90.4
 20
-8.72022167
 30
0.0
 11
90.4
 21
8.72022167
 31
0.0
1001
GRPNAME
1000
PASTMD09
  0
LINE
  5
1197
330
116B
100
AcDbEntity
  8
242
  6
CONTINUOUS
100
AcDbLine
 10
85.954
 20
-16.0
 30
0.0
 11
85.954
 21
16.0
 31
0.0
  0
LINE
  5
1198
330
116B
100
AcDbEntity
  8
240
  6
CONTINUOUS
100
AcDbLine
 10
89.0
 20
-18.0
 30
0.0
 11
89.0
 21
18.0
 31
0.0
1001
GRPNAME
1000
PASTMD09
  0
LINE
  5
1199
330
116B
100
AcDbEntity
  8
240
  6
CONTINUOUS
100
AcDbLine
 10
83.954
 20
-19.75
 30
0.0
 11
83.954
 21
19.75
 31
0.0
  0
LINE
  5
119A
330
116B
100
AcDbEntity
  8
240
  6
CONTINUOUS
100
AcDbLine
 10
105.0
 20
-19.16862915
 30
0.0
 11
105.0
 21
19.16862915
 31
0.0
1001
GRPNAME
1000
PASTMD09
  0
LINE
  5
119B
330
116B
100
AcDbEntity
  8
240
  6
CONTINUOUS
100
AcDbLine
 10
89.5
 20
-20.1
 30
0.0
 11
89.5
 21
20.1
 31
0.0
1001
GRPNAME
1000
PASTMD09
  0
LINE
  5
119C
330
116B
100
AcDbEntity
  8
241
  6
CONTINUOUS
100
AcDbLine
 10
103.5
 20
20.91916175
 30
0.0
 11
103.5
 21
-20.91916175
 31
0.0
1001
GRPNAME
1000
PASTMD09
  0
LINE
  5
119D
330
116B
100
AcDbEntity
  8
240
  6
CONTINUOUS
100
AcDbLine
 10
90.4
 20
-21.0
 30
0.0
 11
103.12720779
 21
-21.0
 31
0.0
1001
GRPNAME
1000
PASTMD09
  0
LWPOLYLINE
  5
119E
330
116B
100
AcDbEntity
  8
241
  6
CONTINUOUS
100
AcDbPolyline
 90
       70
 70
     0
 43
0.0
 10
89.5
 20
-8.26807419
 10
89.5002332
 20
-8.27836651
 10
89.50093269
 20
-8.2886535
 10
89.50209811
 20
-8.29892983
 10
89.50372884
 20
-8.30919016
 10
89.50582405
 20
-8.31942919
 10
89.50838265
 20
-8.3296416
 10
89.51140331
 20
-8.33982211
 10
89.51488447
 20
-8.34996543
 10
89.51882432
 20
-8.36006632
 10
89.52322083
 20
-8.37011953
 10
89.5280717
 20
-8.38011986
 10
89.53337444
 20
-8.39006212
 10
89.53912629
 20
-8.39994117
 10
89.54532427
 20
-8.40975188
 10
89.55196517
 20
-8.41948916
 10
89.55904555
 20
-8.42914798
 10
89.56656173
 20
-8.43872333
 10
89.57450983
 20
-8.44821024
 10
89.58288572
 20
-8.4576038
 10
89.59168507
 20
-8.46689914
 10
89.6009033
 20
-8.47609144
 10
89.61053566
 20
-8.48517594
 10
89.62057714
 20
-8.49414793
 10
89.63102254
 20
-8.50300277
 10
89.64186644
 20
-8.51173585
 10
89.65310324
 20
-8.52034267
 10
89.6647271
 20
-8.52881875
 10
89.676732
 20
-8.5371597
 10
89.68911172
 20
-8.54536121
 10
89.70185984
 20
-8.55341902
 10
89.71496976
 20
-8.56132895
 10
89.72843468
 20
-8.56908691
 10
89.74224763
 20
-8.57668888
 10
89.75640145
 20
-8.58413091
 10
89.7708888
 20
-8.59140915
 10
89.78570217
 20
-8.59851983
 10
89.80083389
 20
-8.60545927
 10
89.81627612
 20
-8.61222386
 10
89.83202085
 20
-8.6188101
 10
89.84805992
 20
-8.62521458
 10
89.86438503
 20
-8.63143398
 10
89.88098771
 20
-8.63746507
 10
89.89785936
 20
-8.64330474
 10
89.91499123
 20
-8.64894995
 10
89.93237444
 20
-8.65439777
 10
89.95
 20
-8.6596454
 10
89.96785876
 20
-8.6646901
 10
89.98594147
 20
-8.66952926
 10
90.00423875
 20
-8.67416037
 10
90.02274113
 20
-8.67858104
 10
90.04143902
 20
-8.68278897
 10
90.06032272
 20
-8.68678198
 10
90.07938246
 20
-8.69055801
 10
90.09860835
 20
-8.69411509
 10
90.11799043
 20
-8.69745139
 10
90.13751865
 20
-8.70056517
 10
90.15718291
 20
-8.70345482
 10
90.17697299
 20
-8.70611884
 10
90.19687866
 20
-8.70855585
 10
90.21688959
 20
-8.7107646
 10
90.23699541
 20
-8.71274392
 10
90.25718571
 20
-8.71449281
 10
90.27745002
 20
-8.71601035
 10
90.29777783
 20
-8.71729575
 10
90.31815862
 20
-8.71834835
 10
90.33858183
 20
-8.71916761
 10
90.35903686
 20
-8.7197531
 10
90.37951312
 20
-8.72010451
 10
90.4
 20
-8.72022167
1001
GRPNAME
1000
PASTMD09
  0
LINE
  5
11E6
330
116B
100
AcDbEntity
  8
241
  6
CONTINUOUS
100
AcDbLine
 10
89.5
 20
-10.98205081
 30
0.0
 11
98.5
 21
-10.98205081
 31
0.0
1001
GRPNAME
1000
PASTMD09
  0
LINE
  5
11E7
330
116B
100
AcDbEntity
  8
241
  6
CONTINUOUS
100
AcDbLine
 10
90.4
 20
-8.72022167
 30
0.0
 11
98.5
 21
-8.72022167
 31
0.0
1001
GRPNAME
1000
PASTMD09
  0
LINE
  5
11E8
330
116B
100
AcDbEntity
  8
241
  6
CONTINUOUS
100
AcDbLine
 10
90.4
 20
-12.18432329
 30
0.0
 11
98.5
 21
-12.18432329
 31
0.0
1001
GRPNAME
1000
PASTMD09
  0
LINE
  5
11E9
330
116B
100
AcDbEntity
  8
241
  6
CONTINUOUS
100
AcDbLine
 10
90.4
 20
-21.0
 30
0.0
 11
90.4
 21
-12.18432329
 31
0.0
1001
GRPNAME
1000
PASTMD09
  0
LINE
  5
11EA
330
116B
100
AcDbEntity
  8
242
  6
CONTINUOUS
100
AcDbLine
 10
85.954
 20
-15.5
 30
0.0
 11
89.0
 21
-15.5
 31
0.0
  0
LINE
  5
11EB
330
116B
100
AcDbEntity
  8
240
  6
CONTINUOUS
100
AcDbLine
 10
84.954
 20
-16.0
 30
0.0
 11
89.0
 21
-16.0
 31
0.0
  0
LINE
  5
11EC
330
116B
100
AcDbEntity
  8
242
  6
CONTINUOUS
100
AcDbLine
 10
85.954
 20
-15.5
 30
0.0
 11
85.0879746
 21
-16.0
 31
0.0
  0
ARC
  5
11ED
330
116B
100
AcDbEntity
  8
240
  6
CONTINUOUS
100
AcDbCircle
 10
84.954
 20
-17.0
 30
0.0
 40
1.0
100
AcDbArc
 50
90.0
 51
180.0
  0
ARC
  5
11EE
330
116B
100
AcDbEntity
  8
240
  6
CONTINUOUS
100
AcDbCircle
 10
82.954
 20
-19.75
 30
0.0
 40
1.0
100
AcDbArc
 50
270.0
 51
0.0
  0
LINE
  5
11EF
330
116B
100
AcDbEntity
  8
240
  6
CONTINUOUS
100
AcDbLine
 10
89.5
 20
-18.5
 30
0.0
 11
89.0
 21
-18.0
 31
0.0
1001
GRPNAME
1000
PASTMD09
  0
ARC
  5
11F0
330
116B
100
AcDbEntity
  8
240
  6
CONTINUOUS
100
AcDbCircle
 10
90.4
 20
-20.1
 30
0.0
 40
0.899999999999977
100
AcDbArc
 50
180.00000009
 51
270.00000009
1001
GRPNAME
1000
PASTMD09
  0
LINE
  5
11F1
330
116B
100
AcDbEntity
  8
241
  6
CONTINUOUS
100
AcDbLine
 10
98.5
 20
-12.18432329
 30
0.0
 11
98.5
 21
-8.72022167
 31
0.0
1001
GRPNAME
1000
PASTMD09
  0
LINE
  5
11F2
330
116B
100
AcDbEntity
  8
240
  6
CONTINUOUS
100
AcDbLine
 10
103.7636039
 20
-20.7363961
 30
0.0
 11
104.76568542
 21
-19.73431458
 31
0.0
1001
GRPNAME
1000
PASTMD09
  0
ARC
  5
11F3
330
116B
100
AcDbEntity
  8
240
  6
CONTINUOUS
100
AcDbCircle
 10
103.12720779
 20
-20.1
 30
0.0
 40
0.9000000000000055
100
AcDbArc
 50
269.99999998
 51
314.99999998
1001
GRPNAME
1000
PASTMD09
  0
ARC
  5
11F4
330
116B
100
AcDbEntity
  8
240
  6
CONTINUOUS
100
AcDbCircle
 10
104.2
 20
-19.16862915
 30
0.0
 40
0.8000000000000186
100
AcDbArc
 50
315.00000004
 51
0.00000004
1001
GRPNAME
1000
PASTMD09
  0
LINE
  5
11F5
330
116B
100
AcDbEntity
  8
241
  6
HIDDEN2
100
AcDbLine
 10
99.1535521
 20
11.0
 30
0.0
 11
101.5535521
 21
11.0
 31
0.0
1001
GRPNAME
1000
PASTMD09
  0
LINE
  5
11F6
330
116B
100
AcDbEntity
  8
240
  6
CONTINUOUS
100
AcDbLine
 10
90.4
 20
21.0
 30
0.0
 11
103.12720779
 21
21.0
 31
0.0
1001
GRPNAME
1000
PASTMD09
  0
LINE
  5
11F7
330
116B
100
AcDbEntity
  8
241
  6
CONTINUOUS
100
AcDbLine
 10
90.4
 20
21.0
 30
0.0
 11
90.4
 21
12.18432329
 31
0.0
1001
GRPNAME
1000
PASTMD09
  0
LINE
  5
11F8
330
116B
100
AcDbEntity
  8
241
  6
CONTINUOUS
100
AcDbLine
 10
90.4
 20
8.72022167
 30
0.0
 11
98.5
 21
8.72022167
 31
0.0
1001
GRPNAME
1000
PASTMD09
  0
LINE
  5
11F9
330
116B
100
AcDbEntity
  8
241
  6
CONTINUOUS
100
AcDbLine
 10
89.5
 20
10.98205081
 30
0.0
 11
98.5
 21
10.98205081
 31
0.0
1001
GRPNAME
1000
PASTMD09
  0
LINE
  5
11FA
330
116B
100
AcDbEntity
  8
241
  6
CONTINUOUS
100
AcDbLine
 10
90.4
 20
12.18432329
 30
0.0
 11
98.5
 21
12.18432329
 31
0.0
1001
GRPNAME
1000
PASTMD09
  0
LWPOLYLINE
  5
11FB
330
116B
100
AcDbEntity
  8
241
  6
CONTINUOUS
100
AcDbPolyline
 90
       70
 70
     0
 43
0.0
 10
89.5
 20
8.26807419
 10
89.5002332
 20
8.27836651
 10
89.50093269
 20
8.2886535
 10
89.50209811
 20
8.29892983
 10
89.50372884
 20
8.30919016
 10
89.50582405
 20
8.31942919
 10
89.50838265
 20
8.3296416
 10
89.51140331
 20
8.33982211
 10
89.51488447
 20
8.34996543
 10
89.51882432
 20
8.36006632
 10
89.52322083
 20
8.37011953
 10
89.5280717
 20
8.38011986
 10
89.53337444
 20
8.39006212
 10
89.53912629
 20
8.39994117
 10
89.54532427
 20
8.40975188
 10
89.55196517
 20
8.41948916
 10
89.55904555
 20
8.42914798
 10
89.56656173
 20
8.43872333
 10
89.57450983
 20
8.44821024
 10
89.58288572
 20
8.4576038
 10
89.59168507
 20
8.46689914
 10
89.6009033
 20
8.47609144
 10
89.61053566
 20
8.48517594
 10
89.62057714
 20
8.49414793
 10
89.63102254
 20
8.50300277
 10
89.64186644
 20
8.51173585
 10
89.65310324
 20
8.52034267
 10
89.6647271
 20
8.52881875
 10
89.676732
 20
8.5371597
 10
89.68911172
 20
8.54536121
 10
89.70185984
 20
8.55341902
 10
89.71496976
 20
8.56132895
 10
89.72843468
 20
8.56908691
 10
89.74224763
 20
8.57668888
 10
89.75640145
 20
8.58413091
 10
89.7708888
 20
8.59140915
 10
89.78570217
 20
8.59851983
 10
89.80083389
 20
8.60545927
 10
89.81627612
 20
8.61222386
 10
89.83202085
 20
8.6188101
 10
89.84805992
 20
8.62521458
 10
89.86438503
 20
8.63143398
 10
89.88098771
 20
8.63746507
 10
89.89785936
 20
8.64330474
 10
89.91499123
 20
8.64894995
 10
89.93237444
 20
8.65439777
 10
89.95
 20
8.6596454
 10
89.96785876
 20
8.6646901
 10
89.98594147
 20
8.66952926
 10
90.00423875
 20
8.67416037
 10
90.02274113
 20
8.67858104
 10
90.04143902
 20
8.68278897
 10
90.06032272
 20
8.68678198
 10
90.07938246
 20
8.69055801
 10
90.09860835
 20
8.69411509
 10
90.11799043
 20
8.69745139
 10
90.13751865
 20
8.70056517
 10
90.15718291
 20
8.70345482
 10
90.17697299
 20
8.70611884
 10
90.19687866
 20
8.70855585
 10
90.21688959
 20
8.7107646
 10
90.23699541
 20
8.71274392
 10
90.25718571
 20
8.71449281
 10
90.27745002
 20
8.71601035
 10
90.29777783
 20
8.71729575
 10
90.31815862
 20
8.71834835
 10
90.33858183
 20
8.71916761
 10
90.35903686
 20
8.7197531
 10
90.37951312
 20
8.72010451
 10
90.4
 20
8.72022167
1001
GRPNAME
1000
PASTMD09
  0
LINE
  5
1243
330
116B
100
AcDbEntity
  8
242
  6
CONTINUOUS
100
AcDbLine
 10
85.954
 20
15.5
 30
0.0
 11
89.0
 21
15.5
 31
0.0
  0
LINE
  5
1244
330
116B
100
AcDbEntity
  8
240
  6
CONTINUOUS
100
AcDbLine
 10
84.954
 20
16.0
 30
0.0
 11
89.0
 21
16.0
 31
0.0
  0
LINE
  5
1245
330
116B
100
AcDbEntity
  8
242
  6
CONTINUOUS
100
AcDbLine
 10
85.0879746
 20
16.0
 30
0.0
 11
85.954
 21
15.5
 31
0.0
  0
ARC
  5
1246
330
116B
100
AcDbEntity
  8
240
  6
CONTINUOUS
100
AcDbCircle
 10
84.954
 20
17.0
 30
0.0
 40
1.0
100
AcDbArc
 50
180.0
 51
270.0
  0
LWPOLYLINE
  5
1247
330
116B
100
AcDbEntity
  8
241
  6
CONTINUOUS
100
AcDbPolyline
 90
       70
 70
     0
 43
0.0
 10
89.5
 20
11.73217581
 10
89.5002332
 20
11.74246813
 10
89.50093269
 20
11.75275512
 10
89.50209811
 20
11.76303144
 10
89.50372884
 20
11.77329178
 10
89.50582405
 20
11.7835308
 10
89.50838265
 20
11.79374321
 10
89.51140331
 20
11.80392372
 10
89.51488447
 20
11.81406704
 10
89.51882432
 20
11.82416793
 10
89.52322083
 20
11.83422114
 10
89.5280717
 20
11.84422147
 10
89.53337444
 20
11.85416374
 10
89.53912629
 20
11.86404278
 10
89.54532427
 20
11.87385349
 10
89.55196517
 20
11.88359078
 10
89.55904555
 20
11.8932496
 10
89.56656173
 20
11.90282495
 10
89.57450983
 20
11.91231186
 10
89.58288572
 20
11.92170541
 10
89.59168507
 20
11.93100075
 10
89.6009033
 20
11.94019305
 10
89.61053566
 20
11.94927756
 10
89.62057714
 20
11.95824955
 10
89.63102254
 20
11.96710438
 10
89.64186644
 20
11.97583747
 10
89.65310324
 20
11.98444428
 10
89.6647271
 20
11.99292036
 10
89.676732
 20
12.00126132
 10
89.68911172
 20
12.00946282
 10
89.70185984
 20
12.01752063
 10
89.71496976
 20
12.02543056
 10
89.72843468
 20
12.03318852
 10
89.74224763
 20
12.04079049
 10
89.75640145
 20
12.04823252
 10
89.7708888
 20
12.05551077
 10
89.78570217
 20
12.06262145
 10
89.80083389
 20
12.06956088
 10
89.81627612
 20
12.07632547
 10
89.83202085
 20
12.08291171
 10
89.84805992
 20
12.08931619
 10
89.86438503
 20
12.09553559
 10
89.88098771
 20
12.10156669
 10
89.89785936
 20
12.10740635
 10
89.91499123
 20
12.11305156
 10
89.93237444
 20
12.11849939
 10
89.95
 20
12.12374701
 10
89.96785876
 20
12.12879171
 10
89.98594147
 20
12.13363087
 10
90.00423875
 20
12.13826199
 10
90.02274113
 20
12.14268265
 10
90.04143902
 20
12.14689059
 10
90.06032272
 20
12.1508836
 10
90.07938246
 20
12.15465963
 10
90.09860835
 20
12.15821671
 10
90.11799043
 20
12.161553
 10
90.13751865
 20
12.16466678
 10
90.15718291
 20
12.16755643
 10
90.17697299
 20
12.17022045
 10
90.19687866
 20
12.17265747
 10
90.21688959
 20
12.17486621
 10
90.23699541
 20
12.17684554
 10
90.25718571
 20
12.17859442
 10
90.27745002
 20
12.18011196
 10
90.29777783
 20
12.18139737
 10
90.31815862
 20
12.18244997
 10
90.33858183
 20
12.18326923
 10
90.35903686
 20
12.18385472
 10
90.37951312
 20
12.18420613
 10
90.4
 20
12.18432329
1001
GRPNAME
1000
PASTMD09
  0
LINE
  5
128F
330
116B
100
AcDbEntity
  8
241
  6
CONTINUOUS
100
AcDbLine
 10
98.5
 20
12.18432329
 30
0.0
 11
98.5
 21
8.72022167
 31
0.0
1001
GRPNAME
1000
PASTMD09
  0
LINE
  5
1290
330
116B
100
AcDbEntity
  8
241
  6
HIDDEN2
100
AcDbLine
 10
99.1535521
 20
11.0
 30
0.0
 11
99.1535521
 21
12.75225016
 31
0.0
1001
GRPNAME
1000
PASTMD09
  0
ARC
  5
1291
330
116B
100
AcDbEntity
  8
240
  6
CONTINUOUS
100
AcDbCircle
 10
82.954
 20
19.75
 30
0.0
 40
1.0
100
AcDbArc
 50
0.0
 51
90.0
  0
LINE
  5
1292
330
116B
100
AcDbEntity
  8
240
  6
CONTINUOUS
100
AcDbLine
 10
89.0
 20
18.0
 30
0.0
 11
89.5
 21
18.5
 31
0.0
1001
GRPNAME
1000
PASTMD09
  0
ARC
  5
1293
330
116B
100
AcDbEntity
  8
240
  6
CONTINUOUS
100
AcDbCircle
 10
90.4
 20
20.1
 30
0.0
 40
0.9000000000000055
100
AcDbArc
 50
89.99999999
 51
179.99999999
1001
GRPNAME
1000
PASTMD09
  0
LINE
  5
1294
330
116B
100
AcDbEntity
  8
241
  6
HIDDEN2
100
AcDbLine
 10
101.5535521
 20
12.75
 30
0.0
 11
101.7535521
 21
12.75
 31
0.0
1001
GRPNAME
1000
PASTMD09
  0
LINE
  5
1295
330
116B
100
AcDbEntity
  8
241
  6
HIDDEN2
100
AcDbLine
 10
101.5535521
 20
11.0
 30
0.0
 11
101.5535521
 21
12.75
 31
0.0
1001
GRPNAME
1000
PASTMD09
  0
LINE
  5
1296
330
116B
100
AcDbEntity
  8
241
  6
HIDDEN2
100
AcDbLine
 10
105.0
 20
10.87566243
 30
0.0
 11
101.7535521
 21
12.75
 31
0.0
1001
GRPNAME
1000
PASTMD09
  0
LINE
  5
1297
330
116B
100
AcDbEntity
  8
240
  6
CONTINUOUS
100
AcDbLine
 10
104.76568542
 20
19.73431458
 30
0.0
 11
103.7636039
 21
20.7363961
 31
0.0
1001
GRPNAME
1000
PASTMD09
  0
ARC
  5
1298
330
116B
100
AcDbEntity
  8
240
  6
CONTINUOUS
100
AcDbCircle
 10
103.12720779
 20
20.1
 30
0.0
 40
0.9000000000000133
100
AcDbArc
 50
44.99999989
 51
89.99999989
1001
GRPNAME
1000
PASTMD09
  0
ARC
  5
1299
330
116B
100
AcDbEntity
  8
240
  6
CONTINUOUS
100
AcDbCircle
 10
104.2
 20
19.16862915
 30
0.0
 40
0.7999999999999547
100
AcDbArc
 50
0.00000004
 51
45.00000004
1001
GRPNAME
1000
PASTMD09
  0
ENDBLK
  5
116D
330
116B
100
AcDbEntity
  8
0
100
AcDbBlockEnd
  0
ENDSEC
  0
SECTION
  2
ENTITIES
  0
INSERT
  5
6E6
330
1A
100
AcDbEntity
  8
245
100
AcDbBlockReference
  2
矢印なし
 10
175.62382697
 20
90.55123572
 30
0.0
  0
TEXT
  5
8C5
330
1A
100
AcDbEntity
  8
241
100
AcDbText
 10
-38.0
 20
66.5
 30
0.0
 40
5.0
  1
C6-NBS16-105
  7
YOKO
 11
-38.0
 21
66.5
 31
0.0
100
AcDbText
 73
     1
  0
LEADER
  5
8C7
330
1A
100
AcDbEntity
  8
250
  6
CONTINUOUS
100
AcDbLeader
  3
BIGT
 76
     2
 10
-16.47540101
 20
-20.26308537
 30
0.0
 10
-21.0
 20
-28.0
 30
0.0
1001
ACAD
1000
DSTYLE
1002
{
1070
     6
1000
OPEN
1070
    41
1040
2.0
1070
    42
1040
2.0
1070
    44
1040
2.0
1070
   140
1040
4.0
1070
   343
1005
594
1002
}
  0
MTEXT
  5
8CB
330
1A
100
AcDbEntity
  8
251
  6
CONTINUOUS
100
AcDbMText
 10
-28.46666667
 20
-27.0
 30
0.0
 40
2.8
 41
0.0
 71
     7
 72
     1
  1
C6
  7
YOKO
1001
ITEMNAME
1000
LNSP3
1001
ACAD
1000
MTEXTBEGIN
1070
    73
1070
     1
1070
    44
1040
1.0
1070
    74
1070
     0
1000
MTEXTEND
1000
MTEXTBEGIN
1070
    73
1070
     1
1070
    44
1040
1.0
1070
    74
1070
     0
1000
MTEXTEND
1000
MTEXTBEGIN
1070
    73
1070
     1
1070
    44
1040
1.0
1070
    74
1070
     0
1000
MTEXTEND
1000
MTEXTBEGIN
1070
    73
1070
     1
1070
    44
1040
1.0
1070
    74
1070
     0
1000
MTEXTEND
1000
MTEXTBEGIN
1070
    73
1070
     1
1070
    44
1040
1.0
1070
    74
1070
     0
1000
MTEXTEND
1000
MTEXTBEGIN
1070
    73
1070
     1
1070
    44
1040
1.0
1070
    74
1070
     0
1000
MTEXTEND
1000
MTEXTBEGIN
1070
    73
1070
     1
1070
    44
1040
1.0
1070
    74
1070
     0
1000
MTEXTEND
1000
MTEXTBEGIN
1070
    73
1070
     1
1070
    44
1040
1.0
1070
    74
1070
     0
1000
MTEXTEND
1000
MTEXTBEGIN
1070
    73
1070
     1
1070
    44
1040
1.0
1070
    74
1070
     0
1000
MTEXTEND
1000
MTEXTBEGIN
1070
    73
1070
     1
1070
    44
1040
1.0
1070
    74
1070
     0
1000
MTEXTEND
  0
LINE
  5
8CC
330
1A
100
AcDbEntity
  8
250
  6
CONTINUOUS
100
AcDbLine
 10
-21.0
 20
-28.0
 30
0.0
 11
-31.26666667
 21
-28.0
 31
0.0
1001
ITEMNAME
1000
LNSP2
  0
DIMENSION
  5
8CF
330
1A
100
AcDbEntity
  8
250
  6
CONTINUOUS
100
AcDbDimension
  2
*D2
 10
105.0
 20
52.5
 30
0.0
 11
52.5
 21
52.5
 31
0.0
 70
   160
  3
BIGT$0
100
AcDbAlignedDimension
 13
0.0
 23
30.9925
 33
0.0
 14
105.0
 24
19.16862915
 34
0.0
100
AcDbRotatedDimension
  0
DIMENSION
  5
CFF
330
1A
100
AcDbEntity
  8
250
  6
CONTINUOUS
100
AcDbDimension
  2
*D3
 10
105.0
 20
45.5
 30
0.0
 11
57.0
 21
45.5
 31
0.0
 70
   160
  1
（max.<>）
  3
BIGT
100
AcDbAlignedDimension
 13
9.0
 23
1.0
 33
0.0
 14
105.0
 24
19.16862915
 34
0.0
100
AcDbRotatedDimension
  0
DIMENSION
  5
FE1
330
1A
100
AcDbEntity
  8
250
  6
CONTINUOUS
100
AcDbDimension
  2
*D4
 10
123.0
 20
21.0
 30
0.0
 11
120.5
 21
0.0
 31
0.0
 70
    32
  1
{\H3;\U+2205}<>
  3
BIGT$0
100
AcDbAlignedDimension
 13
103.12720779
 23
-21.0
 33
0.0
 14
103.12720779
 24
21.0
 34
0.0
 50
90.0
100
AcDbRotatedDimension
  0
DIMENSION
  5
FED
330
1A
100
AcDbEntity
  8
250
  6
CONTINUOUS
100
AcDbDimension
  2
*D5
 10
116.0
 20
8.0
 30
0.0
 11
116.0
 21
-2.39200615
 31
0.0
 70
   160
  1
max.φ16
  3
BIGT
100
AcDbAlignedDimension
 13
105.0
 23
-8.0
 33
0.0
 14
105.0
 24
8.0
 34
0.0
 50
90.0
100
AcDbRotatedDimension
1001
ACAD
1000
DSTYLE
1002
{
1070
    41
1040
2.0
1070
    75
1070
     1
1070
     6
1000
矢印なし
1002
}
  0
DIMENSION
  5
1139
330
1A
100
AcDbEntity
  8
250
  6
CONTINUOUS
100
AcDbDimension
  2
*D6
 10
105.0
 20
38.5
 30
0.0
 11
63.5
 21
41.0
 31
0.0
 70
    32
  3
BIGT$0
100
AcDbAlignedDimension
 13
22.0
 23
30.4925
 33
0.0
 14
105.0
 24
19.16862915
 34
0.0
100
AcDbRotatedDimension
  0
INSERT
  5
129A
330
1A
100
AcDbEntity
  8
245
100
AcDbBlockReference
  2
1
 10
0.0
 20
0.0
 30
0.0
  0
VIEWPORT
  5
22
330
17
100
AcDbEntity
 67
     1
  8
0
100
AcDbViewport
 10
261.51769912
 20
148.5
 30
0.0
 40
523.03539823
 41
297.0
 68
     1
 69
     1
1001
ACAD
1000
MVIEW
1002
{
1070
    16
1010
0.0
1020
0.0
1030
0.0
1010
0.0
1020
0.0
1030
1.0
1040
0.0
1040
297.0
1040
261.51769912
1040
148.5
1040
50.0
1040
0.0
1040
0.0
1070
     0
1070
   100
1070
     1
1070
     1
1070
     0
1070
     0
1070
     0
1070
     0
1040
0.0
1040
0.0
1040
0.0
1040
1.0
1040
1.0
1040
10.0
1040
10.0
1070
     0
1002
{
1002
}
1002
}
  0
ENDSEC
  0
SECTION
  2
OBJECTS
  0
DICTIONARY
  5
C
330
0
100
AcDbDictionary
  3
ACAD_GROUP
350
D
  3
ACAD_LAYOUT
350
565
  3
ACAD_MLINESTYLE
350
E
  3
ACAD_PLOTSETTINGS
350
566
  3
ACAD_PLOTSTYLENAME
350
563
  3
ACDBHEADERROUNDTRIPXREC
350
1300
  3
GRADE_DWG
350
540
  0
DICTIONARY
  5
BE7
330
1A
100
AcDbDictionary
280
     1
  3
ACAD_LAYOUTSELFREF
360
1322
  0
DICTIONARY
  5
BE5
330
17
100
AcDbDictionary
280
     1
  3
ACAD_LAYOUTSELFREF
360
1321
  0
DICTIONARY
  5
D
102
{ACAD_REACTORS
330
C
102
}
330
C
100
AcDbDictionary
  3
*A1
350
6C7
  3
*A2
350
6C8
  3
*A3
350
6D4
  3
*A4
350
6D5
  3
DREC-1
350
5FC
  3
DREC-2
350
654
  3
DREC-3
350
673
  0
DICTIONARY
  5
565
102
{ACAD_REACTORS
330
C
102
}
330
C
100
AcDbDictionary
  0
DICTIONARY
  5
E
102
{ACAD_REACTORS
330
C
102
}
330
C
100
AcDbDictionary
  3
STANDARD
350
13
  0
DICTIONARY
  5
566
102
{ACAD_REACTORS
330
C
102
}
330
C
100
AcDbDictionary
  3
A3_0_5倍_
350
758
  3
A3_1倍_
350
757
  3
A3_1倍__2000_
350
707
  3
A3_2倍_
350
759
  3
A4_0_5倍_
350
755
  3
A4_1倍_
350
754
  3
A4_1倍__2000_
350
708
  3
A4_2倍_
350
756
  0
ACDBDICTIONARYWDFLT
  5
563
102
{ACAD_REACTORS
330
C
102
}
330
C
100
AcDbDictionary
281
     1
  3
Normal
350
564
100
AcDbDictionaryWithDefault
340
564
  0
DICTIONARY
  5
1300
102
{ACAD_REACTORS
330
C
102
}
330
C
100
AcDbDictionary
  3
CEPSNTYPE
350
130A
  3
DIMSTYLEDATA
350
130E
  3
FINGERPRINTGUID
350
130B
  3
HYPERLINKBASE
350
1303
  3
INSUNITS
350
1309
  3
LAYOUTDICT
350
1305
  3
LWETCUNION
350
1308
  3
PLOTSETDICT
350
1306
  3
PLOTSTYLNAMDICT
350
1307
  3
PSVPSCALE
350
130D
  3
PUCSBASE
350
1311
  3
PUCSORGBACK
350
1317
  3
PUCSORGBOTTOM
350
1313
  3
PUCSORGFRONT
350
1316
  3
PUCSORGLEFT
350
1314
  3
PUCSORGRIGHT
350
1315
  3
PUCSORGTOP
350
1312
  3
PUCSORTHOREF
350
130F
  3
PUCSORTHOVIEW
350
1310
  3
STYLESHEET
350
1304
  3
TSTACKALIGN
350
1301
  3
TSTACKSIZE
350
1302
  3
UCSBASE
350
131A
  3
UCSORGBACK
350
1320
  3
UCSORGBOTTOM
350
131C
  3
UCSORGFRONT
350
131F
  3
UCSORGLEFT
350
131D
  3
UCSORGRIGHT
350
131E
  3
UCSORGTOP
350
131B
  3
UCSORTHOREF
350
1318
  3
UCSORTHOVIEW
350
1319
  3
VERSIONGUID
350
130C
  0
DICTIONARY
  5
540
102
{ACAD_REACTORS
330
C
102
}
330
C
100
AcDbDictionary
  3
VERSION
350
560
  0
XRECORD
  5
1322
102
{ACAD_REACTORS
330
BE7
102
}
330
BE7
100
AcDbXrecord
340
1A
  0
XRECORD
  5
1321
102
{ACAD_REACTORS
330
BE5
102
}
330
BE5
100
AcDbXrecord
340
17
  0
GROUP
  5
6C7
102
{ACAD_REACTORS
330
D
102
}
330
D
100
AcDbGroup
300

 70
     0
 71
     1
1001
GRPNAME
1000
DMA00
  0
GROUP
  5
6C8
102
{ACAD_REACTORS
330
D
102
}
330
D
100
AcDbGroup
300

 70
     0
 71
     1
1001
GRPNAME
1000
DMA00
  0
GROUP
  5
6D4
102
{ACAD_REACTORS
330
D
102
}
330
D
100
AcDbGroup
300

 70
     0
 71
     1
1001
GRPNAME
1000
DMA00
  0
GROUP
  5
6D5
102
{ACAD_REACTORS
330
D
102
}
330
D
100
AcDbGroup
300

 70
     0
 71
     1
1001
GRPNAME
1000
DMA00
  0
GROUP
  5
5FC
102
{ACAD_REACTORS
330
D
102
}
330
D
100
AcDbGroup
300

 70
     0
 71
     1
1001
GRPNAME
1000
DREC-
1001
GPARA
1000
xsiz
1000
44.182
1000
ysiz
1000
40.677
1000
angl
1000
0
1000
ctyp
1000
0
1000
csiz
1000
5
1000
lfnt
1000
cont
1000
hcnt
1000
hoff
1000
vcnt
1000
voff
1000
opnt
1000
4
1000
dxpt
1000
0
1000
dypt
1000
0
  0
GROUP
  5
654
102
{ACAD_REACTORS
330
D
102
}
330
D
100
AcDbGroup
300

 70
     0
 71
     1
1001
GRPNAME
1000
DREC-
1001
GPARA
1000
xsiz
1000
54.592
1000
ysiz
1000
53.036
1000
angl
1000
0
1000
ctyp
1000
0
1000
csiz
1000
5
1000
lfnt
1000
cont
1000
hcnt
1000
hoff
1000
vcnt
1000
voff
1000
opnt
1000
4
1000
dxpt
1000
0
1000
dypt
1000
0
  0
GROUP
  5
673
102
{ACAD_REACTORS
330
D
102
}
330
D
100
AcDbGroup
300

 70
     0
 71
     1
1001
GRPNAME
1000
DREC-
1001
GPARA
1000
xsiz
1000
30.363
1000
ysiz
1000
36.175
1000
angl
1000
0
1000
ctyp
1000
0
1000
csiz
1000
5
1000
lfnt
1000
cont
1000
hcnt
1000
hoff
1000
vcnt
1000
voff
1000
opnt
1000
4
1000
dxpt
1000
0
1000
dypt
1000
0
  0
MLINESTYLE
  5
13
102
{ACAD_REACTORS
330
E
102
}
330
E
100
AcDbMlineStyle
  2
STANDARD
 70
     0
  3

 62
     0
 51
90.0
 52
90.0
 71
     2
 49
0.5
 62
   256
  6
BYLAYER
 49
-0.5
 62
   256
  6
BYLAYER
  0
PLOTSETTINGS
  5
758
102
{ACAD_REACTORS
330
566
102
}
330
566
100
AcDbPlotSettings
  1
A3(0.5倍)
  2
\\AWTECPC05\HP DeskJet 1120C
  4
A3
  6

 40
5.95841646
 41
13.49375153
 42
6.04309082
 43
3.67242432
 44
296.92599487
 45
419.94665527
 46
89.96
 47
127.14
 48
0.0
 49
0.0
140
0.0
141
0.0
142
1.0
143
2.0
 70
  1716
 72
     1
 73
     1
 74
     2
  7
big.ctb
 75
    17
147
0.5
148
0.0
149
0.0
  0
PLOTSETTINGS
  5
757
102
{ACAD_REACTORS
330
566
102
}
330
566
100
AcDbPlotSettings
  1
A3(1倍)
  2
\\AWTECPC05\HP DeskJet 1120C
  4
A3
  6

 40
5.95841646
 41
13.49375153
 42
6.04309082
 43
3.67242432
 44
296.92599487
 45
419.94665527
 46
37.46
 47
52.89
 48
0.0
 49
0.0
140
0.0
141
0.0
142
1.0
143
1.0
 70
  1716
 72
     1
 73
     1
 74
     2
  7
big.ctb
 75
    16
147
1.0
148
0.0
149
0.0
  0
PLOTSETTINGS
  5
707
102
{ACAD_REACTORS
330
566
102
}
330
566
100
AcDbPlotSettings
  1
A3(1倍)(2000)
  2
SII LS-1300 (D-SCAN)
  4
User258
  6

 40
3.17499995
 41
3.17499995
 42
3.17498779
 43
3.17498779
 44
419.98898315
 45
296.98950195
 46
58.32
 47
40.32
 48
0.0
 49
0.0
140
0.0
141
0.0
142
1.0
143
1.0
 70
  1716
 72
     1
 73
     0
 74
     2
  7
big.ctb
 75
    16
147
1.0
148
0.0
149
0.0
  0
PLOTSETTINGS
  5
759
102
{ACAD_REACTORS
330
566
102
}
330
566
100
AcDbPlotSettings
  1
A3(2倍)
  2
\\AWTECPC05\HP DeskJet 1120C
  4
A3
  6

 40
5.95841646
 41
13.49375153
 42
6.04309082
 43
3.67242432
 44
296.92599487
 45
419.94665527
 46
-67.54
 47
-95.61
 48
0.0
 49
0.0
140
0.0
141
0.0
142
1.0
143
0.5
 70
  1716
 72
     1
 73
     1
 74
     2
  7
big.ctb
 75
    27
147
2.0
148
0.0
149
0.0
  0
PLOTSETTINGS
  5
755
102
{ACAD_REACTORS
330
566
102
}
330
566
100
AcDbPlotSettings
  1
A4(0.5倍)
  2
\\AWTECPC05\HP DeskJet 1120C
  4
A4
  6

 40
4.18041658
 41
13.49374962
 42
4.18040466
 43
3.92642212
 44
209.97332764
 45
296.92599487
 46
48.31
 47
65.5
 48
0.0
 49
0.0
140
0.0
141
0.0
142
1.0
143
2.0
 70
  1716
 72
     1
 73
     1
 74
     2
  7
big.ctb
 75
    17
147
0.5
148
0.0
149
0.0
  0
PLOTSETTINGS
  5
754
102
{ACAD_REACTORS
330
566
102
}
330
566
100
AcDbPlotSettings
  1
A4(1倍)
  2
\\AWTECPC05\HP DeskJet 1120C
  4
A4
  6

 40
4.18041658
 41
13.49374962
 42
4.18040466
 43
3.92642212
 44
209.97332764
 45
296.92599487
 46
-4.19
 47
-8.75
 48
0.0
 49
0.0
140
0.0
141
0.0
142
1.0
143
1.0
 70
  1716
 72
     1
 73
     1
 74
     2
  7
big.ctb
 75
    16
147
1.0
148
0.0
149
0.0
  0
PLOTSETTINGS
  5
708
102
{ACAD_REACTORS
330
566
102
}
330
566
100
AcDbPlotSettings
  1
A4(1倍)(2000)
  2
SII LS-1300 (D-SCAN)
  4
User259
  6

 40
3.17499995
 41
3.17499995
 42
3.17498779
 43
3.17500305
 44
296.98950195
 45
209.99449158
 46
-3.18
 47
-3.18
 48
0.0
 49
0.0
140
0.0
141
0.0
142
1.0
143
1.0
 70
  1716
 72
     1
 73
     0
 74
     2
  7
big.ctb
 75
    16
147
1.0
148
0.0
149
0.0
  0
PLOTSETTINGS
  5
756
102
{ACAD_REACTORS
330
566
102
}
330
566
100
AcDbPlotSettings
  1
A4(2倍)
  2
\\AWTECPC05\HP DeskJet 1120C
  4
A4
  6

 40
4.18041658
 41
13.49374962
 42
4.18040466
 43
3.92642212
 44
209.97332764
 45
296.92599487
 46
-109.19
 47
-157.25
 48
0.0
 49
0.0
140
0.0
141
0.0
142
1.0
143
0.5
 70
  1716
 72
     1
 73
     1
 74
     2
  7
big.ctb
 75
    27
147
2.0
148
0.0
149
0.0
  0
ACDBPLACEHOLDER
  5
564
102
{ACAD_REACTORS
330
563
102
}
330
563
100
AcDbPlaceHolder
280
     0
  0
XRECORD
  5
130A
102
{ACAD_REACTORS
330
1300
102
}
330
1300
100
AcDbXrecord
 90
        0
  0
XRECORD
  5
130E
102
{ACAD_REACTORS
330
1300
102
}
330
1300
100
AcDbXrecord
1000
DSTYLE
1002
{
1070
   341
340
594
1070
   343
340
594
1070
   344
340
594
1002
}
  0
XRECORD
  5
130B
102
{ACAD_REACTORS
330
1300
102
}
330
1300
100
AcDbXrecord
  1
{51294030-9CB4-11D3-8E18-00A0C925D94D}
  0
XRECORD
  5
1303
102
{ACAD_REACTORS
330
1300
102
}
330
1300
100
AcDbXrecord
  1

  0
XRECORD
  5
1309
102
{ACAD_REACTORS
330
1300
102
}
330
1300
100
AcDbXrecord
 90
        0
  0
XRECORD
  5
1305
102
{ACAD_REACTORS
330
1300
102
}
330
1300
100
AcDbXrecord
340
565
  0
XRECORD
  5
1308
102
{ACAD_REACTORS
330
1300
102
}
330
1300
100
AcDbXrecord
 90
    10781
  0
XRECORD
  5
1306
102
{ACAD_REACTORS
330
1300
102
}
330
1300
100
AcDbXrecord
340
566
  0
XRECORD
  5
1307
102
{ACAD_REACTORS
330
1300
102
}
330
1300
100
AcDbXrecord
340
563
  0
XRECORD
  5
130D
102
{ACAD_REACTORS
330
1300
102
}
330
1300
100
AcDbXrecord
 40
0.0
  0
XRECORD
  5
1311
102
{ACAD_REACTORS
330
1300
102
}
330
1300
100
AcDbXrecord
340
0
  0
XRECORD
  5
1317
102
{ACAD_REACTORS
330
1300
102
}
330
1300
100
AcDbXrecord
 10
0.0
 20
0.0
 30
0.0
  0
XRECORD
  5
1313
102
{ACAD_REACTORS
330
1300
102
}
330
1300
100
AcDbXrecord
 10
0.0
 20
0.0
 30
0.0
  0
XRECORD
  5
1316
102
{ACAD_REACTORS
330
1300
102
}
330
1300
100
AcDbXrecord
 10
0.0
 20
0.0
 30
0.0
  0
XRECORD
  5
1314
102
{ACAD_REACTORS
330
1300
102
}
330
1300
100
AcDbXrecord
 10
0.0
 20
0.0
 30
0.0
  0
XRECORD
  5
1315
102
{ACAD_REACTORS
330
1300
102
}
330
1300
100
AcDbXrecord
 10
0.0
 20
0.0
 30
0.0
  0
XRECORD
  5
1312
102
{ACAD_REACTORS
330
1300
102
}
330
1300
100
AcDbXrecord
 10
0.0
 20
0.0
 30
0.0
  0
XRECORD
  5
130F
102
{ACAD_REACTORS
330
1300
102
}
330
1300
100
AcDbXrecord
340
0
  0
XRECORD
  5
1310
102
{ACAD_REACTORS
330
1300
102
}
330
1300
100
AcDbXrecord
 70
     0
  0
XRECORD
  5
1304
102
{ACAD_REACTORS
330
1300
102
}
330
1300
100
AcDbXrecord
  1
big.ctb
  0
XRECORD
  5
1301
102
{ACAD_REACTORS
330
1300
102
}
330
1300
100
AcDbXrecord
 90
        1
  0
XRECORD
  5
1302
102
{ACAD_REACTORS
330
1300
102
}
330
1300
100
AcDbXrecord
 90
       70
  0
XRECORD
  5
131A
102
{ACAD_REACTORS
330
1300
102
}
330
1300
100
AcDbXrecord
340
0
  0
XRECORD
  5
1320
102
{ACAD_REACTORS
330
1300
102
}
330
1300
100
AcDbXrecord
 10
0.0
 20
0.0
 30
0.0
  0
XRECORD
  5
131C
102
{ACAD_REACTORS
330
1300
102
}
330
1300
100
AcDbXrecord
 10
0.0
 20
0.0
 30
0.0
  0
XRECORD
  5
131F
102
{ACAD_REACTORS
330
1300
102
}
330
1300
100
AcDbXrecord
 10
0.0
 20
0.0
 30
0.0
  0
XRECORD
  5
131D
102
{ACAD_REACTORS
330
1300
102
}
330
1300
100
AcDbXrecord
 10
0.0
 20
0.0
 30
0.0
  0
XRECORD
  5
131E
102
{ACAD_REACTORS
330
1300
102
}
330
1300
100
AcDbXrecord
 10
0.0
 20
0.0
 30
0.0
  0
XRECORD
  5
131B
102
{ACAD_REACTORS
330
1300
102
}
330
1300
100
AcDbXrecord
 10
0.0
 20
0.0
 30
0.0
  0
XRECORD
  5
1318
102
{ACAD_REACTORS
330
1300
102
}
330
1300
100
AcDbXrecord
340
0
  0
XRECORD
  5
1319
102
{ACAD_REACTORS
330
1300
102
}
330
1300
100
AcDbXrecord
 70
     0
  0
XRECORD
  5
130C
102
{ACAD_REACTORS
330
1300
102
}
330
1300
100
AcDbXrecord
  1
{6A233906-22DA-4744-831F-E2CB962F1E1C}
  0
XRECORD
  5
560
102
{ACAD_REACTORS
330
540
102
}
330
540
100
AcDbXrecord
  1
2.0.0
  0
ENDSEC
  0
EOF
