  0
SECTION
  2
HEADER
  9
$ACADVER
  1
AC1014
  9
$ACADMAINTVER
 70
     9
  9
$DWGCODEPAGE
  3
ANSI_932
  9
$INSBASE
 10
0.0
 20
0.0
 30
0.0
  9
$EXTMIN
 10
-39.0140065
 20
-31.70963713
 30
-0.00152582
  9
$EXTMAX
 10
218.02487266
 20
71.51054552
 30
0.00000003
  9
$LIMMIN
 10
0.0
 20
0.0
  9
$LIMMAX
 10
420.0
 20
297.0
  9
$ORTHOMODE
 70
     0
  9
$REGENMODE
 70
     1
  9
$FILLMODE
 70
     1
  9
$QTEXTMODE
 70
     0
  9
$MIRRTEXT
 70
     1
  9
$DRAGMODE
 70
     2
  9
$LTSCALE
 40
10.0
  9
$OSMODE
 70
   549
  9
$ATTMODE
 70
     1
  9
$TEXTSIZE
 40
3.0
  9
$TRACEWID
 40
1.0
  9
$TEXTSTYLE
  7
YOKO
  9
$CLAYER
  8
245
  9
$CELTYPE
  6
BYLAYER
  9
$CECOLOR
 62
   256
  9
$CELTSCALE
 40
1.0
  9
$DELOBJ
 70
     1
  9
$DISPSILH
 70
     0
  9
$DIMSCALE
 40
1.0
  9
$DIMASZ
 40
2.0
  9
$DIMEXO
 40
2.0
  9
$DIMDLI
 40
2.5
  9
$DIMRND
 40
0.0
  9
$DIMDLE
 40
0.0
  9
$DIMEXE
 40
2.0
  9
$DIMTP
 40
0.0
  9
$DIMTM
 40
0.0
  9
$DIMTXT
 40
4.0
  9
$DIMCEN
 40
0.0
  9
$DIMTSZ
 40
0.0
  9
$DIMTOL
 70
     0
  9
$DIMLIM
 70
     0
  9
$DIMTIH
 70
     0
  9
$DIMTOH
 70
     0
  9
$DIMSE1
 70
     0
  9
$DIMSE2
 70
     0
  9
$DIMTAD
 70
     3
  9
$DIMZIN
 70
     8
  9
$DIMBLK
  1

  9
$DIMASO
 70
     1
  9
$DIMSHO
 70
     1
  9
$DIMPOST
  1

  9
$DIMAPOST
  1

  9
$DIMALT
 70
     0
  9
$DIMALTD
 70
     2
  9
$DIMALTF
 40
25.4
  9
$DIMLFAC
 40
1.0
  9
$DIMTOFL
 70
     1
  9
$DIMTVP
 40
0.0
  9
$DIMTIX
 70
     1
  9
$DIMSOXD
 70
     0
  9
$DIMSAH
 70
     1
  9
$DIMBLK1
  1
OPEN
  9
$DIMBLK2
  1
OPEN
  9
$DIMSTYLE
  2
BIGT
  9
$DIMCLRD
 70
   256
  9
$DIMCLRE
 70
   256
  9
$DIMCLRT
 70
    40
  9
$DIMTFAC
 40
1.0
  9
$DIMGAP
 40
1.0
  9
$DIMJUST
 70
     0
  9
$DIMSD1
 70
     0
  9
$DIMSD2
 70
     0
  9
$DIMTOLJ
 70
     1
  9
$DIMTZIN
 70
     8
  9
$DIMALTZ
 70
     0
  9
$DIMALTTZ
 70
     0
  9
$DIMFIT
 70
     3
  9
$DIMUPT
 70
     0
  9
$DIMUNIT
 70
     2
  9
$DIMDEC
 70
     3
  9
$DIMTDEC
 70
     3
  9
$DIMALTU
 70
     2
  9
$DIMALTTD
 70
     2
  9
$DIMTXSTY
  7
STANDARD
  9
$DIMAUNIT
 70
     0
  9
$LUNITS
 70
     2
  9
$LUPREC
 70
     3
  9
$SKETCHINC
 40
1.0
  9
$FILLETRAD
 40
10.0
  9
$AUNITS
 70
     0
  9
$AUPREC
 70
     3
  9
$MENU
  1
.
  9
$ELEVATION
 40
0.0
  9
$PELEVATION
 40
0.0
  9
$THICKNESS
 40
0.0
  9
$LIMCHECK
 70
     0
  9
$BLIPMODE
 70
     0
  9
$CHAMFERA
 40
10.0
  9
$CHAMFERB
 40
10.0
  9
$CHAMFERC
 40
0.0
  9
$CHAMFERD
 40
0.0
  9
$SKPOLY
 70
     0
  9
$TDCREATE
 40
2454970.463614004
  9
$TDUPDATE
 40
2455173.657448819
  9
$TDINDWG
 40
0.0838603125
  9
$TDUSRTIMER
 40
0.0838599537
  9
$USRTIMER
 70
     1
  9
$ANGBASE
 50
0.0
  9
$ANGDIR
 70
     0
  9
$PDMODE
 70
    35
  9
$PDSIZE
 40
-5.0
  9
$PLINEWID
 40
0.0
  9
$COORDS
 70
     0
  9
$SPLFRAME
 70
     0
  9
$SPLINETYPE
 70
     6
  9
$SPLINESEGS
 70
     8
  9
$ATTDIA
 70
     0
  9
$ATTREQ
 70
     1
  9
$HANDLING
 70
-16383
  9
$HANDSEED
  5
17F7
  9
$SURFTAB1
 70
     6
  9
$SURFTAB2
 70
     6
  9
$SURFTYPE
 70
     6
  9
$SURFU
 70
     6
  9
$SURFV
 70
     6
  9
$UCSNAME
  2

  9
$UCSORG
 10
0.0
 20
0.0
 30
0.0
  9
$UCSXDIR
 10
1.0
 20
0.0
 30
0.0
  9
$UCSYDIR
 10
0.0
 20
1.0
 30
0.0
  9
$PUCSNAME
  2

  9
$PUCSORG
 10
0.0
 20
0.0
 30
0.0
  9
$PUCSXDIR
 10
1.0
 20
0.0
 30
0.0
  9
$PUCSYDIR
 10
0.0
 20
1.0
 30
0.0
  9
$USERI1
 70
     1
  9
$USERI2
 70
     0
  9
$USERI3
 70
     0
  9
$USERI4
 70
     0
  9
$USERI5
 70
     0
  9
$USERR1
 40
0.0
  9
$USERR2
 40
0.0
  9
$USERR3
 40
0.0
  9
$USERR4
 40
0.0
  9
$USERR5
 40
0.0
  9
$WORLDVIEW
 70
     1
  9
$SHADEDGE
 70
     3
  9
$SHADEDIF
 70
    70
  9
$TILEMODE
 70
     1
  9
$MAXACTVP
 70
    16
  9
$PINSBASE
 10
0.0
 20
0.0
 30
0.0
  9
$PLIMCHECK
 70
     0
  9
$PEXTMIN
 10
1.00000000E+20
 20
1.00000000E+20
 30
1.00000000E+20
  9
$PEXTMAX
 10
-1.00000000E+20
 20
-1.00000000E+20
 30
-1.00000000E+20
  9
$PLIMMIN
 10
0.0
 20
0.0
  9
$PLIMMAX
 10
420.0
 20
297.0
  9
$UNITMODE
 70
     0
  9
$VISRETAIN
 70
     0
  9
$PLINEGEN
 70
     0
  9
$PSLTSCALE
 70
     1
  9
$TREEDEPTH
 70
  3020
  9
$PICKSTYLE
 70
     0
  9
$CMLSTYLE
  2
STANDARD
  9
$CMLJUST
 70
     0
  9
$CMLSCALE
 40
1.0
  9
$PROXYGRAPHICS
 70
     1
  9
$MEASUREMENT
 70
     1
  0
ENDSEC
  0
SECTION
  2
CLASSES
  0
CLASS
  1
XRECORD
  2
AcDbXrecord
  3
AutoCAD 2000
 90
        0
280
     0
281
     0
  0
CLASS
  1
ACDBDICTIONARYWDFLT
  2
AcDbDictionaryWithDefault
  3
AutoCAD 2000
 90
        0
280
     0
281
     0
  0
CLASS
  1
ACDBPLACEHOLDER
  2
AcDbPlaceHolder
  3
AutoCAD 2000
 90
        0
280
     0
281
     0
  0
CLASS
  1
LAYOUT
  2
AcDbLayout
  3
AutoCAD 2000
 90
        0
280
     0
281
     0
  0
CLASS
  1
PLOTSETTINGS
  2
AcDbPlotSettings
  3
AutoCAD 2000
 90
        0
280
     0
281
     0
  0
CLASS
  1
LONG_TRANSACTION
  2
AcDbLongTransaction
  3
AutoCAD 2000
 90
        0
280
     0
281
     0
  0
CLASS
  1
LWPOLYLINE
  2
AcDbPolyline
  3
AutoCAD 2000
 90
        0
280
     0
281
     1
  0
CLASS
  1
HATCH
  2
AcDbHatch
  3
AutoCAD 2000
 90
        0
280
     0
281
     1
  0
CLASS
  1
XRECORD
  2
AcDbXrecord
  3
AutoCAD 2000
 90
        0
280
     0
281
     0
  0
CLASS
  1
LONG_TRANSACTION
  2
AcDbLongTransaction
  3
AutoCAD 2000
 90
        0
280
     0
281
     0
  0
CLASS
  1
LWPOLYLINE
  2
AcDbPolyline
  3
AutoCAD 2000
 90
        0
280
     0
281
     1
  0
CLASS
  1
HATCH
  2
AcDbHatch
  3
AutoCAD 2000
 90
        0
280
     0
281
     1
  0
CLASS
  1
XRECORD
  2
AcDbXrecord
  3
AutoCAD 2000
 90
        0
280
     0
281
     0
  0
CLASS
  1
LONG_TRANSACTION
  2
AcDbLongTransaction
  3
AutoCAD 2000
 90
        0
280
     0
281
     0
  0
CLASS
  1
LWPOLYLINE
  2
AcDbPolyline
  3
AutoCAD 2000
 90
        0
280
     0
281
     1
  0
CLASS
  1
HATCH
  2
AcDbHatch
  3
AutoCAD 2000
 90
        0
280
     0
281
     1
  0
CLASS
  1
XRECORD
  2
AcDbXrecord
  3
AutoCAD 2000
 90
        0
280
     0
281
     0
  0
CLASS
  1
LONG_TRANSACTION
  2
AcDbLongTransaction
  3
AutoCAD 2000
 90
        0
280
     0
281
     0
  0
CLASS
  1
LWPOLYLINE
  2
AcDbPolyline
  3
AutoCAD 2000
 90
        0
280
     0
281
     1
  0
CLASS
  1
HATCH
  2
AcDbHatch
  3
AutoCAD 2000
 90
        0
280
     0
281
     1
  0
CLASS
  1
XRECORD
  2
AcDbXrecord
  3
AutoCAD 2000
 90
        0
280
     0
281
     0
  0
ENDSEC
  0
SECTION
  2
TABLES
  0
TABLE
  2
VPORT
  5
8
330
0
100
AcDbSymbolTable
 70
     3
  0
VPORT
  5
17D2
330
8
100
AcDbSymbolTableRecord
100
AcDbViewportTableRecord
  2
*ACTIVE
 70
     0
 10
0.0
 20
0.0
 11
1.0
 21
1.0
 12
89.50543308
 22
19.90045419
 13
0.0
 23
0.0
 14
7.0
 24
7.0
 15
7.0
 25
7.0
 16
0.0
 26
0.0
 36
1.0
 17
0.0
 27
0.0
 37
0.0
 40
180.4726364
 41
1.43184713
 42
50.0
 43
0.0
 44
0.0
 50
0.0
 51
0.0
 71
     0
 72
  2000
 73
     1
 74
     0
 75
     0
 76
     0
 77
     0
 78
     0
  0
ENDTAB
  0
TABLE
  2
LTYPE
  5
5
330
0
100
AcDbSymbolTable
 70
     4
  0
LTYPE
  5
14
330
5
100
AcDbSymbolTableRecord
100
AcDbLinetypeTableRecord
  2
BYBLOCK
 70
     0
  3

 72
    65
 73
     0
 40
0.0
  0
LTYPE
  5
15
330
5
100
AcDbSymbolTableRecord
100
AcDbLinetypeTableRecord
  2
BYLAYER
 70
     0
  3

 72
    65
 73
     0
 40
0.0
  0
LTYPE
  5
16
330
5
100
AcDbSymbolTableRecord
100
AcDbLinetypeTableRecord
  2
CONTINUOUS
 70
     0
  3
Solid line
 72
    65
 73
     0
 40
0.0
  0
LTYPE
  5
258
330
5
100
AcDbSymbolTableRecord
100
AcDbLinetypeTableRecord
  2
CENTER2
 70
     0
  3
___ _ ___ _ ___ _ ___ _ ___ _ ___ _ ___ _ ___ _
 72
    65
 73
     4
 40
1.125
 49
0.75
 74
     0
 49
-0.125
 74
     0
 49
0.125
 74
     0
 49
-0.125
 74
     0
  0
LTYPE
  5
25C
330
5
100
AcDbSymbolTableRecord
100
AcDbLinetypeTableRecord
  2
HIDDEN2
 70
     0
  3
_ _ _ _ _ _ _ _ _ _ _ _ _ _ _ _ _ _ _ _ _ _ _ _
 72
    65
 73
     2
 40
0.1875
 49
0.125
 74
     0
 49
-0.0625
 74
     0
  0
LTYPE
  5
1021
330
5
100
AcDbSymbolTableRecord
100
AcDbLinetypeTableRecord
  2
PHANTOM2
 70
     0
  3
___ _ _ ___ _ _ ___ _ _ ___ _ _ ___ _ _ ___ _ _
 72
    65
 73
     6
 40
1.25
 49
0.625
 74
     0
 49
-0.125
 74
     0
 49
0.125
 74
     0
 49
-0.125
 74
     0
 49
0.125
 74
     0
 49
-0.125
 74
     0
  0
ENDTAB
  0
TABLE
  2
LAYER
  5
2
330
0
100
AcDbSymbolTable
 70
    11
  0
LAYER
  5
F
330
2
100
AcDbSymbolTableRecord
100
AcDbLayerTableRecord
  2
0
 70
     0
 62
     7
  6
CONTINUOUS
  0
LAYER
  5
1AA
330
2
100
AcDbSymbolTableRecord
100
AcDbLayerTableRecord
  2
240
 70
     0
 62
     4
  6
CONTINUOUS
  0
LAYER
  5
1AB
330
2
100
AcDbSymbolTableRecord
100
AcDbLayerTableRecord
  2
241
 70
     0
 62
   211
  6
CONTINUOUS
  0
LAYER
  5
1AC
330
2
100
AcDbSymbolTableRecord
100
AcDbLayerTableRecord
  2
242
 70
     0
 62
     3
  6
CONTINUOUS
  0
LAYER
  5
1AF
330
2
100
AcDbSymbolTableRecord
100
AcDbLayerTableRecord
  2
245
 70
     0
 62
     2
  6
CENTER2
  0
LAYER
  5
21E
330
2
100
AcDbSymbolTableRecord
100
AcDbLayerTableRecord
  2
250
 70
     0
 62
     3
  6
CONTINUOUS
  0
LAYER
  5
21F
330
2
100
AcDbSymbolTableRecord
100
AcDbLayerTableRecord
  2
251
 70
     0
 62
    40
  6
CONTINUOUS
  0
LAYER
  5
5C4
330
2
100
AcDbSymbolTableRecord
100
AcDbLayerTableRecord
  2
DEFPOINTS
 70
     0
 62
     7
  6
CONTINUOUS
  0
LAYER
  5
1022
330
2
100
AcDbSymbolTableRecord
100
AcDbLayerTableRecord
  2
246
 70
     0
 62
     3
  6
PHANTOM2
  0
ENDTAB
  0
TABLE
  2
STYLE
  5
3
330
0
100
AcDbSymbolTable
 70
     2
  0
STYLE
  5
10
330
3
100
AcDbSymbolTableRecord
100
AcDbTextStyleTableRecord
  2
STANDARD
 70
     0
 40
0.0
 41
1.0
 50
0.0
 71
     0
 42
3.0
  3
romans.shx
  4
BIGFONT.SHX
  0
STYLE
  5
339
330
3
100
AcDbSymbolTableRecord
100
AcDbTextStyleTableRecord
  2
YOKO
 70
     0
 40
0.0
 41
1.0
 50
0.0
 71
     0
 42
3.0
  3
romans.shx
  4
extfont.shx
  0
ENDTAB
  0
TABLE
  2
VIEW
  5
6
330
0
100
AcDbSymbolTable
 70
     0
  0
ENDTAB
  0
TABLE
  2
UCS
  5
7
330
0
100
AcDbSymbolTable
 70
     0
  0
ENDTAB
  0
TABLE
  2
APPID
  5
9
330
0
100
AcDbSymbolTable
 70
     9
  0
APPID
  5
11
330
9
100
AcDbSymbolTableRecord
100
AcDbRegAppTableRecord
  2
ACAD
 70
     0
  0
APPID
  5
1B1
330
9
100
AcDbSymbolTableRecord
100
AcDbRegAppTableRecord
  2
GLOBAL
 70
     0
  0
APPID
  5
2A4
330
9
100
AcDbSymbolTableRecord
100
AcDbRegAppTableRecord
  2
DETAIL
 70
     0
  0
APPID
  5
5FD
330
9
100
AcDbSymbolTableRecord
100
AcDbRegAppTableRecord
  2
GRPNAME
 70
     0
  0
APPID
  5
5FE
330
9
100
AcDbSymbolTableRecord
100
AcDbRegAppTableRecord
  2
GPARA
 70
     0
  0
APPID
  5
6C4
330
9
100
AcDbSymbolTableRecord
100
AcDbRegAppTableRecord
  2
DCO15
 70
     0
  0
APPID
  5
6C5
330
9
100
AcDbSymbolTableRecord
100
AcDbRegAppTableRecord
  2
ITEMNAME
 70
     0
  0
APPID
  5
6C6
330
9
100
AcDbSymbolTableRecord
100
AcDbRegAppTableRecord
  2
GRADE_0
 70
     0
  0
APPID
  5
F9C
330
9
100
AcDbSymbolTableRecord
100
AcDbRegAppTableRecord
  2
CONTENTBLOCKICON
 70
     0
  0
ENDTAB
  0
TABLE
  2
DIMSTYLE
  5
A
330
0
100
AcDbSymbolTable
 70
     2
  0
DIMSTYLE
105
725
102
{ACAD_REACTORS
330
1082
330
13FC
102
}
330
A
100
AcDbSymbolTableRecord
100
AcDbDimStyleTableRecord
  2
BIGT
 70
     0
  3

  4

  5

  6
OPEN
  7
OPEN
 40
1.0
 41
2.23
 42
0.5
 43
2.5
 44
1.0
 45
0.0
 46
0.0
 47
0.0
 48
0.0
140
2.8
141
0.0
142
0.0
143
25.4
144
1.0
145
0.0
146
1.0
147
1.0
 71
     0
 72
     0
 73
     0
 74
     0
 75
     0
 76
     0
 77
     3
 78
     8
170
     0
171
     2
172
     1
173
     1
174
     1
175
     0
176
   256
177
   256
178
    40
270
     2
271
     3
272
     3
273
     2
274
     2
340
10
275
     0
280
     0
281
     0
282
     0
283
     1
284
     8
285
     0
286
     0
287
     3
288
     0
  0
DIMSTYLE
105
903
102
{ACAD_REACTORS
330
915
330
13F5
330
1588
102
}
330
A
100
AcDbSymbolTableRecord
100
AcDbDimStyleTableRecord
  2
BIGT$0
 70
     0
  3

  4
"
  5
OPEN
  6

  7

 40
1.0
 41
2.23
 42
0.5
 43
7.0
 44
1.0
 45
0.0
 46
0.0
 47
0.1
 48
0.1
140
3.0
141
0.0
142
0.0
143
0.0393701
144
1.0
145
0.0
146
0.71
147
1.0
 71
     0
 72
     0
 73
     0
 74
     0
 75
     0
 76
     0
 77
     3
 78
     8
170
     0
171
     2
172
     1
173
     0
174
     0
175
     0
176
     3
177
     3
178
    40
270
     2
271
     3
272
     3
273
     2
274
     2
340
10
275
     0
280
     0
281
     0
282
     0
283
     1
284
     8
285
     0
286
     0
287
     3
288
     0
  0
ENDTAB
  0
TABLE
  2
BLOCK_RECORD
  5
1
330
0
100
AcDbSymbolTable
 70
     9
  0
BLOCK_RECORD
  5
1A
102
{ACAD_XDICTIONARY
360
F9A
102
}
330
1
100
AcDbSymbolTableRecord
100
AcDbBlockTableRecord
  2
*MODEL_SPACE
  0
BLOCK_RECORD
  5
17
102
{ACAD_XDICTIONARY
360
F98
102
}
330
1
100
AcDbSymbolTableRecord
100
AcDbBlockTableRecord
  2
*PAPER_SPACE
  0
BLOCK_RECORD
  5
594
330
1
100
AcDbSymbolTableRecord
100
AcDbBlockTableRecord
  2
_OPEN
  0
BLOCK_RECORD
  5
6E3
330
1
100
AcDbSymbolTableRecord
100
AcDbBlockTableRecord
  2
矢印なし
  0
BLOCK_RECORD
  5
78F
330
1
100
AcDbSymbolTableRecord
100
AcDbBlockTableRecord
  2
1
1001
CONTENTBLOCKICON
1071
        0
1004
2800000020000000200000000100080000000000000400000000000000000000000000000000000000000000000080000080000000808000800000008000800080800000C0C0C000C0DCC000F0CAA6000020400000206000002080000020A0000020C0000020E00000400000004020000040400000406000004080000040A0
1004
000040C0000040E00000600000006020000060400000606000006080000060A0000060C0000060E00000800000008020000080400000806000008080000080A0000080C0000080E00000A0000000A0200000A0400000A0600000A0800000A0A00000A0C00000A0E00000C0000000C0200000C0400000C0600000C0800000C0
1004
A00000C0C00000C0E00000E0000000E0200000E0400000E0600000E0800000E0A00000E0C00000E0E00040000000400020004000400040006000400080004000A0004000C0004000E00040200000402020004020400040206000402080004020A0004020C0004020E000404000004040200040404000404060004040800040
1004
40A0004040C0004040E00040600000406020004060400040606000406080004060A0004060C0004060E00040800000408020004080400040806000408080004080A0004080C0004080E00040A0000040A0200040A0400040A0600040A0800040A0A00040A0C00040A0E00040C0000040C0200040C0400040C0600040C08000
1004
40C0A00040C0C00040C0E00040E0000040E0200040E0400040E0600040E0800040E0A00040E0C00040E0E00080000000800020008000400080006000800080008000A0008000C0008000E00080200000802020008020400080206000802080008020A0008020C0008020E00080400000804020008040400080406000804080
1004
008040A0008040C0008040E00080600000806020008060400080606000806080008060A0008060C0008060E00080800000808020008080400080806000808080008080A0008080C0008080E00080A0000080A0200080A0400080A0600080A0800080A0A00080A0C00080A0E00080C0000080C0200080C0400080C0600080C0
1004
800080C0A00080C0C00080C0E00080E0000080E0200080E0400080E0600080E0800080E0A00080E0C00080E0E000C0000000C0002000C0004000C0006000C0008000C000A000C000C000C000E000C0200000C0202000C0204000C0206000C0208000C020A000C020C000C020E000C0400000C0402000C0404000C0406000C0
1004
408000C040A000C040C000C040E000C0600000C0602000C0604000C0606000C0608000C060A000C060C000C060E000C0800000C0802000C0804000C0806000C0808000C080A000C080C000C080E000C0A00000C0A02000C0A04000C0A06000C0A08000C0A0A000C0A0C000C0A0E000C0C00000C0C02000C0C04000C0C06000
1004
C0C08000C0C0A000F0FBFF00A4A0A000808080000000FF0000FF000000FFFF00FF000000FF00FF00FFFF0000FFFFFF0000000000000000000000000000000000000000000000000000000000000000000000000000000000000000000000000000000000000000000000000000000000000000000000000000000000000000
1004
00000000000000000000000000000000000000000000000000000000000000000000000000000000000000000000000000000000000000000000000000000000000000000000000000000000000000000000000000000000000000000000000000000000000000000000000000000000000000000000000000000000000000
1004
00000000000000000000000000000000000000000000000000000000000000000000000000000000000000000000000000000000000000000000000000000000000000000000000000000000000000000000000000000000000000000000000000000000000000000000000000000000000000000000000000000000000000
1004
000000000000000000000000000000000000000000000000000000000000000000000000000000000000000000000000000000000000000000FEE7FEFE000000000000000000000000000000000000000000000000FAFEFEFEFEE7E7FEFEFEFEFEFEFEFEFEFEFEFEFEFEFEFEFEFEFEFEFE00000000E7000000E7E7E7FE0000
1004
000000000000000000000000000000FAE7FE00000000E7000000E70000FE0000000000000000000000000000000000FAE7E7000000FBE7FBFBFBE7FBFBFEFBFBFBFBFBFBFBFBFBFBFBFBFBFBFBFBE7FAE7E7FB000000E7000000E7E7E7FE0000000000000000000000000000000000FEFEFE00000000FEFEFEFEFEE7E7FEFE
1004
FEFEFEFEFEFEFEFEFEFEFEFEFEFEFEFEFEFEFE0000000000000000FEE7FEFE000000000000000000000000000000000000000000000000000000000000000000000000000000000000000000000000000000000000000000000000000000000000000000000000000000000000000000000000000000000000000000000000
1004
00000000000000000000000000000000000000000000000000000000000000000000000000000000000000000000000000000000000000000000000000000000000000000000000000000000000000000000000000000000000000000000000000000000000000000000000000000000000000000000000000000000000000
1004
00000000000000000000000000000000000000000000000000000000000000000000000000000000000000000000000000000000000000000000000000000000000000000000000000000000000000000000000000000000000000000000000000000000000000000000000000000000000000000000000000000000000000
1004
0000000000000000000000000000000000000000000000000000000000000000000000000000000000000000000000000000000000000000
  0
BLOCK_RECORD
  5
918
330
1
100
AcDbSymbolTableRecord
100
AcDbBlockTableRecord
  2
*D3
  0
BLOCK_RECORD
  5
10DA
330
1
100
AcDbSymbolTableRecord
100
AcDbBlockTableRecord
  2
*D4
  0
BLOCK_RECORD
  5
1542
330
1
100
AcDbSymbolTableRecord
100
AcDbBlockTableRecord
  2
*D5
  0
BLOCK_RECORD
  5
154E
330
1
100
AcDbSymbolTableRecord
100
AcDbBlockTableRecord
  2
*D6
  0
BLOCK_RECORD
  5
1589
330
1
100
AcDbSymbolTableRecord
100
AcDbBlockTableRecord
  2
*D7
  0
ENDTAB
  0
ENDSEC
  0
SECTION
  2
BLOCKS
  0
BLOCK
  5
1B
330
1A
100
AcDbEntity
  8
0
100
AcDbBlockBegin
  2
*MODEL_SPACE
 70
     0
 10
0.0
 20
0.0
 30
0.0
  3
*MODEL_SPACE
  1

  0
ENDBLK
  5
1C
330
1A
100
AcDbEntity
  8
0
100
AcDbBlockEnd
  0
BLOCK
  5
18
330
17
100
AcDbEntity
 67
     1
  8
0
100
AcDbBlockBegin
  2
*PAPER_SPACE
 70
     0
 10
0.0
 20
0.0
 30
0.0
  3
*PAPER_SPACE
  1

  0
ENDBLK
  5
19
330
17
100
AcDbEntity
 67
     1
  8
0
100
AcDbBlockEnd
  0
BLOCK
  5
598
330
594
100
AcDbEntity
  8
0
100
AcDbBlockBegin
  2
_OPEN
 70
     0
 10
0.0
 20
0.0
 30
0.0
  3
_OPEN
  1

  0
LINE
  5
595
330
594
100
AcDbEntity
  8
0
  6
BYBLOCK
 62
     0
100
AcDbLine
 10
-1.0
 20
0.16666667
 30
0.0
 11
0.0
 21
0.0
 31
0.0
  0
LINE
  5
596
330
594
100
AcDbEntity
  8
0
  6
BYBLOCK
 62
     0
100
AcDbLine
 10
-1.0
 20
-0.16666667
 30
0.0
 11
0.0
 21
0.0
 31
0.0
  0
LINE
  5
597
330
594
100
AcDbEntity
  8
0
  6
BYBLOCK
 62
     0
100
AcDbLine
 10
0.0
 20
0.0
 30
0.0
 11
-1.0
 21
0.0
 31
0.0
  0
ENDBLK
  5
599
330
594
100
AcDbEntity
  8
0
100
AcDbBlockEnd
  0
BLOCK
  5
6E4
330
6E3
100
AcDbEntity
  8
0
100
AcDbBlockBegin
  2
矢印なし
 70
     0
 10
0.0
 20
0.0
 30
0.0
  3
矢印なし
  1

  0
ENDBLK
  5
6E5
330
6E3
100
AcDbEntity
  8
0
100
AcDbBlockEnd
  0
BLOCK
  5
901
330
78F
100
AcDbEntity
  8
0
100
AcDbBlockBegin
  2
1
 70
     0
 10
0.0
 20
0.0
 30
0.0
  3
1
  1

  0
LINE
  5
15D4
330
78F
100
AcDbEntity
  8
241
  6
CONTINUOUS
100
AcDbLine
 10
184.5
 20
-9.23205081
 30
0.0
 11
193.5
 21
-9.23205081
 31
0.0
1001
GRPNAME
1000
PASTMD0C
  0
LINE
  5
15D5
330
78F
100
AcDbEntity
  8
241
  6
CONTINUOUS
100
AcDbLine
 10
185.3
 20
-10.42472013
 30
0.0
 11
193.5
 21
-10.42472013
 31
0.0
1001
GRPNAME
1000
PASTMD0C
  0
LINE
  5
15D6
330
78F
100
AcDbEntity
  8
241
  6
CONTINUOUS
100
AcDbLine
 10
185.3
 20
6.96061852
 30
0.0
 11
193.5
 21
6.96061852
 31
0.0
1001
GRPNAME
1000
PASTMD0C
  0
LINE
  5
15D7
330
78F
100
AcDbEntity
  8
241
  6
CONTINUOUS
100
AcDbLine
 10
185.3
 20
-6.96061852
 30
0.0
 11
193.5
 21
-6.96061852
 31
0.0
1001
GRPNAME
1000
PASTMD0C
  0
LINE
  5
15D8
330
78F
100
AcDbEntity
  8
241
  6
CONTINUOUS
100
AcDbLine
 10
184.5
 20
9.23205081
 30
0.0
 11
193.5
 21
9.23205081
 31
0.0
1001
GRPNAME
1000
PASTMD0C
  0
LINE
  5
15D9
330
78F
100
AcDbEntity
  8
241
  6
CONTINUOUS
100
AcDbLine
 10
185.3
 20
10.42472013
 30
0.0
 11
193.5
 21
10.42472013
 31
0.0
1001
GRPNAME
1000
PASTMD0C
  0
LINE
  5
15DA
330
78F
100
AcDbEntity
  8
240
  6
CONTINUOUS
100
AcDbLine
 10
185.3
 20
-17.5
 30
0.0
 11
198.41862915
 21
-17.5
 31
0.0
1001
GRPNAME
1000
PASTMD0C
  0
LINE
  5
15DB
330
78F
100
AcDbEntity
  8
241
  6
HIDDEN2
100
AcDbLine
 10
168.60161979
 20
7.53510259
 30
0.0
 11
194.4535521
 21
10.25225016
 31
0.0
1001
GRPNAME
1000
PASTMD0C
  0
LINE
  5
15DC
330
78F
100
AcDbEntity
  8
241
  6
HIDDEN2
100
AcDbLine
 10
168.60161979
 20
6.5
 30
0.0
 11
200.0
 21
6.5
 31
0.0
1001
GRPNAME
1000
PASTMD0C
  0
LINE
  5
15DD
330
78F
100
AcDbEntity
  8
240
  6
CONTINUOUS
100
AcDbLine
 10
185.3
 20
17.5
 30
0.0
 11
198.41862915
 21
17.5
 31
0.0
1001
GRPNAME
1000
PASTMD0C
  0
LINE
  5
15DE
330
78F
100
AcDbEntity
  8
245
  6
CENTER2
100
AcDbLine
 10
-39.0
 20
0.0
 30
0.0
 11
201.0
 21
0.0
 31
0.0
  0
LINE
  5
15DF
330
78F
100
AcDbEntity
  8
240
100
AcDbLine
 10
178.10161979
 20
17.25
 30
0.0
 11
32.0
 21
17.25
 31
0.0
  0
LINE
  5
15E0
330
78F
100
AcDbEntity
  8
240
100
AcDbLine
 10
178.10161979
 20
-17.25
 30
0.0
 11
32.0
 21
-17.25
 31
0.0
  0
LINE
  5
15E1
330
78F
100
AcDbEntity
  8
240
  6
CONTINUOUS
100
AcDbLine
 10
22.0
 20
-30.4925
 30
0.0
 11
22.0
 21
30.4925
 31
0.0
  0
LINE
  5
15E2
330
78F
100
AcDbEntity
  8
240
  6
CONTINUOUS
100
AcDbLine
 10
0.0
 20
30.9925
 30
0.0
 11
0.0
 21
-30.9925
 31
0.0
  0
SPLINE
  5
15E3
330
78F
100
AcDbEntity
  8
241
  6
CONTINUOUS
100
AcDbSpline
210
0.0
220
0.0
230
1.0
 70
     8
 71
     3
 72
     9
 73
     5
 74
     3
 42
0.0000000001
 43
0.0000000001
 44
0.0000000001
 40
0.0
 40
0.0
 40
0.0
 40
0.0
 40
10.74384375536296
 40
21.48768751072607
 40
21.48768751072607
 40
21.48768751072607
 40
21.48768751072607
 10
9.9500000000001
 20
8.992341421163501
 30
0.0
 10
9.057475418454039
 20
12.52384689373144
 30
0.0
 10
7.272426255361907
 20
19.58685783886736
 30
0.0
 10
9.057475418453993
 20
26.6498687840033
 30
0.0
 10
9.950000000000043
 20
30.1813742565713
 30
0.0
 11
9.9500000000001
 21
8.992341421163501
 31
0.0
 11
8.164950836907962
 21
19.58685783886732
 31
0.0
 11
9.950000000000043
 21
30.1813742565713
 31
0.0
  0
LINE
  5
15E4
330
78F
100
AcDbEntity
  8
241
  6
CONTINUOUS
100
AcDbLine
 10
9.95
 20
8.99234142
 30
0.0
 11
9.95
 21
30.18137426
 31
0.0
  0
SPLINE
  5
15E5
330
78F
100
AcDbEntity
  8
241
  6
CONTINUOUS
100
AcDbSpline
210
0.0
220
0.0
230
1.0
 70
     8
 71
     3
 72
     9
 73
     5
 74
     3
 42
0.0000000001
 43
0.0000000001
 44
0.0000000001
 40
0.0
 40
0.0
 40
0.0
 40
0.0
 40
10.74384375536299
 40
21.48768751072605
 40
21.48768751072605
 40
21.48768751072605
 40
21.48768751072605
 10
14.05000000000018
 20
30.1813742565713
 30
0.0
 10
14.94252458154622
 20
26.64986878400334
 30
0.0
 10
16.72757374463832
 20
19.58685783886741
 30
0.0
 10
14.94252458154617
 20
12.52384689373149
 30
0.0
 10
14.05000000000009
 20
8.992341421163525
 30
0.0
 11
14.05000000000018
 21
30.1813742565713
 31
0.0
 11
15.83504916309226
 21
19.58685783886744
 31
0.0
 11
14.05000000000009
 21
8.992341421163525
 31
0.0
  0
LINE
  5
15E6
330
78F
100
AcDbEntity
  8
241
  6
CONTINUOUS
100
AcDbLine
 10
14.05
 20
8.99234142
 30
0.0
 11
14.05
 21
30.18137426
 31
0.0
  0
LINE
  5
15E7
330
78F
100
AcDbEntity
  8
240
  6
CONTINUOUS
100
AcDbLine
 10
-2.19993752
 20
-20.62000332
 30
0.0
 11
-36.5
 21
-19.76242639
 31
0.0
  0
LINE
  5
15E8
330
78F
100
AcDbEntity
  8
240
  6
CONTINUOUS
100
AcDbLine
 10
-36.5
 20
22.56242639
 30
0.0
 11
-1.98947881
 21
23.42526525
 31
0.0
  0
LINE
  5
15E9
330
78F
100
AcDbEntity
  8
240
  6
CONTINUOUS
100
AcDbLine
 10
-38.0
 20
-18.26242639
 30
0.0
 11
-38.0
 21
21.69640099
 31
0.0
  0
LINE
  5
15EA
330
78F
100
AcDbEntity
  8
241
  6
CONTINUOUS
100
AcDbLine
 10
-36.5
 20
-19.76242639
 30
0.0
 11
-36.5
 21
22.56242639
 31
0.0
  0
LINE
  5
15EB
330
78F
100
AcDbEntity
  8
242
  6
HIDDEN2
100
AcDbLine
 10
-38.0
 20
-18.0
 30
0.0
 11
-31.8
 21
-18.0
 31
0.0
  0
LINE
  5
15EC
330
78F
100
AcDbEntity
  8
240
  6
CONTINUOUS
100
AcDbLine
 10
-36.5
 20
-19.76242639
 30
0.0
 11
-38.0
 21
-18.26242639
 31
0.0
  0
LINE
  5
15ED
330
78F
100
AcDbEntity
  8
242
  6
HIDDEN2
100
AcDbLine
 10
-29.87185543
 20
-19.92814457
 30
0.0
 11
-31.8
 21
-18.0
 31
0.0
  0
LINE
  5
15EE
330
78F
100
AcDbEntity
  8
242
  6
HIDDEN2
100
AcDbLine
 10
-31.8
 20
-19.87993672
 30
0.0
 11
-31.8
 21
-18.0
 31
0.0
  0
LINE
  5
15EF
330
78F
100
AcDbEntity
  8
240
  6
CONTINUOUS
100
AcDbLine
 10
-38.0
 20
21.69640099
 30
0.0
 11
-36.5
 21
22.56242639
 31
0.0
  0
ARC
  5
15F0
330
78F
100
AcDbEntity
  8
240
100
AcDbCircle
 10
32.0
 20
-27.25
 30
0.0
 40
10.0
100
AcDbArc
 50
90.0
 51
180.0
  0
LINE
  5
15F1
330
78F
100
AcDbEntity
  8
241
  6
CONTINUOUS
100
AcDbLine
 10
14.05
 20
-8.99234142
 30
0.0
 11
14.05
 21
-30.18137426
 31
0.0
  0
SPLINE
  5
15F2
330
78F
100
AcDbEntity
  8
241
  6
CONTINUOUS
100
AcDbSpline
210
0.0
220
0.0
230
1.0
 70
     8
 71
     3
 72
     9
 73
     5
 74
     3
 42
0.0000000001
 43
0.0000000001
 44
0.0000000001
 40
0.0
 40
0.0
 40
0.0
 40
0.0
 40
10.74384375536302
 40
21.48768751072608
 40
21.48768751072608
 40
21.48768751072608
 40
21.48768751072608
 10
14.05000000000018
 20
-30.1813742565713
 30
0.0
 10
14.94252458154622
 20
-26.64986878400333
 30
0.0
 10
16.72757374463832
 20
-19.58685783886739
 30
0.0
 10
14.94252458154617
 20
-12.52384689373147
 30
0.0
 10
14.05000000000009
 20
-8.992341421163501
 30
0.0
 11
14.05000000000018
 21
-30.1813742565713
 31
0.0
 11
15.83504916309226
 21
-19.58685783886741
 31
0.0
 11
14.05000000000009
 21
-8.992341421163501
 31
0.0
  0
LINE
  5
15F3
330
78F
100
AcDbEntity
  8
241
  6
CONTINUOUS
100
AcDbLine
 10
9.95
 20
-8.99234142
 30
0.0
 11
9.95
 21
-30.18137426
 31
0.0
  0
SPLINE
  5
15F4
330
78F
100
AcDbEntity
  8
241
  6
CONTINUOUS
100
AcDbSpline
210
0.0
220
0.0
230
1.0
 70
     8
 71
     3
 72
     9
 73
     5
 74
     3
 42
0.0000000001
 43
0.0000000001
 44
0.0000000001
 40
0.0
 40
0.0
 40
0.0
 40
0.0
 40
10.74384375536299
 40
21.48768751072609
 40
21.48768751072609
 40
21.48768751072609
 40
21.48768751072609
 10
9.9500000000001
 20
-8.992341421163501
 30
0.0
 10
9.057475418454039
 20
-12.52384689373145
 30
0.0
 10
7.272426255361907
 20
-19.58685783886738
 30
0.0
 10
9.057475418453995
 20
-26.64986878400333
 30
0.0
 10
9.950000000000043
 20
-30.18137425657132
 30
0.0
 11
9.9500000000001
 21
-8.992341421163501
 31
0.0
 11
8.164950836907962
 21
-19.58685783886735
 31
0.0
 11
9.950000000000043
 21
-30.18137425657132
 31
0.0
  0
LINE
  5
15F5
330
78F
100
AcDbEntity
  8
240
  6
CONTINUOUS
100
AcDbLine
 10
0.5
 20
-31.4925
 30
0.0
 11
21.0
 21
-31.4925
 31
0.0
  0
LINE
  5
15F6
330
78F
100
AcDbEntity
  8
241
  6
CONTINUOUS
100
AcDbLine
 10
9.95
 20
-30.18137426
 30
0.0
 11
14.05
 21
-30.18137426
 31
0.0
  0
ARC
  5
15F7
330
78F
100
AcDbEntity
  8
240
  6
CONTINUOUS
100
AcDbCircle
 10
0.5
 20
-30.9925
 30
0.0
 40
0.5
100
AcDbArc
 50
180.0
 51
270.0
  0
ARC
  5
15F8
330
78F
100
AcDbEntity
  8
240
  6
CONTINUOUS
100
AcDbCircle
 10
21.0
 20
-30.4925
 30
0.0
 40
1.0
100
AcDbArc
 50
270.0
 51
0.0
  0
LINE
  5
15F9
330
78F
100
AcDbEntity
  8
241
  6
CONTINUOUS
100
AcDbLine
 10
9.95
 20
-8.99234142
 30
0.0
 11
14.05
 21
-8.99234142
 31
0.0
  0
LINE
  5
15FA
330
78F
100
AcDbEntity
  8
241
  6
CONTINUOUS
100
AcDbLine
 10
9.95
 20
8.99234142
 30
0.0
 11
14.05
 21
8.99234142
 31
0.0
  0
LINE
  5
15FB
330
78F
100
AcDbEntity
  8
241
100
AcDbLine
 10
-2.19993752
 20
-20.62000332
 30
0.0
 11
-2.19993752
 21
23.42000332
 31
0.0
  0
LINE
  5
15FC
330
78F
100
AcDbEntity
  8
240
100
AcDbLine
 10
-2.19993752
 20
-20.62000332
 30
0.0
 11
0.0
 21
-20.62000332
 31
0.0
  0
LINE
  5
15FD
330
78F
100
AcDbEntity
  8
240
100
AcDbLine
 10
-2.19993752
 20
23.42000332
 30
0.0
 11
0.0
 21
23.42000332
 31
0.0
  0
ARC
  5
15FE
330
78F
100
AcDbEntity
  8
240
100
AcDbCircle
 10
32.0
 20
27.25
 30
0.0
 40
10.0
100
AcDbArc
 50
180.0
 51
270.0
  0
LINE
  5
15FF
330
78F
100
AcDbEntity
  8
240
  6
CONTINUOUS
100
AcDbLine
 10
0.5
 20
31.4925
 30
0.0
 11
21.0
 21
31.4925
 31
0.0
  0
LINE
  5
1600
330
78F
100
AcDbEntity
  8
241
  6
CONTINUOUS
100
AcDbLine
 10
9.95
 20
30.18137426
 30
0.0
 11
14.05
 21
30.18137426
 31
0.0
  0
ARC
  5
1601
330
78F
100
AcDbEntity
  8
240
  6
CONTINUOUS
100
AcDbCircle
 10
0.5
 20
30.9925
 30
0.0
 40
0.5
100
AcDbArc
 50
90.0
 51
180.0
  0
ARC
  5
1602
330
78F
100
AcDbEntity
  8
240
  6
CONTINUOUS
100
AcDbCircle
 10
21.0
 20
30.4925
 30
0.0
 40
1.0
100
AcDbArc
 50
0.0
 51
90.0
  0
LINE
  5
1603
330
78F
100
AcDbEntity
  8
241
  6
CONTINUOUS
100
AcDbLine
 10
185.3
 20
-6.96061852
 30
0.0
 11
185.3
 21
6.96061852
 31
0.0
1001
GRPNAME
1000
PASTMD0C
  0
LINE
  5
1604
330
78F
100
AcDbEntity
  8
240
  6
CONTINUOUS
100
AcDbLine
 10
184.5
 20
-16.7
 30
0.0
 11
184.5
 21
16.7
 31
0.0
1001
GRPNAME
1000
PASTMD0C
  0
LINE
  5
1605
330
78F
100
AcDbEntity
  8
240
  6
CONTINUOUS
100
AcDbLine
 10
179.10161979
 20
16.25
 30
0.0
 11
179.10161979
 21
-16.25
 31
0.0
1001
GRPNAME
1000
PASTMD0C
  0
LINE
  5
1606
330
78F
100
AcDbEntity
  8
240
  6
CONTINUOUS
100
AcDbLine
 10
184.0
 20
-14.5
 30
0.0
 11
184.0
 21
14.5
 31
0.0
1001
GRPNAME
1000
PASTMD0C
  0
LINE
  5
1607
330
78F
100
AcDbEntity
  8
242
  6
CONTINUOUS
100
AcDbLine
 10
181.10161979
 20
-13.0
 30
0.0
 11
181.10161979
 21
13.0
 31
0.0
1001
GRPNAME
1000
PASTMD0C
  0
LINE
  5
1608
330
78F
100
AcDbEntity
  8
241
  6
HIDDEN2
100
AcDbLine
 10
168.60161979
 20
7.53510259
 30
0.0
 11
168.60161979
 21
0.0
 31
0.0
1001
GRPNAME
1000
PASTMD0C
  0
LINE
  5
1609
330
78F
100
AcDbEntity
  8
242
  6
CONTINUOUS
100
AcDbLine
 10
184.0
 20
-12.5
 30
0.0
 11
181.10161979
 21
-12.5
 31
0.0
1001
GRPNAME
1000
PASTMD0C
  0
LINE
  5
160A
330
78F
100
AcDbEntity
  8
240
  6
CONTINUOUS
100
AcDbLine
 10
184.0
 20
-13.0
 30
0.0
 11
180.10161979
 21
-13.0
 31
0.0
1001
GRPNAME
1000
PASTMD0C
  0
ARC
  5
160B
330
78F
100
AcDbEntity
  8
240
  6
CONTINUOUS
100
AcDbCircle
 10
178.10161979
 20
-16.25
 30
0.0
 40
1.0
100
AcDbArc
 50
269.99999997
 51
359.99999997
1001
GRPNAME
1000
PASTMD0C
  0
ARC
  5
160C
330
78F
100
AcDbEntity
  8
240
  6
CONTINUOUS
100
AcDbCircle
 10
180.10161979
 20
-14.0
 30
0.0
 40
1.0
100
AcDbArc
 50
89.99999999
 51
179.99999999
1001
GRPNAME
1000
PASTMD0C
  0
LINE
  5
160D
330
78F
100
AcDbEntity
  8
242
  6
CONTINUOUS
100
AcDbLine
 10
180.60161979
 20
-13.0
 30
0.0
 11
181.10161979
 21
-12.5
 31
0.0
1001
GRPNAME
1000
PASTMD0C
  0
LINE
  5
160E
330
78F
100
AcDbEntity
  8
241
  6
CONTINUOUS
100
AcDbLine
 10
185.3
 20
-17.5
 30
0.0
 11
185.3
 21
-10.42472013
 31
0.0
1001
GRPNAME
1000
PASTMD0C
  0
ARC
  5
160F
330
78F
100
AcDbEntity
  8
240
  6
CONTINUOUS
100
AcDbCircle
 10
185.3
 20
-16.7
 30
0.0
 40
0.8000000000000111
100
AcDbArc
 50
180.00000009
 51
270.00000009
1001
GRPNAME
1000
PASTMD0C
  0
LINE
  5
1610
330
78F
100
AcDbEntity
  8
240
  6
CONTINUOUS
100
AcDbLine
 10
184.5
 20
-15.0
 30
0.0
 11
184.0
 21
-14.5
 31
0.0
1001
GRPNAME
1000
PASTMD0C
  0
LWPOLYLINE
  5
1611
330
78F
100
AcDbEntity
  8
241
  6
CONTINUOUS
100
AcDbPolyline
 90
       70
 70
     0
 43
0.0
 10
184.5
 20
-10.02195431
 10
184.50020729
 20
-10.03112254
 10
184.50082906
 20
-10.04028603
 10
184.50186498
 20
-10.04944002
 10
184.50331453
 20
-10.05857976
 10
184.50517693
 20
-10.06770052
 10
184.50745124
 20
-10.07679758
 10
184.51013628
 20
-10.08586621
 10
184.51323064
 20
-10.09490173
 10
184.51673273
 20
-10.10389943
 10
184.52064073
 20
-10.11285468
 10
184.52495263
 20
-10.12176281
 10
184.52966617
 20
-10.13061923
 10
184.53477893
 20
-10.13941932
 10
184.54028824
 20
-10.14815855
 10
184.54619126
 20
-10.15683237
 10
184.55248493
 20
-10.16543629
 10
184.55916598
 20
-10.17396586
 10
184.56623096
 20
-10.18241665
 10
184.5736762
 20
-10.19078428
 10
184.58149784
 20
-10.19906442
 10
184.58969183
 20
-10.20725278
 10
184.59825392
 20
-10.21534511
 10
184.60717968
 20
-10.22333722
 10
184.61646448
 20
-10.23122496
 10
184.6261035
 20
-10.23900426
 10
184.63609177
 20
-10.24667107
 10
184.64642409
 20
-10.25422143
 10
184.65709511
 20
-10.26165142
 10
184.6680993
 20
-10.2689572
 10
184.67943097
 20
-10.27613496
 10
184.69108423
 20
-10.28318101
 10
184.70305305
 20
-10.29009168
 10
184.71533123
 20
-10.29686339
 10
184.7279124
 20
-10.30349263
 10
184.74079004
 20
-10.30997598
 10
184.75395749
 20
-10.31631006
 10
184.7674079
 20
-10.3224916
 10
184.78113433
 20
-10.32851739
 10
184.79512964
 20
-10.33438431
 10
184.8093866
 20
-10.34008931
 10
184.82389781
 20
-10.34562946
 10
184.83865574
 20
-10.35100186
 10
184.85365276
 20
-10.35620374
 10
184.86888109
 20
-10.3612324
 10
184.88433284
 20
-10.36608524
 10
184.9
 20
-10.37075974
 10
184.91587445
 20
-10.37525348
 10
184.93194797
 20
-10.37956413
 10
184.94821222
 20
-10.38368945
 10
184.96465878
 20
-10.38762732
 10
184.98127913
 20
-10.39137567
 10
184.99806464
 20
-10.39493259
 10
185.01500663
 20
-10.39829621
 10
185.03209631
 20
-10.40146481
 10
185.04932483
 20
-10.40443672
 10
185.06668325
 20
-10.40721043
 10
185.08416258
 20
-10.40978448
 10
185.10175377
 20
-10.41215755
 10
185.1194477
 20
-10.41432841
 10
185.13723519
 20
-10.41629592
 10
185.15510703
 20
-10.41805907
 10
185.17305396
 20
-10.41961695
 10
185.19106668
 20
-10.42096875
 10
185.20913585
 20
-10.42211377
 10
185.22725211
 20
-10.42305141
 10
185.24540607
 20
-10.42378119
 10
185.26358832
 20
-10.42430274
 10
185.28178944
 20
-10.42461577
 10
185.3
 20
-10.42472013
1001
GRPNAME
1000
PASTMD0C
  0
LWPOLYLINE
  5
1659
330
78F
100
AcDbEntity
  8
241
  6
CONTINUOUS
100
AcDbPolyline
 90
       70
 70
     0
 43
0.0
 10
184.5
 20
-6.55785269
 10
184.50020729
 20
-6.56702093
 10
184.50082906
 20
-6.57618442
 10
184.50186498
 20
-6.5853384
 10
184.50331453
 20
-6.59447815
 10
184.50517693
 20
-6.60359891
 10
184.50745124
 20
-6.61269596
 10
184.51013628
 20
-6.6217646
 10
184.51323064
 20
-6.63080011
 10
184.51673273
 20
-6.63979782
 10
184.52064073
 20
-6.64875306
 10
184.52495263
 20
-6.6576612
 10
184.52966617
 20
-6.66651761
 10
184.53477893
 20
-6.67531771
 10
184.54028824
 20
-6.68405693
 10
184.54619126
 20
-6.69273075
 10
184.55248493
 20
-6.70133468
 10
184.55916598
 20
-6.70986424
 10
184.56623096
 20
-6.71831503
 10
184.5736762
 20
-6.72668267
 10
184.58149784
 20
-6.73496281
 10
184.58969183
 20
-6.74315117
 10
184.59825392
 20
-6.7512435
 10
184.60717968
 20
-6.7592356
 10
184.61646448
 20
-6.76712335
 10
184.6261035
 20
-6.77490265
 10
184.63609177
 20
-6.78256946
 10
184.64642409
 20
-6.79011982
 10
184.65709511
 20
-6.79754981
 10
184.6680993
 20
-6.80485558
 10
184.67943097
 20
-6.81203335
 10
184.69108423
 20
-6.81907939
 10
184.70305305
 20
-6.82599006
 10
184.71533123
 20
-6.83276177
 10
184.7279124
 20
-6.83939102
 10
184.74079004
 20
-6.84587436
 10
184.75395749
 20
-6.85220844
 10
184.7674079
 20
-6.85838998
 10
184.78113433
 20
-6.86441577
 10
184.79512964
 20
-6.87028269
 10
184.8093866
 20
-6.8759877
 10
184.82389781
 20
-6.88152784
 10
184.83865574
 20
-6.88690025
 10
184.85365276
 20
-6.89210213
 10
184.86888109
 20
-6.89713079
 10
184.88433284
 20
-6.90198363
 10
184.9
 20
-6.90665813
 10
184.91587445
 20
-6.91115187
 10
184.93194797
 20
-6.91546251
 10
184.94821222
 20
-6.91958784
 10
184.96465878
 20
-6.9235257
 10
184.98127913
 20
-6.92727406
 10
184.99806464
 20
-6.93083097
 10
185.01500663
 20
-6.9341946
 10
185.03209631
 20
-6.93736319
 10
185.04932483
 20
-6.94033511
 10
185.06668325
 20
-6.94310881
 10
185.08416258
 20
-6.94568287
 10
185.10175377
 20
-6.94805594
 10
185.1194477
 20
-6.95022679
 10
185.13723519
 20
-6.9521943
 10
185.15510703
 20
-6.95395746
 10
185.17305396
 20
-6.95551534
 10
185.19106668
 20
-6.95686714
 10
185.20913585
 20
-6.95801215
 10
185.22725211
 20
-6.9589498
 10
185.24540607
 20
-6.95967958
 10
185.26358832
 20
-6.96020112
 10
185.28178944
 20
-6.96051416
 10
185.3
 20
-6.96061852
1001
GRPNAME
1000
PASTMD0C
  0
LINE
  5
16A1
330
78F
100
AcDbEntity
  8
241
  6
CONTINUOUS
100
AcDbLine
 10
185.3
 20
17.5
 30
0.0
 11
185.3
 21
10.42472013
 31
0.0
1001
GRPNAME
1000
PASTMD0C
  0
ARC
  5
16A2
330
78F
100
AcDbEntity
  8
240
  6
CONTINUOUS
100
AcDbCircle
 10
178.10161979
 20
16.25
 30
0.0
 40
1.0
100
AcDbArc
 50
0.0
 51
90.0
1001
GRPNAME
1000
PASTMD0C
  0
ARC
  5
16A3
330
78F
100
AcDbEntity
  8
240
  6
CONTINUOUS
100
AcDbCircle
 10
185.3
 20
16.7
 30
0.0
 40
0.8000000000000111
100
AcDbArc
 50
89.99999999
 51
179.99999999
1001
GRPNAME
1000
PASTMD0C
  0
LINE
  5
16A4
330
78F
100
AcDbEntity
  8
242
  6
CONTINUOUS
100
AcDbLine
 10
184.0
 20
12.5
 30
0.0
 11
181.10161979
 21
12.5
 31
0.0
1001
GRPNAME
1000
PASTMD0C
  0
LINE
  5
16A5
330
78F
100
AcDbEntity
  8
240
  6
CONTINUOUS
100
AcDbLine
 10
184.0
 20
13.0
 30
0.0
 11
180.10161979
 21
13.0
 31
0.0
1001
GRPNAME
1000
PASTMD0C
  0
LINE
  5
16A6
330
78F
100
AcDbEntity
  8
242
  6
CONTINUOUS
100
AcDbLine
 10
180.60161979
 20
13.0
 30
0.0
 11
181.10161979
 21
12.5
 31
0.0
1001
GRPNAME
1000
PASTMD0C
  0
ARC
  5
16A7
330
78F
100
AcDbEntity
  8
240
  6
CONTINUOUS
100
AcDbCircle
 10
180.10161979
 20
14.0
 30
0.0
 40
1.0
100
AcDbArc
 50
179.99999998
 51
269.99999998
1001
GRPNAME
1000
PASTMD0C
  0
LWPOLYLINE
  5
16A8
330
78F
100
AcDbEntity
  8
241
  6
CONTINUOUS
100
AcDbPolyline
 90
       70
 70
     0
 43
0.0
 10
184.5
 20
6.55785269
 10
184.50020729
 20
6.56702093
 10
184.50082906
 20
6.57618442
 10
184.50186498
 20
6.5853384
 10
184.50331453
 20
6.59447815
 10
184.50517693
 20
6.60359891
 10
184.50745124
 20
6.61269596
 10
184.51013628
 20
6.6217646
 10
184.51323064
 20
6.63080011
 10
184.51673273
 20
6.63979782
 10
184.52064073
 20
6.64875306
 10
184.52495263
 20
6.6576612
 10
184.52966617
 20
6.66651761
 10
184.53477893
 20
6.67531771
 10
184.54028824
 20
6.68405693
 10
184.54619126
 20
6.69273075
 10
184.55248493
 20
6.70133468
 10
184.55916598
 20
6.70986424
 10
184.56623096
 20
6.71831503
 10
184.5736762
 20
6.72668267
 10
184.58149784
 20
6.73496281
 10
184.58969183
 20
6.74315117
 10
184.59825392
 20
6.7512435
 10
184.60717968
 20
6.7592356
 10
184.61646448
 20
6.76712335
 10
184.6261035
 20
6.77490265
 10
184.63609177
 20
6.78256946
 10
184.64642409
 20
6.79011982
 10
184.65709511
 20
6.79754981
 10
184.6680993
 20
6.80485558
 10
184.67943097
 20
6.81203335
 10
184.69108423
 20
6.81907939
 10
184.70305305
 20
6.82599006
 10
184.71533123
 20
6.83276177
 10
184.7279124
 20
6.83939102
 10
184.74079004
 20
6.84587436
 10
184.75395749
 20
6.85220844
 10
184.7674079
 20
6.85838998
 10
184.78113433
 20
6.86441577
 10
184.79512964
 20
6.87028269
 10
184.8093866
 20
6.8759877
 10
184.82389781
 20
6.88152784
 10
184.83865574
 20
6.88690025
 10
184.85365276
 20
6.89210213
 10
184.86888109
 20
6.89713079
 10
184.88433284
 20
6.90198363
 10
184.9
 20
6.90665813
 10
184.91587445
 20
6.91115187
 10
184.93194797
 20
6.91546251
 10
184.94821222
 20
6.91958784
 10
184.96465878
 20
6.9235257
 10
184.98127913
 20
6.92727406
 10
184.99806464
 20
6.93083097
 10
185.01500663
 20
6.9341946
 10
185.03209631
 20
6.93736319
 10
185.04932483
 20
6.94033511
 10
185.06668325
 20
6.94310881
 10
185.08416258
 20
6.94568287
 10
185.10175377
 20
6.94805594
 10
185.1194477
 20
6.95022679
 10
185.13723519
 20
6.9521943
 10
185.15510703
 20
6.95395746
 10
185.17305396
 20
6.95551534
 10
185.19106668
 20
6.95686714
 10
185.20913585
 20
6.95801215
 10
185.22725211
 20
6.9589498
 10
185.24540607
 20
6.95967958
 10
185.26358832
 20
6.96020112
 10
185.28178944
 20
6.96051416
 10
185.3
 20
6.96061852
1001
GRPNAME
1000
PASTMD0C
  0
LWPOLYLINE
  5
16F0
330
78F
100
AcDbEntity
  8
241
  6
CONTINUOUS
100
AcDbPolyline
 90
       70
 70
     0
 43
0.0
 10
184.5
 20
10.02195431
 10
184.50020729
 20
10.03112254
 10
184.50082906
 20
10.04028603
 10
184.50186498
 20
10.04944002
 10
184.50331453
 20
10.05857976
 10
184.50517693
 20
10.06770052
 10
184.50745124
 20
10.07679758
 10
184.51013628
 20
10.08586621
 10
184.51323064
 20
10.09490173
 10
184.51673273
 20
10.10389943
 10
184.52064073
 20
10.11285468
 10
184.52495263
 20
10.12176281
 10
184.52966617
 20
10.13061923
 10
184.53477893
 20
10.13941932
 10
184.54028824
 20
10.14815855
 10
184.54619126
 20
10.15683237
 10
184.55248493
 20
10.16543629
 10
184.55916598
 20
10.17396586
 10
184.56623096
 20
10.18241665
 10
184.5736762
 20
10.19078428
 10
184.58149784
 20
10.19906442
 10
184.58969183
 20
10.20725278
 10
184.59825392
 20
10.21534511
 10
184.60717968
 20
10.22333722
 10
184.61646448
 20
10.23122496
 10
184.6261035
 20
10.23900426
 10
184.63609177
 20
10.24667107
 10
184.64642409
 20
10.25422143
 10
184.65709511
 20
10.26165142
 10
184.6680993
 20
10.2689572
 10
184.67943097
 20
10.27613496
 10
184.69108423
 20
10.28318101
 10
184.70305305
 20
10.29009168
 10
184.71533123
 20
10.29686339
 10
184.7279124
 20
10.30349263
 10
184.74079004
 20
10.30997598
 10
184.75395749
 20
10.31631006
 10
184.7674079
 20
10.3224916
 10
184.78113433
 20
10.32851739
 10
184.79512964
 20
10.33438431
 10
184.8093866
 20
10.34008931
 10
184.82389781
 20
10.34562946
 10
184.83865574
 20
10.35100186
 10
184.85365276
 20
10.35620374
 10
184.86888109
 20
10.3612324
 10
184.88433284
 20
10.36608524
 10
184.9
 20
10.37075974
 10
184.91587445
 20
10.37525348
 10
184.93194797
 20
10.37956413
 10
184.94821222
 20
10.38368945
 10
184.96465878
 20
10.38762732
 10
184.98127913
 20
10.39137567
 10
184.99806464
 20
10.39493259
 10
185.01500663
 20
10.39829621
 10
185.03209631
 20
10.40146481
 10
185.04932483
 20
10.40443672
 10
185.06668325
 20
10.40721043
 10
185.08416258
 20
10.40978448
 10
185.10175377
 20
10.41215755
 10
185.1194477
 20
10.41432841
 10
185.13723519
 20
10.41629592
 10
185.15510703
 20
10.41805907
 10
185.17305396
 20
10.41961695
 10
185.19106668
 20
10.42096875
 10
185.20913585
 20
10.42211377
 10
185.22725211
 20
10.42305141
 10
185.24540607
 20
10.42378119
 10
185.26358832
 20
10.42430274
 10
185.28178944
 20
10.42461577
 10
185.3
 20
10.42472013
1001
GRPNAME
1000
PASTMD0C
  0
LINE
  5
1738
330
78F
100
AcDbEntity
  8
240
  6
CONTINUOUS
100
AcDbLine
 10
184.0
 20
14.5
 30
0.0
 11
184.5
 21
15.0
 31
0.0
1001
GRPNAME
1000
PASTMD0C
  0
LINE
  5
1739
330
78F
100
AcDbEntity
  8
241
  6
CONTINUOUS
100
AcDbLine
 10
198.75
 20
17.42814378
 30
0.0
 11
198.75
 21
-17.42814378
 31
0.0
1001
GRPNAME
1000
PASTMD0C
  0
LINE
  5
173A
330
78F
100
AcDbEntity
  8
240
  6
CONTINUOUS
100
AcDbLine
 10
200.0
 20
15.96005051
 30
0.0
 11
200.0
 21
-15.96005051
 31
0.0
1001
GRPNAME
1000
PASTMD0C
  0
LINE
  5
173B
330
78F
100
AcDbEntity
  8
241
  6
CONTINUOUS
100
AcDbLine
 10
193.5
 20
-10.42472013
 30
0.0
 11
193.5
 21
-6.96061852
 31
0.0
1001
GRPNAME
1000
PASTMD0C
  0
LINE
  5
173C
330
78F
100
AcDbEntity
  8
240
  6
CONTINUOUS
100
AcDbLine
 10
198.98431458
 20
-17.26568542
 30
0.0
 11
199.79497475
 21
-16.45502525
 31
0.0
1001
GRPNAME
1000
PASTMD0C
  0
ARC
  5
173D
330
78F
100
AcDbEntity
  8
240
  6
CONTINUOUS
100
AcDbCircle
 10
198.41862915
 20
-16.7
 30
0.0
 40
0.8000000000000111
100
AcDbArc
 50
270.00000004
 51
315.00000004
1001
GRPNAME
1000
PASTMD0C
  0
ARC
  5
173E
330
78F
100
AcDbEntity
  8
240
  6
CONTINUOUS
100
AcDbCircle
 10
199.3
 20
-15.96005051
 30
0.0
 40
0.6999999999999634
100
AcDbArc
 50
315.00000004
 51
0.00000004
1001
GRPNAME
1000
PASTMD0C
  0
LINE
  5
173F
330
78F
100
AcDbEntity
  8
240
  6
CONTINUOUS
100
AcDbLine
 10
199.79497475
 20
16.45502525
 30
0.0
 11
198.98431458
 21
17.26568542
 31
0.0
1001
GRPNAME
1000
PASTMD0C
  0
LINE
  5
1740
330
78F
100
AcDbEntity
  8
241
  6
HIDDEN2
100
AcDbLine
 10
196.7535521
 20
10.25
 30
0.0
 11
200.0
 21
8.37566243
 31
0.0
1001
GRPNAME
1000
PASTMD0C
  0
LINE
  5
1741
330
78F
100
AcDbEntity
  8
241
  6
HIDDEN2
100
AcDbLine
 10
194.4535521
 20
8.75
 30
0.0
 11
196.5535521
 21
8.75
 31
0.0
1001
GRPNAME
1000
PASTMD0C
  0
LINE
  5
1742
330
78F
100
AcDbEntity
  8
241
  6
HIDDEN2
100
AcDbLine
 10
194.4535521
 20
8.75
 30
0.0
 11
194.4535521
 21
10.25225016
 31
0.0
1001
GRPNAME
1000
PASTMD0C
  0
LINE
  5
1743
330
78F
100
AcDbEntity
  8
241
  6
CONTINUOUS
100
AcDbLine
 10
193.5
 20
10.42472013
 30
0.0
 11
193.5
 21
6.96061852
 31
0.0
1001
GRPNAME
1000
PASTMD0C
  0
LINE
  5
1744
330
78F
100
AcDbEntity
  8
241
  6
HIDDEN2
100
AcDbLine
 10
196.5535521
 20
8.75
 30
0.0
 11
196.5535521
 21
10.25
 31
0.0
1001
GRPNAME
1000
PASTMD0C
  0
LINE
  5
1745
330
78F
100
AcDbEntity
  8
241
  6
CONTINUOUS
100
AcDbLine
 10
196.5535521
 20
10.25
 30
0.0
 11
196.7535521
 21
10.25
 31
0.0
1001
GRPNAME
1000
PASTMD0C
  0
ARC
  5
1746
330
78F
100
AcDbEntity
  8
240
  6
CONTINUOUS
100
AcDbCircle
 10
199.3
 20
15.96005051
 30
0.0
 40
0.7000000000000455
100
AcDbArc
 50
0.00000004
 51
45.00000004
1001
GRPNAME
1000
PASTMD0C
  0
ARC
  5
1747
330
78F
100
AcDbEntity
  8
240
  6
CONTINUOUS
100
AcDbCircle
 10
198.41862915
 20
16.7
 30
0.0
 40
0.7999999999999984
100
AcDbArc
 50
44.99999989
 51
89.99999989
1001
GRPNAME
1000
PASTMD0C
  0
ENDBLK
  5
902
330
78F
100
AcDbEntity
  8
0
100
AcDbBlockEnd
  0
BLOCK
  5
922
330
918
100
AcDbEntity
  8
0
100
AcDbBlockBegin
  2
*D3
 70
     1
 10
0.0
 20
0.0
 30
0.0
  3
*D3
  1

  0
LINE
  5
15B1
330
918
100
AcDbEntity
  8
250
  6
CONTINUOUS
 62
     3
100
AcDbLine
 10
0.0
 20
31.4925
 30
0.0
 11
0.0
 21
53.5
 31
0.0
  0
LINE
  5
15B2
330
918
100
AcDbEntity
  8
250
  6
CONTINUOUS
 62
     3
100
AcDbLine
 10
200.0
 20
16.46005051
 30
0.0
 11
200.0
 21
53.5
 31
0.0
  0
LINE
  5
15B3
330
918
100
AcDbEntity
  8
250
  6
CONTINUOUS
 62
     3
100
AcDbLine
 10
2.23
 20
52.5
 30
0.0
 11
197.77
 21
52.5
 31
0.0
  0
INSERT
  5
15B4
330
918
100
AcDbEntity
  8
250
  6
CONTINUOUS
 62
     3
100
AcDbBlockReference
  2
_OPEN
 10
0.0
 20
52.5
 30
0.0
 41
2.23
 42
2.23
 43
2.23
 50
180.0
  0
INSERT
  5
15B5
330
918
100
AcDbEntity
  8
250
  6
CONTINUOUS
 62
     3
100
AcDbBlockReference
  2
_OPEN
 10
200.0
 20
52.5
 30
0.0
 41
2.23
 42
2.23
 43
2.23
  0
MTEXT
  5
15B6
330
918
100
AcDbEntity
  8
250
  6
CONTINUOUS
 62
    40
100
AcDbMText
 10
100.0
 20
55.0
 30
0.0
 40
3.0
 41
0.0
 71
     5
 72
     1
  1
\A1;200
1001
ACAD
1000
MTEXTBEGIN
1070
    73
1070
     1
1070
    44
1040
1.0
1070
    74
1070
     0
1000
MTEXTEND
1000
MTEXTBEGIN
1070
    73
1070
     1
1070
    44
1040
1.0
1070
    74
1070
     0
1000
MTEXTEND
  0
POINT
  5
15B7
330
918
100
AcDbEntity
  8
DEFPOINTS
  6
CONTINUOUS
 62
     0
100
AcDbPoint
 10
0.0
 20
30.9925
 30
0.0
  0
POINT
  5
15B8
330
918
100
AcDbEntity
  8
DEFPOINTS
  6
CONTINUOUS
 62
     0
100
AcDbPoint
 10
200.0
 20
15.96005051
 30
0.0
  0
POINT
  5
15B9
330
918
100
AcDbEntity
  8
DEFPOINTS
  6
CONTINUOUS
 62
     0
100
AcDbPoint
 10
200.0
 20
52.5
 30
0.0
  0
ENDBLK
  5
923
330
918
100
AcDbEntity
  8
0
100
AcDbBlockEnd
  0
BLOCK
  5
10E4
330
10DA
100
AcDbEntity
  8
0
100
AcDbBlockBegin
  2
*D4
 70
     1
 10
0.0
 20
0.0
 30
0.0
  3
*D4
  1

  0
LINE
  5
17A4
330
10DA
100
AcDbEntity
  8
246
  6
CONTINUOUS
100
AcDbLine
 10
9.0
 20
1.5
 30
0.0
 11
9.0
 21
46.5
 31
0.0
  0
LINE
  5
17A5
330
10DA
100
AcDbEntity
  8
246
  6
CONTINUOUS
100
AcDbLine
 10
200.0
 20
16.46005051
 30
0.0
 11
200.0
 21
46.5
 31
0.0
  0
LINE
  5
17A6
330
10DA
100
AcDbEntity
  8
246
  6
CONTINUOUS
100
AcDbLine
 10
11.23
 20
45.5
 30
0.0
 11
197.77
 21
45.5
 31
0.0
  0
INSERT
  5
17A7
330
10DA
100
AcDbEntity
  8
246
  6
CONTINUOUS
100
AcDbBlockReference
  2
_OPEN
 10
9.0
 20
45.5
 30
0.0
 41
2.23
 42
2.23
 43
2.23
 50
180.0
  0
INSERT
  5
17A8
330
10DA
100
AcDbEntity
  8
246
  6
CONTINUOUS
100
AcDbBlockReference
  2
_OPEN
 10
200.0
 20
45.5
 30
0.0
 41
2.23
 42
2.23
 43
2.23
  0
MTEXT
  5
17A9
330
10DA
100
AcDbEntity
  8
246
  6
CONTINUOUS
 62
    40
100
AcDbMText
 10
103.35968893
 20
47.9
 30
0.0
 40
2.8
 41
0.0
 71
     5
 72
     1
  1
\A1;（max.191）
1001
ACAD
1000
MTEXTBEGIN
1070
    73
1070
     1
1070
    44
1040
1.0
1070
    74
1070
     0
1000
MTEXTEND
  0
POINT
  5
17AA
330
10DA
100
AcDbEntity
  8
DEFPOINTS
  6
CONTINUOUS
 62
     0
100
AcDbPoint
 10
9.0
 20
1.0
 30
0.0
  0
POINT
  5
17AB
330
10DA
100
AcDbEntity
  8
DEFPOINTS
  6
CONTINUOUS
 62
     0
100
AcDbPoint
 10
200.0
 20
15.96005051
 30
0.0
  0
POINT
  5
17AC
330
10DA
100
AcDbEntity
  8
DEFPOINTS
  6
CONTINUOUS
 62
     0
100
AcDbPoint
 10
200.0
 20
45.5
 30
0.0
  0
ENDBLK
  5
10E5
330
10DA
100
AcDbEntity
  8
0
100
AcDbBlockEnd
  0
BLOCK
  5
154C
330
1542
100
AcDbEntity
  8
0
100
AcDbBlockBegin
  2
*D5
 70
     1
 10
0.0
 20
0.0
 30
0.0
  3
*D5
  1

  0
LINE
  5
15C2
330
1542
100
AcDbEntity
  8
250
  6
CONTINUOUS
 62
     3
100
AcDbLine
 10
198.91862915
 20
-17.5
 30
0.0
 11
218.0
 21
-17.5
 31
0.0
  0
LINE
  5
15C3
330
1542
100
AcDbEntity
  8
250
  6
CONTINUOUS
 62
     3
100
AcDbLine
 10
198.91862915
 20
17.5
 30
0.0
 11
218.0
 21
17.5
 31
0.0
  0
LINE
  5
15C4
330
1542
100
AcDbEntity
  8
250
  6
CONTINUOUS
 62
     3
100
AcDbLine
 10
217.0
 20
-15.27
 30
0.0
 11
217.0
 21
15.27
 31
0.0
  0
INSERT
  5
15C5
330
1542
100
AcDbEntity
  8
250
  6
CONTINUOUS
 62
     3
100
AcDbBlockReference
  2
_OPEN
 10
217.0
 20
-17.5
 30
0.0
 41
2.23
 42
2.23
 43
2.23
 50
270.0
  0
INSERT
  5
15C6
330
1542
100
AcDbEntity
  8
250
  6
CONTINUOUS
 62
     3
100
AcDbBlockReference
  2
_OPEN
 10
217.0
 20
17.5
 30
0.0
 41
2.23
 42
2.23
 43
2.23
 50
90.0
  0
MTEXT
  5
15C7
330
1542
100
AcDbEntity
  8
250
  6
CONTINUOUS
 62
    40
100
AcDbMText
 10
214.5
 20
0.0
 30
0.0
 40
3.0
 41
0.0
 71
     5
 72
     1
  1
\A1;{\H3;\U+2205}35
 11
0.0
 21
1.0
 31
0.0
1001
ACAD
1000
MTEXTBEGIN
1070
    73
1070
     1
1070
    44
1040
1.0
1070
    74
1070
     0
1000
MTEXTEND
1000
MTEXTBEGIN
1070
    73
1070
     1
1070
    44
1040
1.0
1070
    74
1070
     0
1000
MTEXTEND
  0
POINT
  5
15C8
330
1542
100
AcDbEntity
  8
DEFPOINTS
  6
CONTINUOUS
 62
     0
100
AcDbPoint
 10
198.41862915
 20
-17.5
 30
0.0
  0
POINT
  5
15C9
330
1542
100
AcDbEntity
  8
DEFPOINTS
  6
CONTINUOUS
 62
     0
100
AcDbPoint
 10
198.41862915
 20
17.5
 30
0.0
  0
POINT
  5
15CA
330
1542
100
AcDbEntity
  8
DEFPOINTS
  6
CONTINUOUS
 62
     0
100
AcDbPoint
 10
217.0
 20
17.5
 30
0.0
  0
ENDBLK
  5
154D
330
1542
100
AcDbEntity
  8
0
100
AcDbBlockEnd
  0
BLOCK
  5
1557
330
154E
100
AcDbEntity
  8
0
100
AcDbBlockBegin
  2
*D6
 70
     1
 10
0.0
 20
0.0
 30
0.0
  3
*D6
  1

  0
LINE
  5
15BA
330
154E
100
AcDbEntity
  8
250
  6
CONTINUOUS
100
AcDbLine
 10
200.5
 20
6.5
 30
0.0
 11
211.0
 21
6.5
 31
0.0
  0
LINE
  5
15BB
330
154E
100
AcDbEntity
  8
250
  6
CONTINUOUS
100
AcDbLine
 10
210.0
 20
-4.5
 30
0.0
 11
210.0
 21
4.5
 31
0.0
  0
INSERT
  5
15BC
330
154E
100
AcDbEntity
  8
250
  6
CONTINUOUS
100
AcDbBlockReference
  2
矢印なし
 10
210.0
 20
-6.5
 30
0.0
 41
2.0
 42
2.0
 43
2.0
 50
270.0
  0
INSERT
  5
15BD
330
154E
100
AcDbEntity
  8
250
  6
CONTINUOUS
100
AcDbBlockReference
  2
_OPEN
 10
210.0
 20
6.5
 30
0.0
 41
2.0
 42
2.0
 43
2.0
 50
90.0
  0
MTEXT
  5
15BE
330
154E
100
AcDbEntity
  8
250
  6
CONTINUOUS
 62
    40
100
AcDbMText
 10
207.6
 20
0.0
 30
0.0
 40
2.8
 41
0.0
 71
     5
 72
     1
  1
\A1;max.φ13
 11
0.0
 21
1.0
 31
0.0
1001
ACAD
1000
MTEXTBEGIN
1070
    73
1070
     1
1070
    44
1040
1.0
1070
    74
1070
     0
1000
MTEXTEND
1000
MTEXTBEGIN
1070
    73
1070
     1
1070
    44
1040
1.0
1070
    74
1070
     0
1000
MTEXTEND
  0
POINT
  5
15BF
330
154E
100
AcDbEntity
  8
DEFPOINTS
  6
CONTINUOUS
 62
     0
100
AcDbPoint
 10
200.0
 20
-6.5
 30
0.0
  0
POINT
  5
15C0
330
154E
100
AcDbEntity
  8
DEFPOINTS
  6
CONTINUOUS
 62
     0
100
AcDbPoint
 10
200.0
 20
6.5
 30
0.0
  0
POINT
  5
15C1
330
154E
100
AcDbEntity
  8
DEFPOINTS
  6
CONTINUOUS
 62
     0
100
AcDbPoint
 10
210.0
 20
6.5
 30
0.0
  0
ENDBLK
  5
1558
330
154E
100
AcDbEntity
  8
0
100
AcDbBlockEnd
  0
BLOCK
  5
1593
330
1589
100
AcDbEntity
  8
0
100
AcDbBlockBegin
  2
*D7
 70
     1
 10
0.0
 20
0.0
 30
0.0
  3
*D7
  1

  0
LINE
  5
159F
330
1589
100
AcDbEntity
  8
250
  6
CONTINUOUS
 62
     3
100
AcDbLine
 10
22.0
 20
30.9925
 30
0.0
 11
22.0
 21
39.5
 31
0.0
  0
LINE
  5
15A0
330
1589
100
AcDbEntity
  8
250
  6
CONTINUOUS
 62
     3
100
AcDbLine
 10
200.0
 20
16.46005051
 30
0.0
 11
200.0
 21
39.5
 31
0.0
  0
LINE
  5
15A1
330
1589
100
AcDbEntity
  8
250
  6
CONTINUOUS
 62
     3
100
AcDbLine
 10
24.23
 20
38.5
 30
0.0
 11
197.77
 21
38.5
 31
0.0
  0
INSERT
  5
15A2
330
1589
100
AcDbEntity
  8
250
  6
CONTINUOUS
 62
     3
100
AcDbBlockReference
  2
_OPEN
 10
22.0
 20
38.5
 30
0.0
 41
2.23
 42
2.23
 43
2.23
 50
180.0
  0
INSERT
  5
15A3
330
1589
100
AcDbEntity
  8
250
  6
CONTINUOUS
 62
     3
100
AcDbBlockReference
  2
_OPEN
 10
200.0
 20
38.5
 30
0.0
 41
2.23
 42
2.23
 43
2.23
  0
MTEXT
  5
15A4
330
1589
100
AcDbEntity
  8
250
  6
CONTINUOUS
 62
    40
100
AcDbMText
 10
111.0
 20
41.0
 30
0.0
 40
3.0
 41
0.0
 71
     5
 72
     1
  1
\A1;178
1001
ACAD
1000
MTEXTBEGIN
1070
    73
1070
     1
1070
    44
1040
1.0
1070
    74
1070
     0
1000
MTEXTEND
1000
MTEXTBEGIN
1070
    73
1070
     1
1070
    44
1040
1.0
1070
    74
1070
     0
1000
MTEXTEND
  0
POINT
  5
15A5
330
1589
100
AcDbEntity
  8
DEFPOINTS
  6
CONTINUOUS
 62
     0
100
AcDbPoint
 10
22.0
 20
30.4925
 30
0.0
  0
POINT
  5
15A6
330
1589
100
AcDbEntity
  8
DEFPOINTS
  6
CONTINUOUS
 62
     0
100
AcDbPoint
 10
200.0
 20
15.96005051
 30
0.0
  0
POINT
  5
15A7
330
1589
100
AcDbEntity
  8
DEFPOINTS
  6
CONTINUOUS
 62
     0
100
AcDbPoint
 10
200.0
 20
38.5
 30
0.0
  0
ENDBLK
  5
1594
330
1589
100
AcDbEntity
  8
0
100
AcDbBlockEnd
  0
ENDSEC
  0
SECTION
  2
ENTITIES
  0
INSERT
  5
6E6
330
1A
100
AcDbEntity
  8
245
100
AcDbBlockReference
  2
矢印なし
 10
175.62382697
 20
90.55123572
 30
0.0
  0
MTEXT
  5
910
330
1A
100
AcDbEntity
  8
251
  6
CONTINUOUS
100
AcDbMText
 10
-28.46666667
 20
-27.0
 30
0.0
 40
2.8
 41
0.0
 71
     7
 72
     1
  1
C6
  7
YOKO
1001
ITEMNAME
1000
LNSP3
1001
ACAD
1000
MTEXTBEGIN
1070
    73
1070
     1
1070
    44
1040
1.0
1070
    74
1070
     0
1000
MTEXTEND
1000
MTEXTBEGIN
1070
    73
1070
     1
1070
    44
1040
1.0
1070
    74
1070
     0
1000
MTEXTEND
1000
MTEXTBEGIN
1070
    73
1070
     1
1070
    44
1040
1.0
1070
    74
1070
     0
1000
MTEXTEND
1000
MTEXTBEGIN
1070
    73
1070
     1
1070
    44
1040
1.0
1070
    74
1070
     0
1000
MTEXTEND
1000
MTEXTBEGIN
1070
    73
1070
     1
1070
    44
1040
1.0
1070
    74
1070
     0
1000
MTEXTEND
1000
MTEXTBEGIN
1070
    73
1070
     1
1070
    44
1040
1.0
1070
    74
1070
     0
1000
MTEXTEND
1000
MTEXTBEGIN
1070
    73
1070
     1
1070
    44
1040
1.0
1070
    74
1070
     0
1000
MTEXTEND
1000
MTEXTBEGIN
1070
    73
1070
     1
1070
    44
1040
1.0
1070
    74
1070
     0
1000
MTEXTEND
1000
MTEXTBEGIN
1070
    73
1070
     1
1070
    44
1040
1.0
1070
    74
1070
     0
1000
MTEXTEND
1000
MTEXTBEGIN
1070
    73
1070
     1
1070
    44
1040
1.0
1070
    74
1070
     0
1000
MTEXTEND
  0
LEADER
  5
911
330
1A
100
AcDbEntity
  8
250
  6
CONTINUOUS
100
AcDbLeader
  3
BIGT
 76
     2
 10
-16.47540101
 20
-20.26308537
 30
0.0
 10
-21.0
 20
-28.0
 30
0.0
1001
ACAD
1000
DSTYLE
1002
{
1070
     6
1000
OPEN
1070
    41
1040
2.0
1070
    42
1040
2.0
1070
    44
1040
2.0
1070
   140
1040
4.0
1070
   343
1005
594
1002
}
  0
TEXT
  5
913
330
1A
100
AcDbEntity
  8
241
100
AcDbText
 10
-38.0
 20
66.5
 30
0.0
 40
5.0
  1
C6-NBS13-200
  7
YOKO
 11
-38.0
 21
66.5
 31
0.0
100
AcDbText
 73
     1
  0
LINE
  5
914
330
1A
100
AcDbEntity
  8
250
  6
CONTINUOUS
100
AcDbLine
 10
-21.0
 20
-28.0
 30
0.0
 11
-31.26666667
 21
-28.0
 31
0.0
1001
ITEMNAME
1000
LNSP2
  0
DIMENSION
  5
915
330
1A
100
AcDbEntity
  8
250
  6
CONTINUOUS
100
AcDbDimension
  2
*D3
 10
200.0
 20
52.5
 30
0.0
 11
100.0
 21
52.5
 31
0.0
 70
   160
  3
BIGT$0
100
AcDbAlignedDimension
 13
0.0
 23
30.9925
 33
0.0
 14
200.0
 24
15.96005051
 34
0.0
100
AcDbRotatedDimension
  0
DIMENSION
  5
1082
330
1A
100
AcDbEntity
  8
246
  6
CONTINUOUS
100
AcDbDimension
  2
*D4
 10
200.0
 20
45.5
 30
0.0
 11
103.35968893
 21
45.5
 31
0.0
 70
   160
  1
（max.<>）
  3
BIGT
100
AcDbAlignedDimension
 13
9.0
 23
1.0
 33
0.0
 14
200.0
 24
15.96005051
 34
0.0
100
AcDbRotatedDimension
  0
DIMENSION
  5
13F5
330
1A
100
AcDbEntity
  8
250
  6
CONTINUOUS
100
AcDbDimension
  2
*D5
 10
217.0
 20
17.5
 30
0.0
 11
217.0
 21
0.0
 31
0.0
 70
   160
  1
{\H3;\U+2205}<>
  3
BIGT$0
100
AcDbAlignedDimension
 13
198.41862915
 23
-17.5
 33
0.0
 14
198.41862915
 24
17.5
 34
0.0
 50
90.0
100
AcDbRotatedDimension
  0
DIMENSION
  5
13FC
330
1A
100
AcDbEntity
  8
250
  6
CONTINUOUS
100
AcDbDimension
  2
*D6
 10
210.0
 20
6.5
 30
0.0
 11
210.0
 21
0.0
 31
0.0
 70
   160
  1
max.φ13
  3
BIGT
100
AcDbAlignedDimension
 13
200.0
 23
-6.5
 33
0.0
 14
200.0
 24
6.5
 34
0.0
 50
90.0
100
AcDbRotatedDimension
1001
ACAD
1000
DSTYLE
1002
{
1070
    41
1040
2.0
1070
    75
1070
     1
1070
     6
1000
矢印なし
1002
}
  0
DIMENSION
  5
1588
330
1A
100
AcDbEntity
  8
250
  6
CONTINUOUS
100
AcDbDimension
  2
*D7
 10
200.0
 20
38.5
 30
0.0
 11
111.0
 21
41.0
 31
0.0
 70
    32
  3
BIGT$0
100
AcDbAlignedDimension
 13
22.0
 23
30.4925
 33
0.0
 14
200.0
 24
15.96005051
 34
0.0
100
AcDbRotatedDimension
  0
INSERT
  5
1748
330
1A
100
AcDbEntity
  8
245
100
AcDbBlockReference
  2
1
 10
0.0
 20
0.0
 30
0.0
  0
VIEWPORT
  5
22
330
17
100
AcDbEntity
 67
     1
  8
0
100
AcDbViewport
 10
261.51769912
 20
148.5
 30
0.0
 40
523.03539823
 41
297.0
 68
     1
 69
     1
1001
ACAD
1000
MVIEW
1002
{
1070
    16
1010
0.0
1020
0.0
1030
0.0
1010
0.0
1020
0.0
1030
1.0
1040
0.0
1040
297.0
1040
261.51769912
1040
148.5
1040
50.0
1040
0.0
1040
0.0
1070
     0
1070
   100
1070
     1
1070
     1
1070
     0
1070
     0
1070
     0
1070
     0
1040
0.0
1040
0.0
1040
0.0
1040
1.0
1040
1.0
1040
10.0
1040
10.0
1070
     0
1002
{
1002
}
1002
}
  0
ENDSEC
  0
SECTION
  2
OBJECTS
  0
DICTIONARY
  5
C
330
0
100
AcDbDictionary
  3
ACAD_GROUP
350
D
  3
ACAD_LAYOUT
350
565
  3
ACAD_MLINESTYLE
350
E
  3
ACAD_PLOTSETTINGS
350
566
  3
ACAD_PLOTSTYLENAME
350
563
  3
ACDBHEADERROUNDTRIPXREC
350
17D3
  3
GRADE_DWG
350
540
  0
DICTIONARY
  5
F9A
330
1A
100
AcDbDictionary
280
     1
  3
ACAD_LAYOUTSELFREF
360
17F5
  0
DICTIONARY
  5
F98
330
17
100
AcDbDictionary
280
     1
  3
ACAD_LAYOUTSELFREF
360
17F4
  0
DICTIONARY
  5
D
102
{ACAD_REACTORS
330
C
102
}
330
C
100
AcDbDictionary
  3
*A1
350
6C7
  3
*A2
350
6C8
  3
*A3
350
6D4
  3
*A4
350
6D5
  3
DREC-1
350
5FC
  3
DREC-2
350
654
  3
DREC-3
350
673
  0
DICTIONARY
  5
565
102
{ACAD_REACTORS
330
C
102
}
330
C
100
AcDbDictionary
  0
DICTIONARY
  5
E
102
{ACAD_REACTORS
330
C
102
}
330
C
100
AcDbDictionary
  3
STANDARD
350
13
  0
DICTIONARY
  5
566
102
{ACAD_REACTORS
330
C
102
}
330
C
100
AcDbDictionary
  3
A3_0_5倍_
350
758
  3
A3_1倍_
350
757
  3
A3_1倍__2000_
350
707
  3
A3_2倍_
350
759
  3
A4_0_5倍_
350
755
  3
A4_1倍_
350
754
  3
A4_1倍__2000_
350
708
  3
A4_2倍_
350
756
  0
ACDBDICTIONARYWDFLT
  5
563
102
{ACAD_REACTORS
330
C
102
}
330
C
100
AcDbDictionary
281
     1
  3
Normal
350
564
100
AcDbDictionaryWithDefault
340
564
  0
DICTIONARY
  5
17D3
102
{ACAD_REACTORS
330
C
102
}
330
C
100
AcDbDictionary
  3
CEPSNTYPE
350
17DD
  3
DIMSTYLEDATA
350
17E1
  3
FINGERPRINTGUID
350
17DE
  3
HYPERLINKBASE
350
17D6
  3
INSUNITS
350
17DC
  3
LAYOUTDICT
350
17D8
  3
LWETCUNION
350
17DB
  3
PLOTSETDICT
350
17D9
  3
PLOTSTYLNAMDICT
350
17DA
  3
PSVPSCALE
350
17E0
  3
PUCSBASE
350
17E4
  3
PUCSORGBACK
350
17EA
  3
PUCSORGBOTTOM
350
17E6
  3
PUCSORGFRONT
350
17E9
  3
PUCSORGLEFT
350
17E7
  3
PUCSORGRIGHT
350
17E8
  3
PUCSORGTOP
350
17E5
  3
PUCSORTHOREF
350
17E2
  3
PUCSORTHOVIEW
350
17E3
  3
STYLESHEET
350
17D7
  3
TSTACKALIGN
350
17D4
  3
TSTACKSIZE
350
17D5
  3
UCSBASE
350
17ED
  3
UCSORGBACK
350
17F3
  3
UCSORGBOTTOM
350
17EF
  3
UCSORGFRONT
350
17F2
  3
UCSORGLEFT
350
17F0
  3
UCSORGRIGHT
350
17F1
  3
UCSORGTOP
350
17EE
  3
UCSORTHOREF
350
17EB
  3
UCSORTHOVIEW
350
17EC
  3
VERSIONGUID
350
17DF
  0
DICTIONARY
  5
540
102
{ACAD_REACTORS
330
C
102
}
330
C
100
AcDbDictionary
  3
VERSION
350
560
  0
XRECORD
  5
17F5
102
{ACAD_REACTORS
330
F9A
102
}
330
F9A
100
AcDbXrecord
340
1A
  0
XRECORD
  5
17F4
102
{ACAD_REACTORS
330
F98
102
}
330
F98
100
AcDbXrecord
340
17
  0
GROUP
  5
6C7
102
{ACAD_REACTORS
330
D
102
}
330
D
100
AcDbGroup
300

 70
     0
 71
     1
1001
GRPNAME
1000
DMA00
  0
GROUP
  5
6C8
102
{ACAD_REACTORS
330
D
102
}
330
D
100
AcDbGroup
300

 70
     0
 71
     1
1001
GRPNAME
1000
DMA00
  0
GROUP
  5
6D4
102
{ACAD_REACTORS
330
D
102
}
330
D
100
AcDbGroup
300

 70
     0
 71
     1
1001
GRPNAME
1000
DMA00
  0
GROUP
  5
6D5
102
{ACAD_REACTORS
330
D
102
}
330
D
100
AcDbGroup
300

 70
     0
 71
     1
1001
GRPNAME
1000
DMA00
  0
GROUP
  5
5FC
102
{ACAD_REACTORS
330
D
102
}
330
D
100
AcDbGroup
300

 70
     0
 71
     1
1001
GRPNAME
1000
DREC-
1001
GPARA
1000
xsiz
1000
44.182
1000
ysiz
1000
40.677
1000
angl
1000
0
1000
ctyp
1000
0
1000
csiz
1000
5
1000
lfnt
1000
cont
1000
hcnt
1000
hoff
1000
vcnt
1000
voff
1000
opnt
1000
4
1000
dxpt
1000
0
1000
dypt
1000
0
  0
GROUP
  5
654
102
{ACAD_REACTORS
330
D
102
}
330
D
100
AcDbGroup
300

 70
     0
 71
     1
1001
GRPNAME
1000
DREC-
1001
GPARA
1000
xsiz
1000
54.592
1000
ysiz
1000
53.036
1000
angl
1000
0
1000
ctyp
1000
0
1000
csiz
1000
5
1000
lfnt
1000
cont
1000
hcnt
1000
hoff
1000
vcnt
1000
voff
1000
opnt
1000
4
1000
dxpt
1000
0
1000
dypt
1000
0
  0
GROUP
  5
673
102
{ACAD_REACTORS
330
D
102
}
330
D
100
AcDbGroup
300

 70
     0
 71
     1
1001
GRPNAME
1000
DREC-
1001
GPARA
1000
xsiz
1000
30.363
1000
ysiz
1000
36.175
1000
angl
1000
0
1000
ctyp
1000
0
1000
csiz
1000
5
1000
lfnt
1000
cont
1000
hcnt
1000
hoff
1000
vcnt
1000
voff
1000
opnt
1000
4
1000
dxpt
1000
0
1000
dypt
1000
0
  0
MLINESTYLE
  5
13
102
{ACAD_REACTORS
330
E
102
}
330
E
100
AcDbMlineStyle
  2
STANDARD
 70
     0
  3

 62
     0
 51
90.0
 52
90.0
 71
     2
 49
0.5
 62
   256
  6
BYLAYER
 49
-0.5
 62
   256
  6
BYLAYER
  0
PLOTSETTINGS
  5
758
102
{ACAD_REACTORS
330
566
102
}
330
566
100
AcDbPlotSettings
  1
A3(0.5倍)
  2
\\AWTECPC05\HP DeskJet 1120C
  4
A3
  6

 40
5.95841646
 41
13.49375153
 42
6.04309082
 43
3.67242432
 44
296.92599487
 45
419.94665527
 46
89.96
 47
127.14
 48
0.0
 49
0.0
140
0.0
141
0.0
142
1.0
143
2.0
 70
  1716
 72
     1
 73
     1
 74
     2
  7
big.ctb
 75
    17
147
0.5
148
0.0
149
0.0
  0
PLOTSETTINGS
  5
757
102
{ACAD_REACTORS
330
566
102
}
330
566
100
AcDbPlotSettings
  1
A3(1倍)
  2
\\AWTECPC05\HP DeskJet 1120C
  4
A3
  6

 40
5.95841646
 41
13.49375153
 42
6.04309082
 43
3.67242432
 44
296.92599487
 45
419.94665527
 46
37.46
 47
52.89
 48
0.0
 49
0.0
140
0.0
141
0.0
142
1.0
143
1.0
 70
  1716
 72
     1
 73
     1
 74
     2
  7
big.ctb
 75
    16
147
1.0
148
0.0
149
0.0
  0
PLOTSETTINGS
  5
707
102
{ACAD_REACTORS
330
566
102
}
330
566
100
AcDbPlotSettings
  1
A3(1倍)(2000)
  2
SII LS-1300 (D-SCAN)
  4
User258
  6

 40
3.17499995
 41
3.17499995
 42
3.17498779
 43
3.17498779
 44
419.98898315
 45
296.98950195
 46
58.32
 47
40.32
 48
0.0
 49
0.0
140
0.0
141
0.0
142
1.0
143
1.0
 70
  1716
 72
     1
 73
     0
 74
     2
  7
big.ctb
 75
    16
147
1.0
148
0.0
149
0.0
  0
PLOTSETTINGS
  5
759
102
{ACAD_REACTORS
330
566
102
}
330
566
100
AcDbPlotSettings
  1
A3(2倍)
  2
\\AWTECPC05\HP DeskJet 1120C
  4
A3
  6

 40
5.95841646
 41
13.49375153
 42
6.04309082
 43
3.67242432
 44
296.92599487
 45
419.94665527
 46
-67.54
 47
-95.61
 48
0.0
 49
0.0
140
0.0
141
0.0
142
1.0
143
0.5
 70
  1716
 72
     1
 73
     1
 74
     2
  7
big.ctb
 75
    27
147
2.0
148
0.0
149
0.0
  0
PLOTSETTINGS
  5
755
102
{ACAD_REACTORS
330
566
102
}
330
566
100
AcDbPlotSettings
  1
A4(0.5倍)
  2
\\AWTECPC05\HP DeskJet 1120C
  4
A4
  6

 40
4.18041658
 41
13.49374962
 42
4.18040466
 43
3.92642212
 44
209.97332764
 45
296.92599487
 46
48.31
 47
65.5
 48
0.0
 49
0.0
140
0.0
141
0.0
142
1.0
143
2.0
 70
  1716
 72
     1
 73
     1
 74
     2
  7
big.ctb
 75
    17
147
0.5
148
0.0
149
0.0
  0
PLOTSETTINGS
  5
754
102
{ACAD_REACTORS
330
566
102
}
330
566
100
AcDbPlotSettings
  1
A4(1倍)
  2
\\AWTECPC05\HP DeskJet 1120C
  4
A4
  6

 40
4.18041658
 41
13.49374962
 42
4.18040466
 43
3.92642212
 44
209.97332764
 45
296.92599487
 46
-4.19
 47
-8.75
 48
0.0
 49
0.0
140
0.0
141
0.0
142
1.0
143
1.0
 70
  1716
 72
     1
 73
     1
 74
     2
  7
big.ctb
 75
    16
147
1.0
148
0.0
149
0.0
  0
PLOTSETTINGS
  5
708
102
{ACAD_REACTORS
330
566
102
}
330
566
100
AcDbPlotSettings
  1
A4(1倍)(2000)
  2
SII LS-1300 (D-SCAN)
  4
User259
  6

 40
3.17499995
 41
3.17499995
 42
3.17498779
 43
3.17500305
 44
296.98950195
 45
209.99449158
 46
-3.18
 47
-3.18
 48
0.0
 49
0.0
140
0.0
141
0.0
142
1.0
143
1.0
 70
  1716
 72
     1
 73
     0
 74
     2
  7
big.ctb
 75
    16
147
1.0
148
0.0
149
0.0
  0
PLOTSETTINGS
  5
756
102
{ACAD_REACTORS
330
566
102
}
330
566
100
AcDbPlotSettings
  1
A4(2倍)
  2
\\AWTECPC05\HP DeskJet 1120C
  4
A4
  6

 40
4.18041658
 41
13.49374962
 42
4.18040466
 43
3.92642212
 44
209.97332764
 45
296.92599487
 46
-109.19
 47
-157.25
 48
0.0
 49
0.0
140
0.0
141
0.0
142
1.0
143
0.5
 70
  1716
 72
     1
 73
     1
 74
     2
  7
big.ctb
 75
    27
147
2.0
148
0.0
149
0.0
  0
ACDBPLACEHOLDER
  5
564
102
{ACAD_REACTORS
330
563
102
}
330
563
100
AcDbPlaceHolder
280
     0
  0
XRECORD
  5
17DD
102
{ACAD_REACTORS
330
17D3
102
}
330
17D3
100
AcDbXrecord
 90
        0
  0
XRECORD
  5
17E1
102
{ACAD_REACTORS
330
17D3
102
}
330
17D3
100
AcDbXrecord
1000
DSTYLE
1002
{
1070
   341
340
594
1070
   343
340
594
1070
   344
340
594
1002
}
  0
XRECORD
  5
17DE
102
{ACAD_REACTORS
330
17D3
102
}
330
17D3
100
AcDbXrecord
  1
{51294030-9CB4-11D3-8E18-00A0C925D94D}
  0
XRECORD
  5
17D6
102
{ACAD_REACTORS
330
17D3
102
}
330
17D3
100
AcDbXrecord
  1

  0
XRECORD
  5
17DC
102
{ACAD_REACTORS
330
17D3
102
}
330
17D3
100
AcDbXrecord
 90
        0
  0
XRECORD
  5
17D8
102
{ACAD_REACTORS
330
17D3
102
}
330
17D3
100
AcDbXrecord
340
565
  0
XRECORD
  5
17DB
102
{ACAD_REACTORS
330
17D3
102
}
330
17D3
100
AcDbXrecord
 90
    10781
  0
XRECORD
  5
17D9
102
{ACAD_REACTORS
330
17D3
102
}
330
17D3
100
AcDbXrecord
340
566
  0
XRECORD
  5
17DA
102
{ACAD_REACTORS
330
17D3
102
}
330
17D3
100
AcDbXrecord
340
563
  0
XRECORD
  5
17E0
102
{ACAD_REACTORS
330
17D3
102
}
330
17D3
100
AcDbXrecord
 40
0.0
  0
XRECORD
  5
17E4
102
{ACAD_REACTORS
330
17D3
102
}
330
17D3
100
AcDbXrecord
340
0
  0
XRECORD
  5
17EA
102
{ACAD_REACTORS
330
17D3
102
}
330
17D3
100
AcDbXrecord
 10
0.0
 20
0.0
 30
0.0
  0
XRECORD
  5
17E6
102
{ACAD_REACTORS
330
17D3
102
}
330
17D3
100
AcDbXrecord
 10
0.0
 20
0.0
 30
0.0
  0
XRECORD
  5
17E9
102
{ACAD_REACTORS
330
17D3
102
}
330
17D3
100
AcDbXrecord
 10
0.0
 20
0.0
 30
0.0
  0
XRECORD
  5
17E7
102
{ACAD_REACTORS
330
17D3
102
}
330
17D3
100
AcDbXrecord
 10
0.0
 20
0.0
 30
0.0
  0
XRECORD
  5
17E8
102
{ACAD_REACTORS
330
17D3
102
}
330
17D3
100
AcDbXrecord
 10
0.0
 20
0.0
 30
0.0
  0
XRECORD
  5
17E5
102
{ACAD_REACTORS
330
17D3
102
}
330
17D3
100
AcDbXrecord
 10
0.0
 20
0.0
 30
0.0
  0
XRECORD
  5
17E2
102
{ACAD_REACTORS
330
17D3
102
}
330
17D3
100
AcDbXrecord
340
0
  0
XRECORD
  5
17E3
102
{ACAD_REACTORS
330
17D3
102
}
330
17D3
100
AcDbXrecord
 70
     0
  0
XRECORD
  5
17D7
102
{ACAD_REACTORS
330
17D3
102
}
330
17D3
100
AcDbXrecord
  1
big.ctb
  0
XRECORD
  5
17D4
102
{ACAD_REACTORS
330
17D3
102
}
330
17D3
100
AcDbXrecord
 90
        1
  0
XRECORD
  5
17D5
102
{ACAD_REACTORS
330
17D3
102
}
330
17D3
100
AcDbXrecord
 90
       70
  0
XRECORD
  5
17ED
102
{ACAD_REACTORS
330
17D3
102
}
330
17D3
100
AcDbXrecord
340
0
  0
XRECORD
  5
17F3
102
{ACAD_REACTORS
330
17D3
102
}
330
17D3
100
AcDbXrecord
 10
0.0
 20
0.0
 30
0.0
  0
XRECORD
  5
17EF
102
{ACAD_REACTORS
330
17D3
102
}
330
17D3
100
AcDbXrecord
 10
0.0
 20
0.0
 30
0.0
  0
XRECORD
  5
17F2
102
{ACAD_REACTORS
330
17D3
102
}
330
17D3
100
AcDbXrecord
 10
0.0
 20
0.0
 30
0.0
  0
XRECORD
  5
17F0
102
{ACAD_REACTORS
330
17D3
102
}
330
17D3
100
AcDbXrecord
 10
0.0
 20
0.0
 30
0.0
  0
XRECORD
  5
17F1
102
{ACAD_REACTORS
330
17D3
102
}
330
17D3
100
AcDbXrecord
 10
0.0
 20
0.0
 30
0.0
  0
XRECORD
  5
17EE
102
{ACAD_REACTORS
330
17D3
102
}
330
17D3
100
AcDbXrecord
 10
0.0
 20
0.0
 30
0.0
  0
XRECORD
  5
17EB
102
{ACAD_REACTORS
330
17D3
102
}
330
17D3
100
AcDbXrecord
340
0
  0
XRECORD
  5
17EC
102
{ACAD_REACTORS
330
17D3
102
}
330
17D3
100
AcDbXrecord
 70
     0
  0
XRECORD
  5
17DF
102
{ACAD_REACTORS
330
17D3
102
}
330
17D3
100
AcDbXrecord
  1
{35AF875A-88E0-467C-9545-69B090C1D9B8}
  0
XRECORD
  5
560
102
{ACAD_REACTORS
330
540
102
}
330
540
100
AcDbXrecord
  1
2.0.0
  0
ENDSEC
  0
EOF
