  0
SECTION
  2
HEADER
  9
$ACADVER
  1
AC1014
  9
$ACADMAINTVER
 70
     9
  9
$DWGCODEPAGE
  3
ANSI_932
  9
$INSBASE
 10
0.0
 20
0.0
 30
0.0
  9
$EXTMIN
 10
-39.0
 20
-31.69960678118654
 30
0.0
  9
$EXTMAX
 10
92.0
 20
71.50000000000003
 30
0.0
  9
$LIMMIN
 10
0.0
 20
0.0
  9
$LIMMAX
 10
420.0
 20
297.0
  9
$ORTHOMODE
 70
     0
  9
$REGENMODE
 70
     1
  9
$FILLMODE
 70
     1
  9
$QTEXTMODE
 70
     0
  9
$MIRRTEXT
 70
     1
  9
$DRAGMODE
 70
     2
  9
$LTSCALE
 40
10.0
  9
$OSMODE
 70
   549
  9
$ATTMODE
 70
     1
  9
$TEXTSIZE
 40
3.0
  9
$TRACEWID
 40
1.0
  9
$TEXTSTYLE
  7
YOKO
  9
$CLAYER
  8
245
  9
$CELTYPE
  6
BYLAYER
  9
$CECOLOR
 62
   256
  9
$CELTSCALE
 40
1.0
  9
$DELOBJ
 70
     1
  9
$DISPSILH
 70
     0
  9
$DIMSCALE
 40
1.0
  9
$DIMASZ
 40
2.0
  9
$DIMEXO
 40
2.0
  9
$DIMDLI
 40
2.5
  9
$DIMRND
 40
0.0
  9
$DIMDLE
 40
0.0
  9
$DIMEXE
 40
2.0
  9
$DIMTP
 40
0.0
  9
$DIMTM
 40
0.0
  9
$DIMTXT
 40
4.0
  9
$DIMCEN
 40
0.0
  9
$DIMTSZ
 40
0.0
  9
$DIMTOL
 70
     0
  9
$DIMLIM
 70
     0
  9
$DIMTIH
 70
     0
  9
$DIMTOH
 70
     0
  9
$DIMSE1
 70
     0
  9
$DIMSE2
 70
     0
  9
$DIMTAD
 70
     3
  9
$DIMZIN
 70
     8
  9
$DIMBLK
  1

  9
$DIMASO
 70
     1
  9
$DIMSHO
 70
     1
  9
$DIMPOST
  1

  9
$DIMAPOST
  1

  9
$DIMALT
 70
     0
  9
$DIMALTD
 70
     2
  9
$DIMALTF
 40
25.4
  9
$DIMLFAC
 40
1.0
  9
$DIMTOFL
 70
     1
  9
$DIMTVP
 40
0.0
  9
$DIMTIX
 70
     1
  9
$DIMSOXD
 70
     0
  9
$DIMSAH
 70
     1
  9
$DIMBLK1
  1
OPEN
  9
$DIMBLK2
  1
OPEN
  9
$DIMSTYLE
  2
BIGT
  9
$DIMCLRD
 70
   256
  9
$DIMCLRE
 70
   256
  9
$DIMCLRT
 70
    40
  9
$DIMTFAC
 40
1.0
  9
$DIMGAP
 40
1.0
  9
$DIMJUST
 70
     0
  9
$DIMSD1
 70
     0
  9
$DIMSD2
 70
     0
  9
$DIMTOLJ
 70
     1
  9
$DIMTZIN
 70
     8
  9
$DIMALTZ
 70
     0
  9
$DIMALTTZ
 70
     0
  9
$DIMFIT
 70
     3
  9
$DIMUPT
 70
     0
  9
$DIMUNIT
 70
     2
  9
$DIMDEC
 70
     3
  9
$DIMTDEC
 70
     3
  9
$DIMALTU
 70
     2
  9
$DIMALTTD
 70
     2
  9
$DIMTXSTY
  7
STANDARD
  9
$DIMAUNIT
 70
     0
  9
$LUNITS
 70
     2
  9
$LUPREC
 70
     3
  9
$SKETCHINC
 40
1.0
  9
$FILLETRAD
 40
10.0
  9
$AUNITS
 70
     0
  9
$AUPREC
 70
     3
  9
$MENU
  1
.
  9
$ELEVATION
 40
0.0
  9
$PELEVATION
 40
0.0
  9
$THICKNESS
 40
0.0
  9
$LIMCHECK
 70
     0
  9
$BLIPMODE
 70
     0
  9
$CHAMFERA
 40
10.0
  9
$CHAMFERB
 40
10.0
  9
$CHAMFERC
 40
0.0
  9
$CHAMFERD
 40
0.0
  9
$SKPOLY
 70
     0
  9
$TDCREATE
 40
2454970.462703622
  9
$TDUPDATE
 40
2455173.658335312
  9
$TDINDWG
 40
0.0779796065
  9
$TDUSRTIMER
 40
0.0779796065
  9
$USRTIMER
 70
     1
  9
$ANGBASE
 50
0.0
  9
$ANGDIR
 70
     0
  9
$PDMODE
 70
    35
  9
$PDSIZE
 40
-5.0
  9
$PLINEWID
 40
0.0
  9
$COORDS
 70
     0
  9
$SPLFRAME
 70
     0
  9
$SPLINETYPE
 70
     6
  9
$SPLINESEGS
 70
     8
  9
$ATTDIA
 70
     0
  9
$ATTREQ
 70
     1
  9
$HANDLING
 70
-16383
  9
$HANDSEED
  5
18C6
  9
$SURFTAB1
 70
     6
  9
$SURFTAB2
 70
     6
  9
$SURFTYPE
 70
     6
  9
$SURFU
 70
     6
  9
$SURFV
 70
     6
  9
$UCSNAME
  2

  9
$UCSORG
 10
0.0
 20
0.0
 30
0.0
  9
$UCSXDIR
 10
1.0
 20
0.0
 30
0.0
  9
$UCSYDIR
 10
0.0
 20
1.0
 30
0.0
  9
$PUCSNAME
  2

  9
$PUCSORG
 10
0.0
 20
0.0
 30
0.0
  9
$PUCSXDIR
 10
1.0
 20
0.0
 30
0.0
  9
$PUCSYDIR
 10
0.0
 20
1.0
 30
0.0
  9
$USERI1
 70
     1
  9
$USERI2
 70
     0
  9
$USERI3
 70
     0
  9
$USERI4
 70
     0
  9
$USERI5
 70
     0
  9
$USERR1
 40
0.0
  9
$USERR2
 40
0.0
  9
$USERR3
 40
0.0
  9
$USERR4
 40
0.0
  9
$USERR5
 40
0.0
  9
$WORLDVIEW
 70
     1
  9
$SHADEDGE
 70
     3
  9
$SHADEDIF
 70
    70
  9
$TILEMODE
 70
     1
  9
$MAXACTVP
 70
    16
  9
$PINSBASE
 10
0.0
 20
0.0
 30
0.0
  9
$PLIMCHECK
 70
     0
  9
$PEXTMIN
 10
1.000000000000000E+20
 20
1.000000000000000E+20
 30
1.000000000000000E+20
  9
$PEXTMAX
 10
-1.000000000000000E+20
 20
-1.000000000000000E+20
 30
-1.000000000000000E+20
  9
$PLIMMIN
 10
0.0
 20
0.0
  9
$PLIMMAX
 10
420.0
 20
297.0
  9
$UNITMODE
 70
     0
  9
$VISRETAIN
 70
     0
  9
$PLINEGEN
 70
     0
  9
$PSLTSCALE
 70
     1
  9
$TREEDEPTH
 70
  3020
  9
$PICKSTYLE
 70
     0
  9
$CMLSTYLE
  2
STANDARD
  9
$CMLJUST
 70
     0
  9
$CMLSCALE
 40
1.0
  9
$PROXYGRAPHICS
 70
     1
  9
$MEASUREMENT
 70
     1
  0
ENDSEC
  0
SECTION
  2
CLASSES
  0
CLASS
  1
XRECORD
  2
AcDbXrecord
  3
AutoCAD 2000
 90
        0
280
     0
281
     0
  0
CLASS
  1
ACDBDICTIONARYWDFLT
  2
AcDbDictionaryWithDefault
  3
AutoCAD 2000
 90
        0
280
     0
281
     0
  0
CLASS
  1
ACDBPLACEHOLDER
  2
AcDbPlaceHolder
  3
AutoCAD 2000
 90
        0
280
     0
281
     0
  0
CLASS
  1
LAYOUT
  2
AcDbLayout
  3
AutoCAD 2000
 90
        0
280
     0
281
     0
  0
CLASS
  1
PLOTSETTINGS
  2
AcDbPlotSettings
  3
AutoCAD 2000
 90
        0
280
     0
281
     0
  0
CLASS
  1
LONG_TRANSACTION
  2
AcDbLongTransaction
  3
AutoCAD 2000
 90
        0
280
     0
281
     0
  0
CLASS
  1
LWPOLYLINE
  2
AcDbPolyline
  3
AutoCAD 2000
 90
        0
280
     0
281
     1
  0
CLASS
  1
HATCH
  2
AcDbHatch
  3
AutoCAD 2000
 90
        0
280
     0
281
     1
  0
CLASS
  1
XRECORD
  2
AcDbXrecord
  3
AutoCAD 2000
 90
        0
280
     0
281
     0
  0
CLASS
  1
LONG_TRANSACTION
  2
AcDbLongTransaction
  3
AutoCAD 2000
 90
        0
280
     0
281
     0
  0
CLASS
  1
LWPOLYLINE
  2
AcDbPolyline
  3
AutoCAD 2000
 90
        0
280
     0
281
     1
  0
CLASS
  1
HATCH
  2
AcDbHatch
  3
AutoCAD 2000
 90
        0
280
     0
281
     1
  0
CLASS
  1
XRECORD
  2
AcDbXrecord
  3
AutoCAD 2000
 90
        0
280
     0
281
     0
  0
CLASS
  1
LONG_TRANSACTION
  2
AcDbLongTransaction
  3
AutoCAD 2000
 90
        0
280
     0
281
     0
  0
CLASS
  1
LWPOLYLINE
  2
AcDbPolyline
  3
AutoCAD 2000
 90
        0
280
     0
281
     1
  0
CLASS
  1
HATCH
  2
AcDbHatch
  3
AutoCAD 2000
 90
        0
280
     0
281
     1
  0
CLASS
  1
XRECORD
  2
AcDbXrecord
  3
AutoCAD 2000
 90
        0
280
     0
281
     0
  0
CLASS
  1
LONG_TRANSACTION
  2
AcDbLongTransaction
  3
AutoCAD 2000
 90
        0
280
     0
281
     0
  0
CLASS
  1
LWPOLYLINE
  2
AcDbPolyline
  3
AutoCAD 2000
 90
        0
280
     0
281
     1
  0
CLASS
  1
HATCH
  2
AcDbHatch
  3
AutoCAD 2000
 90
        0
280
     0
281
     1
  0
CLASS
  1
XRECORD
  2
AcDbXrecord
  3
AutoCAD 2000
 90
        0
280
     0
281
     0
  0
CLASS
  1
LONG_TRANSACTION
  2
AcDbLongTransaction
  3
AutoCAD 2000
 90
        0
280
     0
281
     0
  0
CLASS
  1
LWPOLYLINE
  2
AcDbPolyline
  3
AutoCAD 2000
 90
        0
280
     0
281
     1
  0
CLASS
  1
HATCH
  2
AcDbHatch
  3
AutoCAD 2000
 90
        0
280
     0
281
     1
  0
CLASS
  1
XRECORD
  2
AcDbXrecord
  3
AutoCAD 2000
 90
        0
280
     0
281
     0
  0
CLASS
  1
LONG_TRANSACTION
  2
AcDbLongTransaction
  3
AutoCAD 2000
 90
        0
280
     0
281
     0
  0
CLASS
  1
LWPOLYLINE
  2
AcDbPolyline
  3
AutoCAD 2000
 90
        0
280
     0
281
     1
  0
CLASS
  1
HATCH
  2
AcDbHatch
  3
AutoCAD 2000
 90
        0
280
     0
281
     1
  0
CLASS
  1
XRECORD
  2
AcDbXrecord
  3
AutoCAD 2000
 90
        0
280
     0
281
     0
  0
ENDSEC
  0
SECTION
  2
TABLES
  0
TABLE
  2
VPORT
  5
8
330
0
100
AcDbSymbolTable
 70
     2
  0
VPORT
  5
18A1
330
8
100
AcDbSymbolTableRecord
100
AcDbViewportTableRecord
  2
*ACTIVE
 70
     0
 10
0.0
 20
0.0
 11
1.0
 21
1.0
 12
26.50639450542928
 22
19.90045419
 13
0.0
 23
0.0
 14
7.0
 24
7.0
 15
7.0
 25
7.0
 16
0.0
 26
0.0
 36
1.0
 17
0.0
 27
0.0
 37
0.0
 40
104.0230081825664
 41
1.431847133757961
 42
50.0
 43
0.0
 44
0.0
 50
0.0
 51
0.0
 71
     0
 72
  2000
 73
     1
 74
     0
 75
     0
 76
     0
 77
     0
 78
     0
  0
ENDTAB
  0
TABLE
  2
LTYPE
  5
5
330
0
100
AcDbSymbolTable
 70
     3
  0
LTYPE
  5
14
330
5
100
AcDbSymbolTableRecord
100
AcDbLinetypeTableRecord
  2
BYBLOCK
 70
     0
  3

 72
    65
 73
     0
 40
0.0
  0
LTYPE
  5
15
330
5
100
AcDbSymbolTableRecord
100
AcDbLinetypeTableRecord
  2
BYLAYER
 70
     0
  3

 72
    65
 73
     0
 40
0.0
  0
LTYPE
  5
16
330
5
100
AcDbSymbolTableRecord
100
AcDbLinetypeTableRecord
  2
CONTINUOUS
 70
     0
  3
Solid line
 72
    65
 73
     0
 40
0.0
  0
LTYPE
  5
258
330
5
100
AcDbSymbolTableRecord
100
AcDbLinetypeTableRecord
  2
CENTER2
 70
     0
  3
___ _ ___ _ ___ _ ___ _ ___ _ ___ _ ___ _ ___ _
 72
    65
 73
     4
 40
1.125
 49
0.75
 74
     0
 49
-0.125
 74
     0
 49
0.125
 74
     0
 49
-0.125
 74
     0
  0
LTYPE
  5
25C
330
5
100
AcDbSymbolTableRecord
100
AcDbLinetypeTableRecord
  2
HIDDEN2
 70
     0
  3
_ _ _ _ _ _ _ _ _ _ _ _ _ _ _ _ _ _ _ _ _ _ _ _
 72
    65
 73
     2
 40
0.1875
 49
0.125
 74
     0
 49
-0.0625
 74
     0
  0
ENDTAB
  0
TABLE
  2
LAYER
  5
2
330
0
100
AcDbSymbolTable
 70
    10
  0
LAYER
  5
F
330
2
100
AcDbSymbolTableRecord
100
AcDbLayerTableRecord
  2
0
 70
     0
 62
     7
  6
CONTINUOUS
  0
LAYER
  5
1AA
330
2
100
AcDbSymbolTableRecord
100
AcDbLayerTableRecord
  2
240
 70
     0
 62
     4
  6
CONTINUOUS
  0
LAYER
  5
1AB
330
2
100
AcDbSymbolTableRecord
100
AcDbLayerTableRecord
  2
241
 70
     0
 62
   211
  6
CONTINUOUS
  0
LAYER
  5
1AC
330
2
100
AcDbSymbolTableRecord
100
AcDbLayerTableRecord
  2
242
 70
     0
 62
     3
  6
CONTINUOUS
  0
LAYER
  5
1AF
330
2
100
AcDbSymbolTableRecord
100
AcDbLayerTableRecord
  2
245
 70
     0
 62
     2
  6
CENTER2
  0
LAYER
  5
21E
330
2
100
AcDbSymbolTableRecord
100
AcDbLayerTableRecord
  2
250
 70
     0
 62
     3
  6
CONTINUOUS
  0
LAYER
  5
21F
330
2
100
AcDbSymbolTableRecord
100
AcDbLayerTableRecord
  2
251
 70
     0
 62
    40
  6
CONTINUOUS
  0
LAYER
  5
5C4
330
2
100
AcDbSymbolTableRecord
100
AcDbLayerTableRecord
  2
DEFPOINTS
 70
     0
 62
     7
  6
CONTINUOUS
  0
LAYER
  5
13AC
330
2
100
AcDbSymbolTableRecord
100
AcDbLayerTableRecord
  2
2
 70
     0
 62
     7
  6
CONTINUOUS
  0
LAYER
  5
1891
330
2
100
AcDbSymbolTableRecord
100
AcDbLayerTableRecord
  2
DETAIL
 70
     0
 62
     3
  6
CONTINUOUS
  0
ENDTAB
  0
TABLE
  2
STYLE
  5
3
330
0
100
AcDbSymbolTable
 70
     2
  0
STYLE
  5
10
330
3
100
AcDbSymbolTableRecord
100
AcDbTextStyleTableRecord
  2
STANDARD
 70
     0
 40
0.0
 41
1.0
 50
0.0
 71
     0
 42
3.0
  3
romans.shx
  4
BIGFONT.SHX
  0
STYLE
  5
339
330
3
100
AcDbSymbolTableRecord
100
AcDbTextStyleTableRecord
  2
YOKO
 70
     0
 40
0.0
 41
1.0
 50
0.0
 71
     0
 42
3.0
  3
romans.shx
  4
extfont.shx
  0
ENDTAB
  0
TABLE
  2
VIEW
  5
6
330
0
100
AcDbSymbolTable
 70
     0
  0
ENDTAB
  0
TABLE
  2
UCS
  5
7
330
0
100
AcDbSymbolTable
 70
     0
  0
ENDTAB
  0
TABLE
  2
APPID
  5
9
330
0
100
AcDbSymbolTable
 70
     9
  0
APPID
  5
11
330
9
100
AcDbSymbolTableRecord
100
AcDbRegAppTableRecord
  2
ACAD
 70
     0
  0
APPID
  5
1B1
330
9
100
AcDbSymbolTableRecord
100
AcDbRegAppTableRecord
  2
GLOBAL
 70
     0
  0
APPID
  5
2A4
330
9
100
AcDbSymbolTableRecord
100
AcDbRegAppTableRecord
  2
DETAIL
 70
     0
  0
APPID
  5
5FD
330
9
100
AcDbSymbolTableRecord
100
AcDbRegAppTableRecord
  2
GRPNAME
 70
     0
  0
APPID
  5
5FE
330
9
100
AcDbSymbolTableRecord
100
AcDbRegAppTableRecord
  2
GPARA
 70
     0
  0
APPID
  5
6C4
330
9
100
AcDbSymbolTableRecord
100
AcDbRegAppTableRecord
  2
DCO15
 70
     0
  0
APPID
  5
6C5
330
9
100
AcDbSymbolTableRecord
100
AcDbRegAppTableRecord
  2
ITEMNAME
 70
     0
  0
APPID
  5
6C6
330
9
100
AcDbSymbolTableRecord
100
AcDbRegAppTableRecord
  2
GRADE_0
 70
     0
  0
APPID
  5
CC2
330
9
100
AcDbSymbolTableRecord
100
AcDbRegAppTableRecord
  2
CONTENTBLOCKICON
 70
     0
  0
ENDTAB
  0
TABLE
  2
DIMSTYLE
  5
A
330
0
100
AcDbSymbolTable
 70
     2
  0
DIMSTYLE
105
725
102
{ACAD_REACTORS
330
150D
102
}
330
A
100
AcDbSymbolTableRecord
100
AcDbDimStyleTableRecord
  2
BIGT
 70
     0
  3

  4

  5

  6
OPEN
  7
OPEN
 40
1.0
 41
2.229999999999999
 42
0.5
 43
2.5
 44
1.0
 45
0.0
 46
0.0
 47
0.0
 48
0.0
140
2.799999999999999
141
0.0
142
0.0
143
25.4
144
1.0
145
0.0
146
1.0
147
1.0
 71
     0
 72
     0
 73
     0
 74
     0
 75
     0
 76
     0
 77
     3
 78
     8
170
     0
171
     2
172
     1
173
     1
174
     1
175
     0
176
   256
177
   256
178
    40
270
     2
271
     3
272
     3
273
     2
274
     2
340
10
275
     0
280
     0
281
     0
282
     0
283
     1
284
     8
285
     0
286
     0
287
     3
288
     0
  0
DIMSTYLE
105
903
102
{ACAD_REACTORS
330
915
330
CD5
330
1508
330
16B1
102
}
330
A
100
AcDbSymbolTableRecord
100
AcDbDimStyleTableRecord
  2
BIGT$0
 70
     0
  3

  4
"
  5
OPEN
  6

  7

 40
1.0
 41
2.229999999999999
 42
0.5
 43
7.0
 44
1.0
 45
0.0
 46
0.0
 47
0.1
 48
0.1
140
3.0
141
0.0
142
0.0
143
0.0393701
144
1.0
145
0.0
146
0.71
147
1.0
 71
     0
 72
     0
 73
     0
 74
     0
 75
     0
 76
     0
 77
     3
 78
     8
170
     0
171
     2
172
     1
173
     0
174
     0
175
     0
176
     3
177
     3
178
    40
270
     2
271
     3
272
     3
273
     2
274
     2
340
10
275
     0
280
     0
281
     0
282
     0
283
     1
284
     8
285
     0
286
     0
287
     3
288
     0
  0
ENDTAB
  0
TABLE
  2
BLOCK_RECORD
  5
1
330
0
100
AcDbSymbolTable
 70
     9
  0
BLOCK_RECORD
  5
1A
102
{ACAD_XDICTIONARY
360
CC0
102
}
330
1
100
AcDbSymbolTableRecord
100
AcDbBlockTableRecord
  2
*MODEL_SPACE
  0
BLOCK_RECORD
  5
17
102
{ACAD_XDICTIONARY
360
CBE
102
}
330
1
100
AcDbSymbolTableRecord
100
AcDbBlockTableRecord
  2
*PAPER_SPACE
  0
BLOCK_RECORD
  5
594
330
1
100
AcDbSymbolTableRecord
100
AcDbBlockTableRecord
  2
_OPEN
  0
BLOCK_RECORD
  5
6E3
330
1
100
AcDbSymbolTableRecord
100
AcDbBlockTableRecord
  2
矢印なし
  0
BLOCK_RECORD
  5
78F
330
1
100
AcDbSymbolTableRecord
100
AcDbBlockTableRecord
  2
1
1001
CONTENTBLOCKICON
1071
        0
1004
2800000020000000200000000100080000000000000400000000000000000000000000000000000000000000000080000080000000808000800000008000800080800000C0C0C000C0DCC000F0CAA6000020400000206000002080000020A0000020C0000020E00000400000004020000040400000406000004080000040A0
1004
000040C0000040E00000600000006020000060400000606000006080000060A0000060C0000060E00000800000008020000080400000806000008080000080A0000080C0000080E00000A0000000A0200000A0400000A0600000A0800000A0A00000A0C00000A0E00000C0000000C0200000C0400000C0600000C0800000C0
1004
A00000C0C00000C0E00000E0000000E0200000E0400000E0600000E0800000E0A00000E0C00000E0E00040000000400020004000400040006000400080004000A0004000C0004000E00040200000402020004020400040206000402080004020A0004020C0004020E000404000004040200040404000404060004040800040
1004
40A0004040C0004040E00040600000406020004060400040606000406080004060A0004060C0004060E00040800000408020004080400040806000408080004080A0004080C0004080E00040A0000040A0200040A0400040A0600040A0800040A0A00040A0C00040A0E00040C0000040C0200040C0400040C0600040C08000
1004
40C0A00040C0C00040C0E00040E0000040E0200040E0400040E0600040E0800040E0A00040E0C00040E0E00080000000800020008000400080006000800080008000A0008000C0008000E00080200000802020008020400080206000802080008020A0008020C0008020E00080400000804020008040400080406000804080
1004
008040A0008040C0008040E00080600000806020008060400080606000806080008060A0008060C0008060E00080800000808020008080400080806000808080008080A0008080C0008080E00080A0000080A0200080A0400080A0600080A0800080A0A00080A0C00080A0E00080C0000080C0200080C0400080C0600080C0
1004
800080C0A00080C0C00080C0E00080E0000080E0200080E0400080E0600080E0800080E0A00080E0C00080E0E000C0000000C0002000C0004000C0006000C0008000C000A000C000C000C000E000C0200000C0202000C0204000C0206000C0208000C020A000C020C000C020E000C0400000C0402000C0404000C0406000C0
1004
408000C040A000C040C000C040E000C0600000C0602000C0604000C0606000C0608000C060A000C060C000C060E000C0800000C0802000C0804000C0806000C0808000C080A000C080C000C080E000C0A00000C0A02000C0A04000C0A06000C0A08000C0A0A000C0A0C000C0A0E000C0C00000C0C02000C0C04000C0C06000
1004
C0C08000C0C0A000F0FBFF00A4A0A000808080000000FF0000FF000000FFFF00FF000000FF00FF00FFFF0000FFFFFF0000000000000000000000000000000000000000000000000000000000000000000000000000000000000000000000000000000000000000000000000000000000000000000000000000000000000000
1004
00000000000000000000000000000000000000000000000000000000000000000000000000000000000000000000000000000000000000000000000000000000000000000000000000000000000000000000000000000000000000000000000000000000000000000000000000000000000000000000000000000000000000
1004
00000000000000000000000000000000000000000000000000000000000000000000000000000000000000000000000000000000000000000000000000FEFEFEFEFEFE0000000000000000000000000000000000000000000000000000FE00E7E7E7FE00000000000000000000000000000000000000000000FEFEFEFEFE00
1004
E7E7E7FEFE00000000000000000000000000000000FEFAFAFEFE000000E7FE00E7E7E7FEFE00000000000000000000000000000000FE00000000000000E7FE00E7E7E7FE00FEFEFEFEFEFEFEFEFEE7FEFE00000000FE00000000000000E7FE00E7E7E7FE0000000000000000FEFEE7E7FE00000000FE00000000000000E7FE
1004
00000000FE0000000000000000FEE7E7E7FE00000000FE00000000000000E7FE00000000FE0000000000000000FEFAE700FE000000FBFEFBFBFBFBFBFBFBE7FEFBFBFBFBFEFBFBFBFBFBFBE7FBFEFAE7FBFEFB000000FE00000000000000E7FE00000000FE000000000000E7E7E7E7E7E7E700000000FE00000000000000E7
1004
FE00E7E7E7FE0000000000000000FAFEE7E7E700000000FE00000000000000E7FE00E7E7E7FE00FEFEFEFEFEFEFEFEFEFEFEFE00000000FE00000000000000E7FE00E7E7E7FEFE00000000000000000000000000000000FEFEFEFEFEFEFEFEFEFE00E7E7E7FEFE000000000000000000000000000000000000000000000000
1004
00FE00E7E7E7FE0000000000000000000000000000000000000000000000000000FEFEFEFEFEFE00000000000000000000000000000000000000000000000000000000000000000000000000000000000000000000000000000000000000000000000000000000000000000000000000000000000000000000000000000000
1004
00000000000000000000000000000000000000000000000000000000000000000000000000000000000000000000000000000000000000000000000000000000000000000000000000000000000000000000000000000000000000000000000000000000000000000000000000000000000000000000000000000000000000
1004
0000000000000000000000000000000000000000000000000000000000000000000000000000000000000000000000000000000000000000
  0
BLOCK_RECORD
  5
918
330
1
100
AcDbSymbolTableRecord
100
AcDbBlockTableRecord
  2
*D3
  0
BLOCK_RECORD
  5
CD6
330
1
100
AcDbSymbolTableRecord
100
AcDbBlockTableRecord
  2
*D4
  0
BLOCK_RECORD
  5
165A
330
1
100
AcDbSymbolTableRecord
100
AcDbBlockTableRecord
  2
*D5
  0
BLOCK_RECORD
  5
1666
330
1
100
AcDbSymbolTableRecord
100
AcDbBlockTableRecord
  2
*D6
  0
BLOCK_RECORD
  5
16B2
330
1
100
AcDbSymbolTableRecord
100
AcDbBlockTableRecord
  2
*D7
  0
ENDTAB
  0
ENDSEC
  0
SECTION
  2
BLOCKS
  0
BLOCK
  5
1B
330
1A
100
AcDbEntity
  8
0
100
AcDbBlockBegin
  2
*MODEL_SPACE
 70
     0
 10
0.0
 20
0.0
 30
0.0
  3
*MODEL_SPACE
  1

  0
ENDBLK
  5
1C
330
1A
100
AcDbEntity
  8
0
100
AcDbBlockEnd
  0
BLOCK
  5
18
330
17
100
AcDbEntity
 67
     1
  8
0
100
AcDbBlockBegin
  2
*PAPER_SPACE
 70
     0
 10
0.0
 20
0.0
 30
0.0
  3
*PAPER_SPACE
  1

  0
ENDBLK
  5
19
330
17
100
AcDbEntity
 67
     1
  8
0
100
AcDbBlockEnd
  0
BLOCK
  5
598
330
594
100
AcDbEntity
  8
0
100
AcDbBlockBegin
  2
_OPEN
 70
     0
 10
0.0
 20
0.0
 30
0.0
  3
_OPEN
  1

  0
LINE
  5
595
330
594
100
AcDbEntity
  8
0
  6
BYBLOCK
 62
     0
100
AcDbLine
 10
-1.0
 20
0.16666667
 30
0.0
 11
0.0
 21
0.0
 31
0.0
  0
LINE
  5
596
330
594
100
AcDbEntity
  8
0
  6
BYBLOCK
 62
     0
100
AcDbLine
 10
-1.0
 20
-0.16666667
 30
0.0
 11
0.0
 21
0.0
 31
0.0
  0
LINE
  5
597
330
594
100
AcDbEntity
  8
0
  6
BYBLOCK
 62
     0
100
AcDbLine
 10
0.0
 20
0.0
 30
0.0
 11
-1.0
 21
0.0
 31
0.0
  0
ENDBLK
  5
599
330
594
100
AcDbEntity
  8
0
100
AcDbBlockEnd
  0
BLOCK
  5
6E4
330
6E3
100
AcDbEntity
  8
0
100
AcDbBlockBegin
  2
矢印なし
 70
     0
 10
0.0
 20
0.0
 30
0.0
  3
矢印なし
  1

  0
ENDBLK
  5
6E5
330
6E3
100
AcDbEntity
  8
0
100
AcDbBlockEnd
  0
BLOCK
  5
901
330
78F
100
AcDbEntity
  8
0
100
AcDbBlockBegin
  2
1
 70
     0
 10
0.0
 20
0.0
 30
0.0
  3
1
  1

  0
LINE
  5
16ED
330
78F
100
AcDbEntity
  8
240
  6
CONTINUOUS
100
AcDbLine
 10
32.0
 20
14.75
 30
0.0
 11
56.44666995
 21
14.75
 31
0.0
  0
LINE
  5
16EE
330
78F
100
AcDbEntity
  8
240
  6
CONTINUOUS
100
AcDbLine
 10
32.0
 20
-14.75
 30
0.0
 11
56.44666995
 21
-14.75
 31
0.0
  0
LINE
  5
16EF
330
78F
100
AcDbEntity
  8
245
  6
CENTER2
100
AcDbLine
 10
-39.0
 20
0.0
 30
0.0
 11
76.0
 21
0.0
 31
0.0
  0
LINE
  5
16F0
330
78F
100
AcDbEntity
  8
240
  6
CONTINUOUS
100
AcDbLine
 10
22.0
 20
-30.4925
 30
0.0
 11
22.0
 21
30.4925
 31
0.0
  0
LINE
  5
16F1
330
78F
100
AcDbEntity
  8
241
  6
CONTINUOUS
100
AcDbLine
 10
14.05
 20
8.99234142
 30
0.0
 11
14.05
 21
30.18137426
 31
0.0
  0
SPLINE
  5
16F2
330
78F
100
AcDbEntity
  8
241
  6
CONTINUOUS
100
AcDbSpline
210
0.0
220
0.0
230
1.0
 70
     8
 71
     3
 72
     9
 73
     5
 74
     3
 42
0.0000000001
 43
0.0000000001
 44
0.0000000001
 40
0.0
 40
0.0
 40
0.0
 40
0.0
 40
10.74384375536299
 40
21.48768751072605
 40
21.48768751072605
 40
21.48768751072605
 40
21.48768751072605
 10
14.05000000000018
 20
30.1813742565713
 30
0.0
 10
14.94252458154622
 20
26.64986878400334
 30
0.0
 10
16.72757374463832
 20
19.58685783886741
 30
0.0
 10
14.94252458154617
 20
12.52384689373149
 30
0.0
 10
14.05000000000009
 20
8.992341421163525
 30
0.0
 11
14.05000000000018
 21
30.1813742565713
 31
0.0
 11
15.83504916309226
 21
19.58685783886744
 31
0.0
 11
14.05000000000009
 21
8.992341421163525
 31
0.0
  0
LINE
  5
16F3
330
78F
100
AcDbEntity
  8
241
  6
CONTINUOUS
100
AcDbLine
 10
9.949999999999999
 20
8.99234142
 30
0.0
 11
9.949999999999999
 21
30.18137426
 31
0.0
  0
SPLINE
  5
16F4
330
78F
100
AcDbEntity
  8
241
  6
CONTINUOUS
100
AcDbSpline
210
0.0
220
0.0
230
1.0
 70
     8
 71
     3
 72
     9
 73
     5
 74
     3
 42
0.0000000001
 43
0.0000000001
 44
0.0000000001
 40
0.0
 40
0.0
 40
0.0
 40
0.0
 40
10.74384375536296
 40
21.48768751072607
 40
21.48768751072607
 40
21.48768751072607
 40
21.48768751072607
 10
9.9500000000001
 20
8.992341421163501
 30
0.0
 10
9.057475418454039
 20
12.52384689373144
 30
0.0
 10
7.272426255361907
 20
19.58685783886736
 30
0.0
 10
9.057475418453993
 20
26.6498687840033
 30
0.0
 10
9.950000000000043
 20
30.1813742565713
 30
0.0
 11
9.9500000000001
 21
8.992341421163501
 31
0.0
 11
8.164950836907962
 21
19.58685783886732
 31
0.0
 11
9.950000000000043
 21
30.1813742565713
 31
0.0
  0
LINE
  5
16F5
330
78F
100
AcDbEntity
  8
240
  6
CONTINUOUS
100
AcDbLine
 10
0.0
 20
30.9925
 30
0.0
 11
0.0
 21
-30.9925
 31
0.0
  0
LINE
  5
16F6
330
78F
100
AcDbEntity
  8
240
  6
CONTINUOUS
100
AcDbLine
 10
-36.5
 20
22.56242638999999
 30
0.0
 11
-1.989478809999999
 21
23.42526524999999
 31
0.0
  0
LINE
  5
16F7
330
78F
100
AcDbEntity
  8
240
  6
CONTINUOUS
100
AcDbLine
 10
-2.19993752
 20
-20.62000331999999
 30
0.0
 11
-36.5
 21
-19.76242639
 31
0.0
  0
LINE
  5
16F8
330
78F
100
AcDbEntity
  8
241
  6
CONTINUOUS
100
AcDbLine
 10
-36.5
 20
-19.76242639
 30
0.0
 11
-36.5
 21
22.56242638999999
 31
0.0
  0
LINE
  5
16F9
330
78F
100
AcDbEntity
  8
240
  6
CONTINUOUS
100
AcDbLine
 10
-38.0
 20
-18.26242639
 30
0.0
 11
-38.0
 21
21.69640098999999
 31
0.0
  0
LINE
  5
16FA
330
78F
100
AcDbEntity
  8
242
  6
HIDDEN2
100
AcDbLine
 10
-38.0
 20
-18.0
 30
0.0
 11
-31.8
 21
-18.0
 31
0.0
  0
LINE
  5
16FB
330
78F
100
AcDbEntity
  8
240
  6
CONTINUOUS
100
AcDbLine
 10
-36.5
 20
-19.76242639
 30
0.0
 11
-38.0
 21
-18.26242639
 31
0.0
  0
LINE
  5
16FC
330
78F
100
AcDbEntity
  8
242
  6
HIDDEN2
100
AcDbLine
 10
-29.87185543
 20
-19.92814457
 30
0.0
 11
-31.8
 21
-18.0
 31
0.0
  0
LINE
  5
16FD
330
78F
100
AcDbEntity
  8
242
  6
HIDDEN2
100
AcDbLine
 10
-31.8
 20
-19.87993671999999
 30
0.0
 11
-31.8
 21
-18.0
 31
0.0
  0
LINE
  5
16FE
330
78F
100
AcDbEntity
  8
240
  6
CONTINUOUS
100
AcDbLine
 10
-38.0
 20
21.69640098999999
 30
0.0
 11
-36.5
 21
22.56242638999999
 31
0.0
  0
ARC
  5
16FF
330
78F
100
AcDbEntity
  8
240
  6
CONTINUOUS
100
AcDbCircle
 10
32.0
 20
-24.75
 30
0.0
 40
10.0
100
AcDbArc
 50
90.0
 51
180.0
  0
SPLINE
  5
1700
330
78F
100
AcDbEntity
  8
241
  6
CONTINUOUS
100
AcDbSpline
210
0.0
220
0.0
230
1.0
 70
     8
 71
     3
 72
     9
 73
     5
 74
     3
 42
0.0000000001
 43
0.0000000001
 44
0.0000000001
 40
0.0
 40
0.0
 40
0.0
 40
0.0
 40
10.74384375536299
 40
21.48768751072609
 40
21.48768751072609
 40
21.48768751072609
 40
21.48768751072609
 10
9.9500000000001
 20
-8.992341421163501
 30
0.0
 10
9.057475418454039
 20
-12.52384689373145
 30
0.0
 10
7.272426255361907
 20
-19.58685783886738
 30
0.0
 10
9.057475418453995
 20
-26.64986878400333
 30
0.0
 10
9.950000000000043
 20
-30.18137425657132
 30
0.0
 11
9.9500000000001
 21
-8.992341421163501
 31
0.0
 11
8.164950836907962
 21
-19.58685783886735
 31
0.0
 11
9.950000000000043
 21
-30.18137425657132
 31
0.0
  0
LINE
  5
1701
330
78F
100
AcDbEntity
  8
241
  6
CONTINUOUS
100
AcDbLine
 10
9.949999999999999
 20
-8.99234142
 30
0.0
 11
9.949999999999999
 21
-30.18137426
 31
0.0
  0
SPLINE
  5
1702
330
78F
100
AcDbEntity
  8
241
  6
CONTINUOUS
100
AcDbSpline
210
0.0
220
0.0
230
1.0
 70
     8
 71
     3
 72
     9
 73
     5
 74
     3
 42
0.0000000001
 43
0.0000000001
 44
0.0000000001
 40
0.0
 40
0.0
 40
0.0
 40
0.0
 40
10.74384375536302
 40
21.48768751072608
 40
21.48768751072608
 40
21.48768751072608
 40
21.48768751072608
 10
14.05000000000018
 20
-30.1813742565713
 30
0.0
 10
14.94252458154622
 20
-26.64986878400333
 30
0.0
 10
16.72757374463832
 20
-19.58685783886739
 30
0.0
 10
14.94252458154617
 20
-12.52384689373147
 30
0.0
 10
14.05000000000009
 20
-8.992341421163501
 30
0.0
 11
14.05000000000018
 21
-30.1813742565713
 31
0.0
 11
15.83504916309226
 21
-19.58685783886741
 31
0.0
 11
14.05000000000009
 21
-8.992341421163501
 31
0.0
  0
LINE
  5
1703
330
78F
100
AcDbEntity
  8
241
  6
CONTINUOUS
100
AcDbLine
 10
14.05
 20
-8.99234142
 30
0.0
 11
14.05
 21
-30.18137426
 31
0.0
  0
LINE
  5
1704
330
78F
100
AcDbEntity
  8
241
  6
CONTINUOUS
100
AcDbLine
 10
9.949999999999999
 20
-30.18137426
 30
0.0
 11
14.05
 21
-30.18137426
 31
0.0
  0
LINE
  5
1705
330
78F
100
AcDbEntity
  8
240
  6
CONTINUOUS
100
AcDbLine
 10
0.5
 20
-31.4925
 30
0.0
 11
21.0
 21
-31.4925
 31
0.0
  0
ARC
  5
1706
330
78F
100
AcDbEntity
  8
240
  6
CONTINUOUS
100
AcDbCircle
 10
0.5
 20
-30.9925
 30
0.0
 40
0.5
100
AcDbArc
 50
180.0
 51
270.0
  0
ARC
  5
1707
330
78F
100
AcDbEntity
  8
240
  6
CONTINUOUS
100
AcDbCircle
 10
21.0
 20
-30.4925
 30
0.0
 40
1.0
100
AcDbArc
 50
270.0
 51
0.0
  0
LINE
  5
1708
330
78F
100
AcDbEntity
  8
241
  6
CONTINUOUS
100
AcDbLine
 10
9.949999999999999
 20
8.99234142
 30
0.0
 11
14.05
 21
8.99234142
 31
0.0
  0
LINE
  5
1709
330
78F
100
AcDbEntity
  8
241
  6
CONTINUOUS
100
AcDbLine
 10
9.949999999999999
 20
-8.99234142
 30
0.0
 11
14.05
 21
-8.99234142
 31
0.0
  0
LINE
  5
170A
330
78F
100
AcDbEntity
  8
241
100
AcDbLine
 10
-2.19993752
 20
-20.62000331999999
 30
0.0
 11
-2.19993752
 21
23.42000332
 31
0.0
  0
LINE
  5
170B
330
78F
100
AcDbEntity
  8
240
100
AcDbLine
 10
-2.19993752
 20
-20.62000331999999
 30
0.0
 11
0.0
 21
-20.62000331999999
 31
0.0
  0
LINE
  5
170C
330
78F
100
AcDbEntity
  8
240
100
AcDbLine
 10
-2.19993752
 20
23.42000332
 30
0.0
 11
0.0
 21
23.42000332
 31
0.0
  0
ARC
  5
170D
330
78F
100
AcDbEntity
  8
240
  6
CONTINUOUS
100
AcDbCircle
 10
32.0
 20
24.75
 30
0.0
 40
10.0
100
AcDbArc
 50
180.0
 51
270.0
  0
LINE
  5
170E
330
78F
100
AcDbEntity
  8
241
  6
CONTINUOUS
100
AcDbLine
 10
9.949999999999999
 20
30.18137426
 30
0.0
 11
14.05
 21
30.18137426
 31
0.0
  0
LINE
  5
170F
330
78F
100
AcDbEntity
  8
240
  6
CONTINUOUS
100
AcDbLine
 10
0.5
 20
31.4925
 30
0.0
 11
21.0
 21
31.4925
 31
0.0
  0
ARC
  5
1710
330
78F
100
AcDbEntity
  8
240
  6
CONTINUOUS
100
AcDbCircle
 10
0.5
 20
30.9925
 30
0.0
 40
0.5
100
AcDbArc
 50
90.0
 51
180.0
  0
ARC
  5
1711
330
78F
100
AcDbEntity
  8
240
  6
CONTINUOUS
100
AcDbCircle
 10
21.0
 20
30.4925
 30
0.0
 40
1.0
100
AcDbArc
 50
0.0
 51
90.0
  0
LINE
  5
1712
330
78F
100
AcDbEntity
  8
241
  6
HIDDEN2
100
AcDbLine
 10
47.44666995
 20
5.866415289999999
 30
0.0
 11
47.44666995
 21
0.0
 31
0.0
1001
GRPNAME
1000
PASTMD0K
  0
LINE
  5
1713
330
78F
100
AcDbEntity
  8
241
  6
CONTINUOUS
100
AcDbLine
 10
74.1
 20
14.9371258
 30
0.0
 11
74.1
 21
-14.9371258
 31
0.0
1001
GRPNAME
1000
PASTMD0K
  0
LINE
  5
1714
330
78F
100
AcDbEntity
  8
240
  6
CONTINUOUS
100
AcDbLine
 10
75.0
 20
-13.85147186
 30
0.0
 11
75.0
 21
13.85147186
 31
0.0
1001
GRPNAME
1000
PASTMD0K
  0
LINE
  5
1715
330
78F
100
AcDbEntity
  8
240
  6
CONTINUOUS
100
AcDbLine
 10
57.44666995
 20
13.75
 30
0.0
 11
57.44666995
 21
-13.75
 31
0.0
  0
LINE
  5
1716
330
78F
100
AcDbEntity
  8
240
  6
CONTINUOUS
100
AcDbLine
 10
62.85
 20
-14.3
 30
0.0
 11
62.85
 21
14.3
 31
0.0
1001
GRPNAME
1000
PASTMD0K
  0
LINE
  5
1717
330
78F
100
AcDbEntity
  8
240
  6
CONTINUOUS
100
AcDbLine
 10
62.5
 20
11.25
 30
0.0
 11
62.5
 21
-11.25
 31
0.0
1001
GRPNAME
1000
PASTMD0K
  0
LINE
  5
1718
330
78F
100
AcDbEntity
  8
242
  6
CONTINUOUS
100
AcDbLine
 10
59.44666995
 20
-10.5
 30
0.0
 11
59.44666995
 21
10.5
 31
0.0
1001
GRPNAME
1000
PASTMD0K
  0
LINE
  5
1719
330
78F
100
AcDbEntity
  8
241
  6
CONTINUOUS
100
AcDbLine
 10
63.55
 20
6.16336767
 30
0.0
 11
63.55
 21
-6.16336767
 31
0.0
1001
GRPNAME
1000
PASTMD0K
  0
LINE
  5
171A
330
78F
100
AcDbEntity
  8
240
  6
CONTINUOUS
100
AcDbLine
 10
63.55
 20
-15.0
 30
0.0
 11
73.81005050999999
 21
-15.0
 31
0.0
1001
GRPNAME
1000
PASTMD0K
  0
LINE
  5
171B
330
78F
100
AcDbEntity
  8
241
  6
CONTINUOUS
100
AcDbLine
 10
63.55
 20
-8.761443879999999
 30
0.0
 11
70.5
 21
-8.761443879999999
 31
0.0
1001
GRPNAME
1000
PASTMD0K
  0
LINE
  5
171C
330
78F
100
AcDbEntity
  8
241
  6
CONTINUOUS
100
AcDbLine
 10
63.55
 20
-6.16336767
 30
0.0
 11
70.5
 21
-6.16336767
 31
0.0
1001
GRPNAME
1000
PASTMD0K
  0
LINE
  5
171D
330
78F
100
AcDbEntity
  8
241
  6
CONTINUOUS
100
AcDbLine
 10
62.85
 20
-7.799038109999999
 30
0.0
 11
70.5
 21
-7.799038109999999
 31
0.0
1001
GRPNAME
1000
PASTMD0K
  0
LWPOLYLINE
  5
171E
330
78F
100
AcDbEntity
  8
241
  6
CONTINUOUS
100
AcDbPolyline
 90
       70
 70
     0
 43
0.0
 10
62.85
 20
-8.40959364
 10
62.85018138
 20
-8.41760288
 10
62.85072543
 20
-8.42560796
 10
62.85163186
 20
-8.43360475
 10
62.85290021
 20
-8.44158909
 10
62.85452982
 20
-8.449556859999999
 10
62.85651984
 20
-8.457503909999999
 10
62.85886923999999
 20
-8.46542613
 10
62.86157681
 20
-8.473319419999999
 10
62.86464114000001
 20
-8.481179689999999
 10
62.86806064
 20
-8.48900285
 10
62.87183354999999
 20
-8.49678487
 10
62.87595790000001
 20
-8.504521699999999
 10
62.88043156
 20
-8.512209329999999
 10
62.88525221
 20
-8.519843789999999
 10
62.89041735
 20
-8.52742111
 10
62.89592430999999
 20
-8.534937369999999
 10
62.90177024
 20
-8.54238868
 10
62.90795209
 20
-8.54977116
 10
62.91446667
 20
-8.557081
 10
62.92131061
 20
-8.564314409999999
 10
62.92848035
 20
-8.571467639999999
 10
62.93597218
 20
-8.57853697
 10
62.94378222
 20
-8.585518759999999
 10
62.95190642
 20
-8.592409379999999
 10
62.96034056999999
 20
-8.599205259999999
 10
62.96908029999999
 20
-8.605902869999999
 10
62.97812107
 20
-8.61249875
 10
62.98745822
 20
-8.618989479999999
 10
62.99708689
 20
-8.625371699999998
 10
63.00700210000001
 20
-8.631642089999999
 10
63.01719870000001
 20
-8.637797409999999
 10
63.02767142
 20
-8.64383446
 10
63.03841483
 20
-8.649750129999999
 10
63.04942334999999
 20
-8.655541339999999
 10
63.06069129
 20
-8.661205089999999
 10
63.0722128
 20
-8.66673845
 10
63.08398192
 20
-8.672138549999999
 10
63.09599254
 20
-8.677402589999999
 10
63.10823844
 20
-8.682527849999999
 10
63.12071327
 20
-8.68751166
 10
63.13341058
 20
-8.692351439999999
 10
63.14632377
 20
-8.697044699999999
 10
63.15944617
 20
-8.70158898
 10
63.17277095
 20
-8.705981949999999
 10
63.18629123
 20
-8.71022132
 10
63.2
 20
-8.714304889999999
 10
63.21389015
 20
-8.718230549999999
 10
63.22795447
 20
-8.721996269999999
 10
63.24218570000001
 20
-8.72560009
 10
63.25657644
 20
-8.729040149999999
 10
63.27111924
 20
-8.73231466
 10
63.28580655999999
 20
-8.735421929999999
 10
63.30063079999999
 20
-8.738360339999999
 10
63.31558427
 20
-8.741128379999999
 10
63.33065922
 20
-8.7437246
 10
63.34584784
 20
-8.746147669999999
 10
63.36114226
 20
-8.748396319999999
 10
63.37653455
 20
-8.7504694
 10
63.39201673
 20
-8.752365819999999
 10
63.40758079
 20
-8.75408462
 10
63.42321865
 20
-8.755624879999999
 10
63.43892222
 20
-8.75698582
 10
63.45468335
 20
-8.758166729999999
 10
63.47049387
 20
-8.759166999999999
 10
63.4863456
 20
-8.759986109999999
 10
63.50223031
 20
-8.76062364
 10
63.51813978
 20
-8.761079249999999
 10
63.53406576
 20
-8.76135271
 10
63.55
 20
-8.761443879999999
1001
GRPNAME
1000
PASTMD0K
  0
ARC
  5
1766
330
78F
100
AcDbEntity
  8
240
  6
CONTINUOUS
100
AcDbCircle
 10
63.55
 20
-14.3
 30
0.0
 40
0.6999999999999888
100
AcDbArc
 50
180.0000000899999
 51
270.00000009
1001
GRPNAME
1000
PASTMD0K
  0
LINE
  5
1767
330
78F
100
AcDbEntity
  8
242
  6
CONTINUOUS
100
AcDbLine
 10
62.5
 20
-10.0
 30
0.0
 11
59.44666995
 21
-10.0
 31
0.0
1001
GRPNAME
1000
PASTMD0K
  0
LINE
  5
1768
330
78F
100
AcDbEntity
  8
240
  6
CONTINUOUS
100
AcDbLine
 10
62.5
 20
-10.5
 30
0.0
 11
58.44666995
 21
-10.5
 31
0.0
1001
GRPNAME
1000
PASTMD0K
  0
LINE
  5
1769
330
78F
100
AcDbEntity
  8
242
  6
CONTINUOUS
100
AcDbLine
 10
58.94666995
 20
-10.5
 30
0.0
 11
59.44666995
 21
-10.0
 31
0.0
1001
GRPNAME
1000
PASTMD0K
  0
ARC
  5
176A
330
78F
100
AcDbEntity
  8
240
  6
CONTINUOUS
100
AcDbCircle
 10
56.44666995
 20
-13.75
 30
0.0
 40
1.0
100
AcDbArc
 50
270.0
 51
0.0
  0
ARC
  5
176B
330
78F
100
AcDbEntity
  8
240
  6
CONTINUOUS
100
AcDbCircle
 10
58.44666995
 20
-11.5
 30
0.0
 40
1.0
100
AcDbArc
 50
89.99999999000001
 51
179.9999999899999
1001
GRPNAME
1000
PASTMD0K
  0
LINE
  5
176C
330
78F
100
AcDbEntity
  8
241
  6
CONTINUOUS
100
AcDbLine
 10
63.55
 20
-15.0
 30
0.0
 11
63.55
 21
-8.761443879999999
 31
0.0
1001
GRPNAME
1000
PASTMD0K
  0
LINE
  5
176D
330
78F
100
AcDbEntity
  8
240
  6
CONTINUOUS
100
AcDbLine
 10
62.85
 20
-11.59999999999999
 30
0.0
 11
62.5
 21
-11.25
 31
0.0
1001
GRPNAME
1000
PASTMD0K
  0
LWPOLYLINE
  5
176E
330
78F
100
AcDbEntity
  8
241
  6
CONTINUOUS
100
AcDbPolyline
 90
       70
 70
     0
 43
0.0
 10
62.85
 20
-5.81151743
 10
62.85018138
 20
-5.81952666
 10
62.85072543
 20
-5.82753175
 10
62.85163186
 20
-5.83552854
 10
62.85290021
 20
-5.843512879999999
 10
62.85452982
 20
-5.85148064
 10
62.85651984
 20
-5.8594277
 10
62.85886923999999
 20
-5.867349919999999
 10
62.86157681
 20
-5.875243209999999
 10
62.86464114000001
 20
-5.883103479999999
 10
62.86806064
 20
-5.890926639999999
 10
62.87183354999999
 20
-5.898708659999999
 10
62.87595790000001
 20
-5.90644549
 10
62.88043156
 20
-5.914133119999999
 10
62.88525221
 20
-5.92176758
 10
62.89041735
 20
-5.9293449
 10
62.89592430999999
 20
-5.93686116
 10
62.90177024
 20
-5.944312459999999
 10
62.90795209
 20
-5.95169495
 10
62.91446667
 20
-5.959004789999999
 10
62.92131061
 20
-5.9662382
 10
62.92848035
 20
-5.973391419999999
 10
62.93597218
 20
-5.980460759999999
 10
62.94378222
 20
-5.987442549999999
 10
62.95190642
 20
-5.994333169999999
 10
62.96034056999999
 20
-6.00112904
 10
62.96908029999999
 20
-6.00782666
 10
62.97812107
 20
-6.014422539999999
 10
62.98745822
 20
-6.02091327
 10
62.99708689
 20
-6.02729548
 10
63.00700210000001
 20
-6.03356588
 10
63.01719870000001
 20
-6.039721189999999
 10
63.02767142
 20
-6.045758249999999
 10
63.03841483
 20
-6.051673919999999
 10
63.04942334999999
 20
-6.057465129999999
 10
63.06069129
 20
-6.063128879999999
 10
63.0722128
 20
-6.06866224
 10
63.08398192
 20
-6.07406234
 10
63.09599254
 20
-6.07932638
 10
63.10823844
 20
-6.08445164
 10
63.12071327
 20
-6.089435449999999
 10
63.13341058
 20
-6.09427523
 10
63.14632377
 20
-6.098968479999999
 10
63.15944617
 20
-6.10351277
 10
63.17277095
 20
-6.107905739999999
 10
63.18629123
 20
-6.112145099999999
 10
63.2
 20
-6.116228679999999
 10
63.21389015
 20
-6.12015434
 10
63.22795447
 20
-6.123920059999999
 10
63.24218570000001
 20
-6.12752388
 10
63.25657644
 20
-6.13096394
 10
63.27111924
 20
-6.134238449999999
 10
63.28580655999999
 20
-6.137345719999999
 10
63.30063079999999
 20
-6.14028413
 10
63.31558427
 20
-6.143052159999999
 10
63.33065922
 20
-6.145648389999999
 10
63.34584784
 20
-6.148071459999999
 10
63.36114226
 20
-6.15032011
 10
63.37653455
 20
-6.152393189999999
 10
63.39201673
 20
-6.15428961
 10
63.40758079
 20
-6.1560084
 10
63.42321865
 20
-6.157548669999999
 10
63.43892222
 20
-6.15890961
 10
63.45468335
 20
-6.160090519999999
 10
63.47049387
 20
-6.16109079
 10
63.4863456
 20
-6.1619099
 10
63.50223031
 20
-6.16254743
 10
63.51813978
 20
-6.16300304
 10
63.53406576
 20
-6.1632765
 10
63.55
 20
-6.16336767
1001
GRPNAME
1000
PASTMD0K
  0
LINE
  5
17B6
330
78F
100
AcDbEntity
  8
241
  6
CONTINUOUS
100
AcDbLine
 10
70.5
 20
-8.761443879999999
 30
0.0
 11
70.5
 21
-6.16336767
 31
0.0
1001
GRPNAME
1000
PASTMD0K
  0
ARC
  5
17B7
330
78F
100
AcDbEntity
  8
240
  6
CONTINUOUS
100
AcDbCircle
 10
73.81005050999999
 20
-14.3
 30
0.0
 40
0.7000000000000455
100
AcDbArc
 50
270.0000000399999
 51
315.0000000399999
1001
GRPNAME
1000
PASTMD0K
  0
LINE
  5
17B8
330
78F
100
AcDbEntity
  8
240
  6
CONTINUOUS
100
AcDbLine
 10
74.30502525
 20
-14.79497475
 30
0.0
 11
74.82426407
 21
-14.27573592999999
 31
0.0
1001
GRPNAME
1000
PASTMD0K
  0
ARC
  5
17B9
330
78F
100
AcDbEntity
  8
240
  6
CONTINUOUS
100
AcDbCircle
 10
74.40000000000001
 20
-13.85147186
 30
0.0
 40
0.6000000000000491
100
AcDbArc
 50
315.0000000399999
 51
0.00000004
1001
GRPNAME
1000
PASTMD0K
  0
LINE
  5
17BA
330
78F
100
AcDbEntity
  8
241
  6
CONTINUOUS
100
AcDbLine
 10
63.55
 20
6.16336767
 30
0.0
 11
70.5
 21
6.16336767
 31
0.0
1001
GRPNAME
1000
PASTMD0K
  0
LINE
  5
17BB
330
78F
100
AcDbEntity
  8
240
  6
CONTINUOUS
100
AcDbLine
 10
63.55
 20
15.0
 30
0.0
 11
73.81005050999999
 21
15.0
 31
0.0
1001
GRPNAME
1000
PASTMD0K
  0
LINE
  5
17BC
330
78F
100
AcDbEntity
  8
241
  6
CONTINUOUS
100
AcDbLine
 10
62.85
 20
7.799038109999999
 30
0.0
 11
70.5
 21
7.799038109999999
 31
0.0
1001
GRPNAME
1000
PASTMD0K
  0
LINE
  5
17BD
330
78F
100
AcDbEntity
  8
241
  6
CONTINUOUS
100
AcDbLine
 10
63.55
 20
8.761443879999999
 30
0.0
 11
70.5
 21
8.761443879999999
 31
0.0
1001
GRPNAME
1000
PASTMD0K
  0
LINE
  5
17BE
330
78F
100
AcDbEntity
  8
241
  6
HIDDEN2
100
AcDbLine
 10
47.44666995
 20
5.0
 30
0.0
 11
75.0
 21
5.0
 31
0.0
1001
GRPNAME
1000
PASTMD0K
  0
LINE
  5
17BF
330
78F
100
AcDbEntity
  8
241
  6
HIDDEN2
100
AcDbLine
 10
47.44666995
 20
5.866415289999999
 30
0.0
 11
70.14637243
 21
8.252250159999999
 31
0.0
1001
GRPNAME
1000
PASTMD0K
  0
LINE
  5
17C0
330
78F
100
AcDbEntity
  8
241
  6
CONTINUOUS
100
AcDbLine
 10
63.55
 20
15.0
 30
0.0
 11
63.55
 21
8.761443879999999
 31
0.0
1001
GRPNAME
1000
PASTMD0K
  0
ARC
  5
17C1
330
78F
100
AcDbEntity
  8
240
  6
CONTINUOUS
100
AcDbCircle
 10
58.44666995
 20
11.5
 30
0.0
 40
1.0
100
AcDbArc
 50
179.99999998
 51
269.9999999799999
1001
GRPNAME
1000
PASTMD0K
  0
LINE
  5
17C2
330
78F
100
AcDbEntity
  8
242
  6
CONTINUOUS
100
AcDbLine
 10
62.5
 20
10.0
 30
0.0
 11
59.44666995
 21
10.0
 31
0.0
1001
GRPNAME
1000
PASTMD0K
  0
LINE
  5
17C3
330
78F
100
AcDbEntity
  8
240
  6
CONTINUOUS
100
AcDbLine
 10
62.5
 20
10.5
 30
0.0
 11
58.44666995
 21
10.5
 31
0.0
1001
GRPNAME
1000
PASTMD0K
  0
LINE
  5
17C4
330
78F
100
AcDbEntity
  8
242
  6
CONTINUOUS
100
AcDbLine
 10
58.94666995
 20
10.5
 30
0.0
 11
59.44666995
 21
10.0
 31
0.0
1001
GRPNAME
1000
PASTMD0K
  0
LWPOLYLINE
  5
17C5
330
78F
100
AcDbEntity
  8
241
  6
CONTINUOUS
100
AcDbPolyline
 90
       70
 70
     0
 43
0.0
 10
62.85
 20
8.40959364
 10
62.85018138
 20
8.41760288
 10
62.85072543
 20
8.42560796
 10
62.85163186
 20
8.43360475
 10
62.85290021
 20
8.44158909
 10
62.85452982
 20
8.449556859999999
 10
62.85651984
 20
8.457503909999999
 10
62.85886923999999
 20
8.46542613
 10
62.86157681
 20
8.473319419999999
 10
62.86464114000001
 20
8.481179689999999
 10
62.86806064
 20
8.48900285
 10
62.87183354999999
 20
8.49678487
 10
62.87595790000001
 20
8.504521699999999
 10
62.88043156
 20
8.512209329999999
 10
62.88525221
 20
8.519843789999999
 10
62.89041735
 20
8.52742111
 10
62.89592430999999
 20
8.534937369999999
 10
62.90177024
 20
8.54238868
 10
62.90795209
 20
8.54977116
 10
62.91446667
 20
8.557081
 10
62.92131061
 20
8.564314409999999
 10
62.92848035
 20
8.571467639999999
 10
62.93597218
 20
8.57853697
 10
62.94378222
 20
8.585518759999999
 10
62.95190642
 20
8.592409379999999
 10
62.96034056999999
 20
8.599205259999999
 10
62.96908029999999
 20
8.605902869999999
 10
62.97812107
 20
8.61249875
 10
62.98745822
 20
8.618989479999999
 10
62.99708689
 20
8.625371699999998
 10
63.00700210000001
 20
8.631642089999999
 10
63.01719870000001
 20
8.637797409999999
 10
63.02767142
 20
8.64383446
 10
63.03841483
 20
8.649750129999999
 10
63.04942334999999
 20
8.655541339999999
 10
63.06069129
 20
8.661205089999999
 10
63.0722128
 20
8.66673845
 10
63.08398192
 20
8.672138549999999
 10
63.09599254
 20
8.677402589999999
 10
63.10823844
 20
8.682527849999999
 10
63.12071327
 20
8.68751166
 10
63.13341058
 20
8.692351439999999
 10
63.14632377
 20
8.697044699999999
 10
63.15944617
 20
8.70158898
 10
63.17277095
 20
8.705981949999999
 10
63.18629123
 20
8.71022132
 10
63.2
 20
8.714304889999999
 10
63.21389015
 20
8.718230549999999
 10
63.22795447
 20
8.721996269999999
 10
63.24218570000001
 20
8.72560009
 10
63.25657644
 20
8.729040149999999
 10
63.27111924
 20
8.73231466
 10
63.28580655999999
 20
8.735421929999999
 10
63.30063079999999
 20
8.738360339999999
 10
63.31558427
 20
8.741128379999999
 10
63.33065922
 20
8.7437246
 10
63.34584784
 20
8.746147669999999
 10
63.36114226
 20
8.748396319999999
 10
63.37653455
 20
8.7504694
 10
63.39201673
 20
8.752365819999999
 10
63.40758079
 20
8.75408462
 10
63.42321865
 20
8.755624879999999
 10
63.43892222
 20
8.75698582
 10
63.45468335
 20
8.758166729999999
 10
63.47049387
 20
8.759166999999999
 10
63.4863456
 20
8.759986109999999
 10
63.50223031
 20
8.76062364
 10
63.51813978
 20
8.761079249999999
 10
63.53406576
 20
8.76135271
 10
63.55
 20
8.761443879999999
1001
GRPNAME
1000
PASTMD0K
  0
LWPOLYLINE
  5
180D
330
78F
100
AcDbEntity
  8
241
  6
CONTINUOUS
100
AcDbPolyline
 90
       70
 70
     0
 43
0.0
 10
62.85
 20
5.81151743
 10
62.85018138
 20
5.81952666
 10
62.85072543
 20
5.82753175
 10
62.85163186
 20
5.83552854
 10
62.85290021
 20
5.843512879999999
 10
62.85452982
 20
5.85148064
 10
62.85651984
 20
5.8594277
 10
62.85886923999999
 20
5.867349919999999
 10
62.86157681
 20
5.875243209999999
 10
62.86464114000001
 20
5.883103479999999
 10
62.86806064
 20
5.890926639999999
 10
62.87183354999999
 20
5.898708659999999
 10
62.87595790000001
 20
5.90644549
 10
62.88043156
 20
5.914133119999999
 10
62.88525221
 20
5.92176758
 10
62.89041735
 20
5.9293449
 10
62.89592430999999
 20
5.93686116
 10
62.90177024
 20
5.944312459999999
 10
62.90795209
 20
5.95169495
 10
62.91446667
 20
5.959004789999999
 10
62.92131061
 20
5.9662382
 10
62.92848035
 20
5.973391419999999
 10
62.93597218
 20
5.980460759999999
 10
62.94378222
 20
5.987442549999999
 10
62.95190642
 20
5.994333169999999
 10
62.96034056999999
 20
6.00112904
 10
62.96908029999999
 20
6.00782666
 10
62.97812107
 20
6.014422539999999
 10
62.98745822
 20
6.02091327
 10
62.99708689
 20
6.02729548
 10
63.00700210000001
 20
6.03356588
 10
63.01719870000001
 20
6.039721189999999
 10
63.02767142
 20
6.045758249999999
 10
63.03841483
 20
6.051673919999999
 10
63.04942334999999
 20
6.057465129999999
 10
63.06069129
 20
6.063128879999999
 10
63.0722128
 20
6.06866224
 10
63.08398192
 20
6.07406234
 10
63.09599254
 20
6.07932638
 10
63.10823844
 20
6.08445164
 10
63.12071327
 20
6.089435449999999
 10
63.13341058
 20
6.09427523
 10
63.14632377
 20
6.098968479999999
 10
63.15944617
 20
6.10351277
 10
63.17277095
 20
6.107905739999999
 10
63.18629123
 20
6.112145099999999
 10
63.2
 20
6.116228679999999
 10
63.21389015
 20
6.12015434
 10
63.22795447
 20
6.123920059999999
 10
63.24218570000001
 20
6.12752388
 10
63.25657644
 20
6.13096394
 10
63.27111924
 20
6.134238449999999
 10
63.28580655999999
 20
6.137345719999999
 10
63.30063079999999
 20
6.14028413
 10
63.31558427
 20
6.143052159999999
 10
63.33065922
 20
6.145648389999999
 10
63.34584784
 20
6.148071459999999
 10
63.36114226
 20
6.15032011
 10
63.37653455
 20
6.152393189999999
 10
63.39201673
 20
6.15428961
 10
63.40758079
 20
6.1560084
 10
63.42321865
 20
6.157548669999999
 10
63.43892222
 20
6.15890961
 10
63.45468335
 20
6.160090519999999
 10
63.47049387
 20
6.16109079
 10
63.4863456
 20
6.1619099
 10
63.50223031
 20
6.16254743
 10
63.51813978
 20
6.16300304
 10
63.53406576
 20
6.1632765
 10
63.55
 20
6.16336767
1001
GRPNAME
1000
PASTMD0K
  0
ARC
  5
1855
330
78F
100
AcDbEntity
  8
240
  6
CONTINUOUS
100
AcDbCircle
 10
56.44666995
 20
13.75
 30
0.0
 40
1.0
100
AcDbArc
 50
0.0
 51
90.0
  0
ARC
  5
1856
330
78F
100
AcDbEntity
  8
240
  6
CONTINUOUS
100
AcDbCircle
 10
63.55
 20
14.3
 30
0.0
 40
0.6999999999999888
100
AcDbArc
 50
89.99999999000001
 51
179.9999999899999
1001
GRPNAME
1000
PASTMD0K
  0
LINE
  5
1857
330
78F
100
AcDbEntity
  8
240
  6
CONTINUOUS
100
AcDbLine
 10
62.5
 20
11.25
 30
0.0
 11
62.85
 21
11.59999999999999
 31
0.0
1001
GRPNAME
1000
PASTMD0K
  0
ARC
  5
1858
330
78F
100
AcDbEntity
  8
240
  6
CONTINUOUS
100
AcDbCircle
 10
73.81005050999999
 20
14.3
 30
0.0
 40
0.7000000000000038
100
AcDbArc
 50
44.99999993000001
 51
89.99999993000001
1001
GRPNAME
1000
PASTMD0K
  0
LINE
  5
1859
330
78F
100
AcDbEntity
  8
241
  6
HIDDEN2
100
AcDbLine
 10
75.0
 20
6.775662429999999
 30
0.0
 11
72.44637242999999
 21
8.25
 31
0.0
1001
GRPNAME
1000
PASTMD0K
  0
LINE
  5
185A
330
78F
100
AcDbEntity
  8
241
  6
CONTINUOUS
100
AcDbLine
 10
70.5
 20
8.761443879999999
 30
0.0
 11
70.5
 21
6.16336767
 31
0.0
1001
GRPNAME
1000
PASTMD0K
  0
LINE
  5
185B
330
78F
100
AcDbEntity
  8
241
  6
HIDDEN2
100
AcDbLine
 10
70.14637243
 20
7.0
 30
0.0
 11
72.24637243
 21
7.0
 31
0.0
1001
GRPNAME
1000
PASTMD0K
  0
LINE
  5
185C
330
78F
100
AcDbEntity
  8
241
  6
HIDDEN2
100
AcDbLine
 10
70.14637243
 20
7.0
 30
0.0
 11
70.14637243
 21
8.252250159999999
 31
0.0
1001
GRPNAME
1000
PASTMD0K
  0
LINE
  5
185D
330
78F
100
AcDbEntity
  8
241
  6
HIDDEN2
100
AcDbLine
 10
72.24637243
 20
8.25
 30
0.0
 11
72.44637242999999
 21
8.25
 31
0.0
1001
GRPNAME
1000
PASTMD0K
  0
LINE
  5
185E
330
78F
100
AcDbEntity
  8
241
  6
HIDDEN2
100
AcDbLine
 10
72.24637243
 20
7.0
 30
0.0
 11
72.24637243
 21
8.25
 31
0.0
1001
GRPNAME
1000
PASTMD0K
  0
LINE
  5
185F
330
78F
100
AcDbEntity
  8
240
  6
CONTINUOUS
100
AcDbLine
 10
74.82426407
 20
14.27573592999999
 30
0.0
 11
74.30502525
 21
14.79497475
 31
0.0
1001
GRPNAME
1000
PASTMD0K
  0
ARC
  5
1860
330
78F
100
AcDbEntity
  8
240
  6
CONTINUOUS
100
AcDbCircle
 10
74.40000000000001
 20
13.85147186
 30
0.0
 40
0.6000000000000229
100
AcDbArc
 50
359.9999823999999
 51
45.00000004
1001
GRPNAME
1000
PASTMD0K
  0
ENDBLK
  5
902
330
78F
100
AcDbEntity
  8
0
100
AcDbBlockEnd
  0
BLOCK
  5
922
330
918
100
AcDbEntity
  8
0
100
AcDbBlockBegin
  2
*D3
 70
     1
 10
0.0
 20
0.0
 30
0.0
  3
*D3
  1

  0
LINE
  5
16DA
330
918
100
AcDbEntity
  8
250
  6
CONTINUOUS
 62
     3
100
AcDbLine
 10
0.0
 20
31.4925
 30
0.0
 11
0.0
 21
53.5
 31
0.0
  0
LINE
  5
16DB
330
918
100
AcDbEntity
  8
250
  6
CONTINUOUS
 62
     3
100
AcDbLine
 10
75.0
 20
14.35147168
 30
0.0
 11
75.0
 21
53.5
 31
0.0
  0
LINE
  5
16DC
330
918
100
AcDbEntity
  8
250
  6
CONTINUOUS
 62
     3
100
AcDbLine
 10
2.229999999999999
 20
52.5
 30
0.0
 11
72.77
 21
52.5
 31
0.0
  0
INSERT
  5
16DD
330
918
100
AcDbEntity
  8
250
  6
CONTINUOUS
 62
     3
100
AcDbBlockReference
  2
_OPEN
 10
0.0
 20
52.5
 30
0.0
 41
2.229999999999999
 42
2.229999999999999
 43
2.229999999999999
 50
180.0
  0
INSERT
  5
16DE
330
918
100
AcDbEntity
  8
250
  6
CONTINUOUS
 62
     3
100
AcDbBlockReference
  2
_OPEN
 10
75.0
 20
52.5
 30
0.0
 41
2.229999999999999
 42
2.229999999999999
 43
2.229999999999999
  0
MTEXT
  5
16DF
330
918
100
AcDbEntity
  8
250
  6
CONTINUOUS
 62
    40
100
AcDbMText
 10
37.5
 20
55.0
 30
0.0
 40
3.0
 41
0.0
 71
     5
 72
     1
  1
\A1;75
1001
ACAD
1000
MTEXTBEGIN
1070
    73
1070
     1
1070
    44
1040
1.0
1070
    74
1070
     0
1000
MTEXTEND
1000
MTEXTBEGIN
1070
    73
1070
     1
1070
    44
1040
1.0
1070
    74
1070
     0
1000
MTEXTEND
  0
POINT
  5
16E0
330
918
100
AcDbEntity
  8
DEFPOINTS
  6
CONTINUOUS
 62
     0
100
AcDbPoint
 10
0.0
 20
30.9925
 30
0.0
  0
POINT
  5
16E1
330
918
100
AcDbEntity
  8
DEFPOINTS
  6
CONTINUOUS
 62
     0
100
AcDbPoint
 10
75.0
 20
13.85147168
 30
0.0
  0
POINT
  5
16E2
330
918
100
AcDbEntity
  8
DEFPOINTS
  6
CONTINUOUS
 62
     0
100
AcDbPoint
 10
75.0
 20
52.5
 30
0.0
  0
ENDBLK
  5
923
330
918
100
AcDbEntity
  8
0
100
AcDbBlockEnd
  0
BLOCK
  5
CE0
330
CD6
100
AcDbEntity
  8
0
100
AcDbBlockBegin
  2
*D4
 70
     1
 10
0.0
 20
0.0
 30
0.0
  3
*D4
  1

  0
LINE
  5
1898
330
CD6
100
AcDbEntity
  8
250
  6
CONTINUOUS
 62
     3
100
AcDbLine
 10
9.0
 20
1.499999999999996
 30
0.0
 11
9.000000000000003
 21
46.5
 31
0.0
  0
LINE
  5
1899
330
CD6
100
AcDbEntity
  8
250
  6
CONTINUOUS
 62
     3
100
AcDbLine
 10
75.0
 20
14.35147186
 30
0.0
 11
75.0
 21
46.5
 31
0.0
  0
LINE
  5
189A
330
CD6
100
AcDbEntity
  8
250
  6
CONTINUOUS
 62
     3
100
AcDbLine
 10
11.23
 20
45.49999999999999
 30
0.0
 11
72.77
 21
45.49999999999999
 31
0.0
  0
INSERT
  5
189B
330
CD6
100
AcDbEntity
  8
250
  6
CONTINUOUS
 62
     3
100
AcDbBlockReference
  2
_OPEN
 10
9.000000000000003
 20
45.49999999999999
 30
0.0
 41
2.229999999999999
 42
2.229999999999999
 43
2.229999999999999
 50
180.0
  0
INSERT
  5
189C
330
CD6
100
AcDbEntity
  8
250
  6
CONTINUOUS
 62
     3
100
AcDbBlockReference
  2
_OPEN
 10
75.0
 20
45.49999999999999
 30
0.0
 41
2.229999999999999
 42
2.229999999999999
 43
2.229999999999999
  0
MTEXT
  5
189D
330
CD6
100
AcDbEntity
  8
250
  6
CONTINUOUS
 62
    40
100
AcDbMText
 10
42.0
 20
48.0
 30
0.0
 40
3.0
 41
0.0
 71
     5
 72
     1
  1
\A1;（max.66）
1001
ACAD
1000
MTEXTBEGIN
1070
    73
1070
     1
1070
    44
1040
1.0
1070
    74
1070
     0
1000
MTEXTEND
  0
POINT
  5
189E
330
CD6
100
AcDbEntity
  8
DEFPOINTS
  6
CONTINUOUS
 62
     0
100
AcDbPoint
 10
9.0
 20
0.9999999999999964
 30
0.0
  0
POINT
  5
189F
330
CD6
100
AcDbEntity
  8
DEFPOINTS
  6
CONTINUOUS
 62
     0
100
AcDbPoint
 10
75.0
 20
13.85147186
 30
0.0
  0
POINT
  5
18A0
330
CD6
100
AcDbEntity
  8
DEFPOINTS
  6
CONTINUOUS
 62
     0
100
AcDbPoint
 10
75.0
 20
45.49999999999999
 30
0.0
  0
ENDBLK
  5
CE1
330
CD6
100
AcDbEntity
  8
0
100
AcDbBlockEnd
  0
BLOCK
  5
1664
330
165A
100
AcDbEntity
  8
0
100
AcDbBlockBegin
  2
*D5
 70
     1
 10
0.0
 20
0.0
 30
0.0
  3
*D5
  1

  0
LINE
  5
1690
330
165A
100
AcDbEntity
  8
250
  6
CONTINUOUS
 62
     3
100
AcDbLine
 10
74.31005050999999
 20
-15.0
 30
0.0
 11
92.0
 21
-15.0
 31
0.0
  0
LINE
  5
1691
330
165A
100
AcDbEntity
  8
250
  6
CONTINUOUS
 62
     3
100
AcDbLine
 10
74.31005050999999
 20
15.0
 30
0.0
 11
92.0
 21
15.0
 31
0.0
  0
LINE
  5
1692
330
165A
100
AcDbEntity
  8
250
  6
CONTINUOUS
 62
     3
100
AcDbLine
 10
91.0
 20
-12.77
 30
0.0
 11
91.0
 21
12.77
 31
0.0
  0
INSERT
  5
1693
330
165A
100
AcDbEntity
  8
250
  6
CONTINUOUS
 62
     3
100
AcDbBlockReference
  2
_OPEN
 10
91.0
 20
-15.0
 30
0.0
 41
2.229999999999999
 42
2.229999999999999
 43
2.229999999999999
 50
270.0
  0
INSERT
  5
1694
330
165A
100
AcDbEntity
  8
250
  6
CONTINUOUS
 62
     3
100
AcDbBlockReference
  2
_OPEN
 10
91.0
 20
15.0
 30
0.0
 41
2.229999999999999
 42
2.229999999999999
 43
2.229999999999999
 50
90.0
  0
MTEXT
  5
1695
330
165A
100
AcDbEntity
  8
250
  6
CONTINUOUS
 62
    40
100
AcDbMText
 10
88.49999999999999
 20
0.0
 30
0.0
 40
3.0
 41
0.0
 71
     5
 72
     1
  1
\A1;{\H3;\U+2205}30
 11
0.0
 21
1.0
 31
0.0
1001
ACAD
1000
MTEXTBEGIN
1070
    73
1070
     1
1070
    44
1040
1.0
1070
    74
1070
     0
1000
MTEXTEND
1000
MTEXTBEGIN
1070
    73
1070
     1
1070
    44
1040
1.0
1070
    74
1070
     0
1000
MTEXTEND
  0
POINT
  5
1696
330
165A
100
AcDbEntity
  8
DEFPOINTS
  6
CONTINUOUS
 62
     0
100
AcDbPoint
 10
73.81005050999999
 20
-15.0
 30
0.0
  0
POINT
  5
1697
330
165A
100
AcDbEntity
  8
DEFPOINTS
  6
CONTINUOUS
 62
     0
100
AcDbPoint
 10
73.81005050999999
 20
15.0
 30
0.0
  0
POINT
  5
1698
330
165A
100
AcDbEntity
  8
DEFPOINTS
  6
CONTINUOUS
 62
     0
100
AcDbPoint
 10
91.0
 20
15.0
 30
0.0
  0
ENDBLK
  5
1665
330
165A
100
AcDbEntity
  8
0
100
AcDbBlockEnd
  0
BLOCK
  5
166F
330
1666
100
AcDbEntity
  8
0
100
AcDbBlockBegin
  2
*D6
 70
     1
 10
0.0
 20
0.0
 30
0.0
  3
*D6
  1

  0
LINE
  5
1688
330
1666
100
AcDbEntity
  8
250
  6
CONTINUOUS
100
AcDbLine
 10
75.5
 20
5.0
 30
0.0
 11
85.0
 21
5.0
 31
0.0
  0
LINE
  5
1689
330
1666
100
AcDbEntity
  8
250
  6
CONTINUOUS
100
AcDbLine
 10
84.0
 20
-3.0
 30
0.0
 11
84.0
 21
3.0
 31
0.0
  0
INSERT
  5
168A
330
1666
100
AcDbEntity
  8
250
  6
CONTINUOUS
100
AcDbBlockReference
  2
矢印なし
 10
84.0
 20
-5.0
 30
0.0
 41
2.0
 42
2.0
 43
2.0
 50
270.0
  0
INSERT
  5
168B
330
1666
100
AcDbEntity
  8
250
  6
CONTINUOUS
100
AcDbBlockReference
  2
_OPEN
 10
84.0
 20
5.0
 30
0.0
 41
2.0
 42
2.0
 43
2.0
 50
90.0
  0
MTEXT
  5
168C
330
1666
100
AcDbEntity
  8
250
  6
CONTINUOUS
 62
    40
100
AcDbMText
 10
81.6
 20
0.0
 30
0.0
 40
2.799999999999999
 41
0.0
 71
     5
 72
     1
  1
\A1;max.φ10
 11
0.0
 21
1.0
 31
0.0
1001
ACAD
1000
MTEXTBEGIN
1070
    73
1070
     1
1070
    44
1040
1.0
1070
    74
1070
     0
1000
MTEXTEND
1000
MTEXTBEGIN
1070
    73
1070
     1
1070
    44
1040
1.0
1070
    74
1070
     0
1000
MTEXTEND
  0
POINT
  5
168D
330
1666
100
AcDbEntity
  8
DEFPOINTS
  6
CONTINUOUS
 62
     0
100
AcDbPoint
 10
75.0
 20
-5.0
 30
0.0
  0
POINT
  5
168E
330
1666
100
AcDbEntity
  8
DEFPOINTS
  6
CONTINUOUS
 62
     0
100
AcDbPoint
 10
75.0
 20
5.0
 30
0.0
  0
POINT
  5
168F
330
1666
100
AcDbEntity
  8
DEFPOINTS
  6
CONTINUOUS
 62
     0
100
AcDbPoint
 10
84.0
 20
5.0
 30
0.0
  0
ENDBLK
  5
1670
330
1666
100
AcDbEntity
  8
0
100
AcDbBlockEnd
  0
BLOCK
  5
16BC
330
16B2
100
AcDbEntity
  8
0
100
AcDbBlockBegin
  2
*D7
 70
     1
 10
0.0
 20
0.0
 30
0.0
  3
*D7
  1

  0
LINE
  5
16C8
330
16B2
100
AcDbEntity
  8
250
  6
CONTINUOUS
 62
     3
100
AcDbLine
 10
22.0
 20
30.9925
 30
0.0
 11
22.0
 21
39.5
 31
0.0
  0
LINE
  5
16C9
330
16B2
100
AcDbEntity
  8
250
  6
CONTINUOUS
 62
     3
100
AcDbLine
 10
75.0
 20
14.35147168
 30
0.0
 11
75.0
 21
39.5
 31
0.0
  0
LINE
  5
16CA
330
16B2
100
AcDbEntity
  8
250
  6
CONTINUOUS
 62
     3
100
AcDbLine
 10
24.23
 20
38.5
 30
0.0
 11
72.77
 21
38.5
 31
0.0
  0
INSERT
  5
16CB
330
16B2
100
AcDbEntity
  8
250
  6
CONTINUOUS
 62
     3
100
AcDbBlockReference
  2
_OPEN
 10
22.0
 20
38.5
 30
0.0
 41
2.229999999999999
 42
2.229999999999999
 43
2.229999999999999
 50
180.0
  0
INSERT
  5
16CC
330
16B2
100
AcDbEntity
  8
250
  6
CONTINUOUS
 62
     3
100
AcDbBlockReference
  2
_OPEN
 10
75.0
 20
38.5
 30
0.0
 41
2.229999999999999
 42
2.229999999999999
 43
2.229999999999999
  0
MTEXT
  5
16CD
330
16B2
100
AcDbEntity
  8
250
  6
CONTINUOUS
 62
    40
100
AcDbMText
 10
48.5
 20
41.0
 30
0.0
 40
3.0
 41
0.0
 71
     5
 72
     1
  1
\A1;53
1001
ACAD
1000
MTEXTBEGIN
1070
    73
1070
     1
1070
    44
1040
1.0
1070
    74
1070
     0
1000
MTEXTEND
1000
MTEXTBEGIN
1070
    73
1070
     1
1070
    44
1040
1.0
1070
    74
1070
     0
1000
MTEXTEND
  0
POINT
  5
16CE
330
16B2
100
AcDbEntity
  8
DEFPOINTS
  6
CONTINUOUS
 62
     0
100
AcDbPoint
 10
22.0
 20
30.4925
 30
0.0
  0
POINT
  5
16CF
330
16B2
100
AcDbEntity
  8
DEFPOINTS
  6
CONTINUOUS
 62
     0
100
AcDbPoint
 10
75.0
 20
13.85147168
 30
0.0
  0
POINT
  5
16D0
330
16B2
100
AcDbEntity
  8
DEFPOINTS
  6
CONTINUOUS
 62
     0
100
AcDbPoint
 10
75.0
 20
38.5
 30
0.0
  0
ENDBLK
  5
16BD
330
16B2
100
AcDbEntity
  8
0
100
AcDbBlockEnd
  0
ENDSEC
  0
SECTION
  2
ENTITIES
  0
INSERT
  5
6E6
330
1A
100
AcDbEntity
  8
245
100
AcDbBlockReference
  2
矢印なし
 10
175.62382697
 20
90.55123571999999
 30
0.0
  0
MTEXT
  5
910
330
1A
100
AcDbEntity
  8
251
  6
CONTINUOUS
100
AcDbMText
 10
-28.46666667
 20
-27.0
 30
0.0
 40
2.799999999999999
 41
0.0
 71
     7
 72
     1
  1
C6
  7
YOKO
1001
ITEMNAME
1000
LNSP3
1001
ACAD
1000
MTEXTBEGIN
1070
    73
1070
     1
1070
    44
1040
1.0
1070
    74
1070
     0
1000
MTEXTEND
1000
MTEXTBEGIN
1070
    73
1070
     1
1070
    44
1040
1.0
1070
    74
1070
     0
1000
MTEXTEND
1000
MTEXTBEGIN
1070
    73
1070
     1
1070
    44
1040
1.0
1070
    74
1070
     0
1000
MTEXTEND
1000
MTEXTBEGIN
1070
    73
1070
     1
1070
    44
1040
1.0
1070
    74
1070
     0
1000
MTEXTEND
1000
MTEXTBEGIN
1070
    73
1070
     1
1070
    44
1040
1.0
1070
    74
1070
     0
1000
MTEXTEND
1000
MTEXTBEGIN
1070
    73
1070
     1
1070
    44
1040
1.0
1070
    74
1070
     0
1000
MTEXTEND
1000
MTEXTBEGIN
1070
    73
1070
     1
1070
    44
1040
1.0
1070
    74
1070
     0
1000
MTEXTEND
1000
MTEXTBEGIN
1070
    73
1070
     1
1070
    44
1040
1.0
1070
    74
1070
     0
1000
MTEXTEND
1000
MTEXTBEGIN
1070
    73
1070
     1
1070
    44
1040
1.0
1070
    74
1070
     0
1000
MTEXTEND
1000
MTEXTBEGIN
1070
    73
1070
     1
1070
    44
1040
1.0
1070
    74
1070
     0
1000
MTEXTEND
1000
MTEXTBEGIN
1070
    73
1070
     1
1070
    44
1040
1.0
1070
    74
1070
     0
1000
MTEXTEND
1000
MTEXTBEGIN
1070
    73
1070
     1
1070
    44
1040
1.0
1070
    74
1070
     0
1000
MTEXTEND
  0
LEADER
  5
911
330
1A
100
AcDbEntity
  8
250
  6
CONTINUOUS
100
AcDbLeader
  3
BIGT
 76
     2
 10
-16.47540100999999
 20
-20.26308536999999
 30
0.0
 10
-21.0
 20
-28.0
 30
0.0
1001
ACAD
1000
DSTYLE
1002
{
1070
     6
1000
OPEN
1070
    41
1040
2.0
1070
    42
1040
2.0
1070
    44
1040
2.0
1070
   140
1040
4.0
1070
   343
1005
594
1002
}
  0
TEXT
  5
913
330
1A
100
AcDbEntity
  8
241
100
AcDbText
 10
-38.0
 20
66.5
 30
0.0
 40
5.0
  1
C6-NBS10-75
  7
YOKO
 11
-38.0
 21
66.5
 31
0.0
100
AcDbText
 73
     1
  0
LINE
  5
914
330
1A
100
AcDbEntity
  8
250
  6
CONTINUOUS
100
AcDbLine
 10
-21.0
 20
-28.0
 30
0.0
 11
-31.26666667
 21
-28.0
 31
0.0
1001
ITEMNAME
1000
LNSP2
  0
DIMENSION
  5
915
330
1A
100
AcDbEntity
  8
250
  6
CONTINUOUS
100
AcDbDimension
  2
*D3
 10
75.0
 20
52.5
 30
0.0
 11
37.5
 21
52.5
 31
0.0
 70
   160
  3
BIGT$0
100
AcDbAlignedDimension
 13
0.0
 23
30.9925
 33
0.0
 14
75.0
 24
13.85147168
 34
0.0
100
AcDbRotatedDimension
  0
DIMENSION
  5
CD5
330
1A
100
AcDbEntity
  8
250
  6
CONTINUOUS
100
AcDbDimension
  2
*D4
 10
75.0
 20
45.49999999999999
 30
0.0
 11
42.0
 21
45.49999999999999
 31
0.0
 70
   160
  1
（max.<>）
  3
BIGT$0
100
AcDbAlignedDimension
 13
9.0
 23
0.9999999999999964
 33
0.0
 14
75.0
 24
13.85147186
 34
0.0
100
AcDbRotatedDimension
  0
DIMENSION
  5
1508
330
1A
100
AcDbEntity
  8
250
  6
CONTINUOUS
100
AcDbDimension
  2
*D5
 10
91.0
 20
15.0
 30
0.0
 11
91.0
 21
0.0
 31
0.0
 70
   160
  1
{\H3;\U+2205}<>
  3
BIGT$0
100
AcDbAlignedDimension
 13
73.81005050999999
 23
-15.0
 33
0.0
 14
73.81005050999999
 24
15.0
 34
0.0
 50
90.0
100
AcDbRotatedDimension
  0
DIMENSION
  5
150D
330
1A
100
AcDbEntity
  8
250
  6
CONTINUOUS
100
AcDbDimension
  2
*D6
 10
84.0
 20
5.0
 30
0.0
 11
84.0
 21
0.0
 31
0.0
 70
   160
  1
max.φ10
  3
BIGT
100
AcDbAlignedDimension
 13
75.0
 23
-5.0
 33
0.0
 14
75.0
 24
5.0
 34
0.0
 50
90.0
100
AcDbRotatedDimension
1001
ACAD
1000
DSTYLE
1002
{
1070
    41
1040
2.0
1070
    75
1070
     1
1070
     6
1000
矢印なし
1002
}
  0
DIMENSION
  5
16B1
330
1A
100
AcDbEntity
  8
250
  6
CONTINUOUS
100
AcDbDimension
  2
*D7
 10
75.0
 20
38.5
 30
0.0
 11
48.5
 21
41.0
 31
0.0
 70
    32
  3
BIGT$0
100
AcDbAlignedDimension
 13
22.0
 23
30.4925
 33
0.0
 14
75.0
 24
13.85147168
 34
0.0
100
AcDbRotatedDimension
  0
INSERT
  5
1861
330
1A
100
AcDbEntity
  8
245
100
AcDbBlockReference
  2
1
 10
0.0
 20
0.0
 30
0.0
  0
VIEWPORT
  5
22
330
17
100
AcDbEntity
 67
     1
  8
0
100
AcDbViewport
 10
261.5176991199999
 20
148.5
 30
0.0
 40
523.03539823
 41
297.0
 68
     1
 69
     1
1001
ACAD
1000
MVIEW
1002
{
1070
    16
1010
0.0
1020
0.0
1030
0.0
1010
0.0
1020
0.0
1030
1.0
1040
0.0
1040
297.0
1040
261.5176991199999
1040
148.5
1040
50.0
1040
0.0
1040
0.0
1070
     0
1070
   100
1070
     1
1070
     1
1070
     0
1070
     0
1070
     0
1070
     0
1040
0.0
1040
0.0
1040
0.0
1040
1.0
1040
1.0
1040
10.0
1040
10.0
1070
     0
1002
{
1002
}
1002
}
  0
ENDSEC
  0
SECTION
  2
OBJECTS
  0
DICTIONARY
  5
C
330
0
100
AcDbDictionary
  3
ACAD_GROUP
350
D
  3
ACAD_LAYOUT
350
565
  3
ACAD_MLINESTYLE
350
E
  3
ACAD_PLOTSETTINGS
350
566
  3
ACAD_PLOTSTYLENAME
350
563
  3
ACDBHEADERROUNDTRIPXREC
350
18A2
  3
GRADE_DWG
350
540
  0
DICTIONARY
  5
CC0
330
1A
100
AcDbDictionary
280
     1
  3
ACAD_LAYOUTSELFREF
360
18C4
  0
DICTIONARY
  5
CBE
330
17
100
AcDbDictionary
280
     1
  3
ACAD_LAYOUTSELFREF
360
18C3
  0
DICTIONARY
  5
D
102
{ACAD_REACTORS
330
C
102
}
330
C
100
AcDbDictionary
  3
*A1
350
6C7
  3
*A2
350
6C8
  3
*A3
350
6D4
  3
*A4
350
6D5
  3
DREC-1
350
5FC
  3
DREC-2
350
654
  3
DREC-3
350
673
  0
DICTIONARY
  5
565
102
{ACAD_REACTORS
330
C
102
}
330
C
100
AcDbDictionary
  0
DICTIONARY
  5
E
102
{ACAD_REACTORS
330
C
102
}
330
C
100
AcDbDictionary
  3
STANDARD
350
13
  0
DICTIONARY
  5
566
102
{ACAD_REACTORS
330
C
102
}
330
C
100
AcDbDictionary
  3
A3_0_5倍_
350
758
  3
A3_1倍_
350
757
  3
A3_1倍__2000_
350
707
  3
A3_2倍_
350
759
  3
A4_0_5倍_
350
755
  3
A4_1倍_
350
754
  3
A4_1倍__2000_
350
708
  3
A4_2倍_
350
756
  0
ACDBDICTIONARYWDFLT
  5
563
102
{ACAD_REACTORS
330
C
102
}
330
C
100
AcDbDictionary
281
     1
  3
Normal
350
564
100
AcDbDictionaryWithDefault
340
564
  0
DICTIONARY
  5
18A2
102
{ACAD_REACTORS
330
C
102
}
330
C
100
AcDbDictionary
  3
CEPSNTYPE
350
18AC
  3
DIMSTYLEDATA
350
18B0
  3
FINGERPRINTGUID
350
18AD
  3
HYPERLINKBASE
350
18A5
  3
INSUNITS
350
18AB
  3
LAYOUTDICT
350
18A7
  3
LWETCUNION
350
18AA
  3
PLOTSETDICT
350
18A8
  3
PLOTSTYLNAMDICT
350
18A9
  3
PSVPSCALE
350
18AF
  3
PUCSBASE
350
18B3
  3
PUCSORGBACK
350
18B9
  3
PUCSORGBOTTOM
350
18B5
  3
PUCSORGFRONT
350
18B8
  3
PUCSORGLEFT
350
18B6
  3
PUCSORGRIGHT
350
18B7
  3
PUCSORGTOP
350
18B4
  3
PUCSORTHOREF
350
18B1
  3
PUCSORTHOVIEW
350
18B2
  3
STYLESHEET
350
18A6
  3
TSTACKALIGN
350
18A3
  3
TSTACKSIZE
350
18A4
  3
UCSBASE
350
18BC
  3
UCSORGBACK
350
18C2
  3
UCSORGBOTTOM
350
18BE
  3
UCSORGFRONT
350
18C1
  3
UCSORGLEFT
350
18BF
  3
UCSORGRIGHT
350
18C0
  3
UCSORGTOP
350
18BD
  3
UCSORTHOREF
350
18BA
  3
UCSORTHOVIEW
350
18BB
  3
VERSIONGUID
350
18AE
  0
DICTIONARY
  5
540
102
{ACAD_REACTORS
330
C
102
}
330
C
100
AcDbDictionary
  3
VERSION
350
560
  0
XRECORD
  5
18C4
102
{ACAD_REACTORS
330
CC0
102
}
330
CC0
100
AcDbXrecord
340
1A
  0
XRECORD
  5
18C3
102
{ACAD_REACTORS
330
CBE
102
}
330
CBE
100
AcDbXrecord
340
17
  0
GROUP
  5
6C7
102
{ACAD_REACTORS
330
D
102
}
330
D
100
AcDbGroup
300

 70
     0
 71
     1
1001
GRPNAME
1000
DMA00
  0
GROUP
  5
6C8
102
{ACAD_REACTORS
330
D
102
}
330
D
100
AcDbGroup
300

 70
     0
 71
     1
1001
GRPNAME
1000
DMA00
  0
GROUP
  5
6D4
102
{ACAD_REACTORS
330
D
102
}
330
D
100
AcDbGroup
300

 70
     0
 71
     1
1001
GRPNAME
1000
DMA00
  0
GROUP
  5
6D5
102
{ACAD_REACTORS
330
D
102
}
330
D
100
AcDbGroup
300

 70
     0
 71
     1
1001
GRPNAME
1000
DMA00
  0
GROUP
  5
5FC
102
{ACAD_REACTORS
330
D
102
}
330
D
100
AcDbGroup
300

 70
     0
 71
     1
1001
GRPNAME
1000
DREC-
1001
GPARA
1000
xsiz
1000
44.182
1000
ysiz
1000
40.677
1000
angl
1000
0
1000
ctyp
1000
0
1000
csiz
1000
5
1000
lfnt
1000
cont
1000
hcnt
1000
hoff
1000
vcnt
1000
voff
1000
opnt
1000
4
1000
dxpt
1000
0
1000
dypt
1000
0
  0
GROUP
  5
654
102
{ACAD_REACTORS
330
D
102
}
330
D
100
AcDbGroup
300

 70
     0
 71
     1
1001
GRPNAME
1000
DREC-
1001
GPARA
1000
xsiz
1000
54.592
1000
ysiz
1000
53.036
1000
angl
1000
0
1000
ctyp
1000
0
1000
csiz
1000
5
1000
lfnt
1000
cont
1000
hcnt
1000
hoff
1000
vcnt
1000
voff
1000
opnt
1000
4
1000
dxpt
1000
0
1000
dypt
1000
0
  0
GROUP
  5
673
102
{ACAD_REACTORS
330
D
102
}
330
D
100
AcDbGroup
300

 70
     0
 71
     1
1001
GRPNAME
1000
DREC-
1001
GPARA
1000
xsiz
1000
30.363
1000
ysiz
1000
36.175
1000
angl
1000
0
1000
ctyp
1000
0
1000
csiz
1000
5
1000
lfnt
1000
cont
1000
hcnt
1000
hoff
1000
vcnt
1000
voff
1000
opnt
1000
4
1000
dxpt
1000
0
1000
dypt
1000
0
  0
MLINESTYLE
  5
13
102
{ACAD_REACTORS
330
E
102
}
330
E
100
AcDbMlineStyle
  2
STANDARD
 70
     0
  3

 62
     0
 51
90.0
 52
90.0
 71
     2
 49
0.5
 62
   256
  6
BYLAYER
 49
-0.5
 62
   256
  6
BYLAYER
  0
PLOTSETTINGS
  5
758
102
{ACAD_REACTORS
330
566
102
}
330
566
100
AcDbPlotSettings
  1
A3(0.5倍)
  2
\\AWTECPC05\HP DeskJet 1120C
  4
A3
  6

 40
5.958416459999999
 41
13.49375153
 42
6.043090819999999
 43
3.67242432
 44
296.9259948699999
 45
419.94665527
 46
89.96
 47
127.14
 48
0.0
 49
0.0
140
0.0
141
0.0
142
1.0
143
2.0
 70
  1716
 72
     1
 73
     1
 74
     2
  7
big.ctb
 75
    17
147
0.5
148
0.0
149
0.0
  0
PLOTSETTINGS
  5
757
102
{ACAD_REACTORS
330
566
102
}
330
566
100
AcDbPlotSettings
  1
A3(1倍)
  2
\\AWTECPC05\HP DeskJet 1120C
  4
A3
  6

 40
5.958416459999999
 41
13.49375153
 42
6.043090819999999
 43
3.67242432
 44
296.9259948699999
 45
419.94665527
 46
37.46
 47
52.89
 48
0.0
 49
0.0
140
0.0
141
0.0
142
1.0
143
1.0
 70
  1716
 72
     1
 73
     1
 74
     2
  7
big.ctb
 75
    16
147
1.0
148
0.0
149
0.0
  0
PLOTSETTINGS
  5
707
102
{ACAD_REACTORS
330
566
102
}
330
566
100
AcDbPlotSettings
  1
A3(1倍)(2000)
  2
SII LS-1300 (D-SCAN)
  4
User258
  6

 40
3.17499995
 41
3.17499995
 42
3.174987789999999
 43
3.174987789999999
 44
419.98898315
 45
296.98950195
 46
58.32
 47
40.32
 48
0.0
 49
0.0
140
0.0
141
0.0
142
1.0
143
1.0
 70
  1716
 72
     1
 73
     0
 74
     2
  7
big.ctb
 75
    16
147
1.0
148
0.0
149
0.0
  0
PLOTSETTINGS
  5
759
102
{ACAD_REACTORS
330
566
102
}
330
566
100
AcDbPlotSettings
  1
A3(2倍)
  2
\\AWTECPC05\HP DeskJet 1120C
  4
A3
  6

 40
5.958416459999999
 41
13.49375153
 42
6.043090819999999
 43
3.67242432
 44
296.9259948699999
 45
419.94665527
 46
-67.54000000000001
 47
-95.60999999999999
 48
0.0
 49
0.0
140
0.0
141
0.0
142
1.0
143
0.5
 70
  1716
 72
     1
 73
     1
 74
     2
  7
big.ctb
 75
    27
147
2.0
148
0.0
149
0.0
  0
PLOTSETTINGS
  5
755
102
{ACAD_REACTORS
330
566
102
}
330
566
100
AcDbPlotSettings
  1
A4(0.5倍)
  2
\\AWTECPC05\HP DeskJet 1120C
  4
A4
  6

 40
4.18041658
 41
13.49374961999999
 42
4.180404659999999
 43
3.926422119999999
 44
209.97332764
 45
296.9259948699999
 46
48.31
 47
65.5
 48
0.0
 49
0.0
140
0.0
141
0.0
142
1.0
143
2.0
 70
  1716
 72
     1
 73
     1
 74
     2
  7
big.ctb
 75
    17
147
0.5
148
0.0
149
0.0
  0
PLOTSETTINGS
  5
754
102
{ACAD_REACTORS
330
566
102
}
330
566
100
AcDbPlotSettings
  1
A4(1倍)
  2
\\AWTECPC05\HP DeskJet 1120C
  4
A4
  6

 40
4.18041658
 41
13.49374961999999
 42
4.180404659999999
 43
3.926422119999999
 44
209.97332764
 45
296.9259948699999
 46
-4.19
 47
-8.75
 48
0.0
 49
0.0
140
0.0
141
0.0
142
1.0
143
1.0
 70
  1716
 72
     1
 73
     1
 74
     2
  7
big.ctb
 75
    16
147
1.0
148
0.0
149
0.0
  0
PLOTSETTINGS
  5
708
102
{ACAD_REACTORS
330
566
102
}
330
566
100
AcDbPlotSettings
  1
A4(1倍)(2000)
  2
SII LS-1300 (D-SCAN)
  4
User259
  6

 40
3.17499995
 41
3.17499995
 42
3.174987789999999
 43
3.175003049999999
 44
296.98950195
 45
209.99449158
 46
-3.18
 47
-3.18
 48
0.0
 49
0.0
140
0.0
141
0.0
142
1.0
143
1.0
 70
  1716
 72
     1
 73
     0
 74
     2
  7
big.ctb
 75
    16
147
1.0
148
0.0
149
0.0
  0
PLOTSETTINGS
  5
756
102
{ACAD_REACTORS
330
566
102
}
330
566
100
AcDbPlotSettings
  1
A4(2倍)
  2
\\AWTECPC05\HP DeskJet 1120C
  4
A4
  6

 40
4.18041658
 41
13.49374961999999
 42
4.180404659999999
 43
3.926422119999999
 44
209.97332764
 45
296.9259948699999
 46
-109.19
 47
-157.2499999999999
 48
0.0
 49
0.0
140
0.0
141
0.0
142
1.0
143
0.5
 70
  1716
 72
     1
 73
     1
 74
     2
  7
big.ctb
 75
    27
147
2.0
148
0.0
149
0.0
  0
ACDBPLACEHOLDER
  5
564
102
{ACAD_REACTORS
330
563
102
}
330
563
100
AcDbPlaceHolder
280
     0
  0
XRECORD
  5
18AC
102
{ACAD_REACTORS
330
18A2
102
}
330
18A2
100
AcDbXrecord
 90
        0
  0
XRECORD
  5
18B0
102
{ACAD_REACTORS
330
18A2
102
}
330
18A2
100
AcDbXrecord
1000
DSTYLE
1002
{
1070
   341
340
594
1070
   343
340
594
1070
   344
340
594
1002
}
  0
XRECORD
  5
18AD
102
{ACAD_REACTORS
330
18A2
102
}
330
18A2
100
AcDbXrecord
  1
{51294030-9CB4-11D3-8E18-00A0C925D94D}
  0
XRECORD
  5
18A5
102
{ACAD_REACTORS
330
18A2
102
}
330
18A2
100
AcDbXrecord
  1

  0
XRECORD
  5
18AB
102
{ACAD_REACTORS
330
18A2
102
}
330
18A2
100
AcDbXrecord
 90
        0
  0
XRECORD
  5
18A7
102
{ACAD_REACTORS
330
18A2
102
}
330
18A2
100
AcDbXrecord
340
565
  0
XRECORD
  5
18AA
102
{ACAD_REACTORS
330
18A2
102
}
330
18A2
100
AcDbXrecord
 90
    10781
  0
XRECORD
  5
18A8
102
{ACAD_REACTORS
330
18A2
102
}
330
18A2
100
AcDbXrecord
340
566
  0
XRECORD
  5
18A9
102
{ACAD_REACTORS
330
18A2
102
}
330
18A2
100
AcDbXrecord
340
563
  0
XRECORD
  5
18AF
102
{ACAD_REACTORS
330
18A2
102
}
330
18A2
100
AcDbXrecord
 40
0.0
  0
XRECORD
  5
18B3
102
{ACAD_REACTORS
330
18A2
102
}
330
18A2
100
AcDbXrecord
340
0
  0
XRECORD
  5
18B9
102
{ACAD_REACTORS
330
18A2
102
}
330
18A2
100
AcDbXrecord
 10
0.0
 20
0.0
 30
0.0
  0
XRECORD
  5
18B5
102
{ACAD_REACTORS
330
18A2
102
}
330
18A2
100
AcDbXrecord
 10
0.0
 20
0.0
 30
0.0
  0
XRECORD
  5
18B8
102
{ACAD_REACTORS
330
18A2
102
}
330
18A2
100
AcDbXrecord
 10
0.0
 20
0.0
 30
0.0
  0
XRECORD
  5
18B6
102
{ACAD_REACTORS
330
18A2
102
}
330
18A2
100
AcDbXrecord
 10
0.0
 20
0.0
 30
0.0
  0
XRECORD
  5
18B7
102
{ACAD_REACTORS
330
18A2
102
}
330
18A2
100
AcDbXrecord
 10
0.0
 20
0.0
 30
0.0
  0
XRECORD
  5
18B4
102
{ACAD_REACTORS
330
18A2
102
}
330
18A2
100
AcDbXrecord
 10
0.0
 20
0.0
 30
0.0
  0
XRECORD
  5
18B1
102
{ACAD_REACTORS
330
18A2
102
}
330
18A2
100
AcDbXrecord
340
0
  0
XRECORD
  5
18B2
102
{ACAD_REACTORS
330
18A2
102
}
330
18A2
100
AcDbXrecord
 70
     0
  0
XRECORD
  5
18A6
102
{ACAD_REACTORS
330
18A2
102
}
330
18A2
100
AcDbXrecord
  1
big.ctb
  0
XRECORD
  5
18A3
102
{ACAD_REACTORS
330
18A2
102
}
330
18A2
100
AcDbXrecord
 90
        1
  0
XRECORD
  5
18A4
102
{ACAD_REACTORS
330
18A2
102
}
330
18A2
100
AcDbXrecord
 90
       70
  0
XRECORD
  5
18BC
102
{ACAD_REACTORS
330
18A2
102
}
330
18A2
100
AcDbXrecord
340
0
  0
XRECORD
  5
18C2
102
{ACAD_REACTORS
330
18A2
102
}
330
18A2
100
AcDbXrecord
 10
0.0
 20
0.0
 30
0.0
  0
XRECORD
  5
18BE
102
{ACAD_REACTORS
330
18A2
102
}
330
18A2
100
AcDbXrecord
 10
0.0
 20
0.0
 30
0.0
  0
XRECORD
  5
18C1
102
{ACAD_REACTORS
330
18A2
102
}
330
18A2
100
AcDbXrecord
 10
0.0
 20
0.0
 30
0.0
  0
XRECORD
  5
18BF
102
{ACAD_REACTORS
330
18A2
102
}
330
18A2
100
AcDbXrecord
 10
0.0
 20
0.0
 30
0.0
  0
XRECORD
  5
18C0
102
{ACAD_REACTORS
330
18A2
102
}
330
18A2
100
AcDbXrecord
 10
0.0
 20
0.0
 30
0.0
  0
XRECORD
  5
18BD
102
{ACAD_REACTORS
330
18A2
102
}
330
18A2
100
AcDbXrecord
 10
0.0
 20
0.0
 30
0.0
  0
XRECORD
  5
18BA
102
{ACAD_REACTORS
330
18A2
102
}
330
18A2
100
AcDbXrecord
340
0
  0
XRECORD
  5
18BB
102
{ACAD_REACTORS
330
18A2
102
}
330
18A2
100
AcDbXrecord
 70
     0
  0
XRECORD
  5
18AE
102
{ACAD_REACTORS
330
18A2
102
}
330
18A2
100
AcDbXrecord
  1
{D0016735-319C-40DF-B639-DEB951F70F48}
  0
XRECORD
  5
560
102
{ACAD_REACTORS
330
540
102
}
330
540
100
AcDbXrecord
  1
2.0.0
  0
ENDSEC
  0
EOF
