  0
SECTION
  2
HEADER
  9
$ACADVER
  1
AC1014
  9
$ACADMAINTVER
 70
     9
  9
$DWGCODEPAGE
  3
ANSI_932
  9
$INSBASE
 10
0.0
 20
0.0
 30
0.0
  9
$EXTMIN
 10
-39.0140065
 20
-31.70963713
 30
-0.00152582
  9
$EXTMAX
 10
218.02487266
 20
71.51054552
 30
0.00000003
  9
$LIMMIN
 10
0.0
 20
0.0
  9
$LIMMAX
 10
420.0
 20
297.0
  9
$ORTHOMODE
 70
     0
  9
$REGENMODE
 70
     1
  9
$FILLMODE
 70
     1
  9
$QTEXTMODE
 70
     0
  9
$MIRRTEXT
 70
     1
  9
$DRAGMODE
 70
     2
  9
$LTSCALE
 40
10.0
  9
$OSMODE
 70
   549
  9
$ATTMODE
 70
     1
  9
$TEXTSIZE
 40
3.0
  9
$TRACEWID
 40
1.0
  9
$TEXTSTYLE
  7
YOKO
  9
$CLAYER
  8
245
  9
$CELTYPE
  6
BYLAYER
  9
$CECOLOR
 62
   256
  9
$CELTSCALE
 40
1.0
  9
$DELOBJ
 70
     1
  9
$DISPSILH
 70
     0
  9
$DIMSCALE
 40
1.0
  9
$DIMASZ
 40
2.0
  9
$DIMEXO
 40
2.0
  9
$DIMDLI
 40
2.5
  9
$DIMRND
 40
0.0
  9
$DIMDLE
 40
0.0
  9
$DIMEXE
 40
2.0
  9
$DIMTP
 40
0.0
  9
$DIMTM
 40
0.0
  9
$DIMTXT
 40
4.0
  9
$DIMCEN
 40
0.0
  9
$DIMTSZ
 40
0.0
  9
$DIMTOL
 70
     0
  9
$DIMLIM
 70
     0
  9
$DIMTIH
 70
     0
  9
$DIMTOH
 70
     0
  9
$DIMSE1
 70
     0
  9
$DIMSE2
 70
     0
  9
$DIMTAD
 70
     3
  9
$DIMZIN
 70
     8
  9
$DIMBLK
  1

  9
$DIMASO
 70
     1
  9
$DIMSHO
 70
     1
  9
$DIMPOST
  1

  9
$DIMAPOST
  1

  9
$DIMALT
 70
     0
  9
$DIMALTD
 70
     2
  9
$DIMALTF
 40
25.4
  9
$DIMLFAC
 40
1.0
  9
$DIMTOFL
 70
     1
  9
$DIMTVP
 40
0.0
  9
$DIMTIX
 70
     1
  9
$DIMSOXD
 70
     0
  9
$DIMSAH
 70
     1
  9
$DIMBLK1
  1
OPEN
  9
$DIMBLK2
  1
OPEN
  9
$DIMSTYLE
  2
BIGT
  9
$DIMCLRD
 70
   256
  9
$DIMCLRE
 70
   256
  9
$DIMCLRT
 70
    40
  9
$DIMTFAC
 40
1.0
  9
$DIMGAP
 40
1.0
  9
$DIMJUST
 70
     0
  9
$DIMSD1
 70
     0
  9
$DIMSD2
 70
     0
  9
$DIMTOLJ
 70
     1
  9
$DIMTZIN
 70
     8
  9
$DIMALTZ
 70
     0
  9
$DIMALTTZ
 70
     0
  9
$DIMFIT
 70
     3
  9
$DIMUPT
 70
     0
  9
$DIMUNIT
 70
     2
  9
$DIMDEC
 70
     3
  9
$DIMTDEC
 70
     3
  9
$DIMALTU
 70
     2
  9
$DIMALTTD
 70
     2
  9
$DIMTXSTY
  7
STANDARD
  9
$DIMAUNIT
 70
     0
  9
$LUNITS
 70
     2
  9
$LUPREC
 70
     3
  9
$SKETCHINC
 40
1.0
  9
$FILLETRAD
 40
10.0
  9
$AUNITS
 70
     0
  9
$AUPREC
 70
     3
  9
$MENU
  1
.
  9
$ELEVATION
 40
0.0
  9
$PELEVATION
 40
0.0
  9
$THICKNESS
 40
0.0
  9
$LIMCHECK
 70
     0
  9
$BLIPMODE
 70
     0
  9
$CHAMFERA
 40
10.0
  9
$CHAMFERB
 40
10.0
  9
$CHAMFERC
 40
0.0
  9
$CHAMFERD
 40
0.0
  9
$SKPOLY
 70
     0
  9
$TDCREATE
 40
2454970.457546655
  9
$TDUPDATE
 40
2455173.658610196
  9
$TDINDWG
 40
0.0730195718
  9
$TDUSRTIMER
 40
0.0730195718
  9
$USRTIMER
 70
     1
  9
$ANGBASE
 50
0.0
  9
$ANGDIR
 70
     0
  9
$PDMODE
 70
    35
  9
$PDSIZE
 40
-5.0
  9
$PLINEWID
 40
0.0
  9
$COORDS
 70
     0
  9
$SPLFRAME
 70
     0
  9
$SPLINETYPE
 70
     6
  9
$SPLINESEGS
 70
     8
  9
$ATTDIA
 70
     0
  9
$ATTREQ
 70
     1
  9
$HANDLING
 70
-16383
  9
$HANDSEED
  5
1A44
  9
$SURFTAB1
 70
     6
  9
$SURFTAB2
 70
     6
  9
$SURFTYPE
 70
     6
  9
$SURFU
 70
     6
  9
$SURFV
 70
     6
  9
$UCSNAME
  2

  9
$UCSORG
 10
0.0
 20
0.0
 30
0.0
  9
$UCSXDIR
 10
1.0
 20
0.0
 30
0.0
  9
$UCSYDIR
 10
0.0
 20
1.0
 30
0.0
  9
$PUCSNAME
  2

  9
$PUCSORG
 10
0.0
 20
0.0
 30
0.0
  9
$PUCSXDIR
 10
1.0
 20
0.0
 30
0.0
  9
$PUCSYDIR
 10
0.0
 20
1.0
 30
0.0
  9
$USERI1
 70
     1
  9
$USERI2
 70
     0
  9
$USERI3
 70
     0
  9
$USERI4
 70
     0
  9
$USERI5
 70
     0
  9
$USERR1
 40
0.0
  9
$USERR2
 40
0.0
  9
$USERR3
 40
0.0
  9
$USERR4
 40
0.0
  9
$USERR5
 40
0.0
  9
$WORLDVIEW
 70
     1
  9
$SHADEDGE
 70
     3
  9
$SHADEDIF
 70
    70
  9
$TILEMODE
 70
     1
  9
$MAXACTVP
 70
    16
  9
$PINSBASE
 10
0.0
 20
0.0
 30
0.0
  9
$PLIMCHECK
 70
     0
  9
$PEXTMIN
 10
1.00000000E+20
 20
1.00000000E+20
 30
1.00000000E+20
  9
$PEXTMAX
 10
-1.00000000E+20
 20
-1.00000000E+20
 30
-1.00000000E+20
  9
$PLIMMIN
 10
0.0
 20
0.0
  9
$PLIMMAX
 10
420.0
 20
297.0
  9
$UNITMODE
 70
     0
  9
$VISRETAIN
 70
     0
  9
$PLINEGEN
 70
     0
  9
$PSLTSCALE
 70
     1
  9
$TREEDEPTH
 70
  3020
  9
$PICKSTYLE
 70
     0
  9
$CMLSTYLE
  2
STANDARD
  9
$CMLJUST
 70
     0
  9
$CMLSCALE
 40
1.0
  9
$PROXYGRAPHICS
 70
     1
  9
$MEASUREMENT
 70
     1
  0
ENDSEC
  0
SECTION
  2
CLASSES
  0
CLASS
  1
XRECORD
  2
AcDbXrecord
  3
AutoCAD 2000
 90
        0
280
     0
281
     0
  0
CLASS
  1
ACDBDICTIONARYWDFLT
  2
AcDbDictionaryWithDefault
  3
AutoCAD 2000
 90
        0
280
     0
281
     0
  0
CLASS
  1
ACDBPLACEHOLDER
  2
AcDbPlaceHolder
  3
AutoCAD 2000
 90
        0
280
     0
281
     0
  0
CLASS
  1
LAYOUT
  2
AcDbLayout
  3
AutoCAD 2000
 90
        0
280
     0
281
     0
  0
CLASS
  1
PLOTSETTINGS
  2
AcDbPlotSettings
  3
AutoCAD 2000
 90
        0
280
     0
281
     0
  0
CLASS
  1
LONG_TRANSACTION
  2
AcDbLongTransaction
  3
AutoCAD 2000
 90
        0
280
     0
281
     0
  0
CLASS
  1
LWPOLYLINE
  2
AcDbPolyline
  3
AutoCAD 2000
 90
        0
280
     0
281
     1
  0
CLASS
  1
HATCH
  2
AcDbHatch
  3
AutoCAD 2000
 90
        0
280
     0
281
     1
  0
CLASS
  1
XRECORD
  2
AcDbXrecord
  3
AutoCAD 2000
 90
        0
280
     0
281
     0
  0
CLASS
  1
LONG_TRANSACTION
  2
AcDbLongTransaction
  3
AutoCAD 2000
 90
        0
280
     0
281
     0
  0
CLASS
  1
LWPOLYLINE
  2
AcDbPolyline
  3
AutoCAD 2000
 90
        0
280
     0
281
     1
  0
CLASS
  1
HATCH
  2
AcDbHatch
  3
AutoCAD 2000
 90
        0
280
     0
281
     1
  0
CLASS
  1
XRECORD
  2
AcDbXrecord
  3
AutoCAD 2000
 90
        0
280
     0
281
     0
  0
CLASS
  1
LONG_TRANSACTION
  2
AcDbLongTransaction
  3
AutoCAD 2000
 90
        0
280
     0
281
     0
  0
CLASS
  1
LWPOLYLINE
  2
AcDbPolyline
  3
AutoCAD 2000
 90
        0
280
     0
281
     1
  0
CLASS
  1
HATCH
  2
AcDbHatch
  3
AutoCAD 2000
 90
        0
280
     0
281
     1
  0
CLASS
  1
XRECORD
  2
AcDbXrecord
  3
AutoCAD 2000
 90
        0
280
     0
281
     0
  0
CLASS
  1
LONG_TRANSACTION
  2
AcDbLongTransaction
  3
AutoCAD 2000
 90
        0
280
     0
281
     0
  0
CLASS
  1
LWPOLYLINE
  2
AcDbPolyline
  3
AutoCAD 2000
 90
        0
280
     0
281
     1
  0
CLASS
  1
HATCH
  2
AcDbHatch
  3
AutoCAD 2000
 90
        0
280
     0
281
     1
  0
CLASS
  1
XRECORD
  2
AcDbXrecord
  3
AutoCAD 2000
 90
        0
280
     0
281
     0
  0
ENDSEC
  0
SECTION
  2
TABLES
  0
TABLE
  2
VPORT
  5
8
330
0
100
AcDbSymbolTable
 70
     3
  0
VPORT
  5
1A1F
330
8
100
AcDbSymbolTableRecord
100
AcDbViewportTableRecord
  2
*ACTIVE
 70
     0
 10
0.0
 20
0.0
 11
1.0
 21
1.0
 12
89.50543308
 22
19.90045419
 13
0.0
 23
0.0
 14
7.0
 24
7.0
 15
7.0
 25
7.0
 16
0.0
 26
0.0
 36
1.0
 17
0.0
 27
0.0
 37
0.0
 40
180.4726364
 41
1.43184713
 42
50.0
 43
0.0
 44
0.0
 50
0.0
 51
0.0
 71
     0
 72
  2000
 73
     1
 74
     0
 75
     0
 76
     0
 77
     0
 78
     0
  0
ENDTAB
  0
TABLE
  2
LTYPE
  5
5
330
0
100
AcDbSymbolTable
 70
     3
  0
LTYPE
  5
14
330
5
100
AcDbSymbolTableRecord
100
AcDbLinetypeTableRecord
  2
BYBLOCK
 70
     0
  3

 72
    65
 73
     0
 40
0.0
  0
LTYPE
  5
15
330
5
100
AcDbSymbolTableRecord
100
AcDbLinetypeTableRecord
  2
BYLAYER
 70
     0
  3

 72
    65
 73
     0
 40
0.0
  0
LTYPE
  5
16
330
5
100
AcDbSymbolTableRecord
100
AcDbLinetypeTableRecord
  2
CONTINUOUS
 70
     0
  3
Solid line
 72
    65
 73
     0
 40
0.0
  0
LTYPE
  5
258
330
5
100
AcDbSymbolTableRecord
100
AcDbLinetypeTableRecord
  2
CENTER2
 70
     0
  3
___ _ ___ _ ___ _ ___ _ ___ _ ___ _ ___ _ ___ _
 72
    65
 73
     4
 40
1.125
 49
0.75
 74
     0
 49
-0.125
 74
     0
 49
0.125
 74
     0
 49
-0.125
 74
     0
  0
LTYPE
  5
25C
330
5
100
AcDbSymbolTableRecord
100
AcDbLinetypeTableRecord
  2
HIDDEN2
 70
     0
  3
_ _ _ _ _ _ _ _ _ _ _ _ _ _ _ _ _ _ _ _ _ _ _ _
 72
    65
 73
     2
 40
0.1875
 49
0.125
 74
     0
 49
-0.0625
 74
     0
  0
ENDTAB
  0
TABLE
  2
LAYER
  5
2
330
0
100
AcDbSymbolTable
 70
    10
  0
LAYER
  5
F
330
2
100
AcDbSymbolTableRecord
100
AcDbLayerTableRecord
  2
0
 70
     0
 62
     7
  6
CONTINUOUS
  0
LAYER
  5
1AA
330
2
100
AcDbSymbolTableRecord
100
AcDbLayerTableRecord
  2
240
 70
     0
 62
     4
  6
CONTINUOUS
  0
LAYER
  5
1AB
330
2
100
AcDbSymbolTableRecord
100
AcDbLayerTableRecord
  2
241
 70
     0
 62
   211
  6
CONTINUOUS
  0
LAYER
  5
1AC
330
2
100
AcDbSymbolTableRecord
100
AcDbLayerTableRecord
  2
242
 70
     0
 62
     3
  6
CONTINUOUS
  0
LAYER
  5
1AF
330
2
100
AcDbSymbolTableRecord
100
AcDbLayerTableRecord
  2
245
 70
     0
 62
     2
  6
CENTER2
  0
LAYER
  5
21E
330
2
100
AcDbSymbolTableRecord
100
AcDbLayerTableRecord
  2
250
 70
     0
 62
     3
  6
CONTINUOUS
  0
LAYER
  5
21F
330
2
100
AcDbSymbolTableRecord
100
AcDbLayerTableRecord
  2
251
 70
     0
 62
    40
  6
CONTINUOUS
  0
LAYER
  5
5C4
330
2
100
AcDbSymbolTableRecord
100
AcDbLayerTableRecord
  2
DEFPOINTS
 70
     0
 62
     7
  6
CONTINUOUS
  0
ENDTAB
  0
TABLE
  2
STYLE
  5
3
330
0
100
AcDbSymbolTable
 70
     2
  0
STYLE
  5
10
330
3
100
AcDbSymbolTableRecord
100
AcDbTextStyleTableRecord
  2
STANDARD
 70
     0
 40
0.0
 41
1.0
 50
0.0
 71
     0
 42
3.0
  3
romans.shx
  4
BIGFONT.SHX
  0
STYLE
  5
339
330
3
100
AcDbSymbolTableRecord
100
AcDbTextStyleTableRecord
  2
YOKO
 70
     0
 40
0.0
 41
1.0
 50
0.0
 71
     0
 42
3.0
  3
romans.shx
  4
extfont.shx
  0
ENDTAB
  0
TABLE
  2
VIEW
  5
6
330
0
100
AcDbSymbolTable
 70
     0
  0
ENDTAB
  0
TABLE
  2
UCS
  5
7
330
0
100
AcDbSymbolTable
 70
     0
  0
ENDTAB
  0
TABLE
  2
APPID
  5
9
330
0
100
AcDbSymbolTable
 70
     9
  0
APPID
  5
11
330
9
100
AcDbSymbolTableRecord
100
AcDbRegAppTableRecord
  2
ACAD
 70
     0
  0
APPID
  5
1B1
330
9
100
AcDbSymbolTableRecord
100
AcDbRegAppTableRecord
  2
GLOBAL
 70
     0
  0
APPID
  5
2A4
330
9
100
AcDbSymbolTableRecord
100
AcDbRegAppTableRecord
  2
DETAIL
 70
     0
  0
APPID
  5
5FD
330
9
100
AcDbSymbolTableRecord
100
AcDbRegAppTableRecord
  2
GRPNAME
 70
     0
  0
APPID
  5
5FE
330
9
100
AcDbSymbolTableRecord
100
AcDbRegAppTableRecord
  2
GPARA
 70
     0
  0
APPID
  5
6C4
330
9
100
AcDbSymbolTableRecord
100
AcDbRegAppTableRecord
  2
DCO15
 70
     0
  0
APPID
  5
6C5
330
9
100
AcDbSymbolTableRecord
100
AcDbRegAppTableRecord
  2
ITEMNAME
 70
     0
  0
APPID
  5
6C6
330
9
100
AcDbSymbolTableRecord
100
AcDbRegAppTableRecord
  2
GRADE_0
 70
     0
  0
APPID
  5
FA3
330
9
100
AcDbSymbolTableRecord
100
AcDbRegAppTableRecord
  2
CONTENTBLOCKICON
 70
     0
  0
ENDTAB
  0
TABLE
  2
DIMSTYLE
  5
A
330
0
100
AcDbSymbolTable
 70
     2
  0
DIMSTYLE
105
725
102
{ACAD_REACTORS
330
11A5
330
1645
102
}
330
A
100
AcDbSymbolTableRecord
100
AcDbDimStyleTableRecord
  2
BIGT
 70
     0
  3

  4

  5

  6
OPEN
  7
OPEN
 40
1.0
 41
2.23
 42
0.5
 43
2.5
 44
1.0
 45
0.0
 46
0.0
 47
0.0
 48
0.0
140
2.8
141
0.0
142
0.0
143
25.4
144
1.0
145
0.0
146
1.0
147
1.0
 71
     0
 72
     0
 73
     0
 74
     0
 75
     0
 76
     0
 77
     3
 78
     8
170
     0
171
     2
172
     1
173
     1
174
     1
175
     0
176
   256
177
   256
178
    40
270
     2
271
     3
272
     3
273
     2
274
     2
340
10
275
     0
280
     0
281
     0
282
     0
283
     1
284
     8
285
     0
286
     0
287
     3
288
     0
  0
DIMSTYLE
105
78F
102
{ACAD_REACTORS
330
917
330
1640
330
1812
102
}
330
A
100
AcDbSymbolTableRecord
100
AcDbDimStyleTableRecord
  2
BIGT$0
 70
     0
  3

  4
"
  5
OPEN
  6

  7

 40
1.0
 41
2.23
 42
0.5
 43
7.0
 44
1.0
 45
0.0
 46
0.0
 47
0.1
 48
0.1
140
3.0
141
0.0
142
0.0
143
0.0393701
144
1.0
145
0.0
146
0.71
147
1.0
 71
     0
 72
     0
 73
     0
 74
     0
 75
     0
 76
     0
 77
     3
 78
     8
170
     0
171
     2
172
     1
173
     0
174
     0
175
     0
176
     3
177
     3
178
    40
270
     2
271
     3
272
     3
273
     2
274
     2
340
10
275
     0
280
     0
281
     0
282
     0
283
     1
284
     8
285
     0
286
     0
287
     3
288
     0
  0
ENDTAB
  0
TABLE
  2
BLOCK_RECORD
  5
1
330
0
100
AcDbSymbolTable
 70
     9
  0
BLOCK_RECORD
  5
1A
102
{ACAD_XDICTIONARY
360
FA1
102
}
330
1
100
AcDbSymbolTableRecord
100
AcDbBlockTableRecord
  2
*MODEL_SPACE
  0
BLOCK_RECORD
  5
17
102
{ACAD_XDICTIONARY
360
F9F
102
}
330
1
100
AcDbSymbolTableRecord
100
AcDbBlockTableRecord
  2
*PAPER_SPACE
  0
BLOCK_RECORD
  5
594
330
1
100
AcDbSymbolTableRecord
100
AcDbBlockTableRecord
  2
_OPEN
  0
BLOCK_RECORD
  5
6E3
330
1
100
AcDbSymbolTableRecord
100
AcDbBlockTableRecord
  2
矢印なし
  0
BLOCK_RECORD
  5
A84
330
1
100
AcDbSymbolTableRecord
100
AcDbBlockTableRecord
  2
*D2
  0
BLOCK_RECORD
  5
11FD
330
1
100
AcDbSymbolTableRecord
100
AcDbBlockTableRecord
  2
*D3
  0
BLOCK_RECORD
  5
1792
330
1
100
AcDbSymbolTableRecord
100
AcDbBlockTableRecord
  2
*D4
  0
BLOCK_RECORD
  5
179E
330
1
100
AcDbSymbolTableRecord
100
AcDbBlockTableRecord
  2
*D5
  0
BLOCK_RECORD
  5
1813
330
1
100
AcDbSymbolTableRecord
100
AcDbBlockTableRecord
  2
*D6
  0
BLOCK_RECORD
  5
1843
330
1
100
AcDbSymbolTableRecord
100
AcDbBlockTableRecord
  2
1
1001
CONTENTBLOCKICON
1071
        0
1004
2800000020000000200000000100080000000000000400000000000000000000000000000000000000000000000080000080000000808000800000008000800080800000C0C0C000C0DCC000F0CAA6000020400000206000002080000020A0000020C0000020E00000400000004020000040400000406000004080000040A0
1004
000040C0000040E00000600000006020000060400000606000006080000060A0000060C0000060E00000800000008020000080400000806000008080000080A0000080C0000080E00000A0000000A0200000A0400000A0600000A0800000A0A00000A0C00000A0E00000C0000000C0200000C0400000C0600000C0800000C0
1004
A00000C0C00000C0E00000E0000000E0200000E0400000E0600000E0800000E0A00000E0C00000E0E00040000000400020004000400040006000400080004000A0004000C0004000E00040200000402020004020400040206000402080004020A0004020C0004020E000404000004040200040404000404060004040800040
1004
40A0004040C0004040E00040600000406020004060400040606000406080004060A0004060C0004060E00040800000408020004080400040806000408080004080A0004080C0004080E00040A0000040A0200040A0400040A0600040A0800040A0A00040A0C00040A0E00040C0000040C0200040C0400040C0600040C08000
1004
40C0A00040C0C00040C0E00040E0000040E0200040E0400040E0600040E0800040E0A00040E0C00040E0E00080000000800020008000400080006000800080008000A0008000C0008000E00080200000802020008020400080206000802080008020A0008020C0008020E00080400000804020008040400080406000804080
1004
008040A0008040C0008040E00080600000806020008060400080606000806080008060A0008060C0008060E00080800000808020008080400080806000808080008080A0008080C0008080E00080A0000080A0200080A0400080A0600080A0800080A0A00080A0C00080A0E00080C0000080C0200080C0400080C0600080C0
1004
800080C0A00080C0C00080C0E00080E0000080E0200080E0400080E0600080E0800080E0A00080E0C00080E0E000C0000000C0002000C0004000C0006000C0008000C000A000C000C000C000E000C0200000C0202000C0204000C0206000C0208000C020A000C020C000C020E000C0400000C0402000C0404000C0406000C0
1004
408000C040A000C040C000C040E000C0600000C0602000C0604000C0606000C0608000C060A000C060C000C060E000C0800000C0802000C0804000C0806000C0808000C080A000C080C000C080E000C0A00000C0A02000C0A04000C0A06000C0A08000C0A0A000C0A0C000C0A0E000C0C00000C0C02000C0C04000C0C06000
1004
C0C08000C0C0A000F0FBFF00A4A0A000808080000000FF0000FF000000FFFF00FF000000FF00FF00FFFF0000FFFFFF0000000000000000000000000000000000000000000000000000000000000000000000000000000000000000000000000000000000000000000000000000000000000000000000000000000000000000
1004
00000000000000000000000000000000000000000000000000000000000000000000000000000000000000000000000000000000000000000000000000000000000000000000000000000000000000000000000000000000000000000000000000000000000000000000000000000000000000000000000000000000000000
1004
00000000000000000000000000000000000000000000000000000000000000000000000000000000000000000000000000000000000000000000000000000000000000000000000000000000000000000000000000000000000000000000000000000000000000000000000000000000000000000000000000000000000000
1004
000000000000000000000000000000000000000000000000000000000000000000000000000000000000000000000000000000000000000000FEFEFEFE000000000000000000000000000000000000000000000000FAFEFEFEFEE7E7FE000000000000000000000000000000000000000000000000FE000000E7E7E7FEFEFE
1004
FEFEFEFEFEFEFEFEFEFEFEFEFEFEFEFEFEFE00000000FE000000E70000FE0000000000000000000000000000000000FEE7E7000000FBFEFBFBFBE7FBFBFEFBFBFBFBFBFBFBFBFBFBFBFBFBFBFBFBE7FEE7E7FB000000FE000000E7E7E7FEFEFEFEFEFEFEFEFEFEFEFEFEFEFEFEFEFEFEFEFE00000000FEFEFEFEFEE7E7FE00
1004
000000000000000000000000000000000000000000000000000000FEFEFEFE000000000000000000000000000000000000000000000000000000000000000000000000000000000000000000000000000000000000000000000000000000000000000000000000000000000000000000000000000000000000000000000000
1004
00000000000000000000000000000000000000000000000000000000000000000000000000000000000000000000000000000000000000000000000000000000000000000000000000000000000000000000000000000000000000000000000000000000000000000000000000000000000000000000000000000000000000
1004
00000000000000000000000000000000000000000000000000000000000000000000000000000000000000000000000000000000000000000000000000000000000000000000000000000000000000000000000000000000000000000000000000000000000000000000000000000000000000000000000000000000000000
1004
0000000000000000000000000000000000000000000000000000000000000000000000000000000000000000000000000000000000000000
  0
ENDTAB
  0
ENDSEC
  0
SECTION
  2
BLOCKS
  0
BLOCK
  5
1B
330
1A
100
AcDbEntity
  8
0
100
AcDbBlockBegin
  2
*MODEL_SPACE
 70
     0
 10
0.0
 20
0.0
 30
0.0
  3
*MODEL_SPACE
  1

  0
ENDBLK
  5
1C
330
1A
100
AcDbEntity
  8
0
100
AcDbBlockEnd
  0
BLOCK
  5
18
330
17
100
AcDbEntity
 67
     1
  8
0
100
AcDbBlockBegin
  2
*PAPER_SPACE
 70
     0
 10
0.0
 20
0.0
 30
0.0
  3
*PAPER_SPACE
  1

  0
ENDBLK
  5
19
330
17
100
AcDbEntity
 67
     1
  8
0
100
AcDbBlockEnd
  0
BLOCK
  5
598
330
594
100
AcDbEntity
  8
0
100
AcDbBlockBegin
  2
_OPEN
 70
     0
 10
0.0
 20
0.0
 30
0.0
  3
_OPEN
  1

  0
LINE
  5
595
330
594
100
AcDbEntity
  8
0
  6
BYBLOCK
 62
     0
100
AcDbLine
 10
-1.0
 20
0.16666667
 30
0.0
 11
0.0
 21
0.0
 31
0.0
  0
LINE
  5
596
330
594
100
AcDbEntity
  8
0
  6
BYBLOCK
 62
     0
100
AcDbLine
 10
-1.0
 20
-0.16666667
 30
0.0
 11
0.0
 21
0.0
 31
0.0
  0
LINE
  5
597
330
594
100
AcDbEntity
  8
0
  6
BYBLOCK
 62
     0
100
AcDbLine
 10
0.0
 20
0.0
 30
0.0
 11
-1.0
 21
0.0
 31
0.0
  0
ENDBLK
  5
599
330
594
100
AcDbEntity
  8
0
100
AcDbBlockEnd
  0
BLOCK
  5
6E4
330
6E3
100
AcDbEntity
  8
0
100
AcDbBlockBegin
  2
矢印なし
 70
     0
 10
0.0
 20
0.0
 30
0.0
  3
矢印なし
  1

  0
ENDBLK
  5
6E5
330
6E3
100
AcDbEntity
  8
0
100
AcDbBlockEnd
  0
BLOCK
  5
A8E
330
A84
100
AcDbEntity
  8
0
100
AcDbBlockBegin
  2
*D2
 70
     1
 10
0.0
 20
0.0
 30
0.0
  3
*D2
  1

  0
LINE
  5
183A
330
A84
100
AcDbEntity
  8
250
  6
CONTINUOUS
 62
     3
100
AcDbLine
 10
0.0
 20
31.4925
 30
0.0
 11
0.0
 21
53.5
 31
0.0
  0
LINE
  5
183B
330
A84
100
AcDbEntity
  8
250
  6
CONTINUOUS
 62
     3
100
AcDbLine
 10
200.0
 20
14.35147168
 30
0.0
 11
200.0
 21
53.5
 31
0.0
  0
LINE
  5
183C
330
A84
100
AcDbEntity
  8
250
  6
CONTINUOUS
 62
     3
100
AcDbLine
 10
2.23
 20
52.5
 30
0.0
 11
197.77
 21
52.5
 31
0.0
  0
INSERT
  5
183D
330
A84
100
AcDbEntity
  8
250
  6
CONTINUOUS
 62
     3
100
AcDbBlockReference
  2
_OPEN
 10
0.0
 20
52.5
 30
0.0
 41
2.23
 42
2.23
 43
2.23
 50
180.0
  0
INSERT
  5
183E
330
A84
100
AcDbEntity
  8
250
  6
CONTINUOUS
 62
     3
100
AcDbBlockReference
  2
_OPEN
 10
200.0
 20
52.5
 30
0.0
 41
2.23
 42
2.23
 43
2.23
  0
MTEXT
  5
183F
330
A84
100
AcDbEntity
  8
250
  6
CONTINUOUS
 62
    40
100
AcDbMText
 10
100.0
 20
55.0
 30
0.0
 40
3.0
 41
0.0
 71
     5
 72
     1
  1
\A1;200
1001
ACAD
1000
MTEXTBEGIN
1070
    73
1070
     1
1070
    44
1040
1.0
1070
    74
1070
     0
1000
MTEXTEND
1000
MTEXTBEGIN
1070
    73
1070
     1
1070
    44
1040
1.0
1070
    74
1070
     0
1000
MTEXTEND
  0
POINT
  5
1840
330
A84
100
AcDbEntity
  8
DEFPOINTS
  6
CONTINUOUS
 62
     0
100
AcDbPoint
 10
0.0
 20
30.9925
 30
0.0
  0
POINT
  5
1841
330
A84
100
AcDbEntity
  8
DEFPOINTS
  6
CONTINUOUS
 62
     0
100
AcDbPoint
 10
200.0
 20
13.85147168
 30
0.0
  0
POINT
  5
1842
330
A84
100
AcDbEntity
  8
DEFPOINTS
  6
CONTINUOUS
 62
     0
100
AcDbPoint
 10
200.0
 20
52.5
 30
0.0
  0
ENDBLK
  5
A8F
330
A84
100
AcDbEntity
  8
0
100
AcDbBlockEnd
  0
BLOCK
  5
1207
330
11FD
100
AcDbEntity
  8
0
100
AcDbBlockBegin
  2
*D3
 70
     1
 10
0.0
 20
0.0
 30
0.0
  3
*D3
  1

  0
LINE
  5
19F1
330
11FD
100
AcDbEntity
  8
250
  6
CONTINUOUS
100
AcDbLine
 10
9.0
 20
1.5
 30
0.0
 11
9.0
 21
46.5
 31
0.0
  0
LINE
  5
19F2
330
11FD
100
AcDbEntity
  8
250
  6
CONTINUOUS
100
AcDbLine
 10
200.0
 20
14.35147168
 30
0.0
 11
200.0
 21
46.5
 31
0.0
  0
LINE
  5
19F3
330
11FD
100
AcDbEntity
  8
250
  6
CONTINUOUS
100
AcDbLine
 10
11.23
 20
45.5
 30
0.0
 11
197.77
 21
45.5
 31
0.0
  0
INSERT
  5
19F4
330
11FD
100
AcDbEntity
  8
250
  6
CONTINUOUS
100
AcDbBlockReference
  2
_OPEN
 10
9.0
 20
45.5
 30
0.0
 41
2.23
 42
2.23
 43
2.23
 50
180.0
  0
INSERT
  5
19F5
330
11FD
100
AcDbEntity
  8
250
  6
CONTINUOUS
100
AcDbBlockReference
  2
_OPEN
 10
200.0
 20
45.5
 30
0.0
 41
2.23
 42
2.23
 43
2.23
  0
MTEXT
  5
19F6
330
11FD
100
AcDbEntity
  8
250
  6
CONTINUOUS
 62
    40
100
AcDbMText
 10
106.11962871
 20
47.9
 30
0.0
 40
2.8
 41
0.0
 71
     5
 72
     1
  1
\A1;（max.191）
1001
ACAD
1000
MTEXTBEGIN
1070
    73
1070
     1
1070
    44
1040
1.0
1070
    74
1070
     0
1000
MTEXTEND
  0
POINT
  5
19F7
330
11FD
100
AcDbEntity
  8
DEFPOINTS
  6
CONTINUOUS
 62
     0
100
AcDbPoint
 10
9.0
 20
1.0
 30
0.0
  0
POINT
  5
19F8
330
11FD
100
AcDbEntity
  8
DEFPOINTS
  6
CONTINUOUS
 62
     0
100
AcDbPoint
 10
200.0
 20
13.85147168
 30
0.0
  0
POINT
  5
19F9
330
11FD
100
AcDbEntity
  8
DEFPOINTS
  6
CONTINUOUS
 62
     0
100
AcDbPoint
 10
200.0
 20
45.5
 30
0.0
  0
ENDBLK
  5
1208
330
11FD
100
AcDbEntity
  8
0
100
AcDbBlockEnd
  0
BLOCK
  5
179C
330
1792
100
AcDbEntity
  8
0
100
AcDbBlockBegin
  2
*D4
 70
     1
 10
0.0
 20
0.0
 30
0.0
  3
*D4
  1

  0
LINE
  5
17E2
330
1792
100
AcDbEntity
  8
250
  6
CONTINUOUS
 62
     3
100
AcDbLine
 10
199.31005051
 20
-15.0
 30
0.0
 11
218.0
 21
-15.0
 31
0.0
  0
LINE
  5
17E3
330
1792
100
AcDbEntity
  8
250
  6
CONTINUOUS
 62
     3
100
AcDbLine
 10
199.31005051
 20
15.0
 30
0.0
 11
218.0
 21
15.0
 31
0.0
  0
LINE
  5
17E4
330
1792
100
AcDbEntity
  8
250
  6
CONTINUOUS
 62
     3
100
AcDbLine
 10
217.0
 20
-12.77
 30
0.0
 11
217.0
 21
12.77
 31
0.0
  0
INSERT
  5
17E5
330
1792
100
AcDbEntity
  8
250
  6
CONTINUOUS
 62
     3
100
AcDbBlockReference
  2
_OPEN
 10
217.0
 20
-15.0
 30
0.0
 41
2.23
 42
2.23
 43
2.23
 50
270.0
  0
INSERT
  5
17E6
330
1792
100
AcDbEntity
  8
250
  6
CONTINUOUS
 62
     3
100
AcDbBlockReference
  2
_OPEN
 10
217.0
 20
15.0
 30
0.0
 41
2.23
 42
2.23
 43
2.23
 50
90.0
  0
MTEXT
  5
17E7
330
1792
100
AcDbEntity
  8
250
  6
CONTINUOUS
 62
    40
100
AcDbMText
 10
214.5
 20
0.0
 30
0.0
 40
3.0
 41
0.0
 71
     5
 72
     1
  1
\A1;{\H3;\U+2205}30
 11
0.0
 21
1.0
 31
0.0
1001
ACAD
1000
MTEXTBEGIN
1070
    73
1070
     1
1070
    44
1040
1.0
1070
    74
1070
     0
1000
MTEXTEND
1000
MTEXTBEGIN
1070
    73
1070
     1
1070
    44
1040
1.0
1070
    74
1070
     0
1000
MTEXTEND
  0
POINT
  5
17E8
330
1792
100
AcDbEntity
  8
DEFPOINTS
  6
CONTINUOUS
 62
     0
100
AcDbPoint
 10
198.81005051
 20
-15.0
 30
0.0
  0
POINT
  5
17E9
330
1792
100
AcDbEntity
  8
DEFPOINTS
  6
CONTINUOUS
 62
     0
100
AcDbPoint
 10
198.81005051
 20
15.0
 30
0.0
  0
POINT
  5
17EA
330
1792
100
AcDbEntity
  8
DEFPOINTS
  6
CONTINUOUS
 62
     0
100
AcDbPoint
 10
217.0
 20
15.0
 30
0.0
  0
ENDBLK
  5
179D
330
1792
100
AcDbEntity
  8
0
100
AcDbBlockEnd
  0
BLOCK
  5
17A7
330
179E
100
AcDbEntity
  8
0
100
AcDbBlockBegin
  2
*D5
 70
     1
 10
0.0
 20
0.0
 30
0.0
  3
*D5
  1

  0
LINE
  5
17DA
330
179E
100
AcDbEntity
  8
250
  6
CONTINUOUS
100
AcDbLine
 10
200.5
 20
5.0
 30
0.0
 11
211.0
 21
5.0
 31
0.0
  0
LINE
  5
17DB
330
179E
100
AcDbEntity
  8
250
  6
CONTINUOUS
100
AcDbLine
 10
210.0
 20
-3.0
 30
0.0
 11
210.0
 21
3.0
 31
0.0
  0
INSERT
  5
17DC
330
179E
100
AcDbEntity
  8
250
  6
CONTINUOUS
100
AcDbBlockReference
  2
矢印なし
 10
210.0
 20
-5.0
 30
0.0
 41
2.0
 42
2.0
 43
2.0
 50
270.0
  0
INSERT
  5
17DD
330
179E
100
AcDbEntity
  8
250
  6
CONTINUOUS
100
AcDbBlockReference
  2
_OPEN
 10
210.0
 20
5.0
 30
0.0
 41
2.0
 42
2.0
 43
2.0
 50
90.0
  0
MTEXT
  5
17DE
330
179E
100
AcDbEntity
  8
250
  6
CONTINUOUS
 62
    40
100
AcDbMText
 10
207.6
 20
0.0
 30
0.0
 40
2.8
 41
0.0
 71
     5
 72
     1
  1
\A1;max.φ10
 11
0.0
 21
1.0
 31
0.0
1001
ACAD
1000
MTEXTBEGIN
1070
    73
1070
     1
1070
    44
1040
1.0
1070
    74
1070
     0
1000
MTEXTEND
1000
MTEXTBEGIN
1070
    73
1070
     1
1070
    44
1040
1.0
1070
    74
1070
     0
1000
MTEXTEND
  0
POINT
  5
17DF
330
179E
100
AcDbEntity
  8
DEFPOINTS
  6
CONTINUOUS
 62
     0
100
AcDbPoint
 10
200.0
 20
-5.0
 30
0.0
  0
POINT
  5
17E0
330
179E
100
AcDbEntity
  8
DEFPOINTS
  6
CONTINUOUS
 62
     0
100
AcDbPoint
 10
200.0
 20
5.0
 30
0.0
  0
POINT
  5
17E1
330
179E
100
AcDbEntity
  8
DEFPOINTS
  6
CONTINUOUS
 62
     0
100
AcDbPoint
 10
210.0
 20
5.0
 30
0.0
  0
ENDBLK
  5
17A8
330
179E
100
AcDbEntity
  8
0
100
AcDbBlockEnd
  0
BLOCK
  5
181D
330
1813
100
AcDbEntity
  8
0
100
AcDbBlockBegin
  2
*D6
 70
     1
 10
0.0
 20
0.0
 30
0.0
  3
*D6
  1

  0
LINE
  5
1828
330
1813
100
AcDbEntity
  8
250
  6
CONTINUOUS
 62
     3
100
AcDbLine
 10
22.0
 20
30.9925
 30
0.0
 11
22.0
 21
39.5
 31
0.0
  0
LINE
  5
1829
330
1813
100
AcDbEntity
  8
250
  6
CONTINUOUS
 62
     3
100
AcDbLine
 10
200.0
 20
14.35147168
 30
0.0
 11
200.0
 21
39.5
 31
0.0
  0
LINE
  5
182A
330
1813
100
AcDbEntity
  8
250
  6
CONTINUOUS
 62
     3
100
AcDbLine
 10
24.23
 20
38.5
 30
0.0
 11
197.77
 21
38.5
 31
0.0
  0
INSERT
  5
182B
330
1813
100
AcDbEntity
  8
250
  6
CONTINUOUS
 62
     3
100
AcDbBlockReference
  2
_OPEN
 10
22.0
 20
38.5
 30
0.0
 41
2.23
 42
2.23
 43
2.23
 50
180.0
  0
INSERT
  5
182C
330
1813
100
AcDbEntity
  8
250
  6
CONTINUOUS
 62
     3
100
AcDbBlockReference
  2
_OPEN
 10
200.0
 20
38.5
 30
0.0
 41
2.23
 42
2.23
 43
2.23
  0
MTEXT
  5
182D
330
1813
100
AcDbEntity
  8
250
  6
CONTINUOUS
 62
    40
100
AcDbMText
 10
111.0
 20
41.0
 30
0.0
 40
3.0
 41
0.0
 71
     5
 72
     1
  1
\A1;178
1001
ACAD
1000
MTEXTBEGIN
1070
    73
1070
     1
1070
    44
1040
1.0
1070
    74
1070
     0
1000
MTEXTEND
1000
MTEXTBEGIN
1070
    73
1070
     1
1070
    44
1040
1.0
1070
    74
1070
     0
1000
MTEXTEND
  0
POINT
  5
182E
330
1813
100
AcDbEntity
  8
DEFPOINTS
  6
CONTINUOUS
 62
     0
100
AcDbPoint
 10
22.0
 20
30.4925
 30
0.0
  0
POINT
  5
182F
330
1813
100
AcDbEntity
  8
DEFPOINTS
  6
CONTINUOUS
 62
     0
100
AcDbPoint
 10
200.0
 20
13.85147168
 30
0.0
  0
POINT
  5
1830
330
1813
100
AcDbEntity
  8
DEFPOINTS
  6
CONTINUOUS
 62
     0
100
AcDbPoint
 10
200.0
 20
38.5
 30
0.0
  0
ENDBLK
  5
181E
330
1813
100
AcDbEntity
  8
0
100
AcDbBlockEnd
  0
BLOCK
  5
1844
330
1843
100
AcDbEntity
  8
0
100
AcDbBlockBegin
  2
1
 70
     0
 10
0.0
 20
0.0
 30
0.0
  3
1
  1

  0
LINE
  5
1846
330
1843
100
AcDbEntity
  8
241
  6
CONTINUOUS
100
AcDbLine
 10
188.55
 20
6.16336767
 30
0.0
 11
195.5
 21
6.16336767
 31
0.0
1001
GRPNAME
1000
PASTMD0K
  0
LINE
  5
1847
330
1843
100
AcDbEntity
  8
240
  6
CONTINUOUS
100
AcDbLine
 10
188.55
 20
15.0
 30
0.0
 11
198.81005051
 21
15.0
 31
0.0
1001
GRPNAME
1000
PASTMD0K
  0
LINE
  5
1848
330
1843
100
AcDbEntity
  8
241
  6
CONTINUOUS
100
AcDbLine
 10
187.85
 20
7.79903811
 30
0.0
 11
195.5
 21
7.79903811
 31
0.0
1001
GRPNAME
1000
PASTMD0K
  0
LINE
  5
1849
330
1843
100
AcDbEntity
  8
241
  6
CONTINUOUS
100
AcDbLine
 10
188.55
 20
8.76144388
 30
0.0
 11
195.5
 21
8.76144388
 31
0.0
1001
GRPNAME
1000
PASTMD0K
  0
LINE
  5
184A
330
1843
100
AcDbEntity
  8
241
  6
HIDDEN2
100
AcDbLine
 10
172.44666995
 20
5.0
 30
0.0
 11
200.0
 21
5.0
 31
0.0
1001
GRPNAME
1000
PASTMD0K
  0
LINE
  5
184B
330
1843
100
AcDbEntity
  8
241
  6
HIDDEN2
100
AcDbLine
 10
172.44666995
 20
5.86641529
 30
0.0
 11
195.14637243
 21
8.25225016
 31
0.0
1001
GRPNAME
1000
PASTMD0K
  0
LINE
  5
184C
330
1843
100
AcDbEntity
  8
240
  6
CONTINUOUS
100
AcDbLine
 10
188.55
 20
-15.0
 30
0.0
 11
198.81005051
 21
-15.0
 31
0.0
1001
GRPNAME
1000
PASTMD0K
  0
LINE
  5
184D
330
1843
100
AcDbEntity
  8
241
  6
CONTINUOUS
100
AcDbLine
 10
188.55
 20
-8.76144388
 30
0.0
 11
195.5
 21
-8.76144388
 31
0.0
1001
GRPNAME
1000
PASTMD0K
  0
LINE
  5
184E
330
1843
100
AcDbEntity
  8
241
  6
CONTINUOUS
100
AcDbLine
 10
188.55
 20
-6.16336767
 30
0.0
 11
195.5
 21
-6.16336767
 31
0.0
1001
GRPNAME
1000
PASTMD0K
  0
LINE
  5
184F
330
1843
100
AcDbEntity
  8
241
  6
CONTINUOUS
100
AcDbLine
 10
187.85
 20
-7.79903811
 30
0.0
 11
195.5
 21
-7.79903811
 31
0.0
1001
GRPNAME
1000
PASTMD0K
  0
LINE
  5
1850
330
1843
100
AcDbEntity
  8
245
  6
CENTER2
100
AcDbLine
 10
-39.0
 20
0.0
 30
0.0
 11
201.0
 21
0.0
 31
0.0
  0
LINE
  5
1851
330
1843
100
AcDbEntity
  8
240
  6
CONTINUOUS
100
AcDbLine
 10
32.0
 20
14.75
 30
0.0
 11
181.44666995
 21
14.75
 31
0.0
  0
LINE
  5
1852
330
1843
100
AcDbEntity
  8
240
  6
CONTINUOUS
100
AcDbLine
 10
32.0
 20
-14.75
 30
0.0
 11
181.44666995
 21
-14.75
 31
0.0
  0
LINE
  5
1853
330
1843
100
AcDbEntity
  8
240
  6
CONTINUOUS
100
AcDbLine
 10
22.0
 20
-30.4925
 30
0.0
 11
22.0
 21
30.4925
 31
0.0
  0
LINE
  5
1854
330
1843
100
AcDbEntity
  8
241
  6
CONTINUOUS
100
AcDbLine
 10
14.05
 20
8.99234142
 30
0.0
 11
14.05
 21
30.18137426
 31
0.0
  0
SPLINE
  5
1855
330
1843
100
AcDbEntity
  8
241
  6
CONTINUOUS
100
AcDbSpline
210
0.0
220
0.0
230
1.0
 70
     8
 71
     3
 72
     9
 73
     5
 74
     3
 42
0.0000000001
 43
0.0000000001
 44
0.0000000001
 40
0.0
 40
0.0
 40
0.0
 40
0.0
 40
10.74384375536299
 40
21.48768751072605
 40
21.48768751072605
 40
21.48768751072605
 40
21.48768751072605
 10
14.05000000000018
 20
30.1813742565713
 30
0.0
 10
14.94252458154622
 20
26.64986878400334
 30
0.0
 10
16.72757374463832
 20
19.58685783886741
 30
0.0
 10
14.94252458154617
 20
12.52384689373149
 30
0.0
 10
14.05000000000009
 20
8.992341421163525
 30
0.0
 11
14.05000000000018
 21
30.1813742565713
 31
0.0
 11
15.83504916309226
 21
19.58685783886744
 31
0.0
 11
14.05000000000009
 21
8.992341421163525
 31
0.0
  0
LINE
  5
1856
330
1843
100
AcDbEntity
  8
241
  6
CONTINUOUS
100
AcDbLine
 10
9.95
 20
8.99234142
 30
0.0
 11
9.95
 21
30.18137426
 31
0.0
  0
SPLINE
  5
1857
330
1843
100
AcDbEntity
  8
241
  6
CONTINUOUS
100
AcDbSpline
210
0.0
220
0.0
230
1.0
 70
     8
 71
     3
 72
     9
 73
     5
 74
     3
 42
0.0000000001
 43
0.0000000001
 44
0.0000000001
 40
0.0
 40
0.0
 40
0.0
 40
0.0
 40
10.74384375536296
 40
21.48768751072607
 40
21.48768751072607
 40
21.48768751072607
 40
21.48768751072607
 10
9.9500000000001
 20
8.992341421163501
 30
0.0
 10
9.057475418454039
 20
12.52384689373144
 30
0.0
 10
7.272426255361907
 20
19.58685783886736
 30
0.0
 10
9.057475418453993
 20
26.6498687840033
 30
0.0
 10
9.950000000000043
 20
30.1813742565713
 30
0.0
 11
9.9500000000001
 21
8.992341421163501
 31
0.0
 11
8.164950836907962
 21
19.58685783886732
 31
0.0
 11
9.950000000000043
 21
30.1813742565713
 31
0.0
  0
LINE
  5
1858
330
1843
100
AcDbEntity
  8
240
  6
CONTINUOUS
100
AcDbLine
 10
0.0
 20
30.9925
 30
0.0
 11
0.0
 21
-30.9925
 31
0.0
  0
LINE
  5
1859
330
1843
100
AcDbEntity
  8
240
  6
CONTINUOUS
100
AcDbLine
 10
-36.5
 20
22.56242639
 30
0.0
 11
-1.98947881
 21
23.42526525
 31
0.0
  0
LINE
  5
185A
330
1843
100
AcDbEntity
  8
240
  6
CONTINUOUS
100
AcDbLine
 10
-2.19993752
 20
-20.62000332
 30
0.0
 11
-36.5
 21
-19.76242639
 31
0.0
  0
LINE
  5
185B
330
1843
100
AcDbEntity
  8
241
  6
CONTINUOUS
100
AcDbLine
 10
-36.5
 20
-19.76242639
 30
0.0
 11
-36.5
 21
22.56242639
 31
0.0
  0
LINE
  5
185C
330
1843
100
AcDbEntity
  8
240
  6
CONTINUOUS
100
AcDbLine
 10
-38.0
 20
-18.26242639
 30
0.0
 11
-38.0
 21
21.69640099
 31
0.0
  0
LINE
  5
185D
330
1843
100
AcDbEntity
  8
242
  6
HIDDEN2
100
AcDbLine
 10
-38.0
 20
-18.0
 30
0.0
 11
-31.8
 21
-18.0
 31
0.0
  0
LINE
  5
185E
330
1843
100
AcDbEntity
  8
240
  6
CONTINUOUS
100
AcDbLine
 10
-36.5
 20
-19.76242639
 30
0.0
 11
-38.0
 21
-18.26242639
 31
0.0
  0
LINE
  5
185F
330
1843
100
AcDbEntity
  8
242
  6
HIDDEN2
100
AcDbLine
 10
-29.87185543
 20
-19.92814457
 30
0.0
 11
-31.8
 21
-18.0
 31
0.0
  0
LINE
  5
1860
330
1843
100
AcDbEntity
  8
242
  6
HIDDEN2
100
AcDbLine
 10
-31.8
 20
-19.87993672
 30
0.0
 11
-31.8
 21
-18.0
 31
0.0
  0
LINE
  5
1861
330
1843
100
AcDbEntity
  8
240
  6
CONTINUOUS
100
AcDbLine
 10
-38.0
 20
21.69640099
 30
0.0
 11
-36.5
 21
22.56242639
 31
0.0
  0
ARC
  5
1862
330
1843
100
AcDbEntity
  8
240
  6
CONTINUOUS
100
AcDbCircle
 10
32.0
 20
-24.75
 30
0.0
 40
10.0
100
AcDbArc
 50
90.0
 51
180.0
  0
SPLINE
  5
1863
330
1843
100
AcDbEntity
  8
241
  6
CONTINUOUS
100
AcDbSpline
210
0.0
220
0.0
230
1.0
 70
     8
 71
     3
 72
     9
 73
     5
 74
     3
 42
0.0000000001
 43
0.0000000001
 44
0.0000000001
 40
0.0
 40
0.0
 40
0.0
 40
0.0
 40
10.74384375536299
 40
21.48768751072609
 40
21.48768751072609
 40
21.48768751072609
 40
21.48768751072609
 10
9.9500000000001
 20
-8.992341421163501
 30
0.0
 10
9.057475418454039
 20
-12.52384689373145
 30
0.0
 10
7.272426255361907
 20
-19.58685783886738
 30
0.0
 10
9.057475418453995
 20
-26.64986878400333
 30
0.0
 10
9.950000000000043
 20
-30.18137425657132
 30
0.0
 11
9.9500000000001
 21
-8.992341421163501
 31
0.0
 11
8.164950836907962
 21
-19.58685783886735
 31
0.0
 11
9.950000000000043
 21
-30.18137425657132
 31
0.0
  0
LINE
  5
1864
330
1843
100
AcDbEntity
  8
241
  6
CONTINUOUS
100
AcDbLine
 10
9.95
 20
-8.99234142
 30
0.0
 11
9.95
 21
-30.18137426
 31
0.0
  0
SPLINE
  5
1865
330
1843
100
AcDbEntity
  8
241
  6
CONTINUOUS
100
AcDbSpline
210
0.0
220
0.0
230
1.0
 70
     8
 71
     3
 72
     9
 73
     5
 74
     3
 42
0.0000000001
 43
0.0000000001
 44
0.0000000001
 40
0.0
 40
0.0
 40
0.0
 40
0.0
 40
10.74384375536302
 40
21.48768751072608
 40
21.48768751072608
 40
21.48768751072608
 40
21.48768751072608
 10
14.05000000000018
 20
-30.1813742565713
 30
0.0
 10
14.94252458154622
 20
-26.64986878400333
 30
0.0
 10
16.72757374463832
 20
-19.58685783886739
 30
0.0
 10
14.94252458154617
 20
-12.52384689373147
 30
0.0
 10
14.05000000000009
 20
-8.992341421163501
 30
0.0
 11
14.05000000000018
 21
-30.1813742565713
 31
0.0
 11
15.83504916309226
 21
-19.58685783886741
 31
0.0
 11
14.05000000000009
 21
-8.992341421163501
 31
0.0
  0
LINE
  5
1866
330
1843
100
AcDbEntity
  8
241
  6
CONTINUOUS
100
AcDbLine
 10
14.05
 20
-8.99234142
 30
0.0
 11
14.05
 21
-30.18137426
 31
0.0
  0
LINE
  5
1867
330
1843
100
AcDbEntity
  8
241
  6
CONTINUOUS
100
AcDbLine
 10
9.95
 20
-30.18137426
 30
0.0
 11
14.05
 21
-30.18137426
 31
0.0
  0
LINE
  5
1868
330
1843
100
AcDbEntity
  8
240
  6
CONTINUOUS
100
AcDbLine
 10
0.5
 20
-31.4925
 30
0.0
 11
21.0
 21
-31.4925
 31
0.0
  0
ARC
  5
1869
330
1843
100
AcDbEntity
  8
240
  6
CONTINUOUS
100
AcDbCircle
 10
0.5
 20
-30.9925
 30
0.0
 40
0.5
100
AcDbArc
 50
180.0
 51
270.0
  0
ARC
  5
186A
330
1843
100
AcDbEntity
  8
240
  6
CONTINUOUS
100
AcDbCircle
 10
21.0
 20
-30.4925
 30
0.0
 40
1.0
100
AcDbArc
 50
270.0
 51
0.0
  0
LINE
  5
186B
330
1843
100
AcDbEntity
  8
241
  6
CONTINUOUS
100
AcDbLine
 10
9.95
 20
8.99234142
 30
0.0
 11
14.05
 21
8.99234142
 31
0.0
  0
LINE
  5
186C
330
1843
100
AcDbEntity
  8
241
  6
CONTINUOUS
100
AcDbLine
 10
9.95
 20
-8.99234142
 30
0.0
 11
14.05
 21
-8.99234142
 31
0.0
  0
LINE
  5
186D
330
1843
100
AcDbEntity
  8
241
100
AcDbLine
 10
-2.19993752
 20
-20.62000332
 30
0.0
 11
-2.19993752
 21
23.42000332
 31
0.0
  0
LINE
  5
186E
330
1843
100
AcDbEntity
  8
240
100
AcDbLine
 10
-2.19993752
 20
-20.62000332
 30
0.0
 11
0.0
 21
-20.62000332
 31
0.0
  0
LINE
  5
186F
330
1843
100
AcDbEntity
  8
240
100
AcDbLine
 10
-2.19993752
 20
23.42000332
 30
0.0
 11
0.0
 21
23.42000332
 31
0.0
  0
ARC
  5
1870
330
1843
100
AcDbEntity
  8
240
  6
CONTINUOUS
100
AcDbCircle
 10
32.0
 20
24.75
 30
0.0
 40
10.0
100
AcDbArc
 50
180.0
 51
270.0
  0
LINE
  5
1871
330
1843
100
AcDbEntity
  8
241
  6
CONTINUOUS
100
AcDbLine
 10
9.95
 20
30.18137426
 30
0.0
 11
14.05
 21
30.18137426
 31
0.0
  0
LINE
  5
1872
330
1843
100
AcDbEntity
  8
240
  6
CONTINUOUS
100
AcDbLine
 10
0.5
 20
31.4925
 30
0.0
 11
21.0
 21
31.4925
 31
0.0
  0
ARC
  5
1873
330
1843
100
AcDbEntity
  8
240
  6
CONTINUOUS
100
AcDbCircle
 10
0.5
 20
30.9925
 30
0.0
 40
0.5
100
AcDbArc
 50
90.0
 51
180.0
  0
ARC
  5
1874
330
1843
100
AcDbEntity
  8
240
  6
CONTINUOUS
100
AcDbCircle
 10
21.0
 20
30.4925
 30
0.0
 40
1.0
100
AcDbArc
 50
0.0
 51
90.0
  0
LINE
  5
1875
330
1843
100
AcDbEntity
  8
241
  6
HIDDEN2
100
AcDbLine
 10
172.44666995
 20
5.86641529
 30
0.0
 11
172.44666995
 21
0.0
 31
0.0
1001
GRPNAME
1000
PASTMD0K
  0
LINE
  5
1876
330
1843
100
AcDbEntity
  8
240
  6
CONTINUOUS
100
AcDbLine
 10
182.44666995
 20
13.75
 30
0.0
 11
182.44666995
 21
-13.75
 31
0.0
  0
LINE
  5
1877
330
1843
100
AcDbEntity
  8
240
  6
CONTINUOUS
100
AcDbLine
 10
187.85
 20
-14.3
 30
0.0
 11
187.85
 21
14.3
 31
0.0
1001
GRPNAME
1000
PASTMD0K
  0
LINE
  5
1878
330
1843
100
AcDbEntity
  8
240
  6
CONTINUOUS
100
AcDbLine
 10
187.5
 20
11.25
 30
0.0
 11
187.5
 21
-11.25
 31
0.0
1001
GRPNAME
1000
PASTMD0K
  0
LINE
  5
1879
330
1843
100
AcDbEntity
  8
242
  6
CONTINUOUS
100
AcDbLine
 10
184.44666995
 20
-10.5
 30
0.0
 11
184.44666995
 21
10.5
 31
0.0
1001
GRPNAME
1000
PASTMD0K
  0
LINE
  5
187A
330
1843
100
AcDbEntity
  8
241
  6
CONTINUOUS
100
AcDbLine
 10
188.55
 20
6.16336767
 30
0.0
 11
188.55
 21
-6.16336767
 31
0.0
1001
GRPNAME
1000
PASTMD0K
  0
LWPOLYLINE
  5
187B
330
1843
100
AcDbEntity
  8
241
  6
CONTINUOUS
100
AcDbPolyline
 90
       70
 70
     0
 43
0.0
 10
187.85
 20
-8.40959364
 10
187.85018138
 20
-8.41760288
 10
187.85072543
 20
-8.42560796
 10
187.85163186
 20
-8.43360475
 10
187.85290021
 20
-8.44158909
 10
187.85452982
 20
-8.44955686
 10
187.85651984
 20
-8.45750391
 10
187.85886924
 20
-8.46542613
 10
187.86157681
 20
-8.47331942
 10
187.86464114
 20
-8.48117969
 10
187.86806064
 20
-8.48900285
 10
187.87183355
 20
-8.49678487
 10
187.8759579
 20
-8.5045217
 10
187.88043156
 20
-8.51220933
 10
187.88525221
 20
-8.51984379
 10
187.89041735
 20
-8.52742111
 10
187.89592431
 20
-8.53493737
 10
187.90177024
 20
-8.54238868
 10
187.90795209
 20
-8.54977116
 10
187.91446667
 20
-8.557081
 10
187.92131061
 20
-8.56431441
 10
187.92848035
 20
-8.57146764
 10
187.93597218
 20
-8.57853697
 10
187.94378222
 20
-8.58551876
 10
187.95190642
 20
-8.59240938
 10
187.96034057
 20
-8.59920526
 10
187.9690803
 20
-8.60590287
 10
187.97812107
 20
-8.61249875
 10
187.98745822
 20
-8.61898948
 10
187.99708689
 20
-8.6253717
 10
188.0070021
 20
-8.63164209
 10
188.0171987
 20
-8.63779741
 10
188.02767142
 20
-8.64383446
 10
188.03841483
 20
-8.64975013
 10
188.04942335
 20
-8.65554134
 10
188.06069129
 20
-8.66120509
 10
188.0722128
 20
-8.66673845
 10
188.08398192
 20
-8.67213855
 10
188.09599254
 20
-8.67740259
 10
188.10823844
 20
-8.68252785
 10
188.12071327
 20
-8.68751166
 10
188.13341058
 20
-8.69235144
 10
188.14632377
 20
-8.6970447
 10
188.15944617
 20
-8.70158898
 10
188.17277095
 20
-8.70598195
 10
188.18629123
 20
-8.71022132
 10
188.2
 20
-8.71430489
 10
188.21389015
 20
-8.71823055
 10
188.22795447
 20
-8.72199627
 10
188.2421857
 20
-8.72560009
 10
188.25657644
 20
-8.72904015
 10
188.27111924
 20
-8.73231466
 10
188.28580656
 20
-8.73542193
 10
188.3006308
 20
-8.73836034
 10
188.31558427
 20
-8.74112838
 10
188.33065922
 20
-8.7437246
 10
188.34584784
 20
-8.74614767
 10
188.36114226
 20
-8.74839632
 10
188.37653455
 20
-8.7504694
 10
188.39201673
 20
-8.75236582
 10
188.40758079
 20
-8.75408462
 10
188.42321865
 20
-8.75562488
 10
188.43892222
 20
-8.75698582
 10
188.45468335
 20
-8.75816673
 10
188.47049387
 20
-8.759167
 10
188.4863456
 20
-8.75998611
 10
188.50223031
 20
-8.76062364
 10
188.51813978
 20
-8.76107925
 10
188.53406576
 20
-8.76135271
 10
188.55
 20
-8.76144388
1001
GRPNAME
1000
PASTMD0K
  0
ARC
  5
18C3
330
1843
100
AcDbEntity
  8
240
  6
CONTINUOUS
100
AcDbCircle
 10
181.44666995
 20
-13.75
 30
0.0
 40
1.0
100
AcDbArc
 50
270.0
 51
0.0
  0
ARC
  5
18C4
330
1843
100
AcDbEntity
  8
240
  6
CONTINUOUS
100
AcDbCircle
 10
188.55
 20
-14.3
 30
0.0
 40
0.6999999999999888
100
AcDbArc
 50
180.00000009
 51
270.00000009
1001
GRPNAME
1000
PASTMD0K
  0
LINE
  5
18C5
330
1843
100
AcDbEntity
  8
242
  6
CONTINUOUS
100
AcDbLine
 10
187.5
 20
-10.0
 30
0.0
 11
184.44666995
 21
-10.0
 31
0.0
1001
GRPNAME
1000
PASTMD0K
  0
LINE
  5
18C6
330
1843
100
AcDbEntity
  8
240
  6
CONTINUOUS
100
AcDbLine
 10
187.5
 20
-10.5
 30
0.0
 11
183.44666995
 21
-10.5
 31
0.0
1001
GRPNAME
1000
PASTMD0K
  0
LINE
  5
18C7
330
1843
100
AcDbEntity
  8
242
  6
CONTINUOUS
100
AcDbLine
 10
183.94666995
 20
-10.5
 30
0.0
 11
184.44666995
 21
-10.0
 31
0.0
1001
GRPNAME
1000
PASTMD0K
  0
ARC
  5
18C8
330
1843
100
AcDbEntity
  8
240
  6
CONTINUOUS
100
AcDbCircle
 10
183.44666995
 20
-11.5
 30
0.0
 40
1.0
100
AcDbArc
 50
89.99999999
 51
179.99999999
1001
GRPNAME
1000
PASTMD0K
  0
LINE
  5
18C9
330
1843
100
AcDbEntity
  8
241
  6
CONTINUOUS
100
AcDbLine
 10
188.55
 20
-15.0
 30
0.0
 11
188.55
 21
-8.76144388
 31
0.0
1001
GRPNAME
1000
PASTMD0K
  0
LINE
  5
18CA
330
1843
100
AcDbEntity
  8
240
  6
CONTINUOUS
100
AcDbLine
 10
187.85
 20
-11.6
 30
0.0
 11
187.5
 21
-11.25
 31
0.0
1001
GRPNAME
1000
PASTMD0K
  0
LWPOLYLINE
  5
18CB
330
1843
100
AcDbEntity
  8
241
  6
CONTINUOUS
100
AcDbPolyline
 90
       70
 70
     0
 43
0.0
 10
187.85
 20
-5.81151743
 10
187.85018138
 20
-5.81952666
 10
187.85072543
 20
-5.82753175
 10
187.85163186
 20
-5.83552854
 10
187.85290021
 20
-5.84351288
 10
187.85452982
 20
-5.85148064
 10
187.85651984
 20
-5.8594277
 10
187.85886924
 20
-5.86734992
 10
187.86157681
 20
-5.87524321
 10
187.86464114
 20
-5.88310348
 10
187.86806064
 20
-5.89092664
 10
187.87183355
 20
-5.89870866
 10
187.8759579
 20
-5.90644549
 10
187.88043156
 20
-5.91413312
 10
187.88525221
 20
-5.92176758
 10
187.89041735
 20
-5.9293449
 10
187.89592431
 20
-5.93686116
 10
187.90177024
 20
-5.94431246
 10
187.90795209
 20
-5.95169495
 10
187.91446667
 20
-5.95900479
 10
187.92131061
 20
-5.9662382
 10
187.92848035
 20
-5.97339142
 10
187.93597218
 20
-5.98046076
 10
187.94378222
 20
-5.98744255
 10
187.95190642
 20
-5.99433317
 10
187.96034057
 20
-6.00112904
 10
187.9690803
 20
-6.00782666
 10
187.97812107
 20
-6.01442254
 10
187.98745822
 20
-6.02091327
 10
187.99708689
 20
-6.02729548
 10
188.0070021
 20
-6.03356588
 10
188.0171987
 20
-6.03972119
 10
188.02767142
 20
-6.04575825
 10
188.03841483
 20
-6.05167392
 10
188.04942335
 20
-6.05746513
 10
188.06069129
 20
-6.06312888
 10
188.0722128
 20
-6.06866224
 10
188.08398192
 20
-6.07406234
 10
188.09599254
 20
-6.07932638
 10
188.10823844
 20
-6.08445164
 10
188.12071327
 20
-6.08943545
 10
188.13341058
 20
-6.09427523
 10
188.14632377
 20
-6.09896848
 10
188.15944617
 20
-6.10351277
 10
188.17277095
 20
-6.10790574
 10
188.18629123
 20
-6.1121451
 10
188.2
 20
-6.11622868
 10
188.21389015
 20
-6.12015434
 10
188.22795447
 20
-6.12392006
 10
188.2421857
 20
-6.12752388
 10
188.25657644
 20
-6.13096394
 10
188.27111924
 20
-6.13423845
 10
188.28580656
 20
-6.13734572
 10
188.3006308
 20
-6.14028413
 10
188.31558427
 20
-6.14305216
 10
188.33065922
 20
-6.14564839
 10
188.34584784
 20
-6.14807146
 10
188.36114226
 20
-6.15032011
 10
188.37653455
 20
-6.15239319
 10
188.39201673
 20
-6.15428961
 10
188.40758079
 20
-6.1560084
 10
188.42321865
 20
-6.15754867
 10
188.43892222
 20
-6.15890961
 10
188.45468335
 20
-6.16009052
 10
188.47049387
 20
-6.16109079
 10
188.4863456
 20
-6.1619099
 10
188.50223031
 20
-6.16254743
 10
188.51813978
 20
-6.16300304
 10
188.53406576
 20
-6.1632765
 10
188.55
 20
-6.16336767
1001
GRPNAME
1000
PASTMD0K
  0
ARC
  5
1913
330
1843
100
AcDbEntity
  8
240
  6
CONTINUOUS
100
AcDbCircle
 10
181.44666995
 20
13.75
 30
0.0
 40
1.0
100
AcDbArc
 50
0.0
 51
90.0
  0
LINE
  5
1914
330
1843
100
AcDbEntity
  8
241
  6
CONTINUOUS
100
AcDbLine
 10
188.55
 20
15.0
 30
0.0
 11
188.55
 21
8.76144388
 31
0.0
1001
GRPNAME
1000
PASTMD0K
  0
ARC
  5
1915
330
1843
100
AcDbEntity
  8
240
  6
CONTINUOUS
100
AcDbCircle
 10
183.44666995
 20
11.5
 30
0.0
 40
1.0
100
AcDbArc
 50
179.99999998
 51
269.99999998
1001
GRPNAME
1000
PASTMD0K
  0
LINE
  5
1916
330
1843
100
AcDbEntity
  8
242
  6
CONTINUOUS
100
AcDbLine
 10
187.5
 20
10.0
 30
0.0
 11
184.44666995
 21
10.0
 31
0.0
1001
GRPNAME
1000
PASTMD0K
  0
LINE
  5
1917
330
1843
100
AcDbEntity
  8
240
  6
CONTINUOUS
100
AcDbLine
 10
187.5
 20
10.5
 30
0.0
 11
183.44666995
 21
10.5
 31
0.0
1001
GRPNAME
1000
PASTMD0K
  0
LINE
  5
1918
330
1843
100
AcDbEntity
  8
242
  6
CONTINUOUS
100
AcDbLine
 10
183.94666995
 20
10.5
 30
0.0
 11
184.44666995
 21
10.0
 31
0.0
1001
GRPNAME
1000
PASTMD0K
  0
LWPOLYLINE
  5
1919
330
1843
100
AcDbEntity
  8
241
  6
CONTINUOUS
100
AcDbPolyline
 90
       70
 70
     0
 43
0.0
 10
187.85
 20
8.40959364
 10
187.85018138
 20
8.41760288
 10
187.85072543
 20
8.42560796
 10
187.85163186
 20
8.43360475
 10
187.85290021
 20
8.44158909
 10
187.85452982
 20
8.44955686
 10
187.85651984
 20
8.45750391
 10
187.85886924
 20
8.46542613
 10
187.86157681
 20
8.47331942
 10
187.86464114
 20
8.48117969
 10
187.86806064
 20
8.48900285
 10
187.87183355
 20
8.49678487
 10
187.8759579
 20
8.5045217
 10
187.88043156
 20
8.51220933
 10
187.88525221
 20
8.51984379
 10
187.89041735
 20
8.52742111
 10
187.89592431
 20
8.53493737
 10
187.90177024
 20
8.54238868
 10
187.90795209
 20
8.54977116
 10
187.91446667
 20
8.557081
 10
187.92131061
 20
8.56431441
 10
187.92848035
 20
8.57146764
 10
187.93597218
 20
8.57853697
 10
187.94378222
 20
8.58551876
 10
187.95190642
 20
8.59240938
 10
187.96034057
 20
8.59920526
 10
187.9690803
 20
8.60590287
 10
187.97812107
 20
8.61249875
 10
187.98745822
 20
8.61898948
 10
187.99708689
 20
8.6253717
 10
188.0070021
 20
8.63164209
 10
188.0171987
 20
8.63779741
 10
188.02767142
 20
8.64383446
 10
188.03841483
 20
8.64975013
 10
188.04942335
 20
8.65554134
 10
188.06069129
 20
8.66120509
 10
188.0722128
 20
8.66673845
 10
188.08398192
 20
8.67213855
 10
188.09599254
 20
8.67740259
 10
188.10823844
 20
8.68252785
 10
188.12071327
 20
8.68751166
 10
188.13341058
 20
8.69235144
 10
188.14632377
 20
8.6970447
 10
188.15944617
 20
8.70158898
 10
188.17277095
 20
8.70598195
 10
188.18629123
 20
8.71022132
 10
188.2
 20
8.71430489
 10
188.21389015
 20
8.71823055
 10
188.22795447
 20
8.72199627
 10
188.2421857
 20
8.72560009
 10
188.25657644
 20
8.72904015
 10
188.27111924
 20
8.73231466
 10
188.28580656
 20
8.73542193
 10
188.3006308
 20
8.73836034
 10
188.31558427
 20
8.74112838
 10
188.33065922
 20
8.7437246
 10
188.34584784
 20
8.74614767
 10
188.36114226
 20
8.74839632
 10
188.37653455
 20
8.7504694
 10
188.39201673
 20
8.75236582
 10
188.40758079
 20
8.75408462
 10
188.42321865
 20
8.75562488
 10
188.43892222
 20
8.75698582
 10
188.45468335
 20
8.75816673
 10
188.47049387
 20
8.759167
 10
188.4863456
 20
8.75998611
 10
188.50223031
 20
8.76062364
 10
188.51813978
 20
8.76107925
 10
188.53406576
 20
8.76135271
 10
188.55
 20
8.76144388
1001
GRPNAME
1000
PASTMD0K
  0
LWPOLYLINE
  5
1961
330
1843
100
AcDbEntity
  8
241
  6
CONTINUOUS
100
AcDbPolyline
 90
       70
 70
     0
 43
0.0
 10
187.85
 20
5.81151743
 10
187.85018138
 20
5.81952666
 10
187.85072543
 20
5.82753175
 10
187.85163186
 20
5.83552854
 10
187.85290021
 20
5.84351288
 10
187.85452982
 20
5.85148064
 10
187.85651984
 20
5.8594277
 10
187.85886924
 20
5.86734992
 10
187.86157681
 20
5.87524321
 10
187.86464114
 20
5.88310348
 10
187.86806064
 20
5.89092664
 10
187.87183355
 20
5.89870866
 10
187.8759579
 20
5.90644549
 10
187.88043156
 20
5.91413312
 10
187.88525221
 20
5.92176758
 10
187.89041735
 20
5.9293449
 10
187.89592431
 20
5.93686116
 10
187.90177024
 20
5.94431246
 10
187.90795209
 20
5.95169495
 10
187.91446667
 20
5.95900479
 10
187.92131061
 20
5.9662382
 10
187.92848035
 20
5.97339142
 10
187.93597218
 20
5.98046076
 10
187.94378222
 20
5.98744255
 10
187.95190642
 20
5.99433317
 10
187.96034057
 20
6.00112904
 10
187.9690803
 20
6.00782666
 10
187.97812107
 20
6.01442254
 10
187.98745822
 20
6.02091327
 10
187.99708689
 20
6.02729548
 10
188.0070021
 20
6.03356588
 10
188.0171987
 20
6.03972119
 10
188.02767142
 20
6.04575825
 10
188.03841483
 20
6.05167392
 10
188.04942335
 20
6.05746513
 10
188.06069129
 20
6.06312888
 10
188.0722128
 20
6.06866224
 10
188.08398192
 20
6.07406234
 10
188.09599254
 20
6.07932638
 10
188.10823844
 20
6.08445164
 10
188.12071327
 20
6.08943545
 10
188.13341058
 20
6.09427523
 10
188.14632377
 20
6.09896848
 10
188.15944617
 20
6.10351277
 10
188.17277095
 20
6.10790574
 10
188.18629123
 20
6.1121451
 10
188.2
 20
6.11622868
 10
188.21389015
 20
6.12015434
 10
188.22795447
 20
6.12392006
 10
188.2421857
 20
6.12752388
 10
188.25657644
 20
6.13096394
 10
188.27111924
 20
6.13423845
 10
188.28580656
 20
6.13734572
 10
188.3006308
 20
6.14028413
 10
188.31558427
 20
6.14305216
 10
188.33065922
 20
6.14564839
 10
188.34584784
 20
6.14807146
 10
188.36114226
 20
6.15032011
 10
188.37653455
 20
6.15239319
 10
188.39201673
 20
6.15428961
 10
188.40758079
 20
6.1560084
 10
188.42321865
 20
6.15754867
 10
188.43892222
 20
6.15890961
 10
188.45468335
 20
6.16009052
 10
188.47049387
 20
6.16109079
 10
188.4863456
 20
6.1619099
 10
188.50223031
 20
6.16254743
 10
188.51813978
 20
6.16300304
 10
188.53406576
 20
6.1632765
 10
188.55
 20
6.16336767
1001
GRPNAME
1000
PASTMD0K
  0
ARC
  5
19A9
330
1843
100
AcDbEntity
  8
240
  6
CONTINUOUS
100
AcDbCircle
 10
188.55
 20
14.3
 30
0.0
 40
0.6999999999999888
100
AcDbArc
 50
89.99999999
 51
179.99999999
1001
GRPNAME
1000
PASTMD0K
  0
LINE
  5
19AA
330
1843
100
AcDbEntity
  8
240
  6
CONTINUOUS
100
AcDbLine
 10
187.5
 20
11.25
 30
0.0
 11
187.85
 21
11.6
 31
0.0
1001
GRPNAME
1000
PASTMD0K
  0
LINE
  5
19AB
330
1843
100
AcDbEntity
  8
241
  6
CONTINUOUS
100
AcDbLine
 10
199.1
 20
14.9371258
 30
0.0
 11
199.1
 21
-14.9371258
 31
0.0
1001
GRPNAME
1000
PASTMD0K
  0
LINE
  5
19AC
330
1843
100
AcDbEntity
  8
240
  6
CONTINUOUS
100
AcDbLine
 10
200.0
 20
-13.85147186
 30
0.0
 11
200.0
 21
13.85147186
 31
0.0
1001
GRPNAME
1000
PASTMD0K
  0
LINE
  5
19AD
330
1843
100
AcDbEntity
  8
241
  6
CONTINUOUS
100
AcDbLine
 10
195.5
 20
-8.76144388
 30
0.0
 11
195.5
 21
-6.16336767
 31
0.0
1001
GRPNAME
1000
PASTMD0K
  0
LINE
  5
19AE
330
1843
100
AcDbEntity
  8
240
  6
CONTINUOUS
100
AcDbLine
 10
199.30502525
 20
-14.79497475
 30
0.0
 11
199.82426407
 21
-14.27573593
 31
0.0
1001
GRPNAME
1000
PASTMD0K
  0
ARC
  5
19AF
330
1843
100
AcDbEntity
  8
240
  6
CONTINUOUS
100
AcDbCircle
 10
198.81005051
 20
-14.3
 30
0.0
 40
0.7000000000000455
100
AcDbArc
 50
270.00000004
 51
315.00000004
1001
GRPNAME
1000
PASTMD0K
  0
ARC
  5
19B0
330
1843
100
AcDbEntity
  8
240
  6
CONTINUOUS
100
AcDbCircle
 10
199.4
 20
-13.85147186
 30
0.0
 40
0.6000000000000491
100
AcDbArc
 50
315.00000004
 51
0.00000004
1001
GRPNAME
1000
PASTMD0K
  0
LINE
  5
19B1
330
1843
100
AcDbEntity
  8
240
  6
CONTINUOUS
100
AcDbLine
 10
199.82426407
 20
14.27573593
 30
0.0
 11
199.30502525
 21
14.79497475
 31
0.0
1001
GRPNAME
1000
PASTMD0K
  0
LINE
  5
19B2
330
1843
100
AcDbEntity
  8
241
  6
HIDDEN2
100
AcDbLine
 10
200.0
 20
6.77566243
 30
0.0
 11
197.44637243
 21
8.25
 31
0.0
1001
GRPNAME
1000
PASTMD0K
  0
LINE
  5
19B3
330
1843
100
AcDbEntity
  8
241
  6
CONTINUOUS
100
AcDbLine
 10
195.5
 20
8.76144388
 30
0.0
 11
195.5
 21
6.16336767
 31
0.0
1001
GRPNAME
1000
PASTMD0K
  0
LINE
  5
19B4
330
1843
100
AcDbEntity
  8
241
  6
HIDDEN2
100
AcDbLine
 10
195.14637243
 20
7.0
 30
0.0
 11
197.24637243
 21
7.0
 31
0.0
1001
GRPNAME
1000
PASTMD0K
  0
LINE
  5
19B5
330
1843
100
AcDbEntity
  8
241
  6
HIDDEN2
100
AcDbLine
 10
195.14637243
 20
7.0
 30
0.0
 11
195.14637243
 21
8.25225016
 31
0.0
1001
GRPNAME
1000
PASTMD0K
  0
LINE
  5
19B6
330
1843
100
AcDbEntity
  8
241
  6
HIDDEN2
100
AcDbLine
 10
197.24637243
 20
8.25
 30
0.0
 11
197.44637243
 21
8.25
 31
0.0
1001
GRPNAME
1000
PASTMD0K
  0
LINE
  5
19B7
330
1843
100
AcDbEntity
  8
241
  6
HIDDEN2
100
AcDbLine
 10
197.24637243
 20
7.0
 30
0.0
 11
197.24637243
 21
8.25
 31
0.0
1001
GRPNAME
1000
PASTMD0K
  0
ARC
  5
19B8
330
1843
100
AcDbEntity
  8
240
  6
CONTINUOUS
100
AcDbCircle
 10
198.81005051
 20
14.3
 30
0.0
 40
0.7000000000000038
100
AcDbArc
 50
44.99999993
 51
89.99999993
1001
GRPNAME
1000
PASTMD0K
  0
ARC
  5
19B9
330
1843
100
AcDbEntity
  8
240
  6
CONTINUOUS
100
AcDbCircle
 10
199.4
 20
13.85147186
 30
0.0
 40
0.6000000000000229
100
AcDbArc
 50
359.9999824
 51
45.00000004
1001
GRPNAME
1000
PASTMD0K
  0
ENDBLK
  5
1845
330
1843
100
AcDbEntity
  8
0
100
AcDbBlockEnd
  0
ENDSEC
  0
SECTION
  2
ENTITIES
  0
INSERT
  5
6E6
330
1A
100
AcDbEntity
  8
245
100
AcDbBlockReference
  2
矢印なし
 10
175.62382697
 20
90.55123572
 30
0.0
  0
TEXT
  5
90F
330
1A
100
AcDbEntity
  8
241
100
AcDbText
 10
-38.0
 20
66.5
 30
0.0
 40
5.0
  1
C6-NBS10-200
  7
YOKO
 11
-38.0
 21
66.5
 31
0.0
100
AcDbText
 73
     1
  0
LEADER
  5
910
330
1A
100
AcDbEntity
  8
250
  6
CONTINUOUS
100
AcDbLeader
  3
BIGT
 76
     2
 10
-16.47540101
 20
-20.26308537
 30
0.0
 10
-21.0
 20
-28.0
 30
0.0
1001
ACAD
1000
DSTYLE
1002
{
1070
     6
1000
OPEN
1070
    41
1040
2.0
1070
    42
1040
2.0
1070
    44
1040
2.0
1070
   140
1040
4.0
1070
   343
1005
594
1002
}
  0
LINE
  5
913
330
1A
100
AcDbEntity
  8
250
  6
CONTINUOUS
100
AcDbLine
 10
-21.0
 20
-28.0
 30
0.0
 11
-31.26666667
 21
-28.0
 31
0.0
1001
ITEMNAME
1000
LNSP2
  0
MTEXT
  5
915
330
1A
100
AcDbEntity
  8
251
  6
CONTINUOUS
100
AcDbMText
 10
-28.46666667
 20
-27.0
 30
0.0
 40
2.8
 41
0.0
 71
     7
 72
     1
  1
C6
  7
YOKO
1001
ITEMNAME
1000
LNSP3
1001
ACAD
1000
MTEXTBEGIN
1070
    73
1070
     1
1070
    44
1040
1.0
1070
    74
1070
     0
1000
MTEXTEND
1000
MTEXTBEGIN
1070
    73
1070
     1
1070
    44
1040
1.0
1070
    74
1070
     0
1000
MTEXTEND
1000
MTEXTBEGIN
1070
    73
1070
     1
1070
    44
1040
1.0
1070
    74
1070
     0
1000
MTEXTEND
1000
MTEXTBEGIN
1070
    73
1070
     1
1070
    44
1040
1.0
1070
    74
1070
     0
1000
MTEXTEND
1000
MTEXTBEGIN
1070
    73
1070
     1
1070
    44
1040
1.0
1070
    74
1070
     0
1000
MTEXTEND
1000
MTEXTBEGIN
1070
    73
1070
     1
1070
    44
1040
1.0
1070
    74
1070
     0
1000
MTEXTEND
1000
MTEXTBEGIN
1070
    73
1070
     1
1070
    44
1040
1.0
1070
    74
1070
     0
1000
MTEXTEND
1000
MTEXTBEGIN
1070
    73
1070
     1
1070
    44
1040
1.0
1070
    74
1070
     0
1000
MTEXTEND
1000
MTEXTBEGIN
1070
    73
1070
     1
1070
    44
1040
1.0
1070
    74
1070
     0
1000
MTEXTEND
1000
MTEXTBEGIN
1070
    73
1070
     1
1070
    44
1040
1.0
1070
    74
1070
     0
1000
MTEXTEND
  0
DIMENSION
  5
917
330
1A
100
AcDbEntity
  8
250
  6
CONTINUOUS
100
AcDbDimension
  2
*D2
 10
200.0
 20
52.5
 30
0.0
 11
100.0
 21
52.5
 31
0.0
 70
   160
  3
BIGT$0
100
AcDbAlignedDimension
 13
0.0
 23
30.9925
 33
0.0
 14
200.0
 24
13.85147168
 34
0.0
100
AcDbRotatedDimension
  0
DIMENSION
  5
11A5
330
1A
100
AcDbEntity
  8
250
  6
CONTINUOUS
100
AcDbDimension
  2
*D3
 10
200.0
 20
45.5
 30
0.0
 11
106.11962871
 21
45.5
 31
0.0
 70
   160
  1
（max.<>）
  3
BIGT
100
AcDbAlignedDimension
 13
9.0
 23
1.0
 33
0.0
 14
200.0
 24
13.85147168
 34
0.0
100
AcDbRotatedDimension
  0
DIMENSION
  5
1640
330
1A
100
AcDbEntity
  8
250
  6
CONTINUOUS
100
AcDbDimension
  2
*D4
 10
217.0
 20
15.0
 30
0.0
 11
217.0
 21
0.0
 31
0.0
 70
   160
  1
{\H3;\U+2205}<>
  3
BIGT$0
100
AcDbAlignedDimension
 13
198.81005051
 23
-15.0
 33
0.0
 14
198.81005051
 24
15.0
 34
0.0
 50
90.0
100
AcDbRotatedDimension
  0
DIMENSION
  5
1645
330
1A
100
AcDbEntity
  8
250
  6
CONTINUOUS
100
AcDbDimension
  2
*D5
 10
210.0
 20
5.0
 30
0.0
 11
210.0
 21
0.0
 31
0.0
 70
   160
  1
max.φ10
  3
BIGT
100
AcDbAlignedDimension
 13
200.0
 23
-5.0
 33
0.0
 14
200.0
 24
5.0
 34
0.0
 50
90.0
100
AcDbRotatedDimension
1001
ACAD
1000
DSTYLE
1002
{
1070
    41
1040
2.0
1070
    75
1070
     1
1070
     6
1000
矢印なし
1002
}
  0
DIMENSION
  5
1812
330
1A
100
AcDbEntity
  8
250
  6
CONTINUOUS
100
AcDbDimension
  2
*D6
 10
200.0
 20
38.5
 30
0.0
 11
111.0
 21
41.0
 31
0.0
 70
    32
  3
BIGT$0
100
AcDbAlignedDimension
 13
22.0
 23
30.4925
 33
0.0
 14
200.0
 24
13.85147168
 34
0.0
100
AcDbRotatedDimension
  0
INSERT
  5
19BA
330
1A
100
AcDbEntity
  8
245
100
AcDbBlockReference
  2
1
 10
0.0
 20
0.0
 30
0.0
  0
VIEWPORT
  5
22
330
17
100
AcDbEntity
 67
     1
  8
0
100
AcDbViewport
 10
261.51769912
 20
148.5
 30
0.0
 40
523.03539823
 41
297.0
 68
     1
 69
     1
1001
ACAD
1000
MVIEW
1002
{
1070
    16
1010
0.0
1020
0.0
1030
0.0
1010
0.0
1020
0.0
1030
1.0
1040
0.0
1040
297.0
1040
261.51769912
1040
148.5
1040
50.0
1040
0.0
1040
0.0
1070
     0
1070
   100
1070
     1
1070
     1
1070
     0
1070
     0
1070
     0
1070
     0
1040
0.0
1040
0.0
1040
0.0
1040
1.0
1040
1.0
1040
10.0
1040
10.0
1070
     0
1002
{
1002
}
1002
}
  0
ENDSEC
  0
SECTION
  2
OBJECTS
  0
DICTIONARY
  5
C
330
0
100
AcDbDictionary
  3
ACAD_GROUP
350
D
  3
ACAD_LAYOUT
350
565
  3
ACAD_MLINESTYLE
350
E
  3
ACAD_PLOTSETTINGS
350
566
  3
ACAD_PLOTSTYLENAME
350
563
  3
ACDBHEADERROUNDTRIPXREC
350
1A20
  3
GRADE_DWG
350
540
  0
DICTIONARY
  5
FA1
330
1A
100
AcDbDictionary
280
     1
  3
ACAD_LAYOUTSELFREF
360
1A42
  0
DICTIONARY
  5
F9F
330
17
100
AcDbDictionary
280
     1
  3
ACAD_LAYOUTSELFREF
360
1A41
  0
DICTIONARY
  5
D
102
{ACAD_REACTORS
330
C
102
}
330
C
100
AcDbDictionary
  3
*A1
350
6C7
  3
*A2
350
6C8
  3
*A3
350
6D4
  3
*A4
350
6D5
  3
DREC-1
350
5FC
  3
DREC-2
350
654
  3
DREC-3
350
673
  0
DICTIONARY
  5
565
102
{ACAD_REACTORS
330
C
102
}
330
C
100
AcDbDictionary
  0
DICTIONARY
  5
E
102
{ACAD_REACTORS
330
C
102
}
330
C
100
AcDbDictionary
  3
STANDARD
350
13
  0
DICTIONARY
  5
566
102
{ACAD_REACTORS
330
C
102
}
330
C
100
AcDbDictionary
  3
A3_0_5倍_
350
758
  3
A3_1倍_
350
757
  3
A3_1倍__2000_
350
707
  3
A3_2倍_
350
759
  3
A4_0_5倍_
350
755
  3
A4_1倍_
350
754
  3
A4_1倍__2000_
350
708
  3
A4_2倍_
350
756
  0
ACDBDICTIONARYWDFLT
  5
563
102
{ACAD_REACTORS
330
C
102
}
330
C
100
AcDbDictionary
281
     1
  3
Normal
350
564
100
AcDbDictionaryWithDefault
340
564
  0
DICTIONARY
  5
1A20
102
{ACAD_REACTORS
330
C
102
}
330
C
100
AcDbDictionary
  3
CEPSNTYPE
350
1A2A
  3
DIMSTYLEDATA
350
1A2E
  3
FINGERPRINTGUID
350
1A2B
  3
HYPERLINKBASE
350
1A23
  3
INSUNITS
350
1A29
  3
LAYOUTDICT
350
1A25
  3
LWETCUNION
350
1A28
  3
PLOTSETDICT
350
1A26
  3
PLOTSTYLNAMDICT
350
1A27
  3
PSVPSCALE
350
1A2D
  3
PUCSBASE
350
1A31
  3
PUCSORGBACK
350
1A37
  3
PUCSORGBOTTOM
350
1A33
  3
PUCSORGFRONT
350
1A36
  3
PUCSORGLEFT
350
1A34
  3
PUCSORGRIGHT
350
1A35
  3
PUCSORGTOP
350
1A32
  3
PUCSORTHOREF
350
1A2F
  3
PUCSORTHOVIEW
350
1A30
  3
STYLESHEET
350
1A24
  3
TSTACKALIGN
350
1A21
  3
TSTACKSIZE
350
1A22
  3
UCSBASE
350
1A3A
  3
UCSORGBACK
350
1A40
  3
UCSORGBOTTOM
350
1A3C
  3
UCSORGFRONT
350
1A3F
  3
UCSORGLEFT
350
1A3D
  3
UCSORGRIGHT
350
1A3E
  3
UCSORGTOP
350
1A3B
  3
UCSORTHOREF
350
1A38
  3
UCSORTHOVIEW
350
1A39
  3
VERSIONGUID
350
1A2C
  0
DICTIONARY
  5
540
102
{ACAD_REACTORS
330
C
102
}
330
C
100
AcDbDictionary
  3
VERSION
350
560
  0
XRECORD
  5
1A42
102
{ACAD_REACTORS
330
FA1
102
}
330
FA1
100
AcDbXrecord
340
1A
  0
XRECORD
  5
1A41
102
{ACAD_REACTORS
330
F9F
102
}
330
F9F
100
AcDbXrecord
340
17
  0
GROUP
  5
6C7
102
{ACAD_REACTORS
330
D
102
}
330
D
100
AcDbGroup
300

 70
     0
 71
     1
1001
GRPNAME
1000
DMA00
  0
GROUP
  5
6C8
102
{ACAD_REACTORS
330
D
102
}
330
D
100
AcDbGroup
300

 70
     0
 71
     1
1001
GRPNAME
1000
DMA00
  0
GROUP
  5
6D4
102
{ACAD_REACTORS
330
D
102
}
330
D
100
AcDbGroup
300

 70
     0
 71
     1
1001
GRPNAME
1000
DMA00
  0
GROUP
  5
6D5
102
{ACAD_REACTORS
330
D
102
}
330
D
100
AcDbGroup
300

 70
     0
 71
     1
1001
GRPNAME
1000
DMA00
  0
GROUP
  5
5FC
102
{ACAD_REACTORS
330
D
102
}
330
D
100
AcDbGroup
300

 70
     0
 71
     1
1001
GRPNAME
1000
DREC-
1001
GPARA
1000
xsiz
1000
44.182
1000
ysiz
1000
40.677
1000
angl
1000
0
1000
ctyp
1000
0
1000
csiz
1000
5
1000
lfnt
1000
cont
1000
hcnt
1000
hoff
1000
vcnt
1000
voff
1000
opnt
1000
4
1000
dxpt
1000
0
1000
dypt
1000
0
  0
GROUP
  5
654
102
{ACAD_REACTORS
330
D
102
}
330
D
100
AcDbGroup
300

 70
     0
 71
     1
1001
GRPNAME
1000
DREC-
1001
GPARA
1000
xsiz
1000
54.592
1000
ysiz
1000
53.036
1000
angl
1000
0
1000
ctyp
1000
0
1000
csiz
1000
5
1000
lfnt
1000
cont
1000
hcnt
1000
hoff
1000
vcnt
1000
voff
1000
opnt
1000
4
1000
dxpt
1000
0
1000
dypt
1000
0
  0
GROUP
  5
673
102
{ACAD_REACTORS
330
D
102
}
330
D
100
AcDbGroup
300

 70
     0
 71
     1
1001
GRPNAME
1000
DREC-
1001
GPARA
1000
xsiz
1000
30.363
1000
ysiz
1000
36.175
1000
angl
1000
0
1000
ctyp
1000
0
1000
csiz
1000
5
1000
lfnt
1000
cont
1000
hcnt
1000
hoff
1000
vcnt
1000
voff
1000
opnt
1000
4
1000
dxpt
1000
0
1000
dypt
1000
0
  0
MLINESTYLE
  5
13
102
{ACAD_REACTORS
330
E
102
}
330
E
100
AcDbMlineStyle
  2
STANDARD
 70
     0
  3

 62
     0
 51
90.0
 52
90.0
 71
     2
 49
0.5
 62
   256
  6
BYLAYER
 49
-0.5
 62
   256
  6
BYLAYER
  0
PLOTSETTINGS
  5
758
102
{ACAD_REACTORS
330
566
102
}
330
566
100
AcDbPlotSettings
  1
A3(0.5倍)
  2
\\AWTECPC05\HP DeskJet 1120C
  4
A3
  6

 40
5.95841646
 41
13.49375153
 42
6.04309082
 43
3.67242432
 44
296.92599487
 45
419.94665527
 46
89.96
 47
127.14
 48
0.0
 49
0.0
140
0.0
141
0.0
142
1.0
143
2.0
 70
  1716
 72
     1
 73
     1
 74
     2
  7
big.ctb
 75
    17
147
0.5
148
0.0
149
0.0
  0
PLOTSETTINGS
  5
757
102
{ACAD_REACTORS
330
566
102
}
330
566
100
AcDbPlotSettings
  1
A3(1倍)
  2
\\AWTECPC05\HP DeskJet 1120C
  4
A3
  6

 40
5.95841646
 41
13.49375153
 42
6.04309082
 43
3.67242432
 44
296.92599487
 45
419.94665527
 46
37.46
 47
52.89
 48
0.0
 49
0.0
140
0.0
141
0.0
142
1.0
143
1.0
 70
  1716
 72
     1
 73
     1
 74
     2
  7
big.ctb
 75
    16
147
1.0
148
0.0
149
0.0
  0
PLOTSETTINGS
  5
707
102
{ACAD_REACTORS
330
566
102
}
330
566
100
AcDbPlotSettings
  1
A3(1倍)(2000)
  2
SII LS-1300 (D-SCAN)
  4
User258
  6

 40
3.17499995
 41
3.17499995
 42
3.17498779
 43
3.17498779
 44
419.98898315
 45
296.98950195
 46
58.32
 47
40.32
 48
0.0
 49
0.0
140
0.0
141
0.0
142
1.0
143
1.0
 70
  1716
 72
     1
 73
     0
 74
     2
  7
big.ctb
 75
    16
147
1.0
148
0.0
149
0.0
  0
PLOTSETTINGS
  5
759
102
{ACAD_REACTORS
330
566
102
}
330
566
100
AcDbPlotSettings
  1
A3(2倍)
  2
\\AWTECPC05\HP DeskJet 1120C
  4
A3
  6

 40
5.95841646
 41
13.49375153
 42
6.04309082
 43
3.67242432
 44
296.92599487
 45
419.94665527
 46
-67.54
 47
-95.61
 48
0.0
 49
0.0
140
0.0
141
0.0
142
1.0
143
0.5
 70
  1716
 72
     1
 73
     1
 74
     2
  7
big.ctb
 75
    27
147
2.0
148
0.0
149
0.0
  0
PLOTSETTINGS
  5
755
102
{ACAD_REACTORS
330
566
102
}
330
566
100
AcDbPlotSettings
  1
A4(0.5倍)
  2
\\AWTECPC05\HP DeskJet 1120C
  4
A4
  6

 40
4.18041658
 41
13.49374962
 42
4.18040466
 43
3.92642212
 44
209.97332764
 45
296.92599487
 46
48.31
 47
65.5
 48
0.0
 49
0.0
140
0.0
141
0.0
142
1.0
143
2.0
 70
  1716
 72
     1
 73
     1
 74
     2
  7
big.ctb
 75
    17
147
0.5
148
0.0
149
0.0
  0
PLOTSETTINGS
  5
754
102
{ACAD_REACTORS
330
566
102
}
330
566
100
AcDbPlotSettings
  1
A4(1倍)
  2
\\AWTECPC05\HP DeskJet 1120C
  4
A4
  6

 40
4.18041658
 41
13.49374962
 42
4.18040466
 43
3.92642212
 44
209.97332764
 45
296.92599487
 46
-4.19
 47
-8.75
 48
0.0
 49
0.0
140
0.0
141
0.0
142
1.0
143
1.0
 70
  1716
 72
     1
 73
     1
 74
     2
  7
big.ctb
 75
    16
147
1.0
148
0.0
149
0.0
  0
PLOTSETTINGS
  5
708
102
{ACAD_REACTORS
330
566
102
}
330
566
100
AcDbPlotSettings
  1
A4(1倍)(2000)
  2
SII LS-1300 (D-SCAN)
  4
User259
  6

 40
3.17499995
 41
3.17499995
 42
3.17498779
 43
3.17500305
 44
296.98950195
 45
209.99449158
 46
-3.18
 47
-3.18
 48
0.0
 49
0.0
140
0.0
141
0.0
142
1.0
143
1.0
 70
  1716
 72
     1
 73
     0
 74
     2
  7
big.ctb
 75
    16
147
1.0
148
0.0
149
0.0
  0
PLOTSETTINGS
  5
756
102
{ACAD_REACTORS
330
566
102
}
330
566
100
AcDbPlotSettings
  1
A4(2倍)
  2
\\AWTECPC05\HP DeskJet 1120C
  4
A4
  6

 40
4.18041658
 41
13.49374962
 42
4.18040466
 43
3.92642212
 44
209.97332764
 45
296.92599487
 46
-109.19
 47
-157.25
 48
0.0
 49
0.0
140
0.0
141
0.0
142
1.0
143
0.5
 70
  1716
 72
     1
 73
     1
 74
     2
  7
big.ctb
 75
    27
147
2.0
148
0.0
149
0.0
  0
ACDBPLACEHOLDER
  5
564
102
{ACAD_REACTORS
330
563
102
}
330
563
100
AcDbPlaceHolder
280
     0
  0
XRECORD
  5
1A2A
102
{ACAD_REACTORS
330
1A20
102
}
330
1A20
100
AcDbXrecord
 90
        0
  0
XRECORD
  5
1A2E
102
{ACAD_REACTORS
330
1A20
102
}
330
1A20
100
AcDbXrecord
1000
DSTYLE
1002
{
1070
   341
340
594
1070
   343
340
594
1070
   344
340
594
1002
}
  0
XRECORD
  5
1A2B
102
{ACAD_REACTORS
330
1A20
102
}
330
1A20
100
AcDbXrecord
  1
{51294030-9CB4-11D3-8E18-00A0C925D94D}
  0
XRECORD
  5
1A23
102
{ACAD_REACTORS
330
1A20
102
}
330
1A20
100
AcDbXrecord
  1

  0
XRECORD
  5
1A29
102
{ACAD_REACTORS
330
1A20
102
}
330
1A20
100
AcDbXrecord
 90
        0
  0
XRECORD
  5
1A25
102
{ACAD_REACTORS
330
1A20
102
}
330
1A20
100
AcDbXrecord
340
565
  0
XRECORD
  5
1A28
102
{ACAD_REACTORS
330
1A20
102
}
330
1A20
100
AcDbXrecord
 90
    10781
  0
XRECORD
  5
1A26
102
{ACAD_REACTORS
330
1A20
102
}
330
1A20
100
AcDbXrecord
340
566
  0
XRECORD
  5
1A27
102
{ACAD_REACTORS
330
1A20
102
}
330
1A20
100
AcDbXrecord
340
563
  0
XRECORD
  5
1A2D
102
{ACAD_REACTORS
330
1A20
102
}
330
1A20
100
AcDbXrecord
 40
0.0
  0
XRECORD
  5
1A31
102
{ACAD_REACTORS
330
1A20
102
}
330
1A20
100
AcDbXrecord
340
0
  0
XRECORD
  5
1A37
102
{ACAD_REACTORS
330
1A20
102
}
330
1A20
100
AcDbXrecord
 10
0.0
 20
0.0
 30
0.0
  0
XRECORD
  5
1A33
102
{ACAD_REACTORS
330
1A20
102
}
330
1A20
100
AcDbXrecord
 10
0.0
 20
0.0
 30
0.0
  0
XRECORD
  5
1A36
102
{ACAD_REACTORS
330
1A20
102
}
330
1A20
100
AcDbXrecord
 10
0.0
 20
0.0
 30
0.0
  0
XRECORD
  5
1A34
102
{ACAD_REACTORS
330
1A20
102
}
330
1A20
100
AcDbXrecord
 10
0.0
 20
0.0
 30
0.0
  0
XRECORD
  5
1A35
102
{ACAD_REACTORS
330
1A20
102
}
330
1A20
100
AcDbXrecord
 10
0.0
 20
0.0
 30
0.0
  0
XRECORD
  5
1A32
102
{ACAD_REACTORS
330
1A20
102
}
330
1A20
100
AcDbXrecord
 10
0.0
 20
0.0
 30
0.0
  0
XRECORD
  5
1A2F
102
{ACAD_REACTORS
330
1A20
102
}
330
1A20
100
AcDbXrecord
340
0
  0
XRECORD
  5
1A30
102
{ACAD_REACTORS
330
1A20
102
}
330
1A20
100
AcDbXrecord
 70
     0
  0
XRECORD
  5
1A24
102
{ACAD_REACTORS
330
1A20
102
}
330
1A20
100
AcDbXrecord
  1
big.ctb
  0
XRECORD
  5
1A21
102
{ACAD_REACTORS
330
1A20
102
}
330
1A20
100
AcDbXrecord
 90
        1
  0
XRECORD
  5
1A22
102
{ACAD_REACTORS
330
1A20
102
}
330
1A20
100
AcDbXrecord
 90
       70
  0
XRECORD
  5
1A3A
102
{ACAD_REACTORS
330
1A20
102
}
330
1A20
100
AcDbXrecord
340
0
  0
XRECORD
  5
1A40
102
{ACAD_REACTORS
330
1A20
102
}
330
1A20
100
AcDbXrecord
 10
0.0
 20
0.0
 30
0.0
  0
XRECORD
  5
1A3C
102
{ACAD_REACTORS
330
1A20
102
}
330
1A20
100
AcDbXrecord
 10
0.0
 20
0.0
 30
0.0
  0
XRECORD
  5
1A3F
102
{ACAD_REACTORS
330
1A20
102
}
330
1A20
100
AcDbXrecord
 10
0.0
 20
0.0
 30
0.0
  0
XRECORD
  5
1A3D
102
{ACAD_REACTORS
330
1A20
102
}
330
1A20
100
AcDbXrecord
 10
0.0
 20
0.0
 30
0.0
  0
XRECORD
  5
1A3E
102
{ACAD_REACTORS
330
1A20
102
}
330
1A20
100
AcDbXrecord
 10
0.0
 20
0.0
 30
0.0
  0
XRECORD
  5
1A3B
102
{ACAD_REACTORS
330
1A20
102
}
330
1A20
100
AcDbXrecord
 10
0.0
 20
0.0
 30
0.0
  0
XRECORD
  5
1A38
102
{ACAD_REACTORS
330
1A20
102
}
330
1A20
100
AcDbXrecord
340
0
  0
XRECORD
  5
1A39
102
{ACAD_REACTORS
330
1A20
102
}
330
1A20
100
AcDbXrecord
 70
     0
  0
XRECORD
  5
1A2C
102
{ACAD_REACTORS
330
1A20
102
}
330
1A20
100
AcDbXrecord
  1
{BE9DB2ED-C95F-470C-8276-A8AEF4E9A53F}
  0
XRECORD
  5
560
102
{ACAD_REACTORS
330
540
102
}
330
540
100
AcDbXrecord
  1
2.0.0
  0
ENDSEC
  0
EOF
