  0
SECTION
  2
HEADER
  9
$ACADVER
  1
AC1014
  9
$ACADMAINTVER
 70
     9
  9
$DWGCODEPAGE
  3
ANSI_932
  9
$INSBASE
 10
0.0
 20
0.0
 30
0.0
  9
$EXTMIN
 10
-39.0140065
 20
-31.70963713
 30
-0.00152582
  9
$EXTMAX
 10
183.00595172
 20
71.51054552
 30
0.00000003
  9
$LIMMIN
 10
0.0
 20
0.0
  9
$LIMMAX
 10
420.0
 20
297.0
  9
$ORTHOMODE
 70
     0
  9
$REGENMODE
 70
     1
  9
$FILLMODE
 70
     1
  9
$QTEXTMODE
 70
     0
  9
$MIRRTEXT
 70
     1
  9
$DRAGMODE
 70
     2
  9
$LTSCALE
 40
10.0
  9
$OSMODE
 70
   549
  9
$ATTMODE
 70
     1
  9
$TEXTSIZE
 40
3.0
  9
$TRACEWID
 40
1.0
  9
$TEXTSTYLE
  7
YOKO
  9
$CLAYER
  8
245
  9
$CELTYPE
  6
BYLAYER
  9
$CECOLOR
 62
   256
  9
$CELTSCALE
 40
1.0
  9
$DELOBJ
 70
     1
  9
$DISPSILH
 70
     0
  9
$DIMSCALE
 40
1.0
  9
$DIMASZ
 40
2.0
  9
$DIMEXO
 40
2.0
  9
$DIMDLI
 40
2.5
  9
$DIMRND
 40
0.0
  9
$DIMDLE
 40
0.0
  9
$DIMEXE
 40
2.0
  9
$DIMTP
 40
0.0
  9
$DIMTM
 40
0.0
  9
$DIMTXT
 40
4.0
  9
$DIMCEN
 40
0.0
  9
$DIMTSZ
 40
0.0
  9
$DIMTOL
 70
     0
  9
$DIMLIM
 70
     0
  9
$DIMTIH
 70
     0
  9
$DIMTOH
 70
     0
  9
$DIMSE1
 70
     0
  9
$DIMSE2
 70
     0
  9
$DIMTAD
 70
     3
  9
$DIMZIN
 70
     8
  9
$DIMBLK
  1

  9
$DIMASO
 70
     1
  9
$DIMSHO
 70
     1
  9
$DIMPOST
  1

  9
$DIMAPOST
  1

  9
$DIMALT
 70
     0
  9
$DIMALTD
 70
     2
  9
$DIMALTF
 40
25.4
  9
$DIMLFAC
 40
1.0
  9
$DIMTOFL
 70
     1
  9
$DIMTVP
 40
0.0
  9
$DIMTIX
 70
     1
  9
$DIMSOXD
 70
     0
  9
$DIMSAH
 70
     1
  9
$DIMBLK1
  1
OPEN
  9
$DIMBLK2
  1
OPEN
  9
$DIMSTYLE
  2
BIGT
  9
$DIMCLRD
 70
   256
  9
$DIMCLRE
 70
   256
  9
$DIMCLRT
 70
    40
  9
$DIMTFAC
 40
1.0
  9
$DIMGAP
 40
1.0
  9
$DIMJUST
 70
     0
  9
$DIMSD1
 70
     0
  9
$DIMSD2
 70
     0
  9
$DIMTOLJ
 70
     1
  9
$DIMTZIN
 70
     8
  9
$DIMALTZ
 70
     0
  9
$DIMALTTZ
 70
     0
  9
$DIMFIT
 70
     3
  9
$DIMUPT
 70
     0
  9
$DIMUNIT
 70
     2
  9
$DIMDEC
 70
     3
  9
$DIMTDEC
 70
     3
  9
$DIMALTU
 70
     2
  9
$DIMALTTD
 70
     2
  9
$DIMTXSTY
  7
STANDARD
  9
$DIMAUNIT
 70
     0
  9
$LUNITS
 70
     2
  9
$LUPREC
 70
     3
  9
$SKETCHINC
 40
1.0
  9
$FILLETRAD
 40
10.0
  9
$AUNITS
 70
     0
  9
$AUPREC
 70
     3
  9
$MENU
  1
.
  9
$ELEVATION
 40
0.0
  9
$PELEVATION
 40
0.0
  9
$THICKNESS
 40
0.0
  9
$LIMCHECK
 70
     0
  9
$BLIPMODE
 70
     0
  9
$CHAMFERA
 40
10.0
  9
$CHAMFERB
 40
10.0
  9
$CHAMFERC
 40
0.0
  9
$CHAMFERD
 40
0.0
  9
$SKPOLY
 70
     0
  9
$TDCREATE
 40
2455124.607475578
  9
$TDUPDATE
 40
2455173.658879294
  9
$TDINDWG
 40
0.0173103009
  9
$TDUSRTIMER
 40
0.0173103009
  9
$USRTIMER
 70
     1
  9
$ANGBASE
 50
0.0
  9
$ANGDIR
 70
     0
  9
$PDMODE
 70
    35
  9
$PDSIZE
 40
-5.0
  9
$PLINEWID
 40
0.0
  9
$COORDS
 70
     0
  9
$SPLFRAME
 70
     0
  9
$SPLINETYPE
 70
     6
  9
$SPLINESEGS
 70
     8
  9
$ATTDIA
 70
     0
  9
$ATTREQ
 70
     1
  9
$HANDLING
 70
-16383
  9
$HANDSEED
  5
FFC
  9
$SURFTAB1
 70
     6
  9
$SURFTAB2
 70
     6
  9
$SURFTYPE
 70
     6
  9
$SURFU
 70
     6
  9
$SURFV
 70
     6
  9
$UCSNAME
  2

  9
$UCSORG
 10
0.0
 20
0.0
 30
0.0
  9
$UCSXDIR
 10
1.0
 20
0.0
 30
0.0
  9
$UCSYDIR
 10
0.0
 20
1.0
 30
0.0
  9
$PUCSNAME
  2

  9
$PUCSORG
 10
0.0
 20
0.0
 30
0.0
  9
$PUCSXDIR
 10
1.0
 20
0.0
 30
0.0
  9
$PUCSYDIR
 10
0.0
 20
1.0
 30
0.0
  9
$USERI1
 70
     1
  9
$USERI2
 70
     0
  9
$USERI3
 70
     0
  9
$USERI4
 70
     0
  9
$USERI5
 70
     0
  9
$USERR1
 40
0.0
  9
$USERR2
 40
0.0
  9
$USERR3
 40
0.0
  9
$USERR4
 40
0.0
  9
$USERR5
 40
0.0
  9
$WORLDVIEW
 70
     1
  9
$SHADEDGE
 70
     3
  9
$SHADEDIF
 70
    70
  9
$TILEMODE
 70
     1
  9
$MAXACTVP
 70
    16
  9
$PINSBASE
 10
0.0
 20
0.0
 30
0.0
  9
$PLIMCHECK
 70
     0
  9
$PEXTMIN
 10
1.00000000E+20
 20
1.00000000E+20
 30
1.00000000E+20
  9
$PEXTMAX
 10
-1.00000000E+20
 20
-1.00000000E+20
 30
-1.00000000E+20
  9
$PLIMMIN
 10
0.0
 20
0.0
  9
$PLIMMAX
 10
420.0
 20
297.0
  9
$UNITMODE
 70
     0
  9
$VISRETAIN
 70
     0
  9
$PLINEGEN
 70
     0
  9
$PSLTSCALE
 70
     1
  9
$TREEDEPTH
 70
  3020
  9
$PICKSTYLE
 70
     0
  9
$CMLSTYLE
  2
STANDARD
  9
$CMLJUST
 70
     0
  9
$CMLSCALE
 40
1.0
  9
$PROXYGRAPHICS
 70
     1
  9
$MEASUREMENT
 70
     1
  0
ENDSEC
  0
SECTION
  2
CLASSES
  0
CLASS
  1
XRECORD
  2
AcDbXrecord
  3
AutoCAD 2000
 90
        0
280
     0
281
     0
  0
CLASS
  1
ACDBDICTIONARYWDFLT
  2
AcDbDictionaryWithDefault
  3
AutoCAD 2000
 90
        0
280
     0
281
     0
  0
CLASS
  1
ACDBPLACEHOLDER
  2
AcDbPlaceHolder
  3
AutoCAD 2000
 90
        0
280
     0
281
     0
  0
CLASS
  1
LAYOUT
  2
AcDbLayout
  3
AutoCAD 2000
 90
        0
280
     0
281
     0
  0
CLASS
  1
PLOTSETTINGS
  2
AcDbPlotSettings
  3
AutoCAD 2000
 90
        0
280
     0
281
     0
  0
CLASS
  1
LONG_TRANSACTION
  2
AcDbLongTransaction
  3
AutoCAD 2000
 90
        0
280
     0
281
     0
  0
CLASS
  1
LWPOLYLINE
  2
AcDbPolyline
  3
AutoCAD 2000
 90
        0
280
     0
281
     1
  0
CLASS
  1
HATCH
  2
AcDbHatch
  3
AutoCAD 2000
 90
        0
280
     0
281
     1
  0
CLASS
  1
XRECORD
  2
AcDbXrecord
  3
AutoCAD 2000
 90
        0
280
     0
281
     0
  0
CLASS
  1
LONG_TRANSACTION
  2
AcDbLongTransaction
  3
AutoCAD 2000
 90
        0
280
     0
281
     0
  0
CLASS
  1
LWPOLYLINE
  2
AcDbPolyline
  3
AutoCAD 2000
 90
        0
280
     0
281
     1
  0
CLASS
  1
HATCH
  2
AcDbHatch
  3
AutoCAD 2000
 90
        0
280
     0
281
     1
  0
CLASS
  1
XRECORD
  2
AcDbXrecord
  3
AutoCAD 2000
 90
        0
280
     0
281
     0
  0
CLASS
  1
LONG_TRANSACTION
  2
AcDbLongTransaction
  3
AutoCAD 2000
 90
        0
280
     0
281
     0
  0
CLASS
  1
LWPOLYLINE
  2
AcDbPolyline
  3
AutoCAD 2000
 90
        0
280
     0
281
     1
  0
CLASS
  1
HATCH
  2
AcDbHatch
  3
AutoCAD 2000
 90
        0
280
     0
281
     1
  0
CLASS
  1
XRECORD
  2
AcDbXrecord
  3
AutoCAD 2000
 90
        0
280
     0
281
     0
  0
ENDSEC
  0
SECTION
  2
TABLES
  0
TABLE
  2
VPORT
  5
8
330
0
100
AcDbSymbolTable
 70
     3
  0
VPORT
  5
FD7
330
8
100
AcDbSymbolTableRecord
100
AcDbViewportTableRecord
  2
*ACTIVE
 70
     0
 10
0.0
 20
0.0
 11
1.0
 21
1.0
 12
71.99597261
 22
19.90045419
 13
0.0
 23
0.0
 14
7.0
 24
7.0
 15
7.0
 25
7.0
 16
0.0
 26
0.0
 36
1.0
 17
0.0
 27
0.0
 37
0.0
 40
155.88508371
 41
1.43184713
 42
50.0
 43
0.0
 44
0.0
 50
0.0
 51
0.0
 71
     0
 72
  2000
 73
     1
 74
     0
 75
     0
 76
     0
 77
     0
 78
     0
  0
ENDTAB
  0
TABLE
  2
LTYPE
  5
5
330
0
100
AcDbSymbolTable
 70
     3
  0
LTYPE
  5
14
330
5
100
AcDbSymbolTableRecord
100
AcDbLinetypeTableRecord
  2
BYBLOCK
 70
     0
  3

 72
    65
 73
     0
 40
0.0
  0
LTYPE
  5
15
330
5
100
AcDbSymbolTableRecord
100
AcDbLinetypeTableRecord
  2
BYLAYER
 70
     0
  3

 72
    65
 73
     0
 40
0.0
  0
LTYPE
  5
16
330
5
100
AcDbSymbolTableRecord
100
AcDbLinetypeTableRecord
  2
CONTINUOUS
 70
     0
  3
Solid line
 72
    65
 73
     0
 40
0.0
  0
LTYPE
  5
258
330
5
100
AcDbSymbolTableRecord
100
AcDbLinetypeTableRecord
  2
CENTER2
 70
     0
  3
___ _ ___ _ ___ _ ___ _ ___ _ ___ _ ___ _ ___ _
 72
    65
 73
     4
 40
1.125
 49
0.75
 74
     0
 49
-0.125
 74
     0
 49
0.125
 74
     0
 49
-0.125
 74
     0
  0
LTYPE
  5
25C
330
5
100
AcDbSymbolTableRecord
100
AcDbLinetypeTableRecord
  2
HIDDEN2
 70
     0
  3
_ _ _ _ _ _ _ _ _ _ _ _ _ _ _ _ _ _ _ _ _ _ _ _
 72
    65
 73
     2
 40
0.1875
 49
0.125
 74
     0
 49
-0.0625
 74
     0
  0
ENDTAB
  0
TABLE
  2
LAYER
  5
2
330
0
100
AcDbSymbolTable
 70
    10
  0
LAYER
  5
F
330
2
100
AcDbSymbolTableRecord
100
AcDbLayerTableRecord
  2
0
 70
     0
 62
     7
  6
CONTINUOUS
  0
LAYER
  5
1AA
330
2
100
AcDbSymbolTableRecord
100
AcDbLayerTableRecord
  2
240
 70
     0
 62
     4
  6
CONTINUOUS
  0
LAYER
  5
1AB
330
2
100
AcDbSymbolTableRecord
100
AcDbLayerTableRecord
  2
241
 70
     0
 62
   211
  6
CONTINUOUS
  0
LAYER
  5
1AC
330
2
100
AcDbSymbolTableRecord
100
AcDbLayerTableRecord
  2
242
 70
     0
 62
     3
  6
CONTINUOUS
  0
LAYER
  5
1AF
330
2
100
AcDbSymbolTableRecord
100
AcDbLayerTableRecord
  2
245
 70
     0
 62
     2
  6
CENTER2
  0
LAYER
  5
21E
330
2
100
AcDbSymbolTableRecord
100
AcDbLayerTableRecord
  2
250
 70
     0
 62
     3
  6
CONTINUOUS
  0
LAYER
  5
21F
330
2
100
AcDbSymbolTableRecord
100
AcDbLayerTableRecord
  2
251
 70
     0
 62
    40
  6
CONTINUOUS
  0
LAYER
  5
5C4
330
2
100
AcDbSymbolTableRecord
100
AcDbLayerTableRecord
  2
DEFPOINTS
 70
     0
 62
     7
  6
CONTINUOUS
  0
ENDTAB
  0
TABLE
  2
STYLE
  5
3
330
0
100
AcDbSymbolTable
 70
     2
  0
STYLE
  5
10
330
3
100
AcDbSymbolTableRecord
100
AcDbTextStyleTableRecord
  2
STANDARD
 70
     0
 40
0.0
 41
1.0
 50
0.0
 71
     0
 42
3.0
  3
romans.shx
  4
BIGFONT.SHX
  0
STYLE
  5
339
330
3
100
AcDbSymbolTableRecord
100
AcDbTextStyleTableRecord
  2
YOKO
 70
     0
 40
0.0
 41
1.0
 50
0.0
 71
     0
 42
3.0
  3
romans.shx
  4
extfont.shx
  0
ENDTAB
  0
TABLE
  2
VIEW
  5
6
330
0
100
AcDbSymbolTable
 70
     0
  0
ENDTAB
  0
TABLE
  2
UCS
  5
7
330
0
100
AcDbSymbolTable
 70
     0
  0
ENDTAB
  0
TABLE
  2
APPID
  5
9
330
0
100
AcDbSymbolTable
 70
     9
  0
APPID
  5
11
330
9
100
AcDbSymbolTableRecord
100
AcDbRegAppTableRecord
  2
ACAD
 70
     0
  0
APPID
  5
1B1
330
9
100
AcDbSymbolTableRecord
100
AcDbRegAppTableRecord
  2
GLOBAL
 70
     0
  0
APPID
  5
2A4
330
9
100
AcDbSymbolTableRecord
100
AcDbRegAppTableRecord
  2
DETAIL
 70
     0
  0
APPID
  5
5FD
330
9
100
AcDbSymbolTableRecord
100
AcDbRegAppTableRecord
  2
GRPNAME
 70
     0
  0
APPID
  5
5FE
330
9
100
AcDbSymbolTableRecord
100
AcDbRegAppTableRecord
  2
GPARA
 70
     0
  0
APPID
  5
6C4
330
9
100
AcDbSymbolTableRecord
100
AcDbRegAppTableRecord
  2
DCO15
 70
     0
  0
APPID
  5
6C5
330
9
100
AcDbSymbolTableRecord
100
AcDbRegAppTableRecord
  2
ITEMNAME
 70
     0
  0
APPID
  5
6C6
330
9
100
AcDbSymbolTableRecord
100
AcDbRegAppTableRecord
  2
GRADE_0
 70
     0
  0
APPID
  5
A14
330
9
100
AcDbSymbolTableRecord
100
AcDbRegAppTableRecord
  2
CONTENTBLOCKICON
 70
     0
  0
ENDTAB
  0
TABLE
  2
DIMSTYLE
  5
A
330
0
100
AcDbSymbolTable
 70
     2
  0
DIMSTYLE
105
725
102
{ACAD_REACTORS
330
81A
330
C1A
102
}
330
A
100
AcDbSymbolTableRecord
100
AcDbDimStyleTableRecord
  2
BIGT
 70
     0
  3

  4

  5

  6
OPEN
  7
OPEN
 40
1.0
 41
2.23
 42
0.5
 43
2.5
 44
1.0
 45
0.0
 46
0.0
 47
0.0
 48
0.0
140
2.8
141
0.0
142
0.0
143
25.4
144
1.0
145
0.0
146
1.0
147
1.0
 71
     0
 72
     0
 73
     0
 74
     0
 75
     0
 76
     0
 77
     3
 78
     8
170
     0
171
     2
172
     1
173
     1
174
     1
175
     0
176
   256
177
   256
178
    40
270
     2
271
     3
272
     3
273
     2
274
     2
340
10
275
     0
280
     0
281
     0
282
     0
283
     1
284
     8
285
     0
286
     0
287
     3
288
     0
  0
DIMSTYLE
105
80B
102
{ACAD_REACTORS
330
81B
330
C15
330
DCC
102
}
330
A
100
AcDbSymbolTableRecord
100
AcDbDimStyleTableRecord
  2
BIGT$0
 70
     0
  3

  4
"
  5
OPEN
  6

  7

 40
1.0
 41
2.23
 42
0.5
 43
7.0
 44
1.0
 45
0.0
 46
0.0
 47
0.1
 48
0.1
140
3.0
141
0.0
142
0.0
143
0.0393701
144
1.0
145
0.0
146
0.71
147
1.0
 71
     0
 72
     0
 73
     0
 74
     0
 75
     0
 76
     0
 77
     3
 78
     8
170
     0
171
     2
172
     1
173
     0
174
     0
175
     0
176
     3
177
     3
178
    40
270
     2
271
     3
272
     3
273
     2
274
     2
340
10
275
     0
280
     0
281
     0
282
     0
283
     1
284
     8
285
     0
286
     0
287
     3
288
     0
  0
ENDTAB
  0
TABLE
  2
BLOCK_RECORD
  5
1
330
0
100
AcDbSymbolTable
 70
     9
  0
BLOCK_RECORD
  5
1A
102
{ACAD_XDICTIONARY
360
A12
102
}
330
1
100
AcDbSymbolTableRecord
100
AcDbBlockTableRecord
  2
*MODEL_SPACE
  0
BLOCK_RECORD
  5
17
102
{ACAD_XDICTIONARY
360
A10
102
}
330
1
100
AcDbSymbolTableRecord
100
AcDbBlockTableRecord
  2
*PAPER_SPACE
  0
BLOCK_RECORD
  5
594
330
1
100
AcDbSymbolTableRecord
100
AcDbBlockTableRecord
  2
_OPEN
  0
BLOCK_RECORD
  5
6E3
330
1
100
AcDbSymbolTableRecord
100
AcDbBlockTableRecord
  2
矢印なし
  0
BLOCK_RECORD
  5
822
330
1
100
AcDbSymbolTableRecord
100
AcDbBlockTableRecord
  2
*D2
  0
BLOCK_RECORD
  5
82E
330
1
100
AcDbSymbolTableRecord
100
AcDbBlockTableRecord
  2
*D3
  0
BLOCK_RECORD
  5
94C
330
1
100
AcDbSymbolTableRecord
100
AcDbBlockTableRecord
  2
1
1001
CONTENTBLOCKICON
1071
        0
1004
2800000020000000200000000100080000000000000400000000000000000000000000000000000000000000000080000080000000808000800000008000800080800000C0C0C000C0DCC000F0CAA6000020400000206000002080000020A0000020C0000020E00000400000004020000040400000406000004080000040A0
1004
000040C0000040E00000600000006020000060400000606000006080000060A0000060C0000060E00000800000008020000080400000806000008080000080A0000080C0000080E00000A0000000A0200000A0400000A0600000A0800000A0A00000A0C00000A0E00000C0000000C0200000C0400000C0600000C0800000C0
1004
A00000C0C00000C0E00000E0000000E0200000E0400000E0600000E0800000E0A00000E0C00000E0E00040000000400020004000400040006000400080004000A0004000C0004000E00040200000402020004020400040206000402080004020A0004020C0004020E000404000004040200040404000404060004040800040
1004
40A0004040C0004040E00040600000406020004060400040606000406080004060A0004060C0004060E00040800000408020004080400040806000408080004080A0004080C0004080E00040A0000040A0200040A0400040A0600040A0800040A0A00040A0C00040A0E00040C0000040C0200040C0400040C0600040C08000
1004
40C0A00040C0C00040C0E00040E0000040E0200040E0400040E0600040E0800040E0A00040E0C00040E0E00080000000800020008000400080006000800080008000A0008000C0008000E00080200000802020008020400080206000802080008020A0008020C0008020E00080400000804020008040400080406000804080
1004
008040A0008040C0008040E00080600000806020008060400080606000806080008060A0008060C0008060E00080800000808020008080400080806000808080008080A0008080C0008080E00080A0000080A0200080A0400080A0600080A0800080A0A00080A0C00080A0E00080C0000080C0200080C0400080C0600080C0
1004
800080C0A00080C0C00080C0E00080E0000080E0200080E0400080E0600080E0800080E0A00080E0C00080E0E000C0000000C0002000C0004000C0006000C0008000C000A000C000C000C000E000C0200000C0202000C0204000C0206000C0208000C020A000C020C000C020E000C0400000C0402000C0404000C0406000C0
1004
408000C040A000C040C000C040E000C0600000C0602000C0604000C0606000C0608000C060A000C060C000C060E000C0800000C0802000C0804000C0806000C0808000C080A000C080C000C080E000C0A00000C0A02000C0A04000C0A06000C0A08000C0A0A000C0A0C000C0A0E000C0C00000C0C02000C0C04000C0C06000
1004
C0C08000C0C0A000F0FBFF00A4A0A000808080000000FF0000FF000000FFFF00FF000000FF00FF00FFFF0000FFFFFF0000000000000000000000000000000000000000000000000000000000000000000000000000000000000000000000000000000000000000000000000000000000000000000000000000000000000000
1004
00000000000000000000000000000000000000000000000000000000000000000000000000000000000000000000000000000000000000000000000000000000000000000000000000000000000000000000000000000000000000000000000000000000000000000000000000000000000000000000000000000000000000
1004
00000000000000000000000000000000000000000000000000000000000000000000000000000000000000000000000000000000000000000000000000000000000000000000000000000000000000000000000000000000000000000000000000000000000000000000000000000000000000000000000000000000000000
1004
0000000000000000000000000000000000000000000000000000FEFEFEFE00000000000000000000000000000000000000000000000000000000FEE7E7FE0000000000000000000000000000000000000000000000FAFAFEFEFEFEE7E7FEFEFEFEFEFEFEFEFEFEFEFEFEFEFEFEFEFEE7FE00000000FE000000E7FEE7E7FE00
1004
000000000000000000000000000000FEFEFE00000000FE000000E7FE0000FE00000000000000000000000000000000FAE7E7000000FBFEFBFBFBE7FEFBFBFEFBFBFBFBFBFBFBFBFBFBFBFBFBFBFBE7FAE7E7FB000000FE000000E7FEE7E7FE00000000000000000000000000000000FEFEFE00000000FE000000E7FEE7E7FE
1004
FEFEFEFEFEFEFEFEFEFEFEFEFEFEFEFEFEFEFE00000000FEFEFEFEFEFEE7E7FE00000000000000000000000000000000000000000000000000000000FEFEFEFE000000000000000000000000000000000000000000000000000000000000000000000000000000000000000000000000000000000000000000000000000000
1004
00000000000000000000000000000000000000000000000000000000000000000000000000000000000000000000000000000000000000000000000000000000000000000000000000000000000000000000000000000000000000000000000000000000000000000000000000000000000000000000000000000000000000
1004
00000000000000000000000000000000000000000000000000000000000000000000000000000000000000000000000000000000000000000000000000000000000000000000000000000000000000000000000000000000000000000000000000000000000000000000000000000000000000000000000000000000000000
1004
0000000000000000000000000000000000000000000000000000000000000000000000000000000000000000000000000000000000000000
  0
BLOCK_RECORD
  5
D67
330
1
100
AcDbSymbolTableRecord
100
AcDbBlockTableRecord
  2
*D5
  0
BLOCK_RECORD
  5
D73
330
1
100
AcDbSymbolTableRecord
100
AcDbBlockTableRecord
  2
*D6
  0
BLOCK_RECORD
  5
DCD
330
1
100
AcDbSymbolTableRecord
100
AcDbBlockTableRecord
  2
*D7
  0
ENDTAB
  0
ENDSEC
  0
SECTION
  2
BLOCKS
  0
BLOCK
  5
1B
330
1A
100
AcDbEntity
  8
0
100
AcDbBlockBegin
  2
*MODEL_SPACE
 70
     0
 10
0.0
 20
0.0
 30
0.0
  3
*MODEL_SPACE
  1

  0
ENDBLK
  5
1C
330
1A
100
AcDbEntity
  8
0
100
AcDbBlockEnd
  0
BLOCK
  5
18
330
17
100
AcDbEntity
 67
     1
  8
0
100
AcDbBlockBegin
  2
*PAPER_SPACE
 70
     0
 10
0.0
 20
0.0
 30
0.0
  3
*PAPER_SPACE
  1

  0
ENDBLK
  5
19
330
17
100
AcDbEntity
 67
     1
  8
0
100
AcDbBlockEnd
  0
BLOCK
  5
598
330
594
100
AcDbEntity
  8
0
100
AcDbBlockBegin
  2
_OPEN
 70
     0
 10
0.0
 20
0.0
 30
0.0
  3
_OPEN
  1

  0
LINE
  5
595
330
594
100
AcDbEntity
  8
0
  6
BYBLOCK
 62
     0
100
AcDbLine
 10
-1.0
 20
0.16666667
 30
0.0
 11
0.0
 21
0.0
 31
0.0
  0
LINE
  5
596
330
594
100
AcDbEntity
  8
0
  6
BYBLOCK
 62
     0
100
AcDbLine
 10
-1.0
 20
-0.16666667
 30
0.0
 11
0.0
 21
0.0
 31
0.0
  0
LINE
  5
597
330
594
100
AcDbEntity
  8
0
  6
BYBLOCK
 62
     0
100
AcDbLine
 10
0.0
 20
0.0
 30
0.0
 11
-1.0
 21
0.0
 31
0.0
  0
ENDBLK
  5
599
330
594
100
AcDbEntity
  8
0
100
AcDbBlockEnd
  0
BLOCK
  5
6E4
330
6E3
100
AcDbEntity
  8
0
100
AcDbBlockBegin
  2
矢印なし
 70
     0
 10
0.0
 20
0.0
 30
0.0
  3
矢印なし
  1

  0
ENDBLK
  5
6E5
330
6E3
100
AcDbEntity
  8
0
100
AcDbBlockEnd
  0
BLOCK
  5
82C
330
822
100
AcDbEntity
  8
0
100
AcDbBlockBegin
  2
*D2
 70
     1
 10
0.0
 20
0.0
 30
0.0
  3
*D2
  1

  0
LINE
  5
FA9
330
822
100
AcDbEntity
  8
250
  6
CONTINUOUS
100
AcDbLine
 10
9.0
 20
1.5
 30
0.0
 11
9.0
 21
46.5
 31
0.0
  0
LINE
  5
FAA
330
822
100
AcDbEntity
  8
250
  6
CONTINUOUS
100
AcDbLine
 10
165.0
 20
14.35147168
 30
0.0
 11
165.0
 21
46.5
 31
0.0
  0
LINE
  5
FAB
330
822
100
AcDbEntity
  8
250
  6
CONTINUOUS
100
AcDbLine
 10
11.23
 20
45.5
 30
0.0
 11
162.77
 21
45.5
 31
0.0
  0
INSERT
  5
FAC
330
822
100
AcDbEntity
  8
250
  6
CONTINUOUS
100
AcDbBlockReference
  2
_OPEN
 10
9.0
 20
45.5
 30
0.0
 41
2.23
 42
2.23
 43
2.23
 50
180.0
  0
INSERT
  5
FAD
330
822
100
AcDbEntity
  8
250
  6
CONTINUOUS
100
AcDbBlockReference
  2
_OPEN
 10
165.0
 20
45.5
 30
0.0
 41
2.23
 42
2.23
 43
2.23
  0
MTEXT
  5
FAE
330
822
100
AcDbEntity
  8
250
  6
CONTINUOUS
 62
    40
100
AcDbMText
 10
84.09555702
 20
47.9
 30
0.0
 40
2.8
 41
0.0
 71
     5
 72
     1
  1
\A1;（max.156）
1001
ACAD
1000
MTEXTBEGIN
1070
    73
1070
     1
1070
    44
1040
1.0
1070
    74
1070
     0
1000
MTEXTEND
  0
POINT
  5
FAF
330
822
100
AcDbEntity
  8
DEFPOINTS
  6
CONTINUOUS
 62
     0
100
AcDbPoint
 10
9.0
 20
1.0
 30
0.0
  0
POINT
  5
FB0
330
822
100
AcDbEntity
  8
DEFPOINTS
  6
CONTINUOUS
 62
     0
100
AcDbPoint
 10
165.0
 20
13.85147168
 30
0.0
  0
POINT
  5
FB1
330
822
100
AcDbEntity
  8
DEFPOINTS
  6
CONTINUOUS
 62
     0
100
AcDbPoint
 10
165.0
 20
45.5
 30
0.0
  0
ENDBLK
  5
82D
330
822
100
AcDbEntity
  8
0
100
AcDbBlockEnd
  0
BLOCK
  5
838
330
82E
100
AcDbEntity
  8
0
100
AcDbBlockBegin
  2
*D3
 70
     1
 10
0.0
 20
0.0
 30
0.0
  3
*D3
  1

  0
LINE
  5
DF5
330
82E
100
AcDbEntity
  8
250
  6
CONTINUOUS
 62
     3
100
AcDbLine
 10
0.0
 20
31.4925
 30
0.0
 11
0.0
 21
53.5
 31
0.0
  0
LINE
  5
DF6
330
82E
100
AcDbEntity
  8
250
  6
CONTINUOUS
 62
     3
100
AcDbLine
 10
165.0
 20
14.35147168
 30
0.0
 11
165.0
 21
53.5
 31
0.0
  0
LINE
  5
DF7
330
82E
100
AcDbEntity
  8
250
  6
CONTINUOUS
 62
     3
100
AcDbLine
 10
2.23
 20
52.5
 30
0.0
 11
162.77
 21
52.5
 31
0.0
  0
INSERT
  5
DF8
330
82E
100
AcDbEntity
  8
250
  6
CONTINUOUS
 62
     3
100
AcDbBlockReference
  2
_OPEN
 10
0.0
 20
52.5
 30
0.0
 41
2.23
 42
2.23
 43
2.23
 50
180.0
  0
INSERT
  5
DF9
330
82E
100
AcDbEntity
  8
250
  6
CONTINUOUS
 62
     3
100
AcDbBlockReference
  2
_OPEN
 10
165.0
 20
52.5
 30
0.0
 41
2.23
 42
2.23
 43
2.23
  0
MTEXT
  5
DFA
330
82E
100
AcDbEntity
  8
250
  6
CONTINUOUS
 62
    40
100
AcDbMText
 10
82.77662512
 20
55.0
 30
0.0
 40
3.0
 41
0.0
 71
     5
 72
     1
  1
\A1;165
1001
ACAD
1000
MTEXTBEGIN
1070
    73
1070
     1
1070
    44
1040
1.0
1070
    74
1070
     0
1000
MTEXTEND
1000
MTEXTBEGIN
1070
    73
1070
     1
1070
    44
1040
1.0
1070
    74
1070
     0
1000
MTEXTEND
  0
POINT
  5
DFB
330
82E
100
AcDbEntity
  8
DEFPOINTS
  6
CONTINUOUS
 62
     0
100
AcDbPoint
 10
0.0
 20
30.9925
 30
0.0
  0
POINT
  5
DFC
330
82E
100
AcDbEntity
  8
DEFPOINTS
  6
CONTINUOUS
 62
     0
100
AcDbPoint
 10
165.0
 20
13.85147168
 30
0.0
  0
POINT
  5
DFD
330
82E
100
AcDbEntity
  8
DEFPOINTS
  6
CONTINUOUS
 62
     0
100
AcDbPoint
 10
165.0
 20
52.5
 30
0.0
  0
ENDBLK
  5
839
330
82E
100
AcDbEntity
  8
0
100
AcDbBlockEnd
  0
BLOCK
  5
94D
330
94C
100
AcDbEntity
  8
0
100
AcDbBlockBegin
  2
1
 70
     0
 10
0.0
 20
0.0
 30
0.0
  3
1
  1

  0
LINE
  5
DFE
330
94C
100
AcDbEntity
  8
240
  6
CONTINUOUS
100
AcDbLine
 10
32.0
 20
14.75
 30
0.0
 11
146.44666995
 21
14.75
 31
0.0
  0
LINE
  5
DFF
330
94C
100
AcDbEntity
  8
240
  6
CONTINUOUS
100
AcDbLine
 10
32.0
 20
-14.75
 30
0.0
 11
146.44666995
 21
-14.75
 31
0.0
  0
LINE
  5
E00
330
94C
100
AcDbEntity
  8
245
  6
CENTER2
100
AcDbLine
 10
-39.0
 20
0.0
 30
0.0
 11
166.0
 21
0.0
 31
0.0
  0
LINE
  5
E01
330
94C
100
AcDbEntity
  8
240
  6
CONTINUOUS
100
AcDbLine
 10
22.0
 20
-30.4925
 30
0.0
 11
22.0
 21
30.4925
 31
0.0
  0
LINE
  5
E02
330
94C
100
AcDbEntity
  8
241
  6
CONTINUOUS
100
AcDbLine
 10
14.05
 20
8.99234142
 30
0.0
 11
14.05
 21
30.18137426
 31
0.0
  0
SPLINE
  5
E03
330
94C
100
AcDbEntity
  8
241
  6
CONTINUOUS
100
AcDbSpline
210
0.0
220
0.0
230
1.0
 70
     8
 71
     3
 72
     9
 73
     5
 74
     3
 42
0.0000000001
 43
0.0000000001
 44
0.0000000001
 40
0.0
 40
0.0
 40
0.0
 40
0.0
 40
10.74384375536299
 40
21.48768751072605
 40
21.48768751072605
 40
21.48768751072605
 40
21.48768751072605
 10
14.05000000000018
 20
30.1813742565713
 30
0.0
 10
14.94252458154622
 20
26.64986878400334
 30
0.0
 10
16.72757374463832
 20
19.58685783886741
 30
0.0
 10
14.94252458154617
 20
12.52384689373149
 30
0.0
 10
14.05000000000009
 20
8.992341421163526
 30
0.0
 11
14.05000000000018
 21
30.1813742565713
 31
0.0
 11
15.83504916309226
 21
19.58685783886744
 31
0.0
 11
14.05000000000009
 21
8.992341421163526
 31
0.0
  0
LINE
  5
E04
330
94C
100
AcDbEntity
  8
241
  6
CONTINUOUS
100
AcDbLine
 10
9.95
 20
8.99234142
 30
0.0
 11
9.95
 21
30.18137426
 31
0.0
  0
SPLINE
  5
E05
330
94C
100
AcDbEntity
  8
241
  6
CONTINUOUS
100
AcDbSpline
210
0.0
220
0.0
230
1.0
 70
     8
 71
     3
 72
     9
 73
     5
 74
     3
 42
0.0000000001
 43
0.0000000001
 44
0.0000000001
 40
0.0
 40
0.0
 40
0.0
 40
0.0
 40
10.74384375536296
 40
21.48768751072607
 40
21.48768751072607
 40
21.48768751072607
 40
21.48768751072607
 10
9.9500000000001
 20
8.992341421163501
 30
0.0
 10
9.057475418454039
 20
12.52384689373144
 30
0.0
 10
7.272426255361907
 20
19.58685783886736
 30
0.0
 10
9.057475418453993
 20
26.6498687840033
 30
0.0
 10
9.950000000000043
 20
30.1813742565713
 30
0.0
 11
9.9500000000001
 21
8.992341421163501
 31
0.0
 11
8.164950836907962
 21
19.58685783886732
 31
0.0
 11
9.950000000000043
 21
30.1813742565713
 31
0.0
  0
LINE
  5
E06
330
94C
100
AcDbEntity
  8
240
  6
CONTINUOUS
100
AcDbLine
 10
0.0
 20
30.9925
 30
0.0
 11
0.0
 21
-30.9925
 31
0.0
  0
LINE
  5
E07
330
94C
100
AcDbEntity
  8
240
  6
CONTINUOUS
100
AcDbLine
 10
-36.5
 20
22.56242639
 30
0.0
 11
-1.98947881
 21
23.42526525
 31
0.0
  0
LINE
  5
E08
330
94C
100
AcDbEntity
  8
240
  6
CONTINUOUS
100
AcDbLine
 10
-2.19993752
 20
-20.62000332
 30
0.0
 11
-36.5
 21
-19.76242639
 31
0.0
  0
LINE
  5
E09
330
94C
100
AcDbEntity
  8
241
  6
CONTINUOUS
100
AcDbLine
 10
-36.5
 20
-19.76242639
 30
0.0
 11
-36.5
 21
22.56242639
 31
0.0
  0
LINE
  5
E0A
330
94C
100
AcDbEntity
  8
240
  6
CONTINUOUS
100
AcDbLine
 10
-38.0
 20
-18.26242639
 30
0.0
 11
-38.0
 21
21.69640099
 31
0.0
  0
LINE
  5
E0B
330
94C
100
AcDbEntity
  8
242
  6
HIDDEN2
100
AcDbLine
 10
-38.0
 20
-18.0
 30
0.0
 11
-31.8
 21
-18.0
 31
0.0
  0
LINE
  5
E0C
330
94C
100
AcDbEntity
  8
240
  6
CONTINUOUS
100
AcDbLine
 10
-36.5
 20
-19.76242639
 30
0.0
 11
-38.0
 21
-18.26242639
 31
0.0
  0
LINE
  5
E0D
330
94C
100
AcDbEntity
  8
242
  6
HIDDEN2
100
AcDbLine
 10
-29.87185543
 20
-19.92814457
 30
0.0
 11
-31.8
 21
-18.0
 31
0.0
  0
LINE
  5
E0E
330
94C
100
AcDbEntity
  8
242
  6
HIDDEN2
100
AcDbLine
 10
-31.8
 20
-19.87993672
 30
0.0
 11
-31.8
 21
-18.0
 31
0.0
  0
LINE
  5
E0F
330
94C
100
AcDbEntity
  8
240
  6
CONTINUOUS
100
AcDbLine
 10
-38.0
 20
21.69640099
 30
0.0
 11
-36.5
 21
22.56242639
 31
0.0
  0
ARC
  5
E10
330
94C
100
AcDbEntity
  8
240
  6
CONTINUOUS
100
AcDbCircle
 10
32.0
 20
-24.75
 30
0.0
 40
10.0
100
AcDbArc
 50
90.0
 51
180.0
  0
SPLINE
  5
E11
330
94C
100
AcDbEntity
  8
241
  6
CONTINUOUS
100
AcDbSpline
210
0.0
220
0.0
230
1.0
 70
     8
 71
     3
 72
     9
 73
     5
 74
     3
 42
0.0000000001
 43
0.0000000001
 44
0.0000000001
 40
0.0
 40
0.0
 40
0.0
 40
0.0
 40
10.74384375536299
 40
21.48768751072609
 40
21.48768751072609
 40
21.48768751072609
 40
21.48768751072609
 10
9.9500000000001
 20
-8.992341421163501
 30
0.0
 10
9.057475418454039
 20
-12.52384689373145
 30
0.0
 10
7.272426255361907
 20
-19.58685783886738
 30
0.0
 10
9.057475418453995
 20
-26.64986878400333
 30
0.0
 10
9.950000000000043
 20
-30.18137425657132
 30
0.0
 11
9.9500000000001
 21
-8.992341421163501
 31
0.0
 11
8.164950836907962
 21
-19.58685783886735
 31
0.0
 11
9.950000000000043
 21
-30.18137425657132
 31
0.0
  0
LINE
  5
E12
330
94C
100
AcDbEntity
  8
241
  6
CONTINUOUS
100
AcDbLine
 10
9.95
 20
-8.99234142
 30
0.0
 11
9.95
 21
-30.18137426
 31
0.0
  0
SPLINE
  5
E13
330
94C
100
AcDbEntity
  8
241
  6
CONTINUOUS
100
AcDbSpline
210
0.0
220
0.0
230
1.0
 70
     8
 71
     3
 72
     9
 73
     5
 74
     3
 42
0.0000000001
 43
0.0000000001
 44
0.0000000001
 40
0.0
 40
0.0
 40
0.0
 40
0.0
 40
10.74384375536302
 40
21.48768751072608
 40
21.48768751072608
 40
21.48768751072608
 40
21.48768751072608
 10
14.05000000000018
 20
-30.1813742565713
 30
0.0
 10
14.94252458154622
 20
-26.64986878400333
 30
0.0
 10
16.72757374463832
 20
-19.58685783886739
 30
0.0
 10
14.94252458154617
 20
-12.52384689373147
 30
0.0
 10
14.05000000000009
 20
-8.992341421163501
 30
0.0
 11
14.05000000000018
 21
-30.1813742565713
 31
0.0
 11
15.83504916309226
 21
-19.58685783886741
 31
0.0
 11
14.05000000000009
 21
-8.992341421163501
 31
0.0
  0
LINE
  5
E14
330
94C
100
AcDbEntity
  8
241
  6
CONTINUOUS
100
AcDbLine
 10
14.05
 20
-8.99234142
 30
0.0
 11
14.05
 21
-30.18137426
 31
0.0
  0
LINE
  5
E15
330
94C
100
AcDbEntity
  8
241
  6
CONTINUOUS
100
AcDbLine
 10
9.95
 20
-30.18137426
 30
0.0
 11
14.05
 21
-30.18137426
 31
0.0
  0
LINE
  5
E16
330
94C
100
AcDbEntity
  8
240
  6
CONTINUOUS
100
AcDbLine
 10
0.5
 20
-31.4925
 30
0.0
 11
21.0
 21
-31.4925
 31
0.0
  0
ARC
  5
E17
330
94C
100
AcDbEntity
  8
240
  6
CONTINUOUS
100
AcDbCircle
 10
0.5
 20
-30.9925
 30
0.0
 40
0.5
100
AcDbArc
 50
180.0
 51
270.0
  0
ARC
  5
E18
330
94C
100
AcDbEntity
  8
240
  6
CONTINUOUS
100
AcDbCircle
 10
21.0
 20
-30.4925
 30
0.0
 40
1.0
100
AcDbArc
 50
270.0
 51
0.0
  0
LINE
  5
E19
330
94C
100
AcDbEntity
  8
241
  6
CONTINUOUS
100
AcDbLine
 10
9.95
 20
8.99234142
 30
0.0
 11
14.05
 21
8.99234142
 31
0.0
  0
LINE
  5
E1A
330
94C
100
AcDbEntity
  8
241
  6
CONTINUOUS
100
AcDbLine
 10
9.95
 20
-8.99234142
 30
0.0
 11
14.05
 21
-8.99234142
 31
0.0
  0
LINE
  5
E1B
330
94C
100
AcDbEntity
  8
241
100
AcDbLine
 10
-2.19993752
 20
-20.62000332
 30
0.0
 11
-2.19993752
 21
23.42000332
 31
0.0
  0
LINE
  5
E1C
330
94C
100
AcDbEntity
  8
240
100
AcDbLine
 10
-2.19993752
 20
-20.62000332
 30
0.0
 11
0.0
 21
-20.62000332
 31
0.0
  0
LINE
  5
E1D
330
94C
100
AcDbEntity
  8
240
100
AcDbLine
 10
-2.19993752
 20
23.42000332
 30
0.0
 11
0.0
 21
23.42000332
 31
0.0
  0
ARC
  5
E1E
330
94C
100
AcDbEntity
  8
240
  6
CONTINUOUS
100
AcDbCircle
 10
32.0
 20
24.75
 30
0.0
 40
10.0
100
AcDbArc
 50
180.0
 51
270.0
  0
LINE
  5
E1F
330
94C
100
AcDbEntity
  8
241
  6
CONTINUOUS
100
AcDbLine
 10
9.95
 20
30.18137426
 30
0.0
 11
14.05
 21
30.18137426
 31
0.0
  0
LINE
  5
E20
330
94C
100
AcDbEntity
  8
240
  6
CONTINUOUS
100
AcDbLine
 10
0.5
 20
31.4925
 30
0.0
 11
21.0
 21
31.4925
 31
0.0
  0
ARC
  5
E21
330
94C
100
AcDbEntity
  8
240
  6
CONTINUOUS
100
AcDbCircle
 10
0.5
 20
30.9925
 30
0.0
 40
0.5
100
AcDbArc
 50
90.0
 51
180.0
  0
ARC
  5
E22
330
94C
100
AcDbEntity
  8
240
  6
CONTINUOUS
100
AcDbCircle
 10
21.0
 20
30.4925
 30
0.0
 40
1.0
100
AcDbArc
 50
0.0
 51
90.0
  0
LINE
  5
E23
330
94C
100
AcDbEntity
  8
240
  6
CONTINUOUS
100
AcDbLine
 10
153.55
 20
-15.0
 30
0.0
 11
163.81005051
 21
-15.0
 31
0.0
1001
GRPNAME
1000
PASTMD0K
  0
LINE
  5
E24
330
94C
100
AcDbEntity
  8
241
  6
CONTINUOUS
100
AcDbLine
 10
153.55
 20
-8.76144388
 30
0.0
 11
160.5
 21
-8.76144388
 31
0.0
1001
GRPNAME
1000
PASTMD0K
  0
LINE
  5
E25
330
94C
100
AcDbEntity
  8
241
  6
CONTINUOUS
100
AcDbLine
 10
153.55
 20
-6.16336767
 30
0.0
 11
160.5
 21
-6.16336767
 31
0.0
1001
GRPNAME
1000
PASTMD0K
  0
LINE
  5
E26
330
94C
100
AcDbEntity
  8
241
  6
CONTINUOUS
100
AcDbLine
 10
152.85
 20
-7.79903811
 30
0.0
 11
160.5
 21
-7.79903811
 31
0.0
1001
GRPNAME
1000
PASTMD0K
  0
LINE
  5
E27
330
94C
100
AcDbEntity
  8
241
  6
CONTINUOUS
100
AcDbLine
 10
153.55
 20
6.16336767
 30
0.0
 11
160.5
 21
6.16336767
 31
0.0
1001
GRPNAME
1000
PASTMD0K
  0
LINE
  5
E28
330
94C
100
AcDbEntity
  8
240
  6
CONTINUOUS
100
AcDbLine
 10
153.55
 20
15.0
 30
0.0
 11
163.81005051
 21
15.0
 31
0.0
1001
GRPNAME
1000
PASTMD0K
  0
LINE
  5
E29
330
94C
100
AcDbEntity
  8
241
  6
CONTINUOUS
100
AcDbLine
 10
152.85
 20
7.79903811
 30
0.0
 11
160.5
 21
7.79903811
 31
0.0
1001
GRPNAME
1000
PASTMD0K
  0
LINE
  5
E2A
330
94C
100
AcDbEntity
  8
241
  6
CONTINUOUS
100
AcDbLine
 10
153.55
 20
8.76144388
 30
0.0
 11
160.5
 21
8.76144388
 31
0.0
1001
GRPNAME
1000
PASTMD0K
  0
LINE
  5
E2B
330
94C
100
AcDbEntity
  8
241
  6
HIDDEN2
100
AcDbLine
 10
137.44666995
 20
5.0
 30
0.0
 11
165.0
 21
5.0
 31
0.0
1001
GRPNAME
1000
PASTMD0K
  0
LINE
  5
E2C
330
94C
100
AcDbEntity
  8
241
  6
HIDDEN2
100
AcDbLine
 10
137.44666995
 20
5.86641529
 30
0.0
 11
160.14637243
 21
8.25225016
 31
0.0
1001
GRPNAME
1000
PASTMD0K
  0
LINE
  5
E2D
330
94C
100
AcDbEntity
  8
240
  6
CONTINUOUS
100
AcDbLine
 10
147.44666995
 20
13.75
 30
0.0
 11
147.44666995
 21
-13.75
 31
0.0
  0
LINE
  5
E2E
330
94C
100
AcDbEntity
  8
240
  6
CONTINUOUS
100
AcDbLine
 10
152.85
 20
-14.3
 30
0.0
 11
152.85
 21
14.3
 31
0.0
1001
GRPNAME
1000
PASTMD0K
  0
LINE
  5
E2F
330
94C
100
AcDbEntity
  8
240
  6
CONTINUOUS
100
AcDbLine
 10
152.5
 20
11.25
 30
0.0
 11
152.5
 21
-11.25
 31
0.0
1001
GRPNAME
1000
PASTMD0K
  0
LINE
  5
E30
330
94C
100
AcDbEntity
  8
242
  6
CONTINUOUS
100
AcDbLine
 10
149.44666995
 20
-10.5
 30
0.0
 11
149.44666995
 21
10.5
 31
0.0
1001
GRPNAME
1000
PASTMD0K
  0
LINE
  5
E31
330
94C
100
AcDbEntity
  8
241
  6
CONTINUOUS
100
AcDbLine
 10
153.55
 20
6.16336767
 30
0.0
 11
153.55
 21
-6.16336767
 31
0.0
1001
GRPNAME
1000
PASTMD0K
  0
LINE
  5
E32
330
94C
100
AcDbEntity
  8
241
  6
HIDDEN2
100
AcDbLine
 10
137.44666995
 20
5.86641529
 30
0.0
 11
137.44666995
 21
0.0
 31
0.0
1001
GRPNAME
1000
PASTMD0K
  0
LWPOLYLINE
  5
E33
330
94C
100
AcDbEntity
  8
241
  6
CONTINUOUS
100
AcDbPolyline
 90
       70
 70
     0
 43
0.0
 10
152.85
 20
-8.40959364
 10
152.85018138
 20
-8.41760288
 10
152.85072543
 20
-8.42560796
 10
152.85163186
 20
-8.43360475
 10
152.85290021
 20
-8.44158909
 10
152.85452982
 20
-8.44955686
 10
152.85651984
 20
-8.45750391
 10
152.85886924
 20
-8.46542613
 10
152.86157681
 20
-8.47331942
 10
152.86464114
 20
-8.48117969
 10
152.86806064
 20
-8.48900285
 10
152.87183355
 20
-8.49678487
 10
152.8759579
 20
-8.5045217
 10
152.88043156
 20
-8.51220933
 10
152.88525221
 20
-8.51984379
 10
152.89041735
 20
-8.52742111
 10
152.89592431
 20
-8.53493737
 10
152.90177024
 20
-8.54238868
 10
152.90795209
 20
-8.54977116
 10
152.91446667
 20
-8.557081
 10
152.92131061
 20
-8.56431441
 10
152.92848035
 20
-8.57146764
 10
152.93597218
 20
-8.57853697
 10
152.94378222
 20
-8.58551876
 10
152.95190642
 20
-8.59240938
 10
152.96034057
 20
-8.59920526
 10
152.9690803
 20
-8.60590287
 10
152.97812107
 20
-8.61249875
 10
152.98745822
 20
-8.61898948
 10
152.99708689
 20
-8.6253717
 10
153.0070021
 20
-8.63164209
 10
153.0171987
 20
-8.63779741
 10
153.02767142
 20
-8.64383446
 10
153.03841483
 20
-8.64975013
 10
153.04942335
 20
-8.65554134
 10
153.06069129
 20
-8.66120509
 10
153.0722128
 20
-8.66673845
 10
153.08398192
 20
-8.67213855
 10
153.09599254
 20
-8.67740259
 10
153.10823844
 20
-8.68252785
 10
153.12071327
 20
-8.68751166
 10
153.13341058
 20
-8.69235144
 10
153.14632377
 20
-8.6970447
 10
153.15944617
 20
-8.70158898
 10
153.17277095
 20
-8.70598195
 10
153.18629123
 20
-8.71022132
 10
153.2
 20
-8.71430489
 10
153.21389015
 20
-8.71823055
 10
153.22795447
 20
-8.72199627
 10
153.2421857
 20
-8.72560009
 10
153.25657644
 20
-8.72904015
 10
153.27111924
 20
-8.73231466
 10
153.28580656
 20
-8.73542193
 10
153.3006308
 20
-8.73836034
 10
153.31558427
 20
-8.74112838
 10
153.33065922
 20
-8.7437246
 10
153.34584784
 20
-8.74614767
 10
153.36114226
 20
-8.74839632
 10
153.37653455
 20
-8.7504694
 10
153.39201673
 20
-8.75236582
 10
153.40758079
 20
-8.75408462
 10
153.42321865
 20
-8.75562488
 10
153.43892222
 20
-8.75698582
 10
153.45468335
 20
-8.75816673
 10
153.47049387
 20
-8.759167
 10
153.4863456
 20
-8.75998611
 10
153.50223031
 20
-8.76062364
 10
153.51813978
 20
-8.76107925
 10
153.53406576
 20
-8.76135271
 10
153.55
 20
-8.76144388
1001
GRPNAME
1000
PASTMD0K
  0
ARC
  5
E7B
330
94C
100
AcDbEntity
  8
240
  6
CONTINUOUS
100
AcDbCircle
 10
153.55
 20
-14.3
 30
0.0
 40
0.6999999999999888
100
AcDbArc
 50
180.00000009
 51
270.00000009
1001
GRPNAME
1000
PASTMD0K
  0
LINE
  5
E7C
330
94C
100
AcDbEntity
  8
242
  6
CONTINUOUS
100
AcDbLine
 10
152.5
 20
-10.0
 30
0.0
 11
149.44666995
 21
-10.0
 31
0.0
1001
GRPNAME
1000
PASTMD0K
  0
LINE
  5
E7D
330
94C
100
AcDbEntity
  8
240
  6
CONTINUOUS
100
AcDbLine
 10
152.5
 20
-10.5
 30
0.0
 11
148.44666995
 21
-10.5
 31
0.0
1001
GRPNAME
1000
PASTMD0K
  0
LINE
  5
E7E
330
94C
100
AcDbEntity
  8
242
  6
CONTINUOUS
100
AcDbLine
 10
148.94666995
 20
-10.5
 30
0.0
 11
149.44666995
 21
-10.0
 31
0.0
1001
GRPNAME
1000
PASTMD0K
  0
ARC
  5
E7F
330
94C
100
AcDbEntity
  8
240
  6
CONTINUOUS
100
AcDbCircle
 10
146.44666995
 20
-13.75
 30
0.0
 40
1.0
100
AcDbArc
 50
270.0
 51
0.0
  0
ARC
  5
E80
330
94C
100
AcDbEntity
  8
240
  6
CONTINUOUS
100
AcDbCircle
 10
148.44666995
 20
-11.5
 30
0.0
 40
1.0
100
AcDbArc
 50
89.99999999
 51
179.99999999
1001
GRPNAME
1000
PASTMD0K
  0
LINE
  5
E81
330
94C
100
AcDbEntity
  8
241
  6
CONTINUOUS
100
AcDbLine
 10
153.55
 20
-15.0
 30
0.0
 11
153.55
 21
-8.76144388
 31
0.0
1001
GRPNAME
1000
PASTMD0K
  0
LINE
  5
E82
330
94C
100
AcDbEntity
  8
240
  6
CONTINUOUS
100
AcDbLine
 10
152.85
 20
-11.6
 30
0.0
 11
152.5
 21
-11.25
 31
0.0
1001
GRPNAME
1000
PASTMD0K
  0
LWPOLYLINE
  5
E83
330
94C
100
AcDbEntity
  8
241
  6
CONTINUOUS
100
AcDbPolyline
 90
       70
 70
     0
 43
0.0
 10
152.85
 20
-5.81151743
 10
152.85018138
 20
-5.81952666
 10
152.85072543
 20
-5.82753175
 10
152.85163186
 20
-5.83552854
 10
152.85290021
 20
-5.84351288
 10
152.85452982
 20
-5.85148064
 10
152.85651984
 20
-5.8594277
 10
152.85886924
 20
-5.86734992
 10
152.86157681
 20
-5.87524321
 10
152.86464114
 20
-5.88310348
 10
152.86806064
 20
-5.89092664
 10
152.87183355
 20
-5.89870866
 10
152.8759579
 20
-5.90644549
 10
152.88043156
 20
-5.91413312
 10
152.88525221
 20
-5.92176758
 10
152.89041735
 20
-5.9293449
 10
152.89592431
 20
-5.93686116
 10
152.90177024
 20
-5.94431246
 10
152.90795209
 20
-5.95169495
 10
152.91446667
 20
-5.95900479
 10
152.92131061
 20
-5.9662382
 10
152.92848035
 20
-5.97339142
 10
152.93597218
 20
-5.98046076
 10
152.94378222
 20
-5.98744255
 10
152.95190642
 20
-5.99433317
 10
152.96034057
 20
-6.00112904
 10
152.9690803
 20
-6.00782666
 10
152.97812107
 20
-6.01442254
 10
152.98745822
 20
-6.02091327
 10
152.99708689
 20
-6.02729548
 10
153.0070021
 20
-6.03356588
 10
153.0171987
 20
-6.03972119
 10
153.02767142
 20
-6.04575825
 10
153.03841483
 20
-6.05167392
 10
153.04942335
 20
-6.05746513
 10
153.06069129
 20
-6.06312888
 10
153.0722128
 20
-6.06866224
 10
153.08398192
 20
-6.07406234
 10
153.09599254
 20
-6.07932638
 10
153.10823844
 20
-6.08445164
 10
153.12071327
 20
-6.08943545
 10
153.13341058
 20
-6.09427523
 10
153.14632377
 20
-6.09896848
 10
153.15944617
 20
-6.10351277
 10
153.17277095
 20
-6.10790574
 10
153.18629123
 20
-6.1121451
 10
153.2
 20
-6.11622868
 10
153.21389015
 20
-6.12015434
 10
153.22795447
 20
-6.12392006
 10
153.2421857
 20
-6.12752388
 10
153.25657644
 20
-6.13096394
 10
153.27111924
 20
-6.13423845
 10
153.28580656
 20
-6.13734572
 10
153.3006308
 20
-6.14028413
 10
153.31558427
 20
-6.14305216
 10
153.33065922
 20
-6.14564839
 10
153.34584784
 20
-6.14807146
 10
153.36114226
 20
-6.15032011
 10
153.37653455
 20
-6.15239319
 10
153.39201673
 20
-6.15428961
 10
153.40758079
 20
-6.1560084
 10
153.42321865
 20
-6.15754867
 10
153.43892222
 20
-6.15890961
 10
153.45468335
 20
-6.16009052
 10
153.47049387
 20
-6.16109079
 10
153.4863456
 20
-6.1619099
 10
153.50223031
 20
-6.16254743
 10
153.51813978
 20
-6.16300304
 10
153.53406576
 20
-6.1632765
 10
153.55
 20
-6.16336767
1001
GRPNAME
1000
PASTMD0K
  0
LINE
  5
ECB
330
94C
100
AcDbEntity
  8
241
  6
CONTINUOUS
100
AcDbLine
 10
153.55
 20
15.0
 30
0.0
 11
153.55
 21
8.76144388
 31
0.0
1001
GRPNAME
1000
PASTMD0K
  0
ARC
  5
ECC
330
94C
100
AcDbEntity
  8
240
  6
CONTINUOUS
100
AcDbCircle
 10
148.44666995
 20
11.5
 30
0.0
 40
1.0
100
AcDbArc
 50
179.99999998
 51
269.99999998
1001
GRPNAME
1000
PASTMD0K
  0
LINE
  5
ECD
330
94C
100
AcDbEntity
  8
242
  6
CONTINUOUS
100
AcDbLine
 10
152.5
 20
10.0
 30
0.0
 11
149.44666995
 21
10.0
 31
0.0
1001
GRPNAME
1000
PASTMD0K
  0
LINE
  5
ECE
330
94C
100
AcDbEntity
  8
240
  6
CONTINUOUS
100
AcDbLine
 10
152.5
 20
10.5
 30
0.0
 11
148.44666995
 21
10.5
 31
0.0
1001
GRPNAME
1000
PASTMD0K
  0
LINE
  5
ECF
330
94C
100
AcDbEntity
  8
242
  6
CONTINUOUS
100
AcDbLine
 10
148.94666995
 20
10.5
 30
0.0
 11
149.44666995
 21
10.0
 31
0.0
1001
GRPNAME
1000
PASTMD0K
  0
LWPOLYLINE
  5
ED0
330
94C
100
AcDbEntity
  8
241
  6
CONTINUOUS
100
AcDbPolyline
 90
       70
 70
     0
 43
0.0
 10
152.85
 20
8.40959364
 10
152.85018138
 20
8.41760288
 10
152.85072543
 20
8.42560796
 10
152.85163186
 20
8.43360475
 10
152.85290021
 20
8.44158909
 10
152.85452982
 20
8.44955686
 10
152.85651984
 20
8.45750391
 10
152.85886924
 20
8.46542613
 10
152.86157681
 20
8.47331942
 10
152.86464114
 20
8.48117969
 10
152.86806064
 20
8.48900285
 10
152.87183355
 20
8.49678487
 10
152.8759579
 20
8.5045217
 10
152.88043156
 20
8.51220933
 10
152.88525221
 20
8.51984379
 10
152.89041735
 20
8.52742111
 10
152.89592431
 20
8.53493737
 10
152.90177024
 20
8.54238868
 10
152.90795209
 20
8.54977116
 10
152.91446667
 20
8.557081
 10
152.92131061
 20
8.56431441
 10
152.92848035
 20
8.57146764
 10
152.93597218
 20
8.57853697
 10
152.94378222
 20
8.58551876
 10
152.95190642
 20
8.59240938
 10
152.96034057
 20
8.59920526
 10
152.9690803
 20
8.60590287
 10
152.97812107
 20
8.61249875
 10
152.98745822
 20
8.61898948
 10
152.99708689
 20
8.6253717
 10
153.0070021
 20
8.63164209
 10
153.0171987
 20
8.63779741
 10
153.02767142
 20
8.64383446
 10
153.03841483
 20
8.64975013
 10
153.04942335
 20
8.65554134
 10
153.06069129
 20
8.66120509
 10
153.0722128
 20
8.66673845
 10
153.08398192
 20
8.67213855
 10
153.09599254
 20
8.67740259
 10
153.10823844
 20
8.68252785
 10
153.12071327
 20
8.68751166
 10
153.13341058
 20
8.69235144
 10
153.14632377
 20
8.6970447
 10
153.15944617
 20
8.70158898
 10
153.17277095
 20
8.70598195
 10
153.18629123
 20
8.71022132
 10
153.2
 20
8.71430489
 10
153.21389015
 20
8.71823055
 10
153.22795447
 20
8.72199627
 10
153.2421857
 20
8.72560009
 10
153.25657644
 20
8.72904015
 10
153.27111924
 20
8.73231466
 10
153.28580656
 20
8.73542193
 10
153.3006308
 20
8.73836034
 10
153.31558427
 20
8.74112838
 10
153.33065922
 20
8.7437246
 10
153.34584784
 20
8.74614767
 10
153.36114226
 20
8.74839632
 10
153.37653455
 20
8.7504694
 10
153.39201673
 20
8.75236582
 10
153.40758079
 20
8.75408462
 10
153.42321865
 20
8.75562488
 10
153.43892222
 20
8.75698582
 10
153.45468335
 20
8.75816673
 10
153.47049387
 20
8.759167
 10
153.4863456
 20
8.75998611
 10
153.50223031
 20
8.76062364
 10
153.51813978
 20
8.76107925
 10
153.53406576
 20
8.76135271
 10
153.55
 20
8.76144388
1001
GRPNAME
1000
PASTMD0K
  0
LWPOLYLINE
  5
F18
330
94C
100
AcDbEntity
  8
241
  6
CONTINUOUS
100
AcDbPolyline
 90
       70
 70
     0
 43
0.0
 10
152.85
 20
5.81151743
 10
152.85018138
 20
5.81952666
 10
152.85072543
 20
5.82753175
 10
152.85163186
 20
5.83552854
 10
152.85290021
 20
5.84351288
 10
152.85452982
 20
5.85148064
 10
152.85651984
 20
5.8594277
 10
152.85886924
 20
5.86734992
 10
152.86157681
 20
5.87524321
 10
152.86464114
 20
5.88310348
 10
152.86806064
 20
5.89092664
 10
152.87183355
 20
5.89870866
 10
152.8759579
 20
5.90644549
 10
152.88043156
 20
5.91413312
 10
152.88525221
 20
5.92176758
 10
152.89041735
 20
5.9293449
 10
152.89592431
 20
5.93686116
 10
152.90177024
 20
5.94431246
 10
152.90795209
 20
5.95169495
 10
152.91446667
 20
5.95900479
 10
152.92131061
 20
5.9662382
 10
152.92848035
 20
5.97339142
 10
152.93597218
 20
5.98046076
 10
152.94378222
 20
5.98744255
 10
152.95190642
 20
5.99433317
 10
152.96034057
 20
6.00112904
 10
152.9690803
 20
6.00782666
 10
152.97812107
 20
6.01442254
 10
152.98745822
 20
6.02091327
 10
152.99708689
 20
6.02729548
 10
153.0070021
 20
6.03356588
 10
153.0171987
 20
6.03972119
 10
153.02767142
 20
6.04575825
 10
153.03841483
 20
6.05167392
 10
153.04942335
 20
6.05746513
 10
153.06069129
 20
6.06312888
 10
153.0722128
 20
6.06866224
 10
153.08398192
 20
6.07406234
 10
153.09599254
 20
6.07932638
 10
153.10823844
 20
6.08445164
 10
153.12071327
 20
6.08943545
 10
153.13341058
 20
6.09427523
 10
153.14632377
 20
6.09896848
 10
153.15944617
 20
6.10351277
 10
153.17277095
 20
6.10790574
 10
153.18629123
 20
6.1121451
 10
153.2
 20
6.11622868
 10
153.21389015
 20
6.12015434
 10
153.22795447
 20
6.12392006
 10
153.2421857
 20
6.12752388
 10
153.25657644
 20
6.13096394
 10
153.27111924
 20
6.13423845
 10
153.28580656
 20
6.13734572
 10
153.3006308
 20
6.14028413
 10
153.31558427
 20
6.14305216
 10
153.33065922
 20
6.14564839
 10
153.34584784
 20
6.14807146
 10
153.36114226
 20
6.15032011
 10
153.37653455
 20
6.15239319
 10
153.39201673
 20
6.15428961
 10
153.40758079
 20
6.1560084
 10
153.42321865
 20
6.15754867
 10
153.43892222
 20
6.15890961
 10
153.45468335
 20
6.16009052
 10
153.47049387
 20
6.16109079
 10
153.4863456
 20
6.1619099
 10
153.50223031
 20
6.16254743
 10
153.51813978
 20
6.16300304
 10
153.53406576
 20
6.1632765
 10
153.55
 20
6.16336767
1001
GRPNAME
1000
PASTMD0K
  0
ARC
  5
F60
330
94C
100
AcDbEntity
  8
240
  6
CONTINUOUS
100
AcDbCircle
 10
146.44666995
 20
13.75
 30
0.0
 40
1.0
100
AcDbArc
 50
0.0
 51
90.0
  0
ARC
  5
F61
330
94C
100
AcDbEntity
  8
240
  6
CONTINUOUS
100
AcDbCircle
 10
153.55
 20
14.3
 30
0.0
 40
0.6999999999999888
100
AcDbArc
 50
89.99999999
 51
179.99999999
1001
GRPNAME
1000
PASTMD0K
  0
LINE
  5
F62
330
94C
100
AcDbEntity
  8
240
  6
CONTINUOUS
100
AcDbLine
 10
152.5
 20
11.25
 30
0.0
 11
152.85
 21
11.6
 31
0.0
1001
GRPNAME
1000
PASTMD0K
  0
LINE
  5
F63
330
94C
100
AcDbEntity
  8
241
  6
CONTINUOUS
100
AcDbLine
 10
164.1
 20
14.9371258
 30
0.0
 11
164.1
 21
-14.9371258
 31
0.0
1001
GRPNAME
1000
PASTMD0K
  0
LINE
  5
F64
330
94C
100
AcDbEntity
  8
240
  6
CONTINUOUS
100
AcDbLine
 10
165.0
 20
-13.85147186
 30
0.0
 11
165.0
 21
13.85147186
 31
0.0
1001
GRPNAME
1000
PASTMD0K
  0
LINE
  5
F65
330
94C
100
AcDbEntity
  8
241
  6
CONTINUOUS
100
AcDbLine
 10
160.5
 20
-8.76144388
 30
0.0
 11
160.5
 21
-6.16336767
 31
0.0
1001
GRPNAME
1000
PASTMD0K
  0
ARC
  5
F66
330
94C
100
AcDbEntity
  8
240
  6
CONTINUOUS
100
AcDbCircle
 10
163.81005051
 20
-14.3
 30
0.0
 40
0.7000000000000455
100
AcDbArc
 50
270.00000004
 51
315.00000004
1001
GRPNAME
1000
PASTMD0K
  0
LINE
  5
F67
330
94C
100
AcDbEntity
  8
240
  6
CONTINUOUS
100
AcDbLine
 10
164.30502525
 20
-14.79497475
 30
0.0
 11
164.82426407
 21
-14.27573593
 31
0.0
1001
GRPNAME
1000
PASTMD0K
  0
ARC
  5
F68
330
94C
100
AcDbEntity
  8
240
  6
CONTINUOUS
100
AcDbCircle
 10
164.4
 20
-13.85147186
 30
0.0
 40
0.6000000000000491
100
AcDbArc
 50
315.00000004
 51
0.00000004
1001
GRPNAME
1000
PASTMD0K
  0
LINE
  5
F69
330
94C
100
AcDbEntity
  8
241
  6
HIDDEN2
100
AcDbLine
 10
165.0
 20
6.77566243
 30
0.0
 11
162.44637243
 21
8.25
 31
0.0
1001
GRPNAME
1000
PASTMD0K
  0
LINE
  5
F6A
330
94C
100
AcDbEntity
  8
241
  6
CONTINUOUS
100
AcDbLine
 10
160.5
 20
8.76144388
 30
0.0
 11
160.5
 21
6.16336767
 31
0.0
1001
GRPNAME
1000
PASTMD0K
  0
LINE
  5
F6B
330
94C
100
AcDbEntity
  8
241
  6
HIDDEN2
100
AcDbLine
 10
160.14637243
 20
7.0
 30
0.0
 11
162.24637243
 21
7.0
 31
0.0
1001
GRPNAME
1000
PASTMD0K
  0
LINE
  5
F6C
330
94C
100
AcDbEntity
  8
241
  6
HIDDEN2
100
AcDbLine
 10
160.14637243
 20
7.0
 30
0.0
 11
160.14637243
 21
8.25225016
 31
0.0
1001
GRPNAME
1000
PASTMD0K
  0
LINE
  5
F6D
330
94C
100
AcDbEntity
  8
241
  6
HIDDEN2
100
AcDbLine
 10
162.24637243
 20
8.25
 30
0.0
 11
162.44637243
 21
8.25
 31
0.0
1001
GRPNAME
1000
PASTMD0K
  0
LINE
  5
F6E
330
94C
100
AcDbEntity
  8
241
  6
HIDDEN2
100
AcDbLine
 10
162.24637243
 20
7.0
 30
0.0
 11
162.24637243
 21
8.25
 31
0.0
1001
GRPNAME
1000
PASTMD0K
  0
LINE
  5
F6F
330
94C
100
AcDbEntity
  8
240
  6
CONTINUOUS
100
AcDbLine
 10
164.82426407
 20
14.27573593
 30
0.0
 11
164.30502525
 21
14.79497475
 31
0.0
1001
GRPNAME
1000
PASTMD0K
  0
ARC
  5
F70
330
94C
100
AcDbEntity
  8
240
  6
CONTINUOUS
100
AcDbCircle
 10
164.4
 20
13.85147186
 30
0.0
 40
0.6000000000000229
100
AcDbArc
 50
359.9999824
 51
45.00000004
1001
GRPNAME
1000
PASTMD0K
  0
ARC
  5
F71
330
94C
100
AcDbEntity
  8
240
  6
CONTINUOUS
100
AcDbCircle
 10
163.81005051
 20
14.3
 30
0.0
 40
0.7000000000000038
100
AcDbArc
 50
44.99999993
 51
89.99999993
1001
GRPNAME
1000
PASTMD0K
  0
ENDBLK
  5
94E
330
94C
100
AcDbEntity
  8
0
100
AcDbBlockEnd
  0
BLOCK
  5
D71
330
D67
100
AcDbEntity
  8
0
100
AcDbBlockBegin
  2
*D5
 70
     1
 10
0.0
 20
0.0
 30
0.0
  3
*D5
  1

  0
LINE
  5
D9C
330
D67
100
AcDbEntity
  8
250
  6
CONTINUOUS
 62
     3
100
AcDbLine
 10
164.31005051
 20
-15.0
 30
0.0
 11
183.0
 21
-15.0
 31
0.0
  0
LINE
  5
D9D
330
D67
100
AcDbEntity
  8
250
  6
CONTINUOUS
 62
     3
100
AcDbLine
 10
164.31005051
 20
15.0
 30
0.0
 11
183.0
 21
15.0
 31
0.0
  0
LINE
  5
D9E
330
D67
100
AcDbEntity
  8
250
  6
CONTINUOUS
 62
     3
100
AcDbLine
 10
182.0
 20
-12.77
 30
0.0
 11
182.0
 21
12.77
 31
0.0
  0
INSERT
  5
D9F
330
D67
100
AcDbEntity
  8
250
  6
CONTINUOUS
 62
     3
100
AcDbBlockReference
  2
_OPEN
 10
182.0
 20
-15.0
 30
0.0
 41
2.23
 42
2.23
 43
2.23
 50
270.0
  0
INSERT
  5
DA0
330
D67
100
AcDbEntity
  8
250
  6
CONTINUOUS
 62
     3
100
AcDbBlockReference
  2
_OPEN
 10
182.0
 20
15.0
 30
0.0
 41
2.23
 42
2.23
 43
2.23
 50
90.0
  0
MTEXT
  5
DA1
330
D67
100
AcDbEntity
  8
250
  6
CONTINUOUS
 62
    40
100
AcDbMText
 10
179.5
 20
0.0
 30
0.0
 40
3.0
 41
0.0
 71
     5
 72
     1
  1
\A1;{\H3;\U+2205}30
 11
0.0
 21
1.0
 31
0.0
1001
ACAD
1000
MTEXTBEGIN
1070
    73
1070
     1
1070
    44
1040
1.0
1070
    74
1070
     0
1000
MTEXTEND
1000
MTEXTBEGIN
1070
    73
1070
     1
1070
    44
1040
1.0
1070
    74
1070
     0
1000
MTEXTEND
  0
POINT
  5
DA2
330
D67
100
AcDbEntity
  8
DEFPOINTS
  6
CONTINUOUS
 62
     0
100
AcDbPoint
 10
163.81005051
 20
-15.0
 30
0.0
  0
POINT
  5
DA3
330
D67
100
AcDbEntity
  8
DEFPOINTS
  6
CONTINUOUS
 62
     0
100
AcDbPoint
 10
163.81005051
 20
15.0
 30
0.0
  0
POINT
  5
DA4
330
D67
100
AcDbEntity
  8
DEFPOINTS
  6
CONTINUOUS
 62
     0
100
AcDbPoint
 10
182.0
 20
15.0
 30
0.0
  0
ENDBLK
  5
D72
330
D67
100
AcDbEntity
  8
0
100
AcDbBlockEnd
  0
BLOCK
  5
D7C
330
D73
100
AcDbEntity
  8
0
100
AcDbBlockBegin
  2
*D6
 70
     1
 10
0.0
 20
0.0
 30
0.0
  3
*D6
  1

  0
LINE
  5
D94
330
D73
100
AcDbEntity
  8
250
  6
CONTINUOUS
100
AcDbLine
 10
165.5
 20
5.0
 30
0.0
 11
176.0
 21
5.0
 31
0.0
  0
LINE
  5
D95
330
D73
100
AcDbEntity
  8
250
  6
CONTINUOUS
100
AcDbLine
 10
175.0
 20
-3.0
 30
0.0
 11
175.0
 21
3.0
 31
0.0
  0
INSERT
  5
D96
330
D73
100
AcDbEntity
  8
250
  6
CONTINUOUS
100
AcDbBlockReference
  2
矢印なし
 10
175.0
 20
-5.0
 30
0.0
 41
2.0
 42
2.0
 43
2.0
 50
270.0
  0
INSERT
  5
D97
330
D73
100
AcDbEntity
  8
250
  6
CONTINUOUS
100
AcDbBlockReference
  2
_OPEN
 10
175.0
 20
5.0
 30
0.0
 41
2.0
 42
2.0
 43
2.0
 50
90.0
  0
MTEXT
  5
D98
330
D73
100
AcDbEntity
  8
250
  6
CONTINUOUS
 62
    40
100
AcDbMText
 10
172.6
 20
0.0
 30
0.0
 40
2.8
 41
0.0
 71
     5
 72
     1
  1
\A1;max.φ10
 11
0.0
 21
1.0
 31
0.0
1001
ACAD
1000
MTEXTBEGIN
1070
    73
1070
     1
1070
    44
1040
1.0
1070
    74
1070
     0
1000
MTEXTEND
1000
MTEXTBEGIN
1070
    73
1070
     1
1070
    44
1040
1.0
1070
    74
1070
     0
1000
MTEXTEND
  0
POINT
  5
D99
330
D73
100
AcDbEntity
  8
DEFPOINTS
  6
CONTINUOUS
 62
     0
100
AcDbPoint
 10
165.0
 20
-5.0
 30
0.0
  0
POINT
  5
D9A
330
D73
100
AcDbEntity
  8
DEFPOINTS
  6
CONTINUOUS
 62
     0
100
AcDbPoint
 10
165.0
 20
5.0
 30
0.0
  0
POINT
  5
D9B
330
D73
100
AcDbEntity
  8
DEFPOINTS
  6
CONTINUOUS
 62
     0
100
AcDbPoint
 10
175.0
 20
5.0
 30
0.0
  0
ENDBLK
  5
D7D
330
D73
100
AcDbEntity
  8
0
100
AcDbBlockEnd
  0
BLOCK
  5
DD7
330
DCD
100
AcDbEntity
  8
0
100
AcDbBlockBegin
  2
*D7
 70
     1
 10
0.0
 20
0.0
 30
0.0
  3
*D7
  1

  0
LINE
  5
DE3
330
DCD
100
AcDbEntity
  8
250
  6
CONTINUOUS
 62
     3
100
AcDbLine
 10
22.0
 20
30.9925
 30
0.0
 11
22.0
 21
39.5
 31
0.0
  0
LINE
  5
DE4
330
DCD
100
AcDbEntity
  8
250
  6
CONTINUOUS
 62
     3
100
AcDbLine
 10
165.0
 20
14.35147168
 30
0.0
 11
165.0
 21
39.5
 31
0.0
  0
LINE
  5
DE5
330
DCD
100
AcDbEntity
  8
250
  6
CONTINUOUS
 62
     3
100
AcDbLine
 10
24.23
 20
38.5
 30
0.0
 11
162.77
 21
38.5
 31
0.0
  0
INSERT
  5
DE6
330
DCD
100
AcDbEntity
  8
250
  6
CONTINUOUS
 62
     3
100
AcDbBlockReference
  2
_OPEN
 10
22.0
 20
38.5
 30
0.0
 41
2.23
 42
2.23
 43
2.23
 50
180.0
  0
INSERT
  5
DE7
330
DCD
100
AcDbEntity
  8
250
  6
CONTINUOUS
 62
     3
100
AcDbBlockReference
  2
_OPEN
 10
165.0
 20
38.5
 30
0.0
 41
2.23
 42
2.23
 43
2.23
  0
MTEXT
  5
DE8
330
DCD
100
AcDbEntity
  8
250
  6
CONTINUOUS
 62
    40
100
AcDbMText
 10
93.5
 20
41.0
 30
0.0
 40
3.0
 41
0.0
 71
     5
 72
     1
  1
\A1;143
1001
ACAD
1000
MTEXTBEGIN
1070
    73
1070
     1
1070
    44
1040
1.0
1070
    74
1070
     0
1000
MTEXTEND
1000
MTEXTBEGIN
1070
    73
1070
     1
1070
    44
1040
1.0
1070
    74
1070
     0
1000
MTEXTEND
  0
POINT
  5
DE9
330
DCD
100
AcDbEntity
  8
DEFPOINTS
  6
CONTINUOUS
 62
     0
100
AcDbPoint
 10
22.0
 20
30.4925
 30
0.0
  0
POINT
  5
DEA
330
DCD
100
AcDbEntity
  8
DEFPOINTS
  6
CONTINUOUS
 62
     0
100
AcDbPoint
 10
165.0
 20
13.85147168
 30
0.0
  0
POINT
  5
DEB
330
DCD
100
AcDbEntity
  8
DEFPOINTS
  6
CONTINUOUS
 62
     0
100
AcDbPoint
 10
165.0
 20
38.5
 30
0.0
  0
ENDBLK
  5
DD8
330
DCD
100
AcDbEntity
  8
0
100
AcDbBlockEnd
  0
ENDSEC
  0
SECTION
  2
ENTITIES
  0
INSERT
  5
6E6
330
1A
100
AcDbEntity
  8
245
100
AcDbBlockReference
  2
矢印なし
 10
175.62382697
 20
90.55123572
 30
0.0
  0
DIMENSION
  5
81A
330
1A
100
AcDbEntity
  8
250
  6
CONTINUOUS
100
AcDbDimension
  2
*D2
 10
165.0
 20
45.5
 30
0.0
 11
84.09555702
 21
45.5
 31
0.0
 70
   160
  1
（max.<>）
  3
BIGT
100
AcDbAlignedDimension
 13
9.0
 23
1.0
 33
0.0
 14
165.0
 24
13.85147168
 34
0.0
100
AcDbRotatedDimension
  0
DIMENSION
  5
81B
330
1A
100
AcDbEntity
  8
250
  6
CONTINUOUS
100
AcDbDimension
  2
*D3
 10
165.0
 20
52.5
 30
0.0
 11
82.77662512
 21
52.5
 31
0.0
 70
   160
  3
BIGT$0
100
AcDbAlignedDimension
 13
0.0
 23
30.9925
 33
0.0
 14
165.0
 24
13.85147168
 34
0.0
100
AcDbRotatedDimension
  0
MTEXT
  5
81C
330
1A
100
AcDbEntity
  8
251
  6
CONTINUOUS
100
AcDbMText
 10
-28.46666667
 20
-27.0
 30
0.0
 40
2.8
 41
0.0
 71
     7
 72
     1
  1
C6
  7
YOKO
1001
ITEMNAME
1000
LNSP3
1001
ACAD
1000
MTEXTBEGIN
1070
    73
1070
     1
1070
    44
1040
1.0
1070
    74
1070
     0
1000
MTEXTEND
1000
MTEXTBEGIN
1070
    73
1070
     1
1070
    44
1040
1.0
1070
    74
1070
     0
1000
MTEXTEND
1000
MTEXTBEGIN
1070
    73
1070
     1
1070
    44
1040
1.0
1070
    74
1070
     0
1000
MTEXTEND
1000
MTEXTBEGIN
1070
    73
1070
     1
1070
    44
1040
1.0
1070
    74
1070
     0
1000
MTEXTEND
1000
MTEXTBEGIN
1070
    73
1070
     1
1070
    44
1040
1.0
1070
    74
1070
     0
1000
MTEXTEND
1000
MTEXTBEGIN
1070
    73
1070
     1
1070
    44
1040
1.0
1070
    74
1070
     0
1000
MTEXTEND
1000
MTEXTBEGIN
1070
    73
1070
     1
1070
    44
1040
1.0
1070
    74
1070
     0
1000
MTEXTEND
1000
MTEXTBEGIN
1070
    73
1070
     1
1070
    44
1040
1.0
1070
    74
1070
     0
1000
MTEXTEND
1000
MTEXTBEGIN
1070
    73
1070
     1
1070
    44
1040
1.0
1070
    74
1070
     0
1000
MTEXTEND
1000
MTEXTBEGIN
1070
    73
1070
     1
1070
    44
1040
1.0
1070
    74
1070
     0
1000
MTEXTEND
1000
MTEXTBEGIN
1070
    73
1070
     1
1070
    44
1040
1.0
1070
    74
1070
     0
1000
MTEXTEND
  0
LINE
  5
81D
330
1A
100
AcDbEntity
  8
250
  6
CONTINUOUS
100
AcDbLine
 10
-21.0
 20
-28.0
 30
0.0
 11
-31.26666667
 21
-28.0
 31
0.0
1001
ITEMNAME
1000
LNSP2
  0
LEADER
  5
81E
330
1A
100
AcDbEntity
  8
250
  6
CONTINUOUS
100
AcDbLeader
  3
BIGT
 76
     2
 10
-16.47540101
 20
-20.26308537
 30
0.0
 10
-21.0
 20
-28.0
 30
0.0
1001
ACAD
1000
DSTYLE
1002
{
1070
     6
1000
OPEN
1070
    41
1040
2.0
1070
    42
1040
2.0
1070
    44
1040
2.0
1070
   140
1040
4.0
1070
   343
1005
594
1002
}
  0
TEXT
  5
81F
330
1A
100
AcDbEntity
  8
241
100
AcDbText
 10
-38.0
 20
66.5
 30
0.0
 40
5.0
  1
C6-NBS10-165
  7
YOKO
 11
-38.0
 21
66.5
 31
0.0
100
AcDbText
 73
     1
  0
DIMENSION
  5
C15
330
1A
100
AcDbEntity
  8
250
  6
CONTINUOUS
100
AcDbDimension
  2
*D5
 10
182.0
 20
15.0
 30
0.0
 11
182.0
 21
0.0
 31
0.0
 70
   160
  1
{\H3;\U+2205}<>
  3
BIGT$0
100
AcDbAlignedDimension
 13
163.81005051
 23
-15.0
 33
0.0
 14
163.81005051
 24
15.0
 34
0.0
 50
90.0
100
AcDbRotatedDimension
  0
DIMENSION
  5
C1A
330
1A
100
AcDbEntity
  8
250
  6
CONTINUOUS
100
AcDbDimension
  2
*D6
 10
175.0
 20
5.0
 30
0.0
 11
175.0
 21
0.0
 31
0.0
 70
   160
  1
max.φ10
  3
BIGT
100
AcDbAlignedDimension
 13
165.0
 23
-5.0
 33
0.0
 14
165.0
 24
5.0
 34
0.0
 50
90.0
100
AcDbRotatedDimension
1001
ACAD
1000
DSTYLE
1002
{
1070
    41
1040
2.0
1070
    75
1070
     1
1070
     6
1000
矢印なし
1002
}
  0
DIMENSION
  5
DCC
330
1A
100
AcDbEntity
  8
250
  6
CONTINUOUS
100
AcDbDimension
  2
*D7
 10
165.0
 20
38.5
 30
0.0
 11
93.5
 21
41.0
 31
0.0
 70
    32
  3
BIGT$0
100
AcDbAlignedDimension
 13
22.0
 23
30.4925
 33
0.0
 14
165.0
 24
13.85147168
 34
0.0
100
AcDbRotatedDimension
  0
INSERT
  5
F72
330
1A
100
AcDbEntity
  8
245
100
AcDbBlockReference
  2
1
 10
0.0
 20
0.0
 30
0.0
  0
VIEWPORT
  5
22
330
17
100
AcDbEntity
 67
     1
  8
0
100
AcDbViewport
 10
261.51769912
 20
148.5
 30
0.0
 40
523.03539823
 41
297.0
 68
     1
 69
     1
1001
ACAD
1000
MVIEW
1002
{
1070
    16
1010
0.0
1020
0.0
1030
0.0
1010
0.0
1020
0.0
1030
1.0
1040
0.0
1040
297.0
1040
261.51769912
1040
148.5
1040
50.0
1040
0.0
1040
0.0
1070
     0
1070
   100
1070
     1
1070
     1
1070
     0
1070
     0
1070
     0
1070
     0
1040
0.0
1040
0.0
1040
0.0
1040
1.0
1040
1.0
1040
10.0
1040
10.0
1070
     0
1002
{
1002
}
1002
}
  0
ENDSEC
  0
SECTION
  2
OBJECTS
  0
DICTIONARY
  5
C
330
0
100
AcDbDictionary
  3
ACAD_GROUP
350
D
  3
ACAD_LAYOUT
350
565
  3
ACAD_MLINESTYLE
350
E
  3
ACAD_PLOTSETTINGS
350
566
  3
ACAD_PLOTSTYLENAME
350
563
  3
ACDBHEADERROUNDTRIPXREC
350
FD8
  3
GRADE_DWG
350
540
  0
DICTIONARY
  5
A12
330
1A
100
AcDbDictionary
280
     1
  3
ACAD_LAYOUTSELFREF
360
FFA
  0
DICTIONARY
  5
A10
330
17
100
AcDbDictionary
280
     1
  3
ACAD_LAYOUTSELFREF
360
FF9
  0
DICTIONARY
  5
D
102
{ACAD_REACTORS
330
C
102
}
330
C
100
AcDbDictionary
  3
*A1
350
6C7
  3
*A2
350
6C8
  3
*A3
350
6D4
  3
*A4
350
6D5
  3
DREC-1
350
5FC
  3
DREC-2
350
654
  3
DREC-3
350
673
  0
DICTIONARY
  5
565
102
{ACAD_REACTORS
330
C
102
}
330
C
100
AcDbDictionary
  0
DICTIONARY
  5
E
102
{ACAD_REACTORS
330
C
102
}
330
C
100
AcDbDictionary
  3
STANDARD
350
13
  0
DICTIONARY
  5
566
102
{ACAD_REACTORS
330
C
102
}
330
C
100
AcDbDictionary
  3
A3_0_5倍_
350
758
  3
A3_1倍_
350
757
  3
A3_1倍__2000_
350
707
  3
A3_2倍_
350
759
  3
A4_0_5倍_
350
755
  3
A4_1倍_
350
754
  3
A4_1倍__2000_
350
708
  3
A4_2倍_
350
756
  0
ACDBDICTIONARYWDFLT
  5
563
102
{ACAD_REACTORS
330
C
102
}
330
C
100
AcDbDictionary
281
     1
  3
Normal
350
564
100
AcDbDictionaryWithDefault
340
564
  0
DICTIONARY
  5
FD8
102
{ACAD_REACTORS
330
C
102
}
330
C
100
AcDbDictionary
  3
CEPSNTYPE
350
FE2
  3
DIMSTYLEDATA
350
FE6
  3
FINGERPRINTGUID
350
FE3
  3
HYPERLINKBASE
350
FDB
  3
INSUNITS
350
FE1
  3
LAYOUTDICT
350
FDD
  3
LWETCUNION
350
FE0
  3
PLOTSETDICT
350
FDE
  3
PLOTSTYLNAMDICT
350
FDF
  3
PSVPSCALE
350
FE5
  3
PUCSBASE
350
FE9
  3
PUCSORGBACK
350
FEF
  3
PUCSORGBOTTOM
350
FEB
  3
PUCSORGFRONT
350
FEE
  3
PUCSORGLEFT
350
FEC
  3
PUCSORGRIGHT
350
FED
  3
PUCSORGTOP
350
FEA
  3
PUCSORTHOREF
350
FE7
  3
PUCSORTHOVIEW
350
FE8
  3
STYLESHEET
350
FDC
  3
TSTACKALIGN
350
FD9
  3
TSTACKSIZE
350
FDA
  3
UCSBASE
350
FF2
  3
UCSORGBACK
350
FF8
  3
UCSORGBOTTOM
350
FF4
  3
UCSORGFRONT
350
FF7
  3
UCSORGLEFT
350
FF5
  3
UCSORGRIGHT
350
FF6
  3
UCSORGTOP
350
FF3
  3
UCSORTHOREF
350
FF0
  3
UCSORTHOVIEW
350
FF1
  3
VERSIONGUID
350
FE4
  0
DICTIONARY
  5
540
102
{ACAD_REACTORS
330
C
102
}
330
C
100
AcDbDictionary
  3
VERSION
350
560
  0
XRECORD
  5
FFA
102
{ACAD_REACTORS
330
A12
102
}
330
A12
100
AcDbXrecord
340
1A
  0
XRECORD
  5
FF9
102
{ACAD_REACTORS
330
A10
102
}
330
A10
100
AcDbXrecord
340
17
  0
GROUP
  5
6C7
102
{ACAD_REACTORS
330
D
102
}
330
D
100
AcDbGroup
300

 70
     0
 71
     1
1001
GRPNAME
1000
DMA00
  0
GROUP
  5
6C8
102
{ACAD_REACTORS
330
D
102
}
330
D
100
AcDbGroup
300

 70
     0
 71
     1
1001
GRPNAME
1000
DMA00
  0
GROUP
  5
6D4
102
{ACAD_REACTORS
330
D
102
}
330
D
100
AcDbGroup
300

 70
     0
 71
     1
1001
GRPNAME
1000
DMA00
  0
GROUP
  5
6D5
102
{ACAD_REACTORS
330
D
102
}
330
D
100
AcDbGroup
300

 70
     0
 71
     1
1001
GRPNAME
1000
DMA00
  0
GROUP
  5
5FC
102
{ACAD_REACTORS
330
D
102
}
330
D
100
AcDbGroup
300

 70
     0
 71
     1
1001
GRPNAME
1000
DREC-
1001
GPARA
1000
xsiz
1000
44.182
1000
ysiz
1000
40.677
1000
angl
1000
0
1000
ctyp
1000
0
1000
csiz
1000
5
1000
lfnt
1000
cont
1000
hcnt
1000
hoff
1000
vcnt
1000
voff
1000
opnt
1000
4
1000
dxpt
1000
0
1000
dypt
1000
0
  0
GROUP
  5
654
102
{ACAD_REACTORS
330
D
102
}
330
D
100
AcDbGroup
300

 70
     0
 71
     1
1001
GRPNAME
1000
DREC-
1001
GPARA
1000
xsiz
1000
54.592
1000
ysiz
1000
53.036
1000
angl
1000
0
1000
ctyp
1000
0
1000
csiz
1000
5
1000
lfnt
1000
cont
1000
hcnt
1000
hoff
1000
vcnt
1000
voff
1000
opnt
1000
4
1000
dxpt
1000
0
1000
dypt
1000
0
  0
GROUP
  5
673
102
{ACAD_REACTORS
330
D
102
}
330
D
100
AcDbGroup
300

 70
     0
 71
     1
1001
GRPNAME
1000
DREC-
1001
GPARA
1000
xsiz
1000
30.363
1000
ysiz
1000
36.175
1000
angl
1000
0
1000
ctyp
1000
0
1000
csiz
1000
5
1000
lfnt
1000
cont
1000
hcnt
1000
hoff
1000
vcnt
1000
voff
1000
opnt
1000
4
1000
dxpt
1000
0
1000
dypt
1000
0
  0
MLINESTYLE
  5
13
102
{ACAD_REACTORS
330
E
102
}
330
E
100
AcDbMlineStyle
  2
STANDARD
 70
     0
  3

 62
     0
 51
90.0
 52
90.0
 71
     2
 49
0.5
 62
   256
  6
BYLAYER
 49
-0.5
 62
   256
  6
BYLAYER
  0
PLOTSETTINGS
  5
758
102
{ACAD_REACTORS
330
566
102
}
330
566
100
AcDbPlotSettings
  1
A3(0.5倍)
  2
\\AWTECPC05\HP DeskJet 1120C
  4
A3
  6

 40
5.95841646
 41
13.49375153
 42
6.04309082
 43
3.67242432
 44
296.92599487
 45
419.94665527
 46
89.96
 47
127.14
 48
0.0
 49
0.0
140
0.0
141
0.0
142
1.0
143
2.0
 70
  1716
 72
     1
 73
     1
 74
     2
  7
big.ctb
 75
    17
147
0.5
148
0.0
149
0.0
  0
PLOTSETTINGS
  5
757
102
{ACAD_REACTORS
330
566
102
}
330
566
100
AcDbPlotSettings
  1
A3(1倍)
  2
\\AWTECPC05\HP DeskJet 1120C
  4
A3
  6

 40
5.95841646
 41
13.49375153
 42
6.04309082
 43
3.67242432
 44
296.92599487
 45
419.94665527
 46
37.46
 47
52.89
 48
0.0
 49
0.0
140
0.0
141
0.0
142
1.0
143
1.0
 70
  1716
 72
     1
 73
     1
 74
     2
  7
big.ctb
 75
    16
147
1.0
148
0.0
149
0.0
  0
PLOTSETTINGS
  5
707
102
{ACAD_REACTORS
330
566
102
}
330
566
100
AcDbPlotSettings
  1
A3(1倍)(2000)
  2
SII LS-1300 (D-SCAN)
  4
User258
  6

 40
3.17499995
 41
3.17499995
 42
3.17498779
 43
3.17498779
 44
419.98898315
 45
296.98950195
 46
58.32
 47
40.32
 48
0.0
 49
0.0
140
0.0
141
0.0
142
1.0
143
1.0
 70
  1716
 72
     1
 73
     0
 74
     2
  7
big.ctb
 75
    16
147
1.0
148
0.0
149
0.0
  0
PLOTSETTINGS
  5
759
102
{ACAD_REACTORS
330
566
102
}
330
566
100
AcDbPlotSettings
  1
A3(2倍)
  2
\\AWTECPC05\HP DeskJet 1120C
  4
A3
  6

 40
5.95841646
 41
13.49375153
 42
6.04309082
 43
3.67242432
 44
296.92599487
 45
419.94665527
 46
-67.54
 47
-95.61
 48
0.0
 49
0.0
140
0.0
141
0.0
142
1.0
143
0.5
 70
  1716
 72
     1
 73
     1
 74
     2
  7
big.ctb
 75
    27
147
2.0
148
0.0
149
0.0
  0
PLOTSETTINGS
  5
755
102
{ACAD_REACTORS
330
566
102
}
330
566
100
AcDbPlotSettings
  1
A4(0.5倍)
  2
\\AWTECPC05\HP DeskJet 1120C
  4
A4
  6

 40
4.18041658
 41
13.49374962
 42
4.18040466
 43
3.92642212
 44
209.97332764
 45
296.92599487
 46
48.31
 47
65.5
 48
0.0
 49
0.0
140
0.0
141
0.0
142
1.0
143
2.0
 70
  1716
 72
     1
 73
     1
 74
     2
  7
big.ctb
 75
    17
147
0.5
148
0.0
149
0.0
  0
PLOTSETTINGS
  5
754
102
{ACAD_REACTORS
330
566
102
}
330
566
100
AcDbPlotSettings
  1
A4(1倍)
  2
\\AWTECPC05\HP DeskJet 1120C
  4
A4
  6

 40
4.18041658
 41
13.49374962
 42
4.18040466
 43
3.92642212
 44
209.97332764
 45
296.92599487
 46
-4.19
 47
-8.75
 48
0.0
 49
0.0
140
0.0
141
0.0
142
1.0
143
1.0
 70
  1716
 72
     1
 73
     1
 74
     2
  7
big.ctb
 75
    16
147
1.0
148
0.0
149
0.0
  0
PLOTSETTINGS
  5
708
102
{ACAD_REACTORS
330
566
102
}
330
566
100
AcDbPlotSettings
  1
A4(1倍)(2000)
  2
SII LS-1300 (D-SCAN)
  4
User259
  6

 40
3.17499995
 41
3.17499995
 42
3.17498779
 43
3.17500305
 44
296.98950195
 45
209.99449158
 46
-3.18
 47
-3.18
 48
0.0
 49
0.0
140
0.0
141
0.0
142
1.0
143
1.0
 70
  1716
 72
     1
 73
     0
 74
     2
  7
big.ctb
 75
    16
147
1.0
148
0.0
149
0.0
  0
PLOTSETTINGS
  5
756
102
{ACAD_REACTORS
330
566
102
}
330
566
100
AcDbPlotSettings
  1
A4(2倍)
  2
\\AWTECPC05\HP DeskJet 1120C
  4
A4
  6

 40
4.18041658
 41
13.49374962
 42
4.18040466
 43
3.92642212
 44
209.97332764
 45
296.92599487
 46
-109.19
 47
-157.25
 48
0.0
 49
0.0
140
0.0
141
0.0
142
1.0
143
0.5
 70
  1716
 72
     1
 73
     1
 74
     2
  7
big.ctb
 75
    27
147
2.0
148
0.0
149
0.0
  0
ACDBPLACEHOLDER
  5
564
102
{ACAD_REACTORS
330
563
102
}
330
563
100
AcDbPlaceHolder
280
     0
  0
XRECORD
  5
FE2
102
{ACAD_REACTORS
330
FD8
102
}
330
FD8
100
AcDbXrecord
 90
        0
  0
XRECORD
  5
FE6
102
{ACAD_REACTORS
330
FD8
102
}
330
FD8
100
AcDbXrecord
1000
DSTYLE
1002
{
1070
   341
340
594
1070
   343
340
594
1070
   344
340
594
1002
}
  0
XRECORD
  5
FE3
102
{ACAD_REACTORS
330
FD8
102
}
330
FD8
100
AcDbXrecord
  1
{51294030-9CB4-11D3-8E18-00A0C925D94D}
  0
XRECORD
  5
FDB
102
{ACAD_REACTORS
330
FD8
102
}
330
FD8
100
AcDbXrecord
  1

  0
XRECORD
  5
FE1
102
{ACAD_REACTORS
330
FD8
102
}
330
FD8
100
AcDbXrecord
 90
        0
  0
XRECORD
  5
FDD
102
{ACAD_REACTORS
330
FD8
102
}
330
FD8
100
AcDbXrecord
340
565
  0
XRECORD
  5
FE0
102
{ACAD_REACTORS
330
FD8
102
}
330
FD8
100
AcDbXrecord
 90
    10781
  0
XRECORD
  5
FDE
102
{ACAD_REACTORS
330
FD8
102
}
330
FD8
100
AcDbXrecord
340
566
  0
XRECORD
  5
FDF
102
{ACAD_REACTORS
330
FD8
102
}
330
FD8
100
AcDbXrecord
340
563
  0
XRECORD
  5
FE5
102
{ACAD_REACTORS
330
FD8
102
}
330
FD8
100
AcDbXrecord
 40
0.0
  0
XRECORD
  5
FE9
102
{ACAD_REACTORS
330
FD8
102
}
330
FD8
100
AcDbXrecord
340
0
  0
XRECORD
  5
FEF
102
{ACAD_REACTORS
330
FD8
102
}
330
FD8
100
AcDbXrecord
 10
0.0
 20
0.0
 30
0.0
  0
XRECORD
  5
FEB
102
{ACAD_REACTORS
330
FD8
102
}
330
FD8
100
AcDbXrecord
 10
0.0
 20
0.0
 30
0.0
  0
XRECORD
  5
FEE
102
{ACAD_REACTORS
330
FD8
102
}
330
FD8
100
AcDbXrecord
 10
0.0
 20
0.0
 30
0.0
  0
XRECORD
  5
FEC
102
{ACAD_REACTORS
330
FD8
102
}
330
FD8
100
AcDbXrecord
 10
0.0
 20
0.0
 30
0.0
  0
XRECORD
  5
FED
102
{ACAD_REACTORS
330
FD8
102
}
330
FD8
100
AcDbXrecord
 10
0.0
 20
0.0
 30
0.0
  0
XRECORD
  5
FEA
102
{ACAD_REACTORS
330
FD8
102
}
330
FD8
100
AcDbXrecord
 10
0.0
 20
0.0
 30
0.0
  0
XRECORD
  5
FE7
102
{ACAD_REACTORS
330
FD8
102
}
330
FD8
100
AcDbXrecord
340
0
  0
XRECORD
  5
FE8
102
{ACAD_REACTORS
330
FD8
102
}
330
FD8
100
AcDbXrecord
 70
     0
  0
XRECORD
  5
FDC
102
{ACAD_REACTORS
330
FD8
102
}
330
FD8
100
AcDbXrecord
  1
big.ctb
  0
XRECORD
  5
FD9
102
{ACAD_REACTORS
330
FD8
102
}
330
FD8
100
AcDbXrecord
 90
        1
  0
XRECORD
  5
FDA
102
{ACAD_REACTORS
330
FD8
102
}
330
FD8
100
AcDbXrecord
 90
       70
  0
XRECORD
  5
FF2
102
{ACAD_REACTORS
330
FD8
102
}
330
FD8
100
AcDbXrecord
340
0
  0
XRECORD
  5
FF8
102
{ACAD_REACTORS
330
FD8
102
}
330
FD8
100
AcDbXrecord
 10
0.0
 20
0.0
 30
0.0
  0
XRECORD
  5
FF4
102
{ACAD_REACTORS
330
FD8
102
}
330
FD8
100
AcDbXrecord
 10
0.0
 20
0.0
 30
0.0
  0
XRECORD
  5
FF7
102
{ACAD_REACTORS
330
FD8
102
}
330
FD8
100
AcDbXrecord
 10
0.0
 20
0.0
 30
0.0
  0
XRECORD
  5
FF5
102
{ACAD_REACTORS
330
FD8
102
}
330
FD8
100
AcDbXrecord
 10
0.0
 20
0.0
 30
0.0
  0
XRECORD
  5
FF6
102
{ACAD_REACTORS
330
FD8
102
}
330
FD8
100
AcDbXrecord
 10
0.0
 20
0.0
 30
0.0
  0
XRECORD
  5
FF3
102
{ACAD_REACTORS
330
FD8
102
}
330
FD8
100
AcDbXrecord
 10
0.0
 20
0.0
 30
0.0
  0
XRECORD
  5
FF0
102
{ACAD_REACTORS
330
FD8
102
}
330
FD8
100
AcDbXrecord
340
0
  0
XRECORD
  5
FF1
102
{ACAD_REACTORS
330
FD8
102
}
330
FD8
100
AcDbXrecord
 70
     0
  0
XRECORD
  5
FE4
102
{ACAD_REACTORS
330
FD8
102
}
330
FD8
100
AcDbXrecord
  1
{72E61B3F-6F08-4657-B4CB-4D03AE11250F}
  0
XRECORD
  5
560
102
{ACAD_REACTORS
330
540
102
}
330
540
100
AcDbXrecord
  1
2.0.0
  0
ENDSEC
  0
EOF
