  0
SECTION
  2
HEADER
  9
$ACADVER
  1
AC1014
  9
$ACADMAINTVER
 70
     9
  9
$DWGCODEPAGE
  3
ANSI_932
  9
$INSBASE
 10
0.0
 20
0.0
 30
0.0
  9
$EXTMIN
 10
-39.0140065
 20
-31.70855201
 30
-0.00152582
  9
$EXTMAX
 10
217.00932395
 20
71.52816561
 30
0.00000003
  9
$LIMMIN
 10
0.0
 20
0.0
  9
$LIMMAX
 10
420.0
 20
297.0
  9
$ORTHOMODE
 70
     1
  9
$REGENMODE
 70
     1
  9
$FILLMODE
 70
     1
  9
$QTEXTMODE
 70
     0
  9
$MIRRTEXT
 70
     1
  9
$DRAGMODE
 70
     2
  9
$LTSCALE
 40
10.0
  9
$OSMODE
 70
   549
  9
$ATTMODE
 70
     1
  9
$TEXTSIZE
 40
3.0
  9
$TRACEWID
 40
1.0
  9
$TEXTSTYLE
  7
YOKO
  9
$CLAYER
  8
245
  9
$CELTYPE
  6
BYLAYER
  9
$CECOLOR
 62
   256
  9
$CELTSCALE
 40
1.0
  9
$DELOBJ
 70
     1
  9
$DISPSILH
 70
     0
  9
$DIMSCALE
 40
1.0
  9
$DIMASZ
 40
2.0
  9
$DIMEXO
 40
2.0
  9
$DIMDLI
 40
2.5
  9
$DIMRND
 40
0.0
  9
$DIMDLE
 40
0.0
  9
$DIMEXE
 40
2.0
  9
$DIMTP
 40
0.0
  9
$DIMTM
 40
0.0
  9
$DIMTXT
 40
4.0
  9
$DIMCEN
 40
0.0
  9
$DIMTSZ
 40
0.0
  9
$DIMTOL
 70
     0
  9
$DIMLIM
 70
     0
  9
$DIMTIH
 70
     0
  9
$DIMTOH
 70
     0
  9
$DIMSE1
 70
     0
  9
$DIMSE2
 70
     0
  9
$DIMTAD
 70
     3
  9
$DIMZIN
 70
     8
  9
$DIMBLK
  1

  9
$DIMASO
 70
     1
  9
$DIMSHO
 70
     1
  9
$DIMPOST
  1

  9
$DIMAPOST
  1

  9
$DIMALT
 70
     0
  9
$DIMALTD
 70
     2
  9
$DIMALTF
 40
25.4
  9
$DIMLFAC
 40
1.0
  9
$DIMTOFL
 70
     1
  9
$DIMTVP
 40
0.0
  9
$DIMTIX
 70
     1
  9
$DIMSOXD
 70
     0
  9
$DIMSAH
 70
     1
  9
$DIMBLK1
  1
OPEN
  9
$DIMBLK2
  1
OPEN
  9
$DIMSTYLE
  2
BIGT
  9
$DIMCLRD
 70
   256
  9
$DIMCLRE
 70
   256
  9
$DIMCLRT
 70
    40
  9
$DIMTFAC
 40
1.0
  9
$DIMGAP
 40
1.0
  9
$DIMJUST
 70
     0
  9
$DIMSD1
 70
     0
  9
$DIMSD2
 70
     0
  9
$DIMTOLJ
 70
     1
  9
$DIMTZIN
 70
     8
  9
$DIMALTZ
 70
     0
  9
$DIMALTTZ
 70
     0
  9
$DIMFIT
 70
     3
  9
$DIMUPT
 70
     0
  9
$DIMUNIT
 70
     2
  9
$DIMDEC
 70
     3
  9
$DIMTDEC
 70
     3
  9
$DIMALTU
 70
     2
  9
$DIMALTTD
 70
     2
  9
$DIMTXSTY
  7
STANDARD
  9
$DIMAUNIT
 70
     0
  9
$LUNITS
 70
     2
  9
$LUPREC
 70
     3
  9
$SKETCHINC
 40
1.0
  9
$FILLETRAD
 40
8.0
  9
$AUNITS
 70
     0
  9
$AUPREC
 70
     3
  9
$MENU
  1
.
  9
$ELEVATION
 40
0.0
  9
$PELEVATION
 40
0.0
  9
$THICKNESS
 40
0.0
  9
$LIMCHECK
 70
     0
  9
$BLIPMODE
 70
     0
  9
$CHAMFERA
 40
10.0
  9
$CHAMFERB
 40
10.0
  9
$CHAMFERC
 40
0.0
  9
$CHAMFERD
 40
0.0
  9
$SKPOLY
 70
     0
  9
$TDCREATE
 40
2454965.589360162
  9
$TDUPDATE
 40
2455209.603660660
  9
$TDINDWG
 40
0.0443180324
  9
$TDUSRTIMER
 40
0.0443178588
  9
$USRTIMER
 70
     1
  9
$ANGBASE
 50
0.0
  9
$ANGDIR
 70
     0
  9
$PDMODE
 70
    35
  9
$PDSIZE
 40
-5.0
  9
$PLINEWID
 40
0.0
  9
$COORDS
 70
     2
  9
$SPLFRAME
 70
     0
  9
$SPLINETYPE
 70
     6
  9
$SPLINESEGS
 70
     8
  9
$ATTDIA
 70
     0
  9
$ATTREQ
 70
     1
  9
$HANDLING
 70
-16383
  9
$HANDSEED
  5
10DF
  9
$SURFTAB1
 70
     6
  9
$SURFTAB2
 70
     6
  9
$SURFTYPE
 70
     6
  9
$SURFU
 70
     6
  9
$SURFV
 70
     6
  9
$UCSNAME
  2

  9
$UCSORG
 10
0.0
 20
0.0
 30
0.0
  9
$UCSXDIR
 10
1.0
 20
0.0
 30
0.0
  9
$UCSYDIR
 10
0.0
 20
1.0
 30
0.0
  9
$PUCSNAME
  2

  9
$PUCSORG
 10
0.0
 20
0.0
 30
0.0
  9
$PUCSXDIR
 10
1.0
 20
0.0
 30
0.0
  9
$PUCSYDIR
 10
0.0
 20
1.0
 30
0.0
  9
$USERI1
 70
     1
  9
$USERI2
 70
     0
  9
$USERI3
 70
     0
  9
$USERI4
 70
     0
  9
$USERI5
 70
     0
  9
$USERR1
 40
0.0
  9
$USERR2
 40
0.0
  9
$USERR3
 40
0.0
  9
$USERR4
 40
0.0
  9
$USERR5
 40
0.0
  9
$WORLDVIEW
 70
     1
  9
$SHADEDGE
 70
     3
  9
$SHADEDIF
 70
    70
  9
$TILEMODE
 70
     1
  9
$MAXACTVP
 70
    16
  9
$PINSBASE
 10
0.0
 20
0.0
 30
0.0
  9
$PLIMCHECK
 70
     0
  9
$PEXTMIN
 10
1.00000000E+20
 20
1.00000000E+20
 30
1.00000000E+20
  9
$PEXTMAX
 10
-1.00000000E+20
 20
-1.00000000E+20
 30
-1.00000000E+20
  9
$PLIMMIN
 10
0.0
 20
0.0
  9
$PLIMMAX
 10
420.0
 20
297.0
  9
$UNITMODE
 70
     0
  9
$VISRETAIN
 70
     0
  9
$PLINEGEN
 70
     0
  9
$PSLTSCALE
 70
     1
  9
$TREEDEPTH
 70
  3020
  9
$PICKSTYLE
 70
     0
  9
$CMLSTYLE
  2
STANDARD
  9
$CMLJUST
 70
     0
  9
$CMLSCALE
 40
1.0
  9
$PROXYGRAPHICS
 70
     1
  9
$MEASUREMENT
 70
     1
  0
ENDSEC
  0
SECTION
  2
CLASSES
  0
CLASS
  1
XRECORD
  2
AcDbXrecord
  3
AutoCAD 2000
 90
        0
280
     0
281
     0
  0
CLASS
  1
ACDBDICTIONARYWDFLT
  2
AcDbDictionaryWithDefault
  3
AutoCAD 2000
 90
        0
280
     0
281
     0
  0
CLASS
  1
ACDBPLACEHOLDER
  2
AcDbPlaceHolder
  3
AutoCAD 2000
 90
        0
280
     0
281
     0
  0
CLASS
  1
LAYOUT
  2
AcDbLayout
  3
AutoCAD 2000
 90
        0
280
     0
281
     0
  0
CLASS
  1
PLOTSETTINGS
  2
AcDbPlotSettings
  3
AutoCAD 2000
 90
        0
280
     0
281
     0
  0
CLASS
  1
LONG_TRANSACTION
  2
AcDbLongTransaction
  3
AutoCAD 2000
 90
        0
280
     0
281
     0
  0
CLASS
  1
LWPOLYLINE
  2
AcDbPolyline
  3
AutoCAD 2000
 90
        0
280
     0
281
     1
  0
CLASS
  1
HATCH
  2
AcDbHatch
  3
AutoCAD 2000
 90
        0
280
     0
281
     1
  0
CLASS
  1
XRECORD
  2
AcDbXrecord
  3
AutoCAD 2000
 90
        0
280
     0
281
     0
  0
CLASS
  1
LONG_TRANSACTION
  2
AcDbLongTransaction
  3
AutoCAD 2000
 90
        0
280
     0
281
     0
  0
CLASS
  1
LWPOLYLINE
  2
AcDbPolyline
  3
AutoCAD 2000
 90
        0
280
     0
281
     1
  0
CLASS
  1
HATCH
  2
AcDbHatch
  3
AutoCAD 2000
 90
        0
280
     0
281
     1
  0
CLASS
  1
XRECORD
  2
AcDbXrecord
  3
AutoCAD 2000
 90
        0
280
     0
281
     0
  0
CLASS
  1
LONG_TRANSACTION
  2
AcDbLongTransaction
  3
AutoCAD 2000
 90
        0
280
     0
281
     0
  0
CLASS
  1
LWPOLYLINE
  2
AcDbPolyline
  3
AutoCAD 2000
 90
        0
280
     0
281
     1
  0
CLASS
  1
HATCH
  2
AcDbHatch
  3
AutoCAD 2000
 90
        0
280
     0
281
     1
  0
CLASS
  1
XRECORD
  2
AcDbXrecord
  3
AutoCAD 2000
 90
        0
280
     0
281
     0
  0
CLASS
  1
LONG_TRANSACTION
  2
AcDbLongTransaction
  3
AutoCAD 2000
 90
        0
280
     0
281
     0
  0
CLASS
  1
LWPOLYLINE
  2
AcDbPolyline
  3
AutoCAD 2000
 90
        0
280
     0
281
     1
  0
CLASS
  1
HATCH
  2
AcDbHatch
  3
AutoCAD 2000
 90
        0
280
     0
281
     1
  0
CLASS
  1
XRECORD
  2
AcDbXrecord
  3
AutoCAD 2000
 90
        0
280
     0
281
     0
  0
CLASS
  1
LONG_TRANSACTION
  2
AcDbLongTransaction
  3
AutoCAD 2000
 90
        0
280
     0
281
     0
  0
CLASS
  1
LWPOLYLINE
  2
AcDbPolyline
  3
AutoCAD 2000
 90
        0
280
     0
281
     1
  0
CLASS
  1
HATCH
  2
AcDbHatch
  3
AutoCAD 2000
 90
        0
280
     0
281
     1
  0
CLASS
  1
XRECORD
  2
AcDbXrecord
  3
AutoCAD 2000
 90
        0
280
     0
281
     0
  0
CLASS
  1
LONG_TRANSACTION
  2
AcDbLongTransaction
  3
AutoCAD 2000
 90
        0
280
     0
281
     0
  0
CLASS
  1
LWPOLYLINE
  2
AcDbPolyline
  3
AutoCAD 2000
 90
        0
280
     0
281
     1
  0
CLASS
  1
HATCH
  2
AcDbHatch
  3
AutoCAD 2000
 90
        0
280
     0
281
     1
  0
CLASS
  1
XRECORD
  2
AcDbXrecord
  3
AutoCAD 2000
 90
        0
280
     0
281
     0
  0
ENDSEC
  0
SECTION
  2
TABLES
  0
TABLE
  2
VPORT
  5
8
330
0
100
AcDbSymbolTable
 70
     2
  0
VPORT
  5
10BA
330
8
100
AcDbSymbolTableRecord
100
AcDbViewportTableRecord
  2
*ACTIVE
 70
     0
 10
0.0
 20
0.0
 11
1.0
 21
1.0
 12
88.99765873
 22
19.9098068
 13
0.0
 23
0.0
 14
7.0
 24
7.0
 15
7.0
 25
7.0
 16
0.0
 26
0.0
 36
1.0
 17
0.0
 27
0.0
 37
0.0
 40
179.75959737
 41
1.43184713
 42
50.0
 43
0.0
 44
0.0
 50
0.0
 51
0.0
 71
     0
 72
  2000
 73
     1
 74
     0
 75
     0
 76
     0
 77
     0
 78
     0
  0
ENDTAB
  0
TABLE
  2
LTYPE
  5
5
330
0
100
AcDbSymbolTable
 70
     3
  0
LTYPE
  5
14
330
5
100
AcDbSymbolTableRecord
100
AcDbLinetypeTableRecord
  2
BYBLOCK
 70
     0
  3

 72
    65
 73
     0
 40
0.0
  0
LTYPE
  5
15
330
5
100
AcDbSymbolTableRecord
100
AcDbLinetypeTableRecord
  2
BYLAYER
 70
     0
  3

 72
    65
 73
     0
 40
0.0
  0
LTYPE
  5
16
330
5
100
AcDbSymbolTableRecord
100
AcDbLinetypeTableRecord
  2
CONTINUOUS
 70
     0
  3
Solid line
 72
    65
 73
     0
 40
0.0
  0
LTYPE
  5
258
330
5
100
AcDbSymbolTableRecord
100
AcDbLinetypeTableRecord
  2
CENTER2
 70
     0
  3
___ _ ___ _ ___ _ ___ _ ___ _ ___ _ ___ _ ___ _
 72
    65
 73
     4
 40
1.125
 49
0.75
 74
     0
 49
-0.125
 74
     0
 49
0.125
 74
     0
 49
-0.125
 74
     0
  0
LTYPE
  5
25C
330
5
100
AcDbSymbolTableRecord
100
AcDbLinetypeTableRecord
  2
HIDDEN2
 70
     0
  3
_ _ _ _ _ _ _ _ _ _ _ _ _ _ _ _ _ _ _ _ _ _ _ _
 72
    65
 73
     2
 40
0.1875
 49
0.125
 74
     0
 49
-0.0625
 74
     0
  0
ENDTAB
  0
TABLE
  2
LAYER
  5
2
330
0
100
AcDbSymbolTable
 70
    10
  0
LAYER
  5
F
330
2
100
AcDbSymbolTableRecord
100
AcDbLayerTableRecord
  2
0
 70
     0
 62
     7
  6
CONTINUOUS
  0
LAYER
  5
1AA
330
2
100
AcDbSymbolTableRecord
100
AcDbLayerTableRecord
  2
240
 70
     0
 62
     4
  6
CONTINUOUS
  0
LAYER
  5
1AB
330
2
100
AcDbSymbolTableRecord
100
AcDbLayerTableRecord
  2
241
 70
     0
 62
   211
  6
CONTINUOUS
  0
LAYER
  5
1AF
330
2
100
AcDbSymbolTableRecord
100
AcDbLayerTableRecord
  2
245
 70
     0
 62
     2
  6
CENTER2
  0
LAYER
  5
21E
330
2
100
AcDbSymbolTableRecord
100
AcDbLayerTableRecord
  2
250
 70
     0
 62
     3
  6
CONTINUOUS
  0
LAYER
  5
21F
330
2
100
AcDbSymbolTableRecord
100
AcDbLayerTableRecord
  2
251
 70
     0
 62
    40
  6
CONTINUOUS
  0
LAYER
  5
5C4
330
2
100
AcDbSymbolTableRecord
100
AcDbLayerTableRecord
  2
DEFPOINTS
 70
     0
 62
     7
  6
CONTINUOUS
  0
LAYER
  5
9BE
330
2
100
AcDbSymbolTableRecord
100
AcDbLayerTableRecord
  2
242
 70
     0
 62
     3
  6
CONTINUOUS
  0
ENDTAB
  0
TABLE
  2
STYLE
  5
3
330
0
100
AcDbSymbolTable
 70
     2
  0
STYLE
  5
10
330
3
100
AcDbSymbolTableRecord
100
AcDbTextStyleTableRecord
  2
STANDARD
 70
     0
 40
0.0
 41
1.0
 50
0.0
 71
     0
 42
3.0
  3
romans.shx
  4
BIGFONT.SHX
  0
STYLE
  5
339
330
3
100
AcDbSymbolTableRecord
100
AcDbTextStyleTableRecord
  2
YOKO
 70
     0
 40
0.0
 41
1.0
 50
0.0
 71
     0
 42
3.0
  3
romans.shx
  4
extfont.shx
  0
ENDTAB
  0
TABLE
  2
VIEW
  5
6
330
0
100
AcDbSymbolTable
 70
     1
  0
VIEW
  5
C62
330
6
100
AcDbSymbolTableRecord
100
AcDbViewTableRecord
  2
OLE1
 70
     0
 40
181.87412691
 10
90.50347233
 20
19.90045419
 41
260.41594731
 11
0.0
 21
0.0
 31
1.0
 12
0.0
 22
0.0
 32
0.0
 42
50.0
 43
0.0
 44
0.0
 50
0.0
 71
     0
  0
ENDTAB
  0
TABLE
  2
UCS
  5
7
330
0
100
AcDbSymbolTable
 70
     0
  0
ENDTAB
  0
TABLE
  2
APPID
  5
9
330
0
100
AcDbSymbolTable
 70
     9
  0
APPID
  5
11
330
9
100
AcDbSymbolTableRecord
100
AcDbRegAppTableRecord
  2
ACAD
 70
     0
  0
APPID
  5
1B1
330
9
100
AcDbSymbolTableRecord
100
AcDbRegAppTableRecord
  2
GLOBAL
 70
     0
  0
APPID
  5
2A4
330
9
100
AcDbSymbolTableRecord
100
AcDbRegAppTableRecord
  2
DETAIL
 70
     0
  0
APPID
  5
5FD
330
9
100
AcDbSymbolTableRecord
100
AcDbRegAppTableRecord
  2
GRPNAME
 70
     0
  0
APPID
  5
5FE
330
9
100
AcDbSymbolTableRecord
100
AcDbRegAppTableRecord
  2
GPARA
 70
     0
  0
APPID
  5
6C4
330
9
100
AcDbSymbolTableRecord
100
AcDbRegAppTableRecord
  2
DCO15
 70
     0
  0
APPID
  5
6C5
330
9
100
AcDbSymbolTableRecord
100
AcDbRegAppTableRecord
  2
ITEMNAME
 70
     0
  0
APPID
  5
6C6
330
9
100
AcDbSymbolTableRecord
100
AcDbRegAppTableRecord
  2
GRADE_0
 70
     0
  0
APPID
  5
9B2
330
9
100
AcDbSymbolTableRecord
100
AcDbRegAppTableRecord
  2
CONTENTBLOCKICON
 70
     0
  0
ENDTAB
  0
TABLE
  2
DIMSTYLE
  5
A
330
0
100
AcDbSymbolTable
 70
     5
  0
DIMSTYLE
105
725
330
A
100
AcDbSymbolTableRecord
100
AcDbDimStyleTableRecord
  2
BIGT
 70
     0
  3

  4

  5

  6
OPEN
  7
OPEN
 40
1.0
 41
2.23
 42
0.5
 43
2.5
 44
1.0
 45
0.0
 46
0.0
 47
0.0
 48
0.0
140
2.8
141
0.0
142
0.0
143
25.4
144
1.0
145
0.0
146
1.0
147
1.0
 71
     0
 72
     0
 73
     0
 74
     0
 75
     0
 76
     0
 77
     3
 78
     8
170
     0
171
     2
172
     1
173
     1
174
     1
175
     0
176
   256
177
   256
178
    40
270
     2
271
     3
272
     3
273
     2
274
     2
340
10
275
     0
280
     0
281
     0
282
     0
283
     1
284
     8
285
     0
286
     0
287
     3
288
     0
  0
DIMSTYLE
105
7D8
102
{ACAD_REACTORS
330
B00
330
B01
330
B02
330
FE4
330
FE5
102
}
330
A
100
AcDbSymbolTableRecord
100
AcDbDimStyleTableRecord
  2
BIGT$0
 70
     0
  3

  4
"
  5
OPEN
  6

  7

 40
1.0
 41
2.23
 42
0.5
 43
7.0
 44
1.0
 45
0.0
 46
0.0
 47
0.1
 48
0.1
140
3.0
141
0.0
142
0.0
143
0.0393701
144
1.0
145
0.0
146
0.71
147
1.0
 71
     0
 72
     0
 73
     0
 74
     0
 75
     0
 76
     0
 77
     3
 78
     8
170
     0
171
     2
172
     1
173
     0
174
     0
175
     0
176
     3
177
     3
178
    40
270
     2
271
     3
272
     3
273
     2
274
     2
340
10
275
     0
280
     0
281
     0
282
     0
283
     1
284
     8
285
     0
286
     0
287
     3
288
     0
  0
ENDTAB
  0
TABLE
  2
BLOCK_RECORD
  5
1
330
0
100
AcDbSymbolTable
 70
    16
  0
BLOCK_RECORD
  5
1A
102
{ACAD_XDICTIONARY
360
9B0
102
}
330
1
100
AcDbSymbolTableRecord
100
AcDbBlockTableRecord
  2
*MODEL_SPACE
  0
BLOCK_RECORD
  5
17
102
{ACAD_XDICTIONARY
360
9AE
102
}
330
1
100
AcDbSymbolTableRecord
100
AcDbBlockTableRecord
  2
*PAPER_SPACE
  0
BLOCK_RECORD
  5
594
330
1
100
AcDbSymbolTableRecord
100
AcDbBlockTableRecord
  2
_OPEN
  0
BLOCK_RECORD
  5
6E3
330
1
100
AcDbSymbolTableRecord
100
AcDbBlockTableRecord
  2
矢印なし
  0
BLOCK_RECORD
  5
76C
330
1
100
AcDbSymbolTableRecord
100
AcDbBlockTableRecord
  2
1
1001
CONTENTBLOCKICON
1071
        0
1004
2800000020000000200000000100080000000000000400000000000000000000000000000000000000000000000080000080000000808000800000008000800080800000C0C0C000C0DCC000F0CAA6000020400000206000002080000020A0000020C0000020E00000400000004020000040400000406000004080000040A0
1004
000040C0000040E00000600000006020000060400000606000006080000060A0000060C0000060E00000800000008020000080400000806000008080000080A0000080C0000080E00000A0000000A0200000A0400000A0600000A0800000A0A00000A0C00000A0E00000C0000000C0200000C0400000C0600000C0800000C0
1004
A00000C0C00000C0E00000E0000000E0200000E0400000E0600000E0800000E0A00000E0C00000E0E00040000000400020004000400040006000400080004000A0004000C0004000E00040200000402020004020400040206000402080004020A0004020C0004020E000404000004040200040404000404060004040800040
1004
40A0004040C0004040E00040600000406020004060400040606000406080004060A0004060C0004060E00040800000408020004080400040806000408080004080A0004080C0004080E00040A0000040A0200040A0400040A0600040A0800040A0A00040A0C00040A0E00040C0000040C0200040C0400040C0600040C08000
1004
40C0A00040C0C00040C0E00040E0000040E0200040E0400040E0600040E0800040E0A00040E0C00040E0E00080000000800020008000400080006000800080008000A0008000C0008000E00080200000802020008020400080206000802080008020A0008020C0008020E00080400000804020008040400080406000804080
1004
008040A0008040C0008040E00080600000806020008060400080606000806080008060A0008060C0008060E00080800000808020008080400080806000808080008080A0008080C0008080E00080A0000080A0200080A0400080A0600080A0800080A0A00080A0C00080A0E00080C0000080C0200080C0400080C0600080C0
1004
800080C0A00080C0C00080C0E00080E0000080E0200080E0400080E0600080E0800080E0A00080E0C00080E0E000C0000000C0002000C0004000C0006000C0008000C000A000C000C000C000E000C0200000C0202000C0204000C0206000C0208000C020A000C020C000C020E000C0400000C0402000C0404000C0406000C0
1004
408000C040A000C040C000C040E000C0600000C0602000C0604000C0606000C0608000C060A000C060C000C060E000C0800000C0802000C0804000C0806000C0808000C080A000C080C000C080E000C0A00000C0A02000C0A04000C0A06000C0A08000C0A0A000C0A0C000C0A0E000C0C00000C0C02000C0C04000C0C06000
1004
C0C08000C0C0A000F0FBFF00A4A0A000808080000000FF0000FF000000FFFF00FF000000FF00FF00FFFF0000FFFFFF0000000000000000000000000000000000000000000000000000000000000000000000000000000000000000000000000000000000000000000000000000000000000000000000000000000000000000
1004
00000000000000000000000000000000000000000000000000000000000000000000000000000000000000000000000000000000000000000000000000000000000000000000000000000000000000000000000000000000000000000000000000000000000000000000000000000000000000000000000000000000000000
1004
00000000000000000000000000000000000000000000000000000000000000000000000000000000000000000000000000000000000000000000000000000000000000000000000000000000000000000000000000000000000000000000000000000000000000000000000000000000000000000000000000000000000000
1004
000000000000000000000000000000000000000000000000000000000000000000000000000000000000000000000000000000000000000000FEE7FEFE000000000000000000000000000000000000000000000000FAFEFEFEFEE7E7FEFEFEFEFEFEFEFEFEFEFEFEFEFEFEFEFEFEFEFEFE00000000FE000000E7E7E7E70000
1004
0000000000000000000000000000E7E700FE00000000FE000000E70000E700000000000000000000000000000000E7E700FE000000FBE7FBFBFBE7FBFBE7FBFBFBFBFBFBFBFBFBFBFAFBFBFBE7E7E7E7FBFEFB000000E7000000E7E7E7E700000000000000E7E7E7FAFAFAFAE7E7E7FAE7E700000000FEFEFEFEFEE7E7E7FE
1004
FEFEFEFEFEFEFEFEFEFEFEFEFEFEFEFEFEFEFE0000000000000000FEE7FEFE000000000000000000000000000000000000000000000000000000000000000000000000000000000000000000000000000000000000000000000000000000000000000000000000000000000000000000000000000000000000000000000000
1004
00000000000000000000000000000000000000000000000000000000000000000000000000000000000000000000000000000000000000000000000000000000000000000000000000000000000000000000000000000000000000000000000000000000000000000000000000000000000000000000000000000000000000
1004
00000000000000000000000000000000000000000000000000000000000000000000000000000000000000000000000000000000000000000000000000000000000000000000000000000000000000000000000000000000000000000000000000000000000000000000000000000000000000000000000000000000000000
1004
0000000000000000000000000000000000000000000000000000000000000000000000000000000000000000000000000000000000000000
  0
BLOCK_RECORD
  5
7B3
330
1
100
AcDbSymbolTableRecord
100
AcDbBlockTableRecord
  2
_NONE
  0
BLOCK_RECORD
  5
B05
330
1
100
AcDbSymbolTableRecord
100
AcDbBlockTableRecord
  2
*D4
  0
BLOCK_RECORD
  5
B11
330
1
100
AcDbSymbolTableRecord
100
AcDbBlockTableRecord
  2
*D5
  0
BLOCK_RECORD
  5
B1D
330
1
100
AcDbSymbolTableRecord
100
AcDbBlockTableRecord
  2
*D6
  0
BLOCK_RECORD
  5
1016
330
1
100
AcDbSymbolTableRecord
100
AcDbBlockTableRecord
  2
*D13
  0
BLOCK_RECORD
  5
1022
330
1
100
AcDbSymbolTableRecord
100
AcDbBlockTableRecord
  2
*D14
  0
ENDTAB
  0
ENDSEC
  0
SECTION
  2
BLOCKS
  0
BLOCK
  5
1B
330
1A
100
AcDbEntity
  8
0
100
AcDbBlockBegin
  2
*MODEL_SPACE
 70
     0
 10
0.0
 20
0.0
 30
0.0
  3
*MODEL_SPACE
  1

  0
ENDBLK
  5
1C
330
1A
100
AcDbEntity
  8
0
100
AcDbBlockEnd
  0
BLOCK
  5
18
330
17
100
AcDbEntity
 67
     1
  8
0
100
AcDbBlockBegin
  2
*PAPER_SPACE
 70
     0
 10
0.0
 20
0.0
 30
0.0
  3
*PAPER_SPACE
  1

  0
ENDBLK
  5
19
330
17
100
AcDbEntity
 67
     1
  8
0
100
AcDbBlockEnd
  0
BLOCK
  5
598
330
594
100
AcDbEntity
  8
0
100
AcDbBlockBegin
  2
_OPEN
 70
     0
 10
0.0
 20
0.0
 30
0.0
  3
_OPEN
  1

  0
LINE
  5
595
330
594
100
AcDbEntity
  8
0
  6
BYBLOCK
 62
     0
100
AcDbLine
 10
-1.0
 20
0.16666667
 30
0.0
 11
0.0
 21
0.0
 31
0.0
  0
LINE
  5
596
330
594
100
AcDbEntity
  8
0
  6
BYBLOCK
 62
     0
100
AcDbLine
 10
-1.0
 20
-0.16666667
 30
0.0
 11
0.0
 21
0.0
 31
0.0
  0
LINE
  5
597
330
594
100
AcDbEntity
  8
0
  6
BYBLOCK
 62
     0
100
AcDbLine
 10
0.0
 20
0.0
 30
0.0
 11
-1.0
 21
0.0
 31
0.0
  0
ENDBLK
  5
599
330
594
100
AcDbEntity
  8
0
100
AcDbBlockEnd
  0
BLOCK
  5
6E4
330
6E3
100
AcDbEntity
  8
0
100
AcDbBlockBegin
  2
矢印なし
 70
     0
 10
0.0
 20
0.0
 30
0.0
  3
矢印なし
  1

  0
ENDBLK
  5
6E5
330
6E3
100
AcDbEntity
  8
0
100
AcDbBlockEnd
  0
BLOCK
  5
7B1
330
76C
100
AcDbEntity
  8
0
100
AcDbBlockBegin
  2
1
 70
     0
 10
0.0
 20
0.0
 30
0.0
  3
1
  1

  0
LINE
  5
1053
330
76C
100
AcDbEntity
  8
241
  6
HIDDEN2
100
AcDbLine
 10
191.40353369
 20
12.7500306
 30
0.0
 11
162.0035417
 21
9.65996534
 31
0.0
1001
GRPNAME
1000
PASTMD0O
  0
LINE
  5
1054
330
76C
100
AcDbEntity
  8
241
  6
HIDDEN2
100
AcDbLine
 10
162.0035417
 20
8.0
 30
0.0
 11
197.0035324
 21
8.0
 31
0.0
1001
GRPNAME
1000
PASTMD0B
  0
LINE
  5
1055
330
76C
100
AcDbEntity
  8
240
  6
CONTINUOUS
100
AcDbLine
 10
175.12274428
 20
21.00000325
 30
0.0
 11
199.0
 21
21.00000325
 31
0.0
1001
GRPNAME
1000
PASTMD0O
  0
LINE
  5
1056
330
76C
100
AcDbEntity
  8
240
  6
CONTINUOUS
100
AcDbLine
 10
198.94018619
 20
-21.00021012
 30
0.0
 11
175.12253742
 21
-21.00021012
 31
0.0
1001
GRPNAME
1000
PASTMD0E
  0
LINE
  5
1057
330
76C
100
AcDbEntity
  8
245
  6
CENTER2
100
AcDbLine
 10
-39.0
 20
0.0
 30
0.0
 11
201.0
 21
0.0
 31
0.0
  0
LINE
  5
1058
330
76C
100
AcDbEntity
  8
240
  6
CONTINUOUS
100
AcDbLine
 10
30.0
 20
20.74999944
 30
0.0
 11
169.32499975
 21
20.74999944
 31
0.0
1001
GRPNAME
1000
PASTMD0O
  0
LINE
  5
1059
330
76C
100
AcDbEntity
  8
240
  6
CONTINUOUS
100
AcDbLine
 10
29.95920917
 20
-20.75000056
 30
0.0
 11
169.32499975
 21
-20.75000056
 31
0.0
1001
GRPNAME
1000
PASTMD0O
  0
LINE
  5
105A
330
76C
100
AcDbEntity
  8
240
  6
CONTINUOUS
100
AcDbLine
 10
-36.5
 20
22.56242639
 30
0.0
 11
-2.19993751
 21
23.42000332
 31
0.0
  0
LINE
  5
105B
330
76C
100
AcDbEntity
  8
240
  6
CONTINUOUS
100
AcDbLine
 10
-2.19993752
 20
-20.62000332
 30
0.0
 11
-36.5
 21
-19.76242639
 31
0.0
  0
LINE
  5
105C
330
76C
100
AcDbEntity
  8
241
  6
CONTINUOUS
100
AcDbLine
 10
-36.5
 20
0.0
 30
0.0
 11
-36.5
 21
-19.76242639
 31
0.0
  0
LINE
  5
105D
330
76C
100
AcDbEntity
  8
240
  6
CONTINUOUS
100
AcDbLine
 10
-38.0
 20
0.0
 30
0.0
 11
-38.0
 21
-18.26242639
 31
0.0
  0
LINE
  5
105E
330
76C
100
AcDbEntity
  8
242
  6
HIDDEN2
100
AcDbLine
 10
-38.0
 20
-18.0
 30
0.0
 11
-31.8
 21
-18.0
 31
0.0
  0
LINE
  5
105F
330
76C
100
AcDbEntity
  8
240
  6
CONTINUOUS
100
AcDbLine
 10
-36.5
 20
-19.76242639
 30
0.0
 11
-38.0
 21
-18.26242639
 31
0.0
  0
LINE
  5
1060
330
76C
100
AcDbEntity
  8
242
  6
HIDDEN2
100
AcDbLine
 10
-31.8
 20
-19.87993672
 30
0.0
 11
-31.8
 21
-18.0
 31
0.0
  0
LINE
  5
1061
330
76C
100
AcDbEntity
  8
242
  6
HIDDEN2
100
AcDbLine
 10
-29.87185543
 20
-19.92814457
 30
0.0
 11
-31.8
 21
-18.0
 31
0.0
  0
LINE
  5
1062
330
76C
100
AcDbEntity
  8
240
  6
CONTINUOUS
100
AcDbLine
 10
-38.0
 20
21.69640099
 30
0.0
 11
-38.0
 21
0.0
 31
0.0
  0
LINE
  5
1063
330
76C
100
AcDbEntity
  8
241
  6
CONTINUOUS
100
AcDbLine
 10
-36.5
 20
22.56242639
 30
0.0
 11
-36.5
 21
0.0
 31
0.0
  0
LINE
  5
1064
330
76C
100
AcDbEntity
  8
240
  6
CONTINUOUS
100
AcDbLine
 10
-38.0
 20
21.69640099
 30
0.0
 11
-36.5
 21
22.56242639
 31
0.0
  0
LINE
  5
1065
330
76C
100
AcDbEntity
  8
241
100
AcDbLine
 10
0.0
 20
0.0
 30
0.0
 11
0.0
 21
-20.62000332
 31
0.0
  0
LINE
  5
1066
330
76C
100
AcDbEntity
  8
241
100
AcDbLine
 10
-2.19993752
 20
0.0
 30
0.0
 11
-2.19993752
 21
-20.62000332
 31
0.0
  0
LINE
  5
1067
330
76C
100
AcDbEntity
  8
241
  6
CONTINUOUS
100
AcDbLine
 10
22.0
 20
-28.74989657
 30
0.0
 11
22.0
 21
0.0
 31
0.0
  0
LINE
  5
1068
330
76C
100
AcDbEntity
  8
241
  6
CONTINUOUS
100
AcDbLine
 10
9.95
 20
-8.99234142
 30
0.0
 11
14.05
 21
-8.99234142
 31
0.0
  0
LINE
  5
1069
330
76C
100
AcDbEntity
  8
241
  6
CONTINUOUS
100
AcDbLine
 10
9.95
 20
-30.18137426
 30
0.0
 11
14.05
 21
-30.18137426
 31
0.0
  0
LINE
  5
106A
330
76C
100
AcDbEntity
  8
240
  6
CONTINUOUS
100
AcDbLine
 10
0.5
 20
-31.4925
 30
0.0
 11
21.0
 21
-31.4925
 31
0.0
  0
LINE
  5
106B
330
76C
100
AcDbEntity
  8
241
  6
CONTINUOUS
100
AcDbLine
 10
9.95
 20
-8.99234142
 30
0.0
 11
9.95
 21
-30.18137426
 31
0.0
  0
SPLINE
  5
106C
330
76C
100
AcDbEntity
  8
241
  6
CONTINUOUS
100
AcDbSpline
210
0.0
220
0.0
230
1.0
 70
     8
 71
     3
 72
     9
 73
     5
 74
     3
 42
0.0000000001
 43
0.0000000001
 44
0.0000000001
 40
0.0
 40
0.0
 40
0.0
 40
0.0
 40
10.74384375536302
 40
21.48768751072615
 40
21.48768751072615
 40
21.48768751072615
 40
21.48768751072615
 10
9.950000000000102
 20
-8.992341421163501
 30
0.0
 10
9.057475418454039
 20
-12.52384689373146
 30
0.0
 10
7.272426255361907
 20
-19.58685783886742
 30
0.0
 10
9.057475418453995
 20
-26.64986878400338
 30
0.0
 10
9.950000000000045
 20
-30.18137425657139
 30
0.0
 11
9.950000000000102
 21
-8.992341421163501
 31
0.0
 11
8.164950836907962
 21
-19.58685783886738
 31
0.0
 11
9.950000000000045
 21
-30.18137425657139
 31
0.0
  0
LINE
  5
106D
330
76C
100
AcDbEntity
  8
240
100
AcDbLine
 10
0.0
 20
-30.9925
 30
0.0
 11
0.0
 21
-20.62000332
 31
0.0
  0
ARC
  5
106E
330
76C
100
AcDbEntity
  8
240
  6
CONTINUOUS
100
AcDbCircle
 10
0.5
 20
-30.9925
 30
0.0
 40
0.5
100
AcDbArc
 50
180.0
 51
270.0
  0
LINE
  5
106F
330
76C
100
AcDbEntity
  8
240
100
AcDbLine
 10
-2.19993752
 20
-20.62000332
 30
0.0
 11
0.0
 21
-20.62000332
 31
0.0
  0
ARC
  5
1070
330
76C
100
AcDbEntity
  8
240
  6
CONTINUOUS
100
AcDbCircle
 10
30.0
 20
-28.74989657
 30
0.0
 40
8.0
100
AcDbArc
 50
90.2921441
 51
180.0
  0
LINE
  5
1071
330
76C
100
AcDbEntity
  8
241
  6
CONTINUOUS
100
AcDbLine
 10
14.05
 20
-8.99234142
 30
0.0
 11
14.05
 21
-30.18137426
 31
0.0
  0
SPLINE
  5
1072
330
76C
100
AcDbEntity
  8
241
  6
CONTINUOUS
100
AcDbSpline
210
0.0
220
0.0
230
1.0
 70
     8
 71
     3
 72
     9
 73
     5
 74
     3
 42
0.0000000001
 43
0.0000000001
 44
0.0000000001
 40
0.0
 40
0.0
 40
0.0
 40
0.0
 40
10.74384375536293
 40
21.48768751072604
 40
21.48768751072604
 40
21.48768751072604
 40
21.48768751072604
 10
14.05000000000009
 20
-30.18137425657127
 30
0.0
 10
14.94252458154613
 20
-26.64986878400334
 30
0.0
 10
16.72757374463822
 20
-19.58685783886741
 30
0.0
 10
14.94252458154614
 20
-12.52384689373148
 30
0.0
 10
14.05000000000009
 20
-8.992341421163501
 30
0.0
 11
14.05000000000009
 21
-30.18137425657127
 31
0.0
 11
15.83504916309218
 21
-19.58685783886747
 31
0.0
 11
14.05000000000009
 21
-8.992341421163501
 31
0.0
  0
LINE
  5
1073
330
76C
100
AcDbEntity
  8
240
  6
CONTINUOUS
100
AcDbLine
 10
22.0
 20
-30.4925
 30
0.0
 11
22.0
 21
-28.74989657
 31
0.0
  0
ARC
  5
1074
330
76C
100
AcDbEntity
  8
240
  6
CONTINUOUS
100
AcDbCircle
 10
21.0
 20
-30.4925
 30
0.0
 40
1.0
100
AcDbArc
 50
270.0
 51
0.0
  0
LINE
  5
1075
330
76C
100
AcDbEntity
  8
241
  6
CONTINUOUS
100
AcDbLine
 10
9.95
 20
30.18137426
 30
0.0
 11
14.05
 21
30.18137426
 31
0.0
  0
LINE
  5
1076
330
76C
100
AcDbEntity
  8
240
  6
CONTINUOUS
100
AcDbLine
 10
0.5
 20
31.4925
 30
0.0
 11
21.0
 21
31.4925
 31
0.0
  0
LINE
  5
1077
330
76C
100
AcDbEntity
  8
241
  6
CONTINUOUS
100
AcDbLine
 10
9.95
 20
8.99234142
 30
0.0
 11
14.05
 21
8.99234142
 31
0.0
  0
LINE
  5
1078
330
76C
100
AcDbEntity
  8
240
  6
CONTINUOUS
100
AcDbLine
 10
0.0
 20
30.9925
 30
0.0
 11
0.0
 21
23.42000332
 31
0.0
  0
SPLINE
  5
1079
330
76C
100
AcDbEntity
  8
241
  6
CONTINUOUS
100
AcDbSpline
210
0.0
220
0.0
230
1.0
 70
     8
 71
     3
 72
     9
 73
     5
 74
     3
 42
0.0000000001
 43
0.0000000001
 44
0.0000000001
 40
0.0
 40
0.0
 40
0.0
 40
0.0
 40
10.74384375536297
 40
21.48768751072607
 40
21.48768751072607
 40
21.48768751072607
 40
21.48768751072607
 10
9.950000000000102
 20
8.992341421163501
 30
0.0
 10
9.057475418454039
 20
12.52384689373144
 30
0.0
 10
7.272426255361906
 20
19.58685783886736
 30
0.0
 10
9.057475418453996
 20
26.64986878400331
 30
0.0
 10
9.950000000000045
 20
30.1813742565713
 30
0.0
 11
9.950000000000102
 21
8.992341421163501
 31
0.0
 11
8.164950836907962
 21
19.58685783886733
 31
0.0
 11
9.950000000000045
 21
30.1813742565713
 31
0.0
  0
LINE
  5
107A
330
76C
100
AcDbEntity
  8
241
  6
CONTINUOUS
100
AcDbLine
 10
9.95
 20
8.99234142
 30
0.0
 11
9.95
 21
30.18137426
 31
0.0
  0
LINE
  5
107B
330
76C
100
AcDbEntity
  8
241
100
AcDbLine
 10
-2.19993752
 20
23.42000332
 30
0.0
 11
-2.19993752
 21
0.0
 31
0.0
  0
LINE
  5
107C
330
76C
100
AcDbEntity
  8
241
100
AcDbLine
 10
0.0
 20
23.42000332
 30
0.0
 11
0.0
 21
0.0
 31
0.0
  0
LINE
  5
107D
330
76C
100
AcDbEntity
  8
240
100
AcDbLine
 10
-2.19993751
 20
23.42000332
 30
0.0
 11
0.0
 21
23.42000332
 31
0.0
  0
ARC
  5
107E
330
76C
100
AcDbEntity
  8
240
  6
CONTINUOUS
100
AcDbCircle
 10
0.5
 20
30.9925
 30
0.0
 40
0.5
100
AcDbArc
 50
90.0
 51
180.0
  0
ARC
  5
107F
330
76C
100
AcDbEntity
  8
240
  6
CONTINUOUS
100
AcDbCircle
 10
30.0
 20
28.74999944
 30
0.0
 40
8.0
100
AcDbArc
 50
180.0
 51
270.0
  0
LINE
  5
1080
330
76C
100
AcDbEntity
  8
241
  6
CONTINUOUS
100
AcDbLine
 10
22.0
 20
0.0
 30
0.0
 11
22.0
 21
28.74999944
 31
0.0
  0
LINE
  5
1081
330
76C
100
AcDbEntity
  8
241
  6
CONTINUOUS
100
AcDbLine
 10
14.05
 20
8.99234142
 30
0.0
 11
14.05
 21
30.18137426
 31
0.0
  0
SPLINE
  5
1082
330
76C
100
AcDbEntity
  8
241
  6
CONTINUOUS
100
AcDbSpline
210
0.0
220
0.0
230
1.0
 70
     8
 71
     3
 72
     9
 73
     5
 74
     3
 42
0.0000000001
 43
0.0000000001
 44
0.0000000001
 40
0.0
 40
0.0
 40
0.0
 40
0.0
 40
10.74384375536307
 40
21.48768751072606
 40
21.48768751072606
 40
21.48768751072606
 40
21.48768751072606
 10
14.05000000000009
 20
30.1813742565713
 30
0.0
 10
14.94252458154614
 20
26.64986878400332
 30
0.0
 10
16.72757374463822
 20
19.58685783886738
 30
0.0
 10
14.94252458154613
 20
12.52384689373145
 30
0.0
 10
14.05000000000009
 20
8.992341421163501
 30
0.0
 11
14.05000000000009
 21
30.1813742565713
 31
0.0
 11
15.83504916309218
 21
19.58685783886735
 31
0.0
 11
14.05000000000009
 21
8.992341421163501
 31
0.0
  0
ARC
  5
1083
330
76C
100
AcDbEntity
  8
240
  6
CONTINUOUS
100
AcDbCircle
 10
21.0
 20
30.4925
 30
0.0
 40
1.0
100
AcDbArc
 50
0.0
 51
90.0
  0
LINE
  5
1084
330
76C
100
AcDbEntity
  8
240
  6
CONTINUOUS
100
AcDbLine
 10
22.0
 20
30.4925
 30
0.0
 11
22.0
 21
28.74999944
 31
0.0
  0
LINE
  5
1085
330
76C
100
AcDbEntity
  8
241
  6
HIDDEN2
100
AcDbLine
 10
92.42004358
 20
8.65
 30
0.0
 11
152.22495054
 21
8.65
 31
0.0
  0
LINE
  5
1086
330
76C
100
AcDbEntity
  8
242
  6
HIDDEN2
100
AcDbLine
 10
117.22495054
 20
9.0
 30
0.0
 11
152.22495054
 21
9.0
 31
0.0
  0
LINE
  5
1087
330
76C
100
AcDbEntity
  8
242
  6
HIDDEN2
100
AcDbLine
 10
117.22495054
 20
9.0
 30
0.0
 11
117.22495054
 21
0.0
 31
0.0
  0
LINE
  5
1088
330
76C
100
AcDbEntity
  8
241
  6
CONTINUOUS
100
AcDbLine
 10
174.77053742
 20
-21.35021012
 30
0.0
 11
174.77053742
 21
0.0
 31
0.0
1001
GRPNAME
1000
PASTMD09
  0
LINE
  5
1089
330
76C
100
AcDbEntity
  8
241
  6
CONTINUOUS
100
AcDbLine
 10
176.55089382
 20
-21.00021012
 30
0.0
 11
176.55089382
 21
0.0
 31
0.0
1001
GRPNAME
1000
PASTMD09
  0
LINE
  5
108A
330
76C
100
AcDbEntity
  8
241
100
AcDbLine
 10
172.90000128
 20
-17.50000247
 30
0.0
 11
172.90000128
 21
0.0
 31
0.0
  0
LINE
  5
108B
330
76C
100
AcDbEntity
  8
241
100
AcDbLine
 10
169.82499975
 20
-17.50000247
 30
0.0
 11
169.82499975
 21
0.0
 31
0.0
  0
LINE
  5
108C
330
76C
100
AcDbEntity
  8
240
  6
CONTINUOUS
100
AcDbLine
 10
169.82499975
 20
-17.50000247
 30
0.0
 11
172.90000128
 21
-17.50000247
 31
0.0
1001
GRPNAME
1000
PASTMD0O
  0
LINE
  5
108D
330
76C
100
AcDbEntity
  8
240
  6
CONTINUOUS
100
AcDbLine
 10
169.82499975
 20
-20.25000056
 30
0.0
 11
169.82499975
 21
-17.50000247
 31
0.0
1001
GRPNAME
1000
PASTMD0O
  0
ARC
  5
108E
330
76C
100
AcDbEntity
  8
240
  6
CONTINUOUS
100
AcDbCircle
 10
169.32499975
 20
-20.25000056
 30
0.0
 40
0.5
100
AcDbArc
 50
270.0
 51
0.0
1001
GRPNAME
1000
PASTMD0O
  0
LINE
  5
108F
330
76C
100
AcDbEntity
  8
240
  6
CONTINUOUS
100
AcDbLine
 10
172.90000128
 20
-17.50000247
 30
0.0
 11
172.90000128
 21
-20.85200056
 31
0.0
1001
GRPNAME
1000
PASTMD0O
  0
LINE
  5
1090
330
76C
100
AcDbEntity
  8
240
  6
CONTINUOUS
100
AcDbLine
 10
174.77253742
 20
-21.35021012
 30
0.0
 11
175.12253742
 21
-21.00021012
 31
0.0
1001
GRPNAME
1000
PASTMD09
  0
LINE
  5
1091
330
76C
100
AcDbEntity
  8
240
  6
CONTINUOUS
100
AcDbLine
 10
174.77253742
 20
-21.35021012
 30
0.0
 11
173.35772548
 21
-21.35021012
 31
0.0
1001
GRPNAME
1000
PASTMD09
  0
ARC
  5
1092
330
76C
100
AcDbEntity
  8
240
  6
CONTINUOUS
100
AcDbCircle
 10
173.40000128
 20
-20.85200056
 30
0.0
 40
0.5
100
AcDbArc
 50
180.00000008
 51
265.14975956
1001
GRPNAME
1000
PASTMD0D
  0
LINE
  5
1093
330
76C
100
AcDbEntity
  8
241
  6
HIDDEN2
100
AcDbLine
 10
152.22495054
 20
10.00000039
 30
0.0
 11
162.22494291
 21
10.00000039
 31
0.0
1001
GRPNAME
1000
PASTMD0O
  0
LINE
  5
1094
330
76C
100
AcDbEntity
  8
241
  6
HIDDEN2
100
AcDbLine
 10
152.22495054
 20
10.00000039
 30
0.0
 11
152.22495054
 21
0.0
 31
0.0
1001
GRPNAME
1000
PASTMD0O
  0
LINE
  5
1095
330
76C
100
AcDbEntity
  8
240
  6
CONTINUOUS
100
AcDbLine
 10
169.82499975
 20
17.50000325
 30
0.0
 11
172.90000128
 21
17.50000325
 31
0.0
1001
GRPNAME
1000
PASTMD0O
  0
LINE
  5
1096
330
76C
100
AcDbEntity
  8
241
  6
HIDDEN2
100
AcDbLine
 10
162.0035417
 20
0.0
 30
0.0
 11
162.0035417
 21
9.65996534
 31
0.0
1001
GRPNAME
1000
PASTMD0O
  0
LINE
  5
1097
330
76C
100
AcDbEntity
  8
241
100
AcDbLine
 10
169.82499975
 20
17.50000247
 30
0.0
 11
169.82499975
 21
0.0
 31
0.0
  0
LINE
  5
1098
330
76C
100
AcDbEntity
  8
241
  6
CONTINUOUS
100
AcDbLine
 10
162.22494291
 20
10.00000039
 30
0.0
 11
162.22494291
 21
9.68321267
 31
0.0
1001
GRPNAME
1000
PASTMD0O
  0
LINE
  5
1099
330
76C
100
AcDbEntity
  8
240
  6
CONTINUOUS
100
AcDbLine
 10
169.82499975
 20
20.25000056
 30
0.0
 11
169.82499975
 21
17.50000325
 31
0.0
1001
GRPNAME
1000
PASTMD0O
  0
ARC
  5
109A
330
76C
100
AcDbEntity
  8
240
  6
CONTINUOUS
100
AcDbCircle
 10
169.32499975
 20
20.24999944
 30
0.0
 40
0.5
100
AcDbArc
 50
0.0
 51
90.0
1001
GRPNAME
1000
PASTMD0O
  0
LINE
  5
109B
330
76C
100
AcDbEntity
  8
241
  6
CONTINUOUS
100
AcDbLine
 10
176.55089382
 20
21.00021012
 30
0.0
 11
176.55089382
 21
0.0
 31
0.0
1001
GRPNAME
1000
PASTMD09
  0
LINE
  5
109C
330
76C
100
AcDbEntity
  8
241
  6
CONTINUOUS
100
AcDbLine
 10
174.77053742
 20
21.35021012
 30
0.0
 11
174.77053742
 21
0.0
 31
0.0
1001
GRPNAME
1000
PASTMD09
  0
LINE
  5
109D
330
76C
100
AcDbEntity
  8
241
100
AcDbLine
 10
172.90000128
 20
17.50000247
 30
0.0
 11
172.90000128
 21
0.0
 31
0.0
  0
LINE
  5
109E
330
76C
100
AcDbEntity
  8
242
  6
HIDDEN2
100
AcDbLine
 10
188.68578314
 20
15.50000039
 30
0.0
 11
178.22499823
 21
15.50000039
 31
0.0
1001
GRPNAME
1000
PASTMD0O
  0
LINE
  5
109F
330
76C
100
AcDbEntity
  8
241
  6
HIDDEN2
100
AcDbLine
 10
188.18578314
 20
15.99999944
 30
0.0
 11
176.22499823
 21
15.99999944
 31
0.0
1001
GRPNAME
1000
PASTMD0O
  0
LINE
  5
10A0
330
76C
100
AcDbEntity
  8
240
  6
CONTINUOUS
100
AcDbLine
 10
172.90000128
 20
17.50000325
 30
0.0
 11
172.90000128
 21
20.85200056
 31
0.0
1001
GRPNAME
1000
PASTMD0O
  0
LINE
  5
10A1
330
76C
100
AcDbEntity
  8
241
  6
HIDDEN2
100
AcDbLine
 10
175.22499823
 20
17.50000325
 30
0.0
 11
176.22499823
 21
17.50000325
 31
0.0
1001
GRPNAME
1000
PASTMD0O
  0
LINE
  5
10A2
330
76C
100
AcDbEntity
  8
241
  6
HIDDEN2
100
AcDbLine
 10
172.90000128
 20
17.50000325
 30
0.0
 11
174.12499212
 21
17.50000325
 31
0.0
1001
GRPNAME
1000
PASTMD0O
  0
LINE
  5
10A3
330
76C
100
AcDbEntity
  8
241
  6
HIDDEN2
100
AcDbLine
 10
174.12499212
 20
16.55000249
 30
0.0
 11
175.22499823
 21
16.55000249
 31
0.0
1001
GRPNAME
1000
PASTMD0O
  0
LINE
  5
10A4
330
76C
100
AcDbEntity
  8
241
  6
HIDDEN2
100
AcDbLine
 10
175.22499823
 20
16.55000249
 30
0.0
 11
175.22499823
 21
17.50000325
 31
0.0
1001
GRPNAME
1000
PASTMD0O
  0
LINE
  5
10A5
330
76C
100
AcDbEntity
  8
241
  6
HIDDEN2
100
AcDbLine
 10
174.12499212
 20
16.55000249
 30
0.0
 11
174.12499212
 21
17.50000325
 31
0.0
1001
GRPNAME
1000
PASTMD0O
  0
LINE
  5
10A6
330
76C
100
AcDbEntity
  8
241
  6
HIDDEN2
100
AcDbLine
 10
176.22499823
 20
15.99999944
 30
0.0
 11
176.22499823
 21
17.50000325
 31
0.0
1001
GRPNAME
1000
PASTMD0O
  0
LINE
  5
10A7
330
76C
100
AcDbEntity
  8
242
  6
HIDDEN2
100
AcDbLine
 10
177.3589704
 20
15.99999944
 30
0.0
 11
178.22499823
 21
15.50000039
 31
0.0
1001
GRPNAME
1000
PASTMD0O
  0
LINE
  5
10A8
330
76C
100
AcDbEntity
  8
240
  6
CONTINUOUS
100
AcDbLine
 10
174.77253742
 20
21.35021012
 30
0.0
 11
175.12274428
 21
21.00000325
 31
0.0
1001
GRPNAME
1000
PASTMD09
  0
ARC
  5
10A9
330
76C
100
AcDbEntity
  8
240
  6
CONTINUOUS
100
AcDbCircle
 10
173.40000128
 20
20.85200056
 30
0.0
 40
0.4999999999999618
100
AcDbArc
 50
94.85024053
 51
180.00000001
1001
GRPNAME
1000
PASTMD09
  0
LINE
  5
10AA
330
76C
100
AcDbEntity
  8
240
  6
CONTINUOUS
100
AcDbLine
 10
174.77053742
 20
21.35021012
 30
0.0
 11
173.35772548
 21
21.35021012
 31
0.0
1001
GRPNAME
1000
PASTMD09
  0
LINE
  5
10AB
330
76C
100
AcDbEntity
  8
241
  6
HIDDEN2
100
AcDbLine
 10
189.22493719
 20
14.96084252
 30
0.0
 11
188.18578314
 21
15.99999944
 31
0.0
1001
GRPNAME
1000
PASTMD0O
  0
LINE
  5
10AC
330
76C
100
AcDbEntity
  8
241
  6
HIDDEN2
100
AcDbLine
 10
189.22493719
 20
14.96084252
 30
0.0
 11
189.22493719
 21
12.52105076
 31
0.0
1001
GRPNAME
1000
PASTMD0O
  0
LINE
  5
10AD
330
76C
100
AcDbEntity
  8
240
  6
CONTINUOUS
100
AcDbLine
 10
200.0
 20
-20.00200056
 30
0.0
 11
200.0
 21
0.0
 31
0.0
1001
GRPNAME
1000
PASTMD0O
  0
ARC
  5
10AE
330
76C
100
AcDbEntity
  8
240
  6
CONTINUOUS
100
AcDbCircle
 10
199.0
 20
-20.00200056
 30
0.0
 40
0.9999999999999882
100
AcDbArc
 50
273.6878874
 51
0.00000002
1001
GRPNAME
1000
PASTMD0D
  0
LINE
  5
10AF
330
76C
100
AcDbEntity
  8
241
  6
HIDDEN2
100
AcDbLine
 10
197.0035324
 20
0.0
 30
0.0
 11
197.0035324
 21
11.01794473
 31
0.0
1001
GRPNAME
1000
PASTMD0O
  0
LINE
  5
10B0
330
76C
100
AcDbEntity
  8
240
  6
CONTINUOUS
100
AcDbLine
 10
200.0
 20
20.00200056
 30
0.0
 11
200.0
 21
0.0
 31
0.0
1001
GRPNAME
1000
PASTMD0O
  0
ARC
  5
10B1
330
76C
100
AcDbEntity
  8
240
  6
CONTINUOUS
100
AcDbCircle
 10
199.0
 20
20.00000325
 30
0.0
 40
1.0
100
AcDbArc
 50
0.00000009
 51
90.00000009
1001
GRPNAME
1000
PASTMD0D
  0
LINE
  5
10B2
330
76C
100
AcDbEntity
  8
241
  6
HIDDEN2
100
AcDbLine
 10
197.99999634
 20
11.02000085
 30
0.0
 11
200.0
 21
12.17470466
 31
0.0
1001
GRPNAME
1000
PASTMD0O
  0
LINE
  5
10B3
330
76C
100
AcDbEntity
  8
241
  6
HIDDEN2
100
AcDbLine
 10
197.0035324
 20
11.01794473
 30
0.0
 11
194.00353264
 21
12.75000039
 31
0.0
1001
GRPNAME
1000
PASTMD0O
  0
LINE
  5
10B4
330
76C
100
AcDbEntity
  8
241
  6
HIDDEN2
100
AcDbLine
 10
193.80353569
 20
11.00000039
 30
0.0
 11
193.80353569
 21
12.75000039
 31
0.0
1001
GRPNAME
1000
PASTMD0O
  0
LINE
  5
10B5
330
76C
100
AcDbEntity
  8
241
  6
HIDDEN2
100
AcDbLine
 10
191.40353369
 20
11.00000039
 30
0.0
 11
191.40353369
 21
12.75000039
 31
0.0
1001
GRPNAME
1000
PASTMD0O
  0
LINE
  5
10B6
330
76C
100
AcDbEntity
  8
241
  6
HIDDEN2
100
AcDbLine
 10
191.40353369
 20
11.00000039
 30
0.0
 11
193.80353569
 21
11.00000039
 31
0.0
1001
GRPNAME
1000
PASTMD0O
  0
LINE
  5
10B7
330
76C
100
AcDbEntity
  8
241
  6
HIDDEN2
100
AcDbLine
 10
193.80353569
 20
12.75000039
 30
0.0
 11
194.00353264
 21
12.75000039
 31
0.0
1001
GRPNAME
1000
PASTMD0O
  0
LINE
  5
10B8
330
76C
100
AcDbEntity
  8
241
  6
HIDDEN2
100
AcDbLine
 10
196.99999999
 20
11.02000085
 30
0.0
 11
197.99999634
 21
11.02000085
 31
0.0
1001
GRPNAME
1000
PASTMD0O
  0
ENDBLK
  5
7B2
330
76C
100
AcDbEntity
  8
0
100
AcDbBlockEnd
  0
BLOCK
  5
7B4
330
7B3
100
AcDbEntity
  8
0
100
AcDbBlockBegin
  2
_NONE
 70
     0
 10
0.0
 20
0.0
 30
0.0
  3
_NONE
  1

  0
ENDBLK
  5
7B5
330
7B3
100
AcDbEntity
  8
0
100
AcDbBlockEnd
  0
BLOCK
  5
B0F
330
B05
100
AcDbEntity
  8
0
100
AcDbBlockBegin
  2
*D4
 70
     1
 10
0.0
 20
0.0
 30
0.0
  3
*D4
  1

  0
LINE
  5
E28
330
B05
100
AcDbEntity
  8
250
  6
CONTINUOUS
 62
     3
100
AcDbLine
 10
9.0
 20
10.15
 30
0.0
 11
9.0
 21
46.5
 31
0.0
  0
LINE
  5
E29
330
B05
100
AcDbEntity
  8
250
  6
CONTINUOUS
 62
     3
100
AcDbLine
 10
200.0
 20
20.50010669
 30
0.0
 11
200.0
 21
46.5
 31
0.0
  0
LINE
  5
E2A
330
B05
100
AcDbEntity
  8
250
  6
CONTINUOUS
 62
     3
100
AcDbLine
 10
11.23
 20
45.5
 30
0.0
 11
197.77
 21
45.5
 31
0.0
  0
INSERT
  5
E2B
330
B05
100
AcDbEntity
  8
250
  6
CONTINUOUS
 62
     3
100
AcDbBlockReference
  2
_OPEN
 10
9.0
 20
45.5
 30
0.0
 41
2.23
 42
2.23
 43
2.23
 50
180.0
  0
INSERT
  5
E2C
330
B05
100
AcDbEntity
  8
250
  6
CONTINUOUS
 62
     3
100
AcDbBlockReference
  2
_OPEN
 10
200.0
 20
45.5
 30
0.0
 41
2.23
 42
2.23
 43
2.23
  0
MTEXT
  5
E2D
330
B05
100
AcDbEntity
  8
250
  6
CONTINUOUS
 62
    40
100
AcDbMText
 10
104.5
 20
48.0
 30
0.0
 40
3.0
 41
0.0
 71
     5
 72
     1
  1
\A1;（max.191）
1001
ACAD
1000
MTEXTBEGIN
1070
    73
1070
     1
1070
    44
1040
1.0
1070
    74
1070
     0
1000
MTEXTEND
1000
MTEXTBEGIN
1070
    73
1070
     1
1070
    44
1040
1.0
1070
    74
1070
     0
1000
MTEXTEND
  0
POINT
  5
E2E
330
B05
100
AcDbEntity
  8
DEFPOINTS
  6
CONTINUOUS
 62
     0
100
AcDbPoint
 10
9.0
 20
9.65
 30
0.0
  0
POINT
  5
E2F
330
B05
100
AcDbEntity
  8
DEFPOINTS
  6
CONTINUOUS
 62
     0
100
AcDbPoint
 10
200.0
 20
20.00010669
 30
0.0
  0
POINT
  5
E30
330
B05
100
AcDbEntity
  8
DEFPOINTS
  6
CONTINUOUS
 62
     0
100
AcDbPoint
 10
200.0
 20
45.5
 30
0.0
  0
ENDBLK
  5
B10
330
B05
100
AcDbEntity
  8
0
100
AcDbBlockEnd
  0
BLOCK
  5
B1B
330
B11
100
AcDbEntity
  8
0
100
AcDbBlockBegin
  2
*D5
 70
     1
 10
0.0
 20
0.0
 30
0.0
  3
*D5
  1

  0
LINE
  5
B73
330
B11
100
AcDbEntity
  8
250
  6
CONTINUOUS
 62
     3
100
AcDbLine
 10
0.0
 20
31.4925
 30
0.0
 11
0.0
 21
53.5
 31
0.0
  0
LINE
  5
B74
330
B11
100
AcDbEntity
  8
250
  6
CONTINUOUS
 62
     3
100
AcDbLine
 10
200.0
 20
20.50010669
 30
0.0
 11
200.0
 21
53.5
 31
0.0
  0
LINE
  5
B75
330
B11
100
AcDbEntity
  8
250
  6
CONTINUOUS
 62
     3
100
AcDbLine
 10
2.23
 20
52.5
 30
0.0
 11
197.77
 21
52.5
 31
0.0
  0
INSERT
  5
B76
330
B11
100
AcDbEntity
  8
250
  6
CONTINUOUS
 62
     3
100
AcDbBlockReference
  2
_OPEN
 10
0.0
 20
52.5
 30
0.0
 41
2.23
 42
2.23
 43
2.23
 50
180.0
  0
INSERT
  5
B77
330
B11
100
AcDbEntity
  8
250
  6
CONTINUOUS
 62
     3
100
AcDbBlockReference
  2
_OPEN
 10
200.0
 20
52.5
 30
0.0
 41
2.23
 42
2.23
 43
2.23
  0
MTEXT
  5
B78
330
B11
100
AcDbEntity
  8
250
  6
CONTINUOUS
 62
    40
100
AcDbMText
 10
102.84075879
 20
55.0
 30
0.0
 40
3.0
 41
0.0
 71
     5
 72
     1
  1
\A1;200
1001
ACAD
1000
MTEXTBEGIN
1070
    73
1070
     1
1070
    44
1040
1.0
1070
    74
1070
     0
1000
MTEXTEND
1000
MTEXTBEGIN
1070
    73
1070
     1
1070
    44
1040
1.0
1070
    74
1070
     0
1000
MTEXTEND
1000
MTEXTBEGIN
1070
    73
1070
     1
1070
    44
1040
1.0
1070
    74
1070
     0
1000
MTEXTEND
1000
MTEXTBEGIN
1070
    73
1070
     1
1070
    44
1040
1.0
1070
    74
1070
     0
1000
MTEXTEND
  0
POINT
  5
B79
330
B11
100
AcDbEntity
  8
DEFPOINTS
  6
CONTINUOUS
 62
     0
100
AcDbPoint
 10
0.0
 20
30.9925
 30
0.0
  0
POINT
  5
B7A
330
B11
100
AcDbEntity
  8
DEFPOINTS
  6
CONTINUOUS
 62
     0
100
AcDbPoint
 10
200.0
 20
20.00010669
 30
0.0
  0
POINT
  5
B7B
330
B11
100
AcDbEntity
  8
DEFPOINTS
  6
CONTINUOUS
 62
     0
100
AcDbPoint
 10
200.0
 20
52.5
 30
0.0
  0
ENDBLK
  5
B1C
330
B11
100
AcDbEntity
  8
0
100
AcDbBlockEnd
  0
BLOCK
  5
B27
330
B1D
100
AcDbEntity
  8
0
100
AcDbBlockBegin
  2
*D6
 70
     1
 10
0.0
 20
0.0
 30
0.0
  3
*D6
  1

  0
LINE
  5
BE4
330
B1D
100
AcDbEntity
  8
250
  6
CONTINUOUS
 62
     3
100
AcDbLine
 10
22.0
 20
30.9925
 30
0.0
 11
22.0
 21
39.5
 31
0.0
  0
LINE
  5
BE5
330
B1D
100
AcDbEntity
  8
250
  6
CONTINUOUS
 62
     3
100
AcDbLine
 10
200.0
 20
20.50010669
 30
0.0
 11
200.0
 21
39.5
 31
0.0
  0
LINE
  5
BE6
330
B1D
100
AcDbEntity
  8
250
  6
CONTINUOUS
 62
     3
100
AcDbLine
 10
24.23
 20
38.5
 30
0.0
 11
197.77
 21
38.5
 31
0.0
  0
INSERT
  5
BE7
330
B1D
100
AcDbEntity
  8
250
  6
CONTINUOUS
 62
     3
100
AcDbBlockReference
  2
_OPEN
 10
22.0
 20
38.5
 30
0.0
 41
2.23
 42
2.23
 43
2.23
 50
180.0
  0
INSERT
  5
BE8
330
B1D
100
AcDbEntity
  8
250
  6
CONTINUOUS
 62
     3
100
AcDbBlockReference
  2
_OPEN
 10
200.0
 20
38.5
 30
0.0
 41
2.23
 42
2.23
 43
2.23
  0
MTEXT
  5
BE9
330
B1D
100
AcDbEntity
  8
250
  6
CONTINUOUS
 62
    40
100
AcDbMText
 10
111.0
 20
41.0
 30
0.0
 40
3.0
 41
0.0
 71
     5
 72
     1
  1
\A1;178
1001
ACAD
1000
MTEXTBEGIN
1070
    73
1070
     1
1070
    44
1040
1.0
1070
    74
1070
     0
1000
MTEXTEND
1000
MTEXTBEGIN
1070
    73
1070
     1
1070
    44
1040
1.0
1070
    74
1070
     0
1000
MTEXTEND
1000
MTEXTBEGIN
1070
    73
1070
     1
1070
    44
1040
1.0
1070
    74
1070
     0
1000
MTEXTEND
1000
MTEXTBEGIN
1070
    73
1070
     1
1070
    44
1040
1.0
1070
    74
1070
     0
1000
MTEXTEND
  0
POINT
  5
BEA
330
B1D
100
AcDbEntity
  8
DEFPOINTS
  6
CONTINUOUS
 62
     0
100
AcDbPoint
 10
22.0
 20
30.4925
 30
0.0
  0
POINT
  5
BEB
330
B1D
100
AcDbEntity
  8
DEFPOINTS
  6
CONTINUOUS
 62
     0
100
AcDbPoint
 10
200.0
 20
20.00010669
 30
0.0
  0
POINT
  5
BEC
330
B1D
100
AcDbEntity
  8
DEFPOINTS
  6
CONTINUOUS
 62
     0
100
AcDbPoint
 10
200.0
 20
38.5
 30
0.0
  0
ENDBLK
  5
B28
330
B1D
100
AcDbEntity
  8
0
100
AcDbBlockEnd
  0
BLOCK
  5
1020
330
1016
100
AcDbEntity
  8
0
100
AcDbBlockBegin
  2
*D13
 70
     1
 10
0.0
 20
0.0
 30
0.0
  3
*D13
  1

  0
LINE
  5
102C
330
1016
100
AcDbEntity
  8
250
  6
CONTINUOUS
 62
     3
100
AcDbLine
 10
199.5
 20
-21.00021012
 30
0.0
 11
217.0
 21
-21.00021012
 31
0.0
  0
LINE
  5
102D
330
1016
100
AcDbEntity
  8
250
  6
CONTINUOUS
 62
     3
100
AcDbLine
 10
199.5
 20
21.00000325
 30
0.0
 11
217.0
 21
21.00000325
 31
0.0
  0
LINE
  5
102E
330
1016
100
AcDbEntity
  8
250
  6
CONTINUOUS
 62
     3
100
AcDbLine
 10
216.0
 20
-18.77021012
 30
0.0
 11
216.0
 21
18.77000325
 31
0.0
  0
INSERT
  5
102F
330
1016
100
AcDbEntity
  8
250
  6
CONTINUOUS
 62
     3
100
AcDbBlockReference
  2
_OPEN
 10
216.0
 20
-21.00021012
 30
0.0
 41
2.23
 42
2.23
 43
2.23
 50
270.0
  0
INSERT
  5
1030
330
1016
100
AcDbEntity
  8
250
  6
CONTINUOUS
 62
     3
100
AcDbBlockReference
  2
_OPEN
 10
216.0
 20
21.00000325
 30
0.0
 41
2.23
 42
2.23
 43
2.23
 50
90.0
  0
MTEXT
  5
1031
330
1016
100
AcDbEntity
  8
250
  6
CONTINUOUS
 62
    40
100
AcDbMText
 10
213.5
 20
0.0
 30
0.0
 40
3.0
 41
0.0
 71
     5
 72
     1
  1
\A1;{\H3;\U+2205}42
 11
0.0
 21
1.0
 31
0.0
1001
ACAD
1000
MTEXTBEGIN
1070
    73
1070
     1
1070
    44
1040
1.0
1070
    74
1070
     0
1000
MTEXTEND
  0
POINT
  5
1032
330
1016
100
AcDbEntity
  8
DEFPOINTS
  6
CONTINUOUS
 62
     0
100
AcDbPoint
 10
199.0
 20
-21.00021012
 30
0.0
  0
POINT
  5
1033
330
1016
100
AcDbEntity
  8
DEFPOINTS
  6
CONTINUOUS
 62
     0
100
AcDbPoint
 10
199.0
 20
21.00000325
 30
0.0
  0
POINT
  5
1034
330
1016
100
AcDbEntity
  8
DEFPOINTS
  6
CONTINUOUS
 62
     0
100
AcDbPoint
 10
216.0
 20
21.00000325
 30
0.0
  0
ENDBLK
  5
1021
330
1016
100
AcDbEntity
  8
0
100
AcDbBlockEnd
  0
BLOCK
  5
102A
330
1022
100
AcDbEntity
  8
0
100
AcDbBlockBegin
  2
*D14
 70
     1
 10
0.0
 20
0.0
 30
0.0
  3
*D14
  1

  0
LINE
  5
1035
330
1022
100
AcDbEntity
  8
250
  6
CONTINUOUS
 62
     3
100
AcDbLine
 10
197.5035324
 20
8.0
 30
0.0
 11
210.0
 21
8.0
 31
0.0
  0
LINE
  5
1036
330
1022
100
AcDbEntity
  8
250
  6
CONTINUOUS
 62
     3
100
AcDbLine
 10
209.0
 20
-8.0
 30
0.0
 11
209.0
 21
5.77
 31
0.0
  0
INSERT
  5
1037
330
1022
100
AcDbEntity
  8
250
  6
CONTINUOUS
 62
     3
100
AcDbBlockReference
  2
_OPEN
 10
209.0
 20
8.0
 30
0.0
 41
2.23
 42
2.23
 43
2.23
 50
90.0
  0
MTEXT
  5
1038
330
1022
100
AcDbEntity
  8
250
  6
CONTINUOUS
 62
    40
100
AcDbMText
 10
206.5
 20
-4.16116663
 30
0.0
 40
3.0
 41
0.0
 71
     5
 72
     1
  1
\A1;max.{\H3;\U+2205}16
 11
0.0
 21
1.0
 31
0.0
1001
ACAD
1000
MTEXTBEGIN
1070
    73
1070
     1
1070
    44
1040
1.0
1070
    74
1070
     0
1000
MTEXTEND
  0
POINT
  5
1039
330
1022
100
AcDbEntity
  8
DEFPOINTS
  6
CONTINUOUS
 62
     0
100
AcDbPoint
 10
197.0035324
 20
-8.0
 30
0.0
  0
POINT
  5
103A
330
1022
100
AcDbEntity
  8
DEFPOINTS
  6
CONTINUOUS
 62
     0
100
AcDbPoint
 10
197.0035324
 20
8.0
 30
0.0
  0
POINT
  5
103B
330
1022
100
AcDbEntity
  8
DEFPOINTS
  6
CONTINUOUS
 62
     0
100
AcDbPoint
 10
209.0
 20
8.0
 30
0.0
  0
ENDBLK
  5
102B
330
1022
100
AcDbEntity
  8
0
100
AcDbBlockEnd
  0
ENDSEC
  0
SECTION
  2
ENTITIES
  0
INSERT
  5
6E6
330
1A
100
AcDbEntity
  8
245
100
AcDbBlockReference
  2
矢印なし
 10
175.62382697
 20
90.55123572
 30
0.0
  0
TEXT
  5
7E8
330
1A
100
AcDbEntity
  8
241
100
AcDbText
 10
-38.0
 20
66.5
 30
0.0
 40
5.0
  1
C6-MEGA16N-200
  7
YOKO
 11
-38.0
 21
66.5
 31
0.0
100
AcDbText
 73
     1
  0
DIMENSION
  5
B00
330
1A
100
AcDbEntity
  8
250
  6
CONTINUOUS
100
AcDbDimension
  2
*D4
 10
200.0
 20
45.5
 30
0.0
 11
104.5
 21
48.0
 31
0.0
 70
    32
  1
（max.<>）
  3
BIGT$0
100
AcDbAlignedDimension
 13
9.0
 23
9.65
 33
0.0
 14
200.0
 24
20.00010669
 34
0.0
100
AcDbRotatedDimension
  0
DIMENSION
  5
B01
330
1A
100
AcDbEntity
  8
250
  6
CONTINUOUS
100
AcDbDimension
  2
*D5
 10
200.0
 20
52.5
 30
0.0
 11
102.84075879
 21
52.5
 31
0.0
 70
   160
  3
BIGT$0
100
AcDbAlignedDimension
 13
0.0
 23
30.9925
 33
0.0
 14
200.0
 24
20.00010669
 34
0.0
100
AcDbRotatedDimension
  0
DIMENSION
  5
B02
330
1A
100
AcDbEntity
  8
250
  6
CONTINUOUS
100
AcDbDimension
  2
*D6
 10
200.0
 20
38.5
 30
0.0
 11
111.0
 21
41.0
 31
0.0
 70
    32
  3
BIGT$0
100
AcDbAlignedDimension
 13
22.0
 23
30.4925
 33
0.0
 14
200.0
 24
20.00010669
 34
0.0
100
AcDbRotatedDimension
  0
LINE
  5
F60
330
1A
100
AcDbEntity
  8
250
  6
CONTINUOUS
100
AcDbLine
 10
-21.0
 20
-28.0
 30
0.0
 11
-31.26666667
 21
-28.0
 31
0.0
1001
ITEMNAME
1000
LNSP2
  0
MTEXT
  5
F64
330
1A
100
AcDbEntity
  8
251
  6
CONTINUOUS
100
AcDbMText
 10
-28.46666667
 20
-27.0
 30
0.0
 40
2.8
 41
0.0
 71
     7
 72
     1
  1
C6
  7
YOKO
1001
ITEMNAME
1000
LNSP3
1001
ACAD
1000
MTEXTBEGIN
1070
    73
1070
     1
1070
    44
1040
1.0
1070
    74
1070
     0
1000
MTEXTEND
1000
MTEXTBEGIN
1070
    73
1070
     1
1070
    44
1040
1.0
1070
    74
1070
     0
1000
MTEXTEND
1000
MTEXTBEGIN
1070
    73
1070
     1
1070
    44
1040
1.0
1070
    74
1070
     0
1000
MTEXTEND
1000
MTEXTBEGIN
1070
    73
1070
     1
1070
    44
1040
1.0
1070
    74
1070
     0
1000
MTEXTEND
1000
MTEXTBEGIN
1070
    73
1070
     1
1070
    44
1040
1.0
1070
    74
1070
     0
1000
MTEXTEND
1000
MTEXTBEGIN
1070
    73
1070
     1
1070
    44
1040
1.0
1070
    74
1070
     0
1000
MTEXTEND
1000
MTEXTBEGIN
1070
    73
1070
     1
1070
    44
1040
1.0
1070
    74
1070
     0
1000
MTEXTEND
1000
MTEXTBEGIN
1070
    73
1070
     1
1070
    44
1040
1.0
1070
    74
1070
     0
1000
MTEXTEND
1000
MTEXTBEGIN
1070
    73
1070
     1
1070
    44
1040
1.0
1070
    74
1070
     0
1000
MTEXTEND
1000
MTEXTBEGIN
1070
    73
1070
     1
1070
    44
1040
1.0
1070
    74
1070
     0
1000
MTEXTEND
  0
LEADER
  5
F66
330
1A
100
AcDbEntity
  8
250
  6
CONTINUOUS
100
AcDbLeader
  3
BIGT
 76
     2
 10
-16.47540101
 20
-20.26308537
 30
0.0
 10
-21.0
 20
-28.0
 30
0.0
1001
ACAD
1000
DSTYLE
1002
{
1070
     6
1000
OPEN
1070
    41
1040
2.0
1070
    42
1040
2.0
1070
    44
1040
2.0
1070
   140
1040
4.0
1070
   343
1005
594
1002
}
  0
DIMENSION
  5
FE4
330
1A
100
AcDbEntity
  8
250
  6
CONTINUOUS
100
AcDbDimension
  2
*D13
 10
216.0
 20
21.00000325
 30
0.0
 11
216.0
 21
0.0
 31
0.0
 70
   160
  1
{\H3;\U+2205}<>
  3
BIGT$0
100
AcDbAlignedDimension
 13
199.0
 23
-21.00021012
 33
0.0
 14
199.0
 24
21.00000325
 34
0.0
 50
90.0
100
AcDbRotatedDimension
  0
DIMENSION
  5
FE5
330
1A
100
AcDbEntity
  8
250
  6
CONTINUOUS
100
AcDbDimension
  2
*D14
 10
209.0
 20
8.0
 30
0.0
 11
209.0
 21
-4.16116663
 31
0.0
 70
   160
  1
max.{\H3;\U+2205}<>
  3
BIGT$0
100
AcDbAlignedDimension
 13
197.0035324
 23
-8.0
 33
0.0
 14
197.0035324
 24
8.0
 34
0.0
 50
90.0
100
AcDbRotatedDimension
1001
ACAD
1000
DSTYLE
1002
{
1070
     5
1000

1070
   173
1070
     1
1070
     7
1000
OPEN
1070
    75
1070
     1
1070
     6
1000
NONE
1002
}
  0
INSERT
  5
10B9
330
1A
100
AcDbEntity
  8
245
100
AcDbBlockReference
  2
1
 10
0.0
 20
0.0
 30
0.0
  0
VIEWPORT
  5
22
330
17
100
AcDbEntity
 67
     1
  8
0
100
AcDbViewport
 10
261.51769912
 20
148.5
 30
0.0
 40
523.03539823
 41
297.0
 68
     1
 69
     1
1001
ACAD
1000
MVIEW
1002
{
1070
    16
1010
0.0
1020
0.0
1030
0.0
1010
0.0
1020
0.0
1030
1.0
1040
0.0
1040
297.0
1040
261.51769912
1040
148.5
1040
50.0
1040
0.0
1040
0.0
1070
     0
1070
   100
1070
     1
1070
     1
1070
     0
1070
     0
1070
     0
1070
     0
1040
0.0
1040
0.0
1040
0.0
1040
1.0
1040
1.0
1040
10.0
1040
10.0
1070
     0
1002
{
1002
}
1002
}
  0
ENDSEC
  0
SECTION
  2
OBJECTS
  0
DICTIONARY
  5
C
330
0
100
AcDbDictionary
  3
ACAD_GROUP
350
D
  3
ACAD_LAYOUT
350
565
  3
ACAD_MLINESTYLE
350
E
  3
ACAD_PLOTSETTINGS
350
566
  3
ACAD_PLOTSTYLENAME
350
563
  3
ACDBHEADERROUNDTRIPXREC
350
10BB
  3
GRADE_DWG
350
540
  0
DICTIONARY
  5
9B0
330
1A
100
AcDbDictionary
280
     1
  3
ACAD_LAYOUTSELFREF
360
10DD
  0
DICTIONARY
  5
9AE
330
17
100
AcDbDictionary
280
     1
  3
ACAD_LAYOUTSELFREF
360
10DC
  0
DICTIONARY
  5
D
102
{ACAD_REACTORS
330
C
102
}
330
C
100
AcDbDictionary
  3
*A1
350
6C7
  3
*A2
350
6C8
  3
*A3
350
6D4
  3
*A4
350
6D5
  3
DREC-1
350
5FC
  3
DREC-2
350
654
  3
DREC-3
350
673
  0
DICTIONARY
  5
565
102
{ACAD_REACTORS
330
C
102
}
330
C
100
AcDbDictionary
  0
DICTIONARY
  5
E
102
{ACAD_REACTORS
330
C
102
}
330
C
100
AcDbDictionary
  3
STANDARD
350
13
  0
DICTIONARY
  5
566
102
{ACAD_REACTORS
330
C
102
}
330
C
100
AcDbDictionary
  3
A3_0_5倍_
350
758
  3
A3_1倍_
350
757
  3
A3_1倍__2000_
350
707
  3
A3_2倍_
350
759
  3
A4_0_5倍_
350
755
  3
A4_1倍_
350
754
  3
A4_1倍__2000_
350
708
  3
A4_2倍_
350
756
  0
ACDBDICTIONARYWDFLT
  5
563
102
{ACAD_REACTORS
330
C
102
}
330
C
100
AcDbDictionary
281
     1
  3
Normal
350
564
100
AcDbDictionaryWithDefault
340
564
  0
DICTIONARY
  5
10BB
102
{ACAD_REACTORS
330
C
102
}
330
C
100
AcDbDictionary
  3
CEPSNTYPE
350
10C5
  3
DIMSTYLEDATA
350
10C9
  3
FINGERPRINTGUID
350
10C6
  3
HYPERLINKBASE
350
10BE
  3
INSUNITS
350
10C4
  3
LAYOUTDICT
350
10C0
  3
LWETCUNION
350
10C3
  3
PLOTSETDICT
350
10C1
  3
PLOTSTYLNAMDICT
350
10C2
  3
PSVPSCALE
350
10C8
  3
PUCSBASE
350
10CC
  3
PUCSORGBACK
350
10D2
  3
PUCSORGBOTTOM
350
10CE
  3
PUCSORGFRONT
350
10D1
  3
PUCSORGLEFT
350
10CF
  3
PUCSORGRIGHT
350
10D0
  3
PUCSORGTOP
350
10CD
  3
PUCSORTHOREF
350
10CA
  3
PUCSORTHOVIEW
350
10CB
  3
STYLESHEET
350
10BF
  3
TSTACKALIGN
350
10BC
  3
TSTACKSIZE
350
10BD
  3
UCSBASE
350
10D5
  3
UCSORGBACK
350
10DB
  3
UCSORGBOTTOM
350
10D7
  3
UCSORGFRONT
350
10DA
  3
UCSORGLEFT
350
10D8
  3
UCSORGRIGHT
350
10D9
  3
UCSORGTOP
350
10D6
  3
UCSORTHOREF
350
10D3
  3
UCSORTHOVIEW
350
10D4
  3
VERSIONGUID
350
10C7
  0
DICTIONARY
  5
540
102
{ACAD_REACTORS
330
C
102
}
330
C
100
AcDbDictionary
  3
VERSION
350
560
  0
XRECORD
  5
10DD
102
{ACAD_REACTORS
330
9B0
102
}
330
9B0
100
AcDbXrecord
340
1A
  0
XRECORD
  5
10DC
102
{ACAD_REACTORS
330
9AE
102
}
330
9AE
100
AcDbXrecord
340
17
  0
GROUP
  5
6C7
102
{ACAD_REACTORS
330
D
102
}
330
D
100
AcDbGroup
300

 70
     0
 71
     1
1001
GRPNAME
1000
DMA00
  0
GROUP
  5
6C8
102
{ACAD_REACTORS
330
D
102
}
330
D
100
AcDbGroup
300

 70
     0
 71
     1
1001
GRPNAME
1000
DMA00
  0
GROUP
  5
6D4
102
{ACAD_REACTORS
330
D
102
}
330
D
100
AcDbGroup
300

 70
     0
 71
     1
1001
GRPNAME
1000
DMA00
  0
GROUP
  5
6D5
102
{ACAD_REACTORS
330
D
102
}
330
D
100
AcDbGroup
300

 70
     0
 71
     1
1001
GRPNAME
1000
DMA00
  0
GROUP
  5
5FC
102
{ACAD_REACTORS
330
D
102
}
330
D
100
AcDbGroup
300

 70
     0
 71
     1
1001
GRPNAME
1000
DREC-
1001
GPARA
1000
xsiz
1000
44.182
1000
ysiz
1000
40.677
1000
angl
1000
0
1000
ctyp
1000
0
1000
csiz
1000
5
1000
lfnt
1000
cont
1000
hcnt
1000
hoff
1000
vcnt
1000
voff
1000
opnt
1000
4
1000
dxpt
1000
0
1000
dypt
1000
0
  0
GROUP
  5
654
102
{ACAD_REACTORS
330
D
102
}
330
D
100
AcDbGroup
300

 70
     0
 71
     1
1001
GRPNAME
1000
DREC-
1001
GPARA
1000
xsiz
1000
54.592
1000
ysiz
1000
53.036
1000
angl
1000
0
1000
ctyp
1000
0
1000
csiz
1000
5
1000
lfnt
1000
cont
1000
hcnt
1000
hoff
1000
vcnt
1000
voff
1000
opnt
1000
4
1000
dxpt
1000
0
1000
dypt
1000
0
  0
GROUP
  5
673
102
{ACAD_REACTORS
330
D
102
}
330
D
100
AcDbGroup
300

 70
     0
 71
     1
1001
GRPNAME
1000
DREC-
1001
GPARA
1000
xsiz
1000
30.363
1000
ysiz
1000
36.175
1000
angl
1000
0
1000
ctyp
1000
0
1000
csiz
1000
5
1000
lfnt
1000
cont
1000
hcnt
1000
hoff
1000
vcnt
1000
voff
1000
opnt
1000
4
1000
dxpt
1000
0
1000
dypt
1000
0
  0
MLINESTYLE
  5
13
102
{ACAD_REACTORS
330
E
102
}
330
E
100
AcDbMlineStyle
  2
STANDARD
 70
     0
  3

 62
     0
 51
90.0
 52
90.0
 71
     2
 49
0.5
 62
   256
  6
BYLAYER
 49
-0.5
 62
   256
  6
BYLAYER
  0
PLOTSETTINGS
  5
758
102
{ACAD_REACTORS
330
566
102
}
330
566
100
AcDbPlotSettings
  1
A3(0.5倍)
  2
\\AWTECPC05\HP DeskJet 1120C
  4
A3
  6

 40
5.95841646
 41
13.49375153
 42
6.04309082
 43
3.67242432
 44
296.92599487
 45
419.94665527
 46
89.96
 47
127.14
 48
0.0
 49
0.0
140
0.0
141
0.0
142
1.0
143
2.0
 70
  1716
 72
     1
 73
     1
 74
     2
  7
big.ctb
 75
    17
147
0.5
148
0.0
149
0.0
  0
PLOTSETTINGS
  5
757
102
{ACAD_REACTORS
330
566
102
}
330
566
100
AcDbPlotSettings
  1
A3(1倍)
  2
\\AWTECPC05\HP DeskJet 1120C
  4
A3
  6

 40
5.95841646
 41
13.49375153
 42
6.04309082
 43
3.67242432
 44
296.92599487
 45
419.94665527
 46
37.46
 47
52.89
 48
0.0
 49
0.0
140
0.0
141
0.0
142
1.0
143
1.0
 70
  1716
 72
     1
 73
     1
 74
     2
  7
big.ctb
 75
    16
147
1.0
148
0.0
149
0.0
  0
PLOTSETTINGS
  5
707
102
{ACAD_REACTORS
330
566
102
}
330
566
100
AcDbPlotSettings
  1
A3(1倍)(2000)
  2
SII LS-1300 (D-SCAN)
  4
User258
  6

 40
3.17499995
 41
3.17499995
 42
3.17498779
 43
3.17498779
 44
419.98898315
 45
296.98950195
 46
58.32
 47
40.32
 48
0.0
 49
0.0
140
0.0
141
0.0
142
1.0
143
1.0
 70
  1716
 72
     1
 73
     0
 74
     2
  7
big.ctb
 75
    16
147
1.0
148
0.0
149
0.0
  0
PLOTSETTINGS
  5
759
102
{ACAD_REACTORS
330
566
102
}
330
566
100
AcDbPlotSettings
  1
A3(2倍)
  2
\\AWTECPC05\HP DeskJet 1120C
  4
A3
  6

 40
5.95841646
 41
13.49375153
 42
6.04309082
 43
3.67242432
 44
296.92599487
 45
419.94665527
 46
-67.54
 47
-95.61
 48
0.0
 49
0.0
140
0.0
141
0.0
142
1.0
143
0.5
 70
  1716
 72
     1
 73
     1
 74
     2
  7
big.ctb
 75
    27
147
2.0
148
0.0
149
0.0
  0
PLOTSETTINGS
  5
755
102
{ACAD_REACTORS
330
566
102
}
330
566
100
AcDbPlotSettings
  1
A4(0.5倍)
  2
\\AWTECPC05\HP DeskJet 1120C
  4
A4
  6

 40
4.18041658
 41
13.49374962
 42
4.18040466
 43
3.92642212
 44
209.97332764
 45
296.92599487
 46
48.31
 47
65.5
 48
0.0
 49
0.0
140
0.0
141
0.0
142
1.0
143
2.0
 70
  1716
 72
     1
 73
     1
 74
     2
  7
big.ctb
 75
    17
147
0.5
148
0.0
149
0.0
  0
PLOTSETTINGS
  5
754
102
{ACAD_REACTORS
330
566
102
}
330
566
100
AcDbPlotSettings
  1
A4(1倍)
  2
\\AWTECPC05\HP DeskJet 1120C
  4
A4
  6

 40
4.18041658
 41
13.49374962
 42
4.18040466
 43
3.92642212
 44
209.97332764
 45
296.92599487
 46
-4.19
 47
-8.75
 48
0.0
 49
0.0
140
0.0
141
0.0
142
1.0
143
1.0
 70
  1716
 72
     1
 73
     1
 74
     2
  7
big.ctb
 75
    16
147
1.0
148
0.0
149
0.0
  0
PLOTSETTINGS
  5
708
102
{ACAD_REACTORS
330
566
102
}
330
566
100
AcDbPlotSettings
  1
A4(1倍)(2000)
  2
SII LS-1300 (D-SCAN)
  4
User259
  6

 40
3.17499995
 41
3.17499995
 42
3.17498779
 43
3.17500305
 44
296.98950195
 45
209.99449158
 46
-3.18
 47
-3.18
 48
0.0
 49
0.0
140
0.0
141
0.0
142
1.0
143
1.0
 70
  1716
 72
     1
 73
     0
 74
     2
  7
big.ctb
 75
    16
147
1.0
148
0.0
149
0.0
  0
PLOTSETTINGS
  5
756
102
{ACAD_REACTORS
330
566
102
}
330
566
100
AcDbPlotSettings
  1
A4(2倍)
  2
\\AWTECPC05\HP DeskJet 1120C
  4
A4
  6

 40
4.18041658
 41
13.49374962
 42
4.18040466
 43
3.92642212
 44
209.97332764
 45
296.92599487
 46
-109.19
 47
-157.25
 48
0.0
 49
0.0
140
0.0
141
0.0
142
1.0
143
0.5
 70
  1716
 72
     1
 73
     1
 74
     2
  7
big.ctb
 75
    27
147
2.0
148
0.0
149
0.0
  0
ACDBPLACEHOLDER
  5
564
102
{ACAD_REACTORS
330
563
102
}
330
563
100
AcDbPlaceHolder
280
     0
  0
XRECORD
  5
10C5
102
{ACAD_REACTORS
330
10BB
102
}
330
10BB
100
AcDbXrecord
 90
        0
  0
XRECORD
  5
10C9
102
{ACAD_REACTORS
330
10BB
102
}
330
10BB
100
AcDbXrecord
1000
DSTYLE
1002
{
1070
   341
340
594
1070
   343
340
594
1070
   344
340
594
1002
}
  0
XRECORD
  5
10C6
102
{ACAD_REACTORS
330
10BB
102
}
330
10BB
100
AcDbXrecord
  1
{51294030-9CB4-11D3-8E18-00A0C925D94D}
  0
XRECORD
  5
10BE
102
{ACAD_REACTORS
330
10BB
102
}
330
10BB
100
AcDbXrecord
  1

  0
XRECORD
  5
10C4
102
{ACAD_REACTORS
330
10BB
102
}
330
10BB
100
AcDbXrecord
 90
        0
  0
XRECORD
  5
10C0
102
{ACAD_REACTORS
330
10BB
102
}
330
10BB
100
AcDbXrecord
340
565
  0
XRECORD
  5
10C3
102
{ACAD_REACTORS
330
10BB
102
}
330
10BB
100
AcDbXrecord
 90
    10781
  0
XRECORD
  5
10C1
102
{ACAD_REACTORS
330
10BB
102
}
330
10BB
100
AcDbXrecord
340
566
  0
XRECORD
  5
10C2
102
{ACAD_REACTORS
330
10BB
102
}
330
10BB
100
AcDbXrecord
340
563
  0
XRECORD
  5
10C8
102
{ACAD_REACTORS
330
10BB
102
}
330
10BB
100
AcDbXrecord
 40
0.0
  0
XRECORD
  5
10CC
102
{ACAD_REACTORS
330
10BB
102
}
330
10BB
100
AcDbXrecord
340
0
  0
XRECORD
  5
10D2
102
{ACAD_REACTORS
330
10BB
102
}
330
10BB
100
AcDbXrecord
 10
0.0
 20
0.0
 30
0.0
  0
XRECORD
  5
10CE
102
{ACAD_REACTORS
330
10BB
102
}
330
10BB
100
AcDbXrecord
 10
0.0
 20
0.0
 30
0.0
  0
XRECORD
  5
10D1
102
{ACAD_REACTORS
330
10BB
102
}
330
10BB
100
AcDbXrecord
 10
0.0
 20
0.0
 30
0.0
  0
XRECORD
  5
10CF
102
{ACAD_REACTORS
330
10BB
102
}
330
10BB
100
AcDbXrecord
 10
0.0
 20
0.0
 30
0.0
  0
XRECORD
  5
10D0
102
{ACAD_REACTORS
330
10BB
102
}
330
10BB
100
AcDbXrecord
 10
0.0
 20
0.0
 30
0.0
  0
XRECORD
  5
10CD
102
{ACAD_REACTORS
330
10BB
102
}
330
10BB
100
AcDbXrecord
 10
0.0
 20
0.0
 30
0.0
  0
XRECORD
  5
10CA
102
{ACAD_REACTORS
330
10BB
102
}
330
10BB
100
AcDbXrecord
340
0
  0
XRECORD
  5
10CB
102
{ACAD_REACTORS
330
10BB
102
}
330
10BB
100
AcDbXrecord
 70
     0
  0
XRECORD
  5
10BF
102
{ACAD_REACTORS
330
10BB
102
}
330
10BB
100
AcDbXrecord
  1
big.ctb
  0
XRECORD
  5
10BC
102
{ACAD_REACTORS
330
10BB
102
}
330
10BB
100
AcDbXrecord
 90
        1
  0
XRECORD
  5
10BD
102
{ACAD_REACTORS
330
10BB
102
}
330
10BB
100
AcDbXrecord
 90
       70
  0
XRECORD
  5
10D5
102
{ACAD_REACTORS
330
10BB
102
}
330
10BB
100
AcDbXrecord
340
0
  0
XRECORD
  5
10DB
102
{ACAD_REACTORS
330
10BB
102
}
330
10BB
100
AcDbXrecord
 10
0.0
 20
0.0
 30
0.0
  0
XRECORD
  5
10D7
102
{ACAD_REACTORS
330
10BB
102
}
330
10BB
100
AcDbXrecord
 10
0.0
 20
0.0
 30
0.0
  0
XRECORD
  5
10DA
102
{ACAD_REACTORS
330
10BB
102
}
330
10BB
100
AcDbXrecord
 10
0.0
 20
0.0
 30
0.0
  0
XRECORD
  5
10D8
102
{ACAD_REACTORS
330
10BB
102
}
330
10BB
100
AcDbXrecord
 10
0.0
 20
0.0
 30
0.0
  0
XRECORD
  5
10D9
102
{ACAD_REACTORS
330
10BB
102
}
330
10BB
100
AcDbXrecord
 10
0.0
 20
0.0
 30
0.0
  0
XRECORD
  5
10D6
102
{ACAD_REACTORS
330
10BB
102
}
330
10BB
100
AcDbXrecord
 10
0.0
 20
0.0
 30
0.0
  0
XRECORD
  5
10D3
102
{ACAD_REACTORS
330
10BB
102
}
330
10BB
100
AcDbXrecord
340
0
  0
XRECORD
  5
10D4
102
{ACAD_REACTORS
330
10BB
102
}
330
10BB
100
AcDbXrecord
 70
     0
  0
XRECORD
  5
10C7
102
{ACAD_REACTORS
330
10BB
102
}
330
10BB
100
AcDbXrecord
  1
{C899EDCF-052C-46DC-B53C-F8800578AE73}
  0
XRECORD
  5
560
102
{ACAD_REACTORS
330
540
102
}
330
540
100
AcDbXrecord
  1
2.0.0
  0
ENDSEC
  0
EOF
