  0
SECTION
  2
HEADER
  9
$ACADVER
  1
AC1014
  9
$ACADMAINTVER
 70
     9
  9
$DWGCODEPAGE
  3
ANSI_932
  9
$INSBASE
 10
0.0
 20
0.0
 30
0.0
  9
$EXTMIN
 10
-39.0140065
 20
-31.70963713
 30
-0.00152582
  9
$EXTMAX
 10
217.00932395
 20
71.51054552
 30
0.00000003
  9
$LIMMIN
 10
0.0
 20
0.0
  9
$LIMMAX
 10
420.0
 20
297.0
  9
$ORTHOMODE
 70
     0
  9
$REGENMODE
 70
     1
  9
$FILLMODE
 70
     1
  9
$QTEXTMODE
 70
     0
  9
$MIRRTEXT
 70
     1
  9
$DRAGMODE
 70
     2
  9
$LTSCALE
 40
10.0
  9
$OSMODE
 70
   549
  9
$ATTMODE
 70
     1
  9
$TEXTSIZE
 40
3.0
  9
$TRACEWID
 40
1.0
  9
$TEXTSTYLE
  7
YOKO
  9
$CLAYER
  8
245
  9
$CELTYPE
  6
BYLAYER
  9
$CECOLOR
 62
   256
  9
$CELTSCALE
 40
1.0
  9
$DELOBJ
 70
     1
  9
$DISPSILH
 70
     0
  9
$DIMSCALE
 40
1.0
  9
$DIMASZ
 40
2.0
  9
$DIMEXO
 40
2.0
  9
$DIMDLI
 40
2.5
  9
$DIMRND
 40
0.0
  9
$DIMDLE
 40
0.0
  9
$DIMEXE
 40
2.0
  9
$DIMTP
 40
0.0
  9
$DIMTM
 40
0.0
  9
$DIMTXT
 40
4.0
  9
$DIMCEN
 40
0.0
  9
$DIMTSZ
 40
0.0
  9
$DIMTOL
 70
     0
  9
$DIMLIM
 70
     0
  9
$DIMTIH
 70
     0
  9
$DIMTOH
 70
     0
  9
$DIMSE1
 70
     0
  9
$DIMSE2
 70
     0
  9
$DIMTAD
 70
     3
  9
$DIMZIN
 70
     8
  9
$DIMBLK
  1

  9
$DIMASO
 70
     1
  9
$DIMSHO
 70
     1
  9
$DIMPOST
  1

  9
$DIMAPOST
  1

  9
$DIMALT
 70
     0
  9
$DIMALTD
 70
     2
  9
$DIMALTF
 40
25.4
  9
$DIMLFAC
 40
1.0
  9
$DIMTOFL
 70
     1
  9
$DIMTVP
 40
0.0
  9
$DIMTIX
 70
     1
  9
$DIMSOXD
 70
     0
  9
$DIMSAH
 70
     1
  9
$DIMBLK1
  1
OPEN
  9
$DIMBLK2
  1
OPEN
  9
$DIMSTYLE
  2
BIGT
  9
$DIMCLRD
 70
   256
  9
$DIMCLRE
 70
   256
  9
$DIMCLRT
 70
    40
  9
$DIMTFAC
 40
1.0
  9
$DIMGAP
 40
1.0
  9
$DIMJUST
 70
     0
  9
$DIMSD1
 70
     0
  9
$DIMSD2
 70
     0
  9
$DIMTOLJ
 70
     1
  9
$DIMTZIN
 70
     8
  9
$DIMALTZ
 70
     0
  9
$DIMALTTZ
 70
     0
  9
$DIMFIT
 70
     3
  9
$DIMUPT
 70
     0
  9
$DIMUNIT
 70
     2
  9
$DIMDEC
 70
     3
  9
$DIMTDEC
 70
     3
  9
$DIMALTU
 70
     2
  9
$DIMALTTD
 70
     2
  9
$DIMTXSTY
  7
STANDARD
  9
$DIMAUNIT
 70
     0
  9
$LUNITS
 70
     2
  9
$LUPREC
 70
     3
  9
$SKETCHINC
 40
1.0
  9
$FILLETRAD
 40
10.0
  9
$AUNITS
 70
     0
  9
$AUPREC
 70
     3
  9
$MENU
  1
.
  9
$ELEVATION
 40
0.0
  9
$PELEVATION
 40
0.0
  9
$THICKNESS
 40
0.0
  9
$LIMCHECK
 70
     0
  9
$BLIPMODE
 70
     0
  9
$CHAMFERA
 40
10.0
  9
$CHAMFERB
 40
10.0
  9
$CHAMFERC
 40
0.0
  9
$CHAMFERD
 40
0.0
  9
$SKPOLY
 70
     0
  9
$TDCREATE
 40
2454965.578475289
  9
$TDUPDATE
 40
2455209.592973992
  9
$TDINDWG
 40
0.0679376273
  9
$TDUSRTIMER
 40
0.0679376273
  9
$USRTIMER
 70
     1
  9
$ANGBASE
 50
0.0
  9
$ANGDIR
 70
     0
  9
$PDMODE
 70
    35
  9
$PDSIZE
 40
-5.0
  9
$PLINEWID
 40
0.0
  9
$COORDS
 70
     2
  9
$SPLFRAME
 70
     0
  9
$SPLINETYPE
 70
     6
  9
$SPLINESEGS
 70
     8
  9
$ATTDIA
 70
     0
  9
$ATTREQ
 70
     1
  9
$HANDLING
 70
-16383
  9
$HANDSEED
  5
10B8
  9
$SURFTAB1
 70
     6
  9
$SURFTAB2
 70
     6
  9
$SURFTYPE
 70
     6
  9
$SURFU
 70
     6
  9
$SURFV
 70
     6
  9
$UCSNAME
  2

  9
$UCSORG
 10
0.0
 20
0.0
 30
0.0
  9
$UCSXDIR
 10
1.0
 20
0.0
 30
0.0
  9
$UCSYDIR
 10
0.0
 20
1.0
 30
0.0
  9
$PUCSNAME
  2

  9
$PUCSORG
 10
0.0
 20
0.0
 30
0.0
  9
$PUCSXDIR
 10
1.0
 20
0.0
 30
0.0
  9
$PUCSYDIR
 10
0.0
 20
1.0
 30
0.0
  9
$USERI1
 70
     1
  9
$USERI2
 70
     0
  9
$USERI3
 70
     0
  9
$USERI4
 70
     0
  9
$USERI5
 70
     0
  9
$USERR1
 40
0.0
  9
$USERR2
 40
0.0
  9
$USERR3
 40
0.0
  9
$USERR4
 40
0.0
  9
$USERR5
 40
0.0
  9
$WORLDVIEW
 70
     1
  9
$SHADEDGE
 70
     3
  9
$SHADEDIF
 70
    70
  9
$TILEMODE
 70
     1
  9
$MAXACTVP
 70
    16
  9
$PINSBASE
 10
0.0
 20
0.0
 30
0.0
  9
$PLIMCHECK
 70
     0
  9
$PEXTMIN
 10
1.00000000E+20
 20
1.00000000E+20
 30
1.00000000E+20
  9
$PEXTMAX
 10
-1.00000000E+20
 20
-1.00000000E+20
 30
-1.00000000E+20
  9
$PLIMMIN
 10
0.0
 20
0.0
  9
$PLIMMAX
 10
420.0
 20
297.0
  9
$UNITMODE
 70
     0
  9
$VISRETAIN
 70
     0
  9
$PLINEGEN
 70
     0
  9
$PSLTSCALE
 70
     1
  9
$TREEDEPTH
 70
  3020
  9
$PICKSTYLE
 70
     0
  9
$CMLSTYLE
  2
STANDARD
  9
$CMLJUST
 70
     0
  9
$CMLSCALE
 40
1.0
  9
$PROXYGRAPHICS
 70
     1
  9
$MEASUREMENT
 70
     1
  0
ENDSEC
  0
SECTION
  2
CLASSES
  0
CLASS
  1
XRECORD
  2
AcDbXrecord
  3
AutoCAD 2000
 90
        0
280
     0
281
     0
  0
CLASS
  1
ACDBDICTIONARYWDFLT
  2
AcDbDictionaryWithDefault
  3
AutoCAD 2000
 90
        0
280
     0
281
     0
  0
CLASS
  1
ACDBPLACEHOLDER
  2
AcDbPlaceHolder
  3
AutoCAD 2000
 90
        0
280
     0
281
     0
  0
CLASS
  1
LAYOUT
  2
AcDbLayout
  3
AutoCAD 2000
 90
        0
280
     0
281
     0
  0
CLASS
  1
PLOTSETTINGS
  2
AcDbPlotSettings
  3
AutoCAD 2000
 90
        0
280
     0
281
     0
  0
CLASS
  1
LONG_TRANSACTION
  2
AcDbLongTransaction
  3
AutoCAD 2000
 90
        0
280
     0
281
     0
  0
CLASS
  1
LWPOLYLINE
  2
AcDbPolyline
  3
AutoCAD 2000
 90
        0
280
     0
281
     1
  0
CLASS
  1
HATCH
  2
AcDbHatch
  3
AutoCAD 2000
 90
        0
280
     0
281
     1
  0
CLASS
  1
XRECORD
  2
AcDbXrecord
  3
AutoCAD 2000
 90
        0
280
     0
281
     0
  0
CLASS
  1
LONG_TRANSACTION
  2
AcDbLongTransaction
  3
AutoCAD 2000
 90
        0
280
     0
281
     0
  0
CLASS
  1
LWPOLYLINE
  2
AcDbPolyline
  3
AutoCAD 2000
 90
        0
280
     0
281
     1
  0
CLASS
  1
HATCH
  2
AcDbHatch
  3
AutoCAD 2000
 90
        0
280
     0
281
     1
  0
CLASS
  1
XRECORD
  2
AcDbXrecord
  3
AutoCAD 2000
 90
        0
280
     0
281
     0
  0
CLASS
  1
LONG_TRANSACTION
  2
AcDbLongTransaction
  3
AutoCAD 2000
 90
        0
280
     0
281
     0
  0
CLASS
  1
LWPOLYLINE
  2
AcDbPolyline
  3
AutoCAD 2000
 90
        0
280
     0
281
     1
  0
CLASS
  1
HATCH
  2
AcDbHatch
  3
AutoCAD 2000
 90
        0
280
     0
281
     1
  0
CLASS
  1
XRECORD
  2
AcDbXrecord
  3
AutoCAD 2000
 90
        0
280
     0
281
     0
  0
CLASS
  1
LONG_TRANSACTION
  2
AcDbLongTransaction
  3
AutoCAD 2000
 90
        0
280
     0
281
     0
  0
CLASS
  1
LWPOLYLINE
  2
AcDbPolyline
  3
AutoCAD 2000
 90
        0
280
     0
281
     1
  0
CLASS
  1
HATCH
  2
AcDbHatch
  3
AutoCAD 2000
 90
        0
280
     0
281
     1
  0
CLASS
  1
XRECORD
  2
AcDbXrecord
  3
AutoCAD 2000
 90
        0
280
     0
281
     0
  0
CLASS
  1
LONG_TRANSACTION
  2
AcDbLongTransaction
  3
AutoCAD 2000
 90
        0
280
     0
281
     0
  0
CLASS
  1
LWPOLYLINE
  2
AcDbPolyline
  3
AutoCAD 2000
 90
        0
280
     0
281
     1
  0
CLASS
  1
HATCH
  2
AcDbHatch
  3
AutoCAD 2000
 90
        0
280
     0
281
     1
  0
CLASS
  1
XRECORD
  2
AcDbXrecord
  3
AutoCAD 2000
 90
        0
280
     0
281
     0
  0
CLASS
  1
LONG_TRANSACTION
  2
AcDbLongTransaction
  3
AutoCAD 2000
 90
        0
280
     0
281
     0
  0
CLASS
  1
LWPOLYLINE
  2
AcDbPolyline
  3
AutoCAD 2000
 90
        0
280
     0
281
     1
  0
CLASS
  1
HATCH
  2
AcDbHatch
  3
AutoCAD 2000
 90
        0
280
     0
281
     1
  0
CLASS
  1
XRECORD
  2
AcDbXrecord
  3
AutoCAD 2000
 90
        0
280
     0
281
     0
  0
ENDSEC
  0
SECTION
  2
TABLES
  0
TABLE
  2
VPORT
  5
8
330
0
100
AcDbSymbolTable
 70
     2
  0
VPORT
  5
1093
330
8
100
AcDbSymbolTableRecord
100
AcDbViewportTableRecord
  2
*ACTIVE
 70
     0
 10
0.0
 20
0.0
 11
1.0
 21
1.0
 12
88.99765873
 22
19.90045419
 13
0.0
 23
0.0
 14
7.0
 24
7.0
 15
7.0
 25
7.0
 16
0.0
 26
0.0
 36
1.0
 17
0.0
 27
0.0
 37
0.0
 40
179.75959737
 41
1.43184713
 42
50.0
 43
0.0
 44
0.0
 50
0.0
 51
0.0
 71
     0
 72
  2000
 73
     1
 74
     0
 75
     0
 76
     0
 77
     0
 78
     0
  0
ENDTAB
  0
TABLE
  2
LTYPE
  5
5
330
0
100
AcDbSymbolTable
 70
     3
  0
LTYPE
  5
14
330
5
100
AcDbSymbolTableRecord
100
AcDbLinetypeTableRecord
  2
BYBLOCK
 70
     0
  3

 72
    65
 73
     0
 40
0.0
  0
LTYPE
  5
15
330
5
100
AcDbSymbolTableRecord
100
AcDbLinetypeTableRecord
  2
BYLAYER
 70
     0
  3

 72
    65
 73
     0
 40
0.0
  0
LTYPE
  5
16
330
5
100
AcDbSymbolTableRecord
100
AcDbLinetypeTableRecord
  2
CONTINUOUS
 70
     0
  3
Solid line
 72
    65
 73
     0
 40
0.0
  0
LTYPE
  5
258
330
5
100
AcDbSymbolTableRecord
100
AcDbLinetypeTableRecord
  2
CENTER2
 70
     0
  3
___ _ ___ _ ___ _ ___ _ ___ _ ___ _ ___ _ ___ _
 72
    65
 73
     4
 40
1.125
 49
0.75
 74
     0
 49
-0.125
 74
     0
 49
0.125
 74
     0
 49
-0.125
 74
     0
  0
LTYPE
  5
25C
330
5
100
AcDbSymbolTableRecord
100
AcDbLinetypeTableRecord
  2
HIDDEN2
 70
     0
  3
_ _ _ _ _ _ _ _ _ _ _ _ _ _ _ _ _ _ _ _ _ _ _ _
 72
    65
 73
     2
 40
0.1875
 49
0.125
 74
     0
 49
-0.0625
 74
     0
  0
ENDTAB
  0
TABLE
  2
LAYER
  5
2
330
0
100
AcDbSymbolTable
 70
     9
  0
LAYER
  5
F
330
2
100
AcDbSymbolTableRecord
100
AcDbLayerTableRecord
  2
0
 70
     0
 62
     7
  6
CONTINUOUS
  0
LAYER
  5
1AA
330
2
100
AcDbSymbolTableRecord
100
AcDbLayerTableRecord
  2
240
 70
     0
 62
     4
  6
CONTINUOUS
  0
LAYER
  5
1AB
330
2
100
AcDbSymbolTableRecord
100
AcDbLayerTableRecord
  2
241
 70
     0
 62
   211
  6
CONTINUOUS
  0
LAYER
  5
1AF
330
2
100
AcDbSymbolTableRecord
100
AcDbLayerTableRecord
  2
245
 70
     0
 62
     2
  6
CENTER2
  0
LAYER
  5
21E
330
2
100
AcDbSymbolTableRecord
100
AcDbLayerTableRecord
  2
250
 70
     0
 62
     3
  6
CONTINUOUS
  0
LAYER
  5
21F
330
2
100
AcDbSymbolTableRecord
100
AcDbLayerTableRecord
  2
251
 70
     0
 62
    40
  6
CONTINUOUS
  0
LAYER
  5
5C4
330
2
100
AcDbSymbolTableRecord
100
AcDbLayerTableRecord
  2
DEFPOINTS
 70
     0
 62
     7
  6
CONTINUOUS
  0
LAYER
  5
9BB
330
2
100
AcDbSymbolTableRecord
100
AcDbLayerTableRecord
  2
242
 70
     0
 62
     3
  6
CONTINUOUS
  0
ENDTAB
  0
TABLE
  2
STYLE
  5
3
330
0
100
AcDbSymbolTable
 70
     2
  0
STYLE
  5
10
330
3
100
AcDbSymbolTableRecord
100
AcDbTextStyleTableRecord
  2
STANDARD
 70
     0
 40
0.0
 41
1.0
 50
0.0
 71
     0
 42
3.0
  3
romans.shx
  4
BIGFONT.SHX
  0
STYLE
  5
339
330
3
100
AcDbSymbolTableRecord
100
AcDbTextStyleTableRecord
  2
YOKO
 70
     0
 40
0.0
 41
1.0
 50
0.0
 71
     0
 42
3.0
  3
romans.shx
  4
extfont.shx
  0
ENDTAB
  0
TABLE
  2
VIEW
  5
6
330
0
100
AcDbSymbolTable
 70
     1
  0
VIEW
  5
C64
330
6
100
AcDbSymbolTableRecord
100
AcDbViewTableRecord
  2
OLE1
 70
     0
 40
180.4726364
 10
89.50543308
 20
19.90045419
 41
258.40922715
 11
0.0
 21
0.0
 31
1.0
 12
0.0
 22
0.0
 32
0.0
 42
50.0
 43
0.0
 44
0.0
 50
0.0
 71
     0
  0
ENDTAB
  0
TABLE
  2
UCS
  5
7
330
0
100
AcDbSymbolTable
 70
     0
  0
ENDTAB
  0
TABLE
  2
APPID
  5
9
330
0
100
AcDbSymbolTable
 70
     9
  0
APPID
  5
11
330
9
100
AcDbSymbolTableRecord
100
AcDbRegAppTableRecord
  2
ACAD
 70
     0
  0
APPID
  5
1B1
330
9
100
AcDbSymbolTableRecord
100
AcDbRegAppTableRecord
  2
GLOBAL
 70
     0
  0
APPID
  5
2A4
330
9
100
AcDbSymbolTableRecord
100
AcDbRegAppTableRecord
  2
DETAIL
 70
     0
  0
APPID
  5
5FD
330
9
100
AcDbSymbolTableRecord
100
AcDbRegAppTableRecord
  2
GRPNAME
 70
     0
  0
APPID
  5
5FE
330
9
100
AcDbSymbolTableRecord
100
AcDbRegAppTableRecord
  2
GPARA
 70
     0
  0
APPID
  5
6C4
330
9
100
AcDbSymbolTableRecord
100
AcDbRegAppTableRecord
  2
DCO15
 70
     0
  0
APPID
  5
6C5
330
9
100
AcDbSymbolTableRecord
100
AcDbRegAppTableRecord
  2
ITEMNAME
 70
     0
  0
APPID
  5
6C6
330
9
100
AcDbSymbolTableRecord
100
AcDbRegAppTableRecord
  2
GRADE_0
 70
     0
  0
APPID
  5
9AF
330
9
100
AcDbSymbolTableRecord
100
AcDbRegAppTableRecord
  2
CONTENTBLOCKICON
 70
     0
  0
ENDTAB
  0
TABLE
  2
DIMSTYLE
  5
A
330
0
100
AcDbSymbolTable
 70
     5
  0
DIMSTYLE
105
725
330
A
100
AcDbSymbolTableRecord
100
AcDbDimStyleTableRecord
  2
BIGT
 70
     0
  3

  4

  5

  6
OPEN
  7
OPEN
 40
1.0
 41
2.23
 42
0.5
 43
2.5
 44
1.0
 45
0.0
 46
0.0
 47
0.0
 48
0.0
140
2.8
141
0.0
142
0.0
143
25.4
144
1.0
145
0.0
146
1.0
147
1.0
 71
     0
 72
     0
 73
     0
 74
     0
 75
     0
 76
     0
 77
     3
 78
     8
170
     0
171
     2
172
     1
173
     1
174
     1
175
     0
176
   256
177
   256
178
    40
270
     2
271
     3
272
     3
273
     2
274
     2
340
10
275
     0
280
     0
281
     0
282
     0
283
     1
284
     8
285
     0
286
     0
287
     3
288
     0
  0
DIMSTYLE
105
7D4
102
{ACAD_REACTORS
330
AFE
330
AFF
330
B00
330
FEA
330
FEB
102
}
330
A
100
AcDbSymbolTableRecord
100
AcDbDimStyleTableRecord
  2
BIGT$0
 70
     0
  3

  4
"
  5
OPEN
  6

  7

 40
1.0
 41
2.23
 42
0.5
 43
7.0
 44
1.0
 45
0.0
 46
0.0
 47
0.1
 48
0.1
140
3.0
141
0.0
142
0.0
143
0.0393701
144
1.0
145
0.0
146
0.71
147
1.0
 71
     0
 72
     0
 73
     0
 74
     0
 75
     0
 76
     0
 77
     3
 78
     8
170
     0
171
     2
172
     1
173
     0
174
     0
175
     0
176
     3
177
     3
178
    40
270
     2
271
     3
272
     3
273
     2
274
     2
340
10
275
     0
280
     0
281
     0
282
     0
283
     1
284
     8
285
     0
286
     0
287
     3
288
     0
  0
ENDTAB
  0
TABLE
  2
BLOCK_RECORD
  5
1
330
0
100
AcDbSymbolTable
 70
    16
  0
BLOCK_RECORD
  5
1A
102
{ACAD_XDICTIONARY
360
9AD
102
}
330
1
100
AcDbSymbolTableRecord
100
AcDbBlockTableRecord
  2
*MODEL_SPACE
  0
BLOCK_RECORD
  5
17
102
{ACAD_XDICTIONARY
360
9AB
102
}
330
1
100
AcDbSymbolTableRecord
100
AcDbBlockTableRecord
  2
*PAPER_SPACE
  0
BLOCK_RECORD
  5
594
330
1
100
AcDbSymbolTableRecord
100
AcDbBlockTableRecord
  2
_OPEN
  0
BLOCK_RECORD
  5
6E3
330
1
100
AcDbSymbolTableRecord
100
AcDbBlockTableRecord
  2
矢印なし
  0
BLOCK_RECORD
  5
76C
330
1
100
AcDbSymbolTableRecord
100
AcDbBlockTableRecord
  2
1
1001
CONTENTBLOCKICON
1071
        0
1004
2800000020000000200000000100080000000000000400000000000000000000000000000000000000000000000080000080000000808000800000008000800080800000C0C0C000C0DCC000F0CAA6000020400000206000002080000020A0000020C0000020E00000400000004020000040400000406000004080000040A0
1004
000040C0000040E00000600000006020000060400000606000006080000060A0000060C0000060E00000800000008020000080400000806000008080000080A0000080C0000080E00000A0000000A0200000A0400000A0600000A0800000A0A00000A0C00000A0E00000C0000000C0200000C0400000C0600000C0800000C0
1004
A00000C0C00000C0E00000E0000000E0200000E0400000E0600000E0800000E0A00000E0C00000E0E00040000000400020004000400040006000400080004000A0004000C0004000E00040200000402020004020400040206000402080004020A0004020C0004020E000404000004040200040404000404060004040800040
1004
40A0004040C0004040E00040600000406020004060400040606000406080004060A0004060C0004060E00040800000408020004080400040806000408080004080A0004080C0004080E00040A0000040A0200040A0400040A0600040A0800040A0A00040A0C00040A0E00040C0000040C0200040C0400040C0600040C08000
1004
40C0A00040C0C00040C0E00040E0000040E0200040E0400040E0600040E0800040E0A00040E0C00040E0E00080000000800020008000400080006000800080008000A0008000C0008000E00080200000802020008020400080206000802080008020A0008020C0008020E00080400000804020008040400080406000804080
1004
008040A0008040C0008040E00080600000806020008060400080606000806080008060A0008060C0008060E00080800000808020008080400080806000808080008080A0008080C0008080E00080A0000080A0200080A0400080A0600080A0800080A0A00080A0C00080A0E00080C0000080C0200080C0400080C0600080C0
1004
800080C0A00080C0C00080C0E00080E0000080E0200080E0400080E0600080E0800080E0A00080E0C00080E0E000C0000000C0002000C0004000C0006000C0008000C000A000C000C000C000E000C0200000C0202000C0204000C0206000C0208000C020A000C020C000C020E000C0400000C0402000C0404000C0406000C0
1004
408000C040A000C040C000C040E000C0600000C0602000C0604000C0606000C0608000C060A000C060C000C060E000C0800000C0802000C0804000C0806000C0808000C080A000C080C000C080E000C0A00000C0A02000C0A04000C0A06000C0A08000C0A0A000C0A0C000C0A0E000C0C00000C0C02000C0C04000C0C06000
1004
C0C08000C0C0A000F0FBFF00A4A0A000808080000000FF0000FF000000FFFF00FF000000FF00FF00FFFF0000FFFFFF0000000000000000000000000000000000000000000000000000000000000000000000000000000000000000000000000000000000000000000000000000000000000000000000000000000000000000
1004
00000000000000000000000000000000000000000000000000000000000000000000000000000000000000000000000000000000000000000000000000000000000000000000000000000000000000000000000000000000000000000000000000000000000000000000000000000000000000000000000000000000000000
1004
00000000000000000000000000000000000000000000000000000000000000000000000000000000000000000000000000000000000000000000000000000000000000000000000000000000000000000000000000000000000000000000000000000000000000000000000000000000000000000000000000000000000000
1004
000000000000000000000000000000000000000000000000000000000000000000000000000000000000000000000000000000000000000000FEFEFEFE000000000000000000000000000000000000000000000000FAFEFEFEFEE7E7FEFEFEFEFEFEFEFEFEFEFEFEFEFEFEFEFEFEFEFEFE00000000FE000000E7E7E7E70000
1004
0000000000000000000000000000FEE700FE00000000FE000000E70000E700000000000000000000000000000000E7E700FE000000FBFEFBFBFBE7FBFBE7FBFBFBFBFBFBFBFBFBE7FAFAFAFAE7E7E7E7FBE7FB000000E7000000E7E7E7E700000000000000000000000000000000E7FAE7E700000000FEFEFEFEFEE7E7FEFE
1004
FEFEFEFEFEFEFEFEFEFEFEFEFEFEFEFEFEFEFE0000000000000000FEFEFEFE000000000000000000000000000000000000000000000000000000000000000000000000000000000000000000000000000000000000000000000000000000000000000000000000000000000000000000000000000000000000000000000000
1004
00000000000000000000000000000000000000000000000000000000000000000000000000000000000000000000000000000000000000000000000000000000000000000000000000000000000000000000000000000000000000000000000000000000000000000000000000000000000000000000000000000000000000
1004
00000000000000000000000000000000000000000000000000000000000000000000000000000000000000000000000000000000000000000000000000000000000000000000000000000000000000000000000000000000000000000000000000000000000000000000000000000000000000000000000000000000000000
1004
0000000000000000000000000000000000000000000000000000000000000000000000000000000000000000000000000000000000000000
  0
BLOCK_RECORD
  5
7AF
330
1
100
AcDbSymbolTableRecord
100
AcDbBlockTableRecord
  2
_NONE
  0
BLOCK_RECORD
  5
B03
330
1
100
AcDbSymbolTableRecord
100
AcDbBlockTableRecord
  2
*D4
  0
BLOCK_RECORD
  5
B0F
330
1
100
AcDbSymbolTableRecord
100
AcDbBlockTableRecord
  2
*D5
  0
BLOCK_RECORD
  5
B1B
330
1
100
AcDbSymbolTableRecord
100
AcDbBlockTableRecord
  2
*D6
  0
BLOCK_RECORD
  5
FF2
330
1
100
AcDbSymbolTableRecord
100
AcDbBlockTableRecord
  2
*D13
  0
BLOCK_RECORD
  5
FFC
330
1
100
AcDbSymbolTableRecord
100
AcDbBlockTableRecord
  2
*D14
  0
ENDTAB
  0
ENDSEC
  0
SECTION
  2
BLOCKS
  0
BLOCK
  5
1B
330
1A
100
AcDbEntity
  8
0
100
AcDbBlockBegin
  2
*MODEL_SPACE
 70
     0
 10
0.0
 20
0.0
 30
0.0
  3
*MODEL_SPACE
  1

  0
ENDBLK
  5
1C
330
1A
100
AcDbEntity
  8
0
100
AcDbBlockEnd
  0
BLOCK
  5
18
330
17
100
AcDbEntity
 67
     1
  8
0
100
AcDbBlockBegin
  2
*PAPER_SPACE
 70
     0
 10
0.0
 20
0.0
 30
0.0
  3
*PAPER_SPACE
  1

  0
ENDBLK
  5
19
330
17
100
AcDbEntity
 67
     1
  8
0
100
AcDbBlockEnd
  0
BLOCK
  5
598
330
594
100
AcDbEntity
  8
0
100
AcDbBlockBegin
  2
_OPEN
 70
     0
 10
0.0
 20
0.0
 30
0.0
  3
_OPEN
  1

  0
LINE
  5
595
330
594
100
AcDbEntity
  8
0
  6
BYBLOCK
 62
     0
100
AcDbLine
 10
-1.0
 20
0.16666667
 30
0.0
 11
0.0
 21
0.0
 31
0.0
  0
LINE
  5
596
330
594
100
AcDbEntity
  8
0
  6
BYBLOCK
 62
     0
100
AcDbLine
 10
-1.0
 20
-0.16666667
 30
0.0
 11
0.0
 21
0.0
 31
0.0
  0
LINE
  5
597
330
594
100
AcDbEntity
  8
0
  6
BYBLOCK
 62
     0
100
AcDbLine
 10
0.0
 20
0.0
 30
0.0
 11
-1.0
 21
0.0
 31
0.0
  0
ENDBLK
  5
599
330
594
100
AcDbEntity
  8
0
100
AcDbBlockEnd
  0
BLOCK
  5
6E4
330
6E3
100
AcDbEntity
  8
0
100
AcDbBlockBegin
  2
矢印なし
 70
     0
 10
0.0
 20
0.0
 30
0.0
  3
矢印なし
  1

  0
ENDBLK
  5
6E5
330
6E3
100
AcDbEntity
  8
0
100
AcDbBlockEnd
  0
BLOCK
  5
7AD
330
76C
100
AcDbEntity
  8
0
100
AcDbBlockBegin
  2
1
 70
     0
 10
0.0
 20
0.0
 30
0.0
  3
1
  1

  0
LINE
  5
102C
330
76C
100
AcDbEntity
  8
241
  6
HIDDEN2
100
AcDbLine
 10
166.30364832
 20
7.58034917
 30
0.0
 11
191.70365175
 21
10.24999639
 31
0.0
1001
GRPNAME
1000
PASTMD0N
  0
LINE
  5
102D
330
76C
100
AcDbEntity
  8
241
  6
HIDDEN2
100
AcDbLine
 10
166.30364832
 20
6.49999619
 30
0.0
 11
197.30364999
 21
6.49999619
 31
0.0
1001
GRPNAME
1000
PASTMD0J
  0
LINE
  5
102E
330
76C
100
AcDbEntity
  8
240
  6
CONTINUOUS
100
AcDbLine
 10
175.45001863
 20
-17.50000361
 30
0.0
 11
199.3
 21
-17.50000361
 31
0.0
1001
GRPNAME
1000
PASTMD0N
  0
LINE
  5
102F
330
76C
100
AcDbEntity
  8
240
  6
CONTINUOUS
100
AcDbLine
 10
175.45002204
 20
17.5000002
 30
0.0
 11
199.3
 21
17.5000002
 31
0.0
1001
GRPNAME
1000
PASTMD0N
  0
LINE
  5
1030
330
76C
100
AcDbEntity
  8
245
  6
CENTER2
100
AcDbLine
 10
-39.0
 20
0.0
 30
0.0
 11
201.0
 21
0.0
 31
0.0
  0
LINE
  5
1031
330
76C
100
AcDbEntity
  8
240
  6
CONTINUOUS
100
AcDbLine
 10
32.0
 20
17.24999639
 30
0.0
 11
169.773006
 21
17.24999639
 31
0.0
1001
GRPNAME
1000
PASTMD0N
  0
LINE
  5
1032
330
76C
100
AcDbEntity
  8
240
  6
CONTINUOUS
100
AcDbLine
 10
31.99150059
 20
-17.25000361
 30
0.0
 11
169.773006
 21
-17.25000361
 31
0.0
1001
GRPNAME
1000
PASTMD0N
  0
LINE
  5
1033
330
76C
100
AcDbEntity
  8
240
  6
CONTINUOUS
100
AcDbLine
 10
22.0
 20
30.4925
 30
0.0
 11
22.0
 21
27.24999639
 31
0.0
  0
LINE
  5
1034
330
76C
100
AcDbEntity
  8
240
  6
CONTINUOUS
100
AcDbLine
 10
0.0
 20
30.9925
 30
0.0
 11
0.0
 21
23.42000332
 31
0.0
  0
LINE
  5
1035
330
76C
100
AcDbEntity
  8
241
  6
CONTINUOUS
100
AcDbLine
 10
14.05
 20
8.99234142
 30
0.0
 11
14.05
 21
30.18137426
 31
0.0
  0
SPLINE
  5
1036
330
76C
100
AcDbEntity
  8
241
  6
CONTINUOUS
100
AcDbSpline
210
0.0
220
0.0
230
1.0
 70
     8
 71
     3
 72
     9
 73
     5
 74
     3
 42
0.0000000001
 43
0.0000000001
 44
0.0000000001
 40
0.0
 40
0.0
 40
0.0
 40
0.0
 40
10.74384375536297
 40
21.48768751072607
 40
21.48768751072607
 40
21.48768751072607
 40
21.48768751072607
 10
9.950000000000102
 20
8.992341421163501
 30
0.0
 10
9.057475418454039
 20
12.52384689373144
 30
0.0
 10
7.272426255361906
 20
19.58685783886736
 30
0.0
 10
9.057475418453996
 20
26.64986878400331
 30
0.0
 10
9.950000000000045
 20
30.1813742565713
 30
0.0
 11
9.950000000000102
 21
8.992341421163501
 31
0.0
 11
8.164950836907962
 21
19.58685783886733
 31
0.0
 11
9.950000000000045
 21
30.1813742565713
 31
0.0
  0
LINE
  5
1037
330
76C
100
AcDbEntity
  8
241
  6
CONTINUOUS
100
AcDbLine
 10
9.95
 20
8.99234142
 30
0.0
 11
9.95
 21
30.18137426
 31
0.0
  0
SPLINE
  5
1038
330
76C
100
AcDbEntity
  8
241
  6
CONTINUOUS
100
AcDbSpline
210
0.0
220
0.0
230
1.0
 70
     8
 71
     3
 72
     9
 73
     5
 74
     3
 42
0.0000000001
 43
0.0000000001
 44
0.0000000001
 40
0.0
 40
0.0
 40
0.0
 40
0.0
 40
10.74384375536307
 40
21.48768751072606
 40
21.48768751072606
 40
21.48768751072606
 40
21.48768751072606
 10
14.05000000000009
 20
30.1813742565713
 30
0.0
 10
14.94252458154614
 20
26.64986878400332
 30
0.0
 10
16.72757374463822
 20
19.58685783886738
 30
0.0
 10
14.94252458154613
 20
12.52384689373145
 30
0.0
 10
14.05000000000009
 20
8.992341421163501
 30
0.0
 11
14.05000000000009
 21
30.1813742565713
 31
0.0
 11
15.83504916309218
 21
19.58685783886735
 31
0.0
 11
14.05000000000009
 21
8.992341421163501
 31
0.0
  0
LINE
  5
1039
330
76C
100
AcDbEntity
  8
240
  6
CONTINUOUS
100
AcDbLine
 10
-36.5
 20
22.56242639
 30
0.0
 11
-2.19993751
 21
23.42000332
 31
0.0
  0
LINE
  5
103A
330
76C
100
AcDbEntity
  8
240
  6
CONTINUOUS
100
AcDbLine
 10
-2.19993752
 20
-20.62000332
 30
0.0
 11
-36.5
 21
-19.76242639
 31
0.0
  0
LINE
  5
103B
330
76C
100
AcDbEntity
  8
240
  6
CONTINUOUS
100
AcDbLine
 10
-38.0
 20
21.69640099
 30
0.0
 11
-38.0
 21
0.0
 31
0.0
  0
LINE
  5
103C
330
76C
100
AcDbEntity
  8
241
  6
CONTINUOUS
100
AcDbLine
 10
-36.5
 20
22.56242639
 30
0.0
 11
-36.5
 21
0.0
 31
0.0
  0
LINE
  5
103D
330
76C
100
AcDbEntity
  8
241
  6
CONTINUOUS
100
AcDbLine
 10
-36.5
 20
0.0
 30
0.0
 11
-36.5
 21
-19.76242639
 31
0.0
  0
LINE
  5
103E
330
76C
100
AcDbEntity
  8
240
  6
CONTINUOUS
100
AcDbLine
 10
-38.0
 20
0.0
 30
0.0
 11
-38.0
 21
-18.26242639
 31
0.0
  0
LINE
  5
103F
330
76C
100
AcDbEntity
  8
242
  6
HIDDEN2
100
AcDbLine
 10
-38.0
 20
-18.0
 30
0.0
 11
-31.8
 21
-18.0
 31
0.0
  0
LINE
  5
1040
330
76C
100
AcDbEntity
  8
240
  6
CONTINUOUS
100
AcDbLine
 10
-36.5
 20
-19.76242639
 30
0.0
 11
-38.0
 21
-18.26242639
 31
0.0
  0
LINE
  5
1041
330
76C
100
AcDbEntity
  8
242
  6
HIDDEN2
100
AcDbLine
 10
-31.8
 20
-19.87993672
 30
0.0
 11
-31.8
 21
-18.0
 31
0.0
  0
LINE
  5
1042
330
76C
100
AcDbEntity
  8
242
  6
HIDDEN2
100
AcDbLine
 10
-29.87185543
 20
-19.92814457
 30
0.0
 11
-31.8
 21
-18.0
 31
0.0
  0
LINE
  5
1043
330
76C
100
AcDbEntity
  8
240
  6
CONTINUOUS
100
AcDbLine
 10
-38.0
 20
21.69640099
 30
0.0
 11
-36.5
 21
22.56242639
 31
0.0
  0
LINE
  5
1044
330
76C
100
AcDbEntity
  8
241
  6
CONTINUOUS
100
AcDbLine
 10
22.0
 20
-27.25
 30
0.0
 11
22.0
 21
0.0
 31
0.0
  0
LINE
  5
1045
330
76C
100
AcDbEntity
  8
241
  6
CONTINUOUS
100
AcDbLine
 10
14.05
 20
-8.99234142
 30
0.0
 11
14.05
 21
-30.18137426
 31
0.0
  0
SPLINE
  5
1046
330
76C
100
AcDbEntity
  8
241
  6
CONTINUOUS
100
AcDbSpline
210
0.0
220
0.0
230
1.0
 70
     8
 71
     3
 72
     9
 73
     5
 74
     3
 42
0.0000000001
 43
0.0000000001
 44
0.0000000001
 40
0.0
 40
0.0
 40
0.0
 40
0.0
 40
10.74384375536293
 40
21.48768751072604
 40
21.48768751072604
 40
21.48768751072604
 40
21.48768751072604
 10
14.05000000000009
 20
-30.18137425657127
 30
0.0
 10
14.94252458154613
 20
-26.64986878400334
 30
0.0
 10
16.72757374463822
 20
-19.58685783886741
 30
0.0
 10
14.94252458154614
 20
-12.52384689373148
 30
0.0
 10
14.05000000000009
 20
-8.992341421163501
 30
0.0
 11
14.05000000000009
 21
-30.18137425657127
 31
0.0
 11
15.83504916309218
 21
-19.58685783886747
 31
0.0
 11
14.05000000000009
 21
-8.992341421163501
 31
0.0
  0
LINE
  5
1047
330
76C
100
AcDbEntity
  8
241
  6
CONTINUOUS
100
AcDbLine
 10
9.95
 20
-8.99234142
 30
0.0
 11
9.95
 21
-30.18137426
 31
0.0
  0
SPLINE
  5
1048
330
76C
100
AcDbEntity
  8
241
  6
CONTINUOUS
100
AcDbSpline
210
0.0
220
0.0
230
1.0
 70
     8
 71
     3
 72
     9
 73
     5
 74
     3
 42
0.0000000001
 43
0.0000000001
 44
0.0000000001
 40
0.0
 40
0.0
 40
0.0
 40
0.0
 40
10.74384375536302
 40
21.48768751072615
 40
21.48768751072615
 40
21.48768751072615
 40
21.48768751072615
 10
9.950000000000102
 20
-8.992341421163501
 30
0.0
 10
9.057475418454039
 20
-12.52384689373146
 30
0.0
 10
7.272426255361907
 20
-19.58685783886742
 30
0.0
 10
9.057475418453995
 20
-26.64986878400338
 30
0.0
 10
9.950000000000045
 20
-30.18137425657139
 30
0.0
 11
9.950000000000102
 21
-8.992341421163501
 31
0.0
 11
8.164950836907962
 21
-19.58685783886738
 31
0.0
 11
9.950000000000045
 21
-30.18137425657139
 31
0.0
  0
LINE
  5
1049
330
76C
100
AcDbEntity
  8
240
100
AcDbLine
 10
0.0
 20
-30.9925
 30
0.0
 11
0.0
 21
-20.62000332
 31
0.0
  0
ARC
  5
104A
330
76C
100
AcDbEntity
  8
240
  6
CONTINUOUS
100
AcDbCircle
 10
32.0
 20
-27.25
 30
0.0
 40
10.0
100
AcDbArc
 50
90.04869806
 51
180.0
  0
LINE
  5
104B
330
76C
100
AcDbEntity
  8
241
  6
CONTINUOUS
100
AcDbLine
 10
9.95
 20
-30.18137426
 30
0.0
 11
14.05
 21
-30.18137426
 31
0.0
  0
LINE
  5
104C
330
76C
100
AcDbEntity
  8
240
  6
CONTINUOUS
100
AcDbLine
 10
0.5
 20
-31.4925
 30
0.0
 11
21.0
 21
-31.4925
 31
0.0
  0
ARC
  5
104D
330
76C
100
AcDbEntity
  8
240
  6
CONTINUOUS
100
AcDbCircle
 10
0.5
 20
-30.9925
 30
0.0
 40
0.5
100
AcDbArc
 50
180.0
 51
270.0
  0
LINE
  5
104E
330
76C
100
AcDbEntity
  8
240
  6
CONTINUOUS
100
AcDbLine
 10
22.0
 20
-30.4925
 30
0.0
 11
22.0
 21
-27.25
 31
0.0
  0
ARC
  5
104F
330
76C
100
AcDbEntity
  8
240
  6
CONTINUOUS
100
AcDbCircle
 10
21.0
 20
-30.4925
 30
0.0
 40
1.0
100
AcDbArc
 50
270.0
 51
0.0
  0
LINE
  5
1050
330
76C
100
AcDbEntity
  8
241
  6
CONTINUOUS
100
AcDbLine
 10
9.95
 20
8.99234142
 30
0.0
 11
14.05
 21
8.99234142
 31
0.0
  0
LINE
  5
1051
330
76C
100
AcDbEntity
  8
241
  6
CONTINUOUS
100
AcDbLine
 10
9.95
 20
-8.99234142
 30
0.0
 11
14.05
 21
-8.99234142
 31
0.0
  0
LINE
  5
1052
330
76C
100
AcDbEntity
  8
241
100
AcDbLine
 10
-2.19993752
 20
23.42000332
 30
0.0
 11
-2.19993752
 21
0.0
 31
0.0
  0
LINE
  5
1053
330
76C
100
AcDbEntity
  8
241
100
AcDbLine
 10
0.0
 20
23.42000332
 30
0.0
 11
0.0
 21
0.0
 31
0.0
  0
LINE
  5
1054
330
76C
100
AcDbEntity
  8
241
100
AcDbLine
 10
0.0
 20
0.0
 30
0.0
 11
0.0
 21
-20.62000332
 31
0.0
  0
LINE
  5
1055
330
76C
100
AcDbEntity
  8
241
100
AcDbLine
 10
-2.19993752
 20
0.0
 30
0.0
 11
-2.19993752
 21
-20.62000332
 31
0.0
  0
LINE
  5
1056
330
76C
100
AcDbEntity
  8
240
100
AcDbLine
 10
-2.19993752
 20
-20.62000332
 30
0.0
 11
0.0
 21
-20.62000332
 31
0.0
  0
LINE
  5
1057
330
76C
100
AcDbEntity
  8
240
100
AcDbLine
 10
-2.19993751
 20
23.42000332
 30
0.0
 11
0.0
 21
23.42000332
 31
0.0
  0
LINE
  5
1058
330
76C
100
AcDbEntity
  8
241
  6
CONTINUOUS
100
AcDbLine
 10
22.0
 20
0.0
 30
0.0
 11
22.0
 21
27.24999639
 31
0.0
  0
ARC
  5
1059
330
76C
100
AcDbEntity
  8
240
  6
CONTINUOUS
100
AcDbCircle
 10
32.0
 20
27.24999639
 30
0.0
 40
10.0
100
AcDbArc
 50
180.0
 51
270.0
  0
LINE
  5
105A
330
76C
100
AcDbEntity
  8
241
  6
CONTINUOUS
100
AcDbLine
 10
9.95
 20
30.18137426
 30
0.0
 11
14.05
 21
30.18137426
 31
0.0
  0
LINE
  5
105B
330
76C
100
AcDbEntity
  8
240
  6
CONTINUOUS
100
AcDbLine
 10
0.5
 20
31.4925
 30
0.0
 11
21.0
 21
31.4925
 31
0.0
  0
ARC
  5
105C
330
76C
100
AcDbEntity
  8
240
  6
CONTINUOUS
100
AcDbCircle
 10
0.5
 20
30.9925
 30
0.0
 40
0.5
100
AcDbArc
 50
90.0
 51
180.0
  0
ARC
  5
105D
330
76C
100
AcDbEntity
  8
240
  6
CONTINUOUS
100
AcDbCircle
 10
21.0
 20
30.4925
 30
0.0
 40
1.0
100
AcDbArc
 50
0.0
 51
90.0
  0
LINE
  5
105E
330
76C
100
AcDbEntity
  8
241
  6
HIDDEN2
100
AcDbLine
 10
107.86387313
 20
6.64999619
 30
0.0
 11
156.3731254
 21
6.64999619
 31
0.0
  0
LINE
  5
105F
330
76C
100
AcDbEntity
  8
242
  6
HIDDEN2
100
AcDbLine
 10
122.3731254
 20
6.99999619
 30
0.0
 11
156.3731254
 21
6.99999619
 31
0.0
  0
LINE
  5
1060
330
76C
100
AcDbEntity
  8
242
  6
HIDDEN2
100
AcDbLine
 10
122.3731254
 20
-0.00000381
 30
0.0
 11
122.3731254
 21
6.99999619
 31
0.0
  0
LINE
  5
1061
330
76C
100
AcDbEntity
  8
241
  6
CONTINUOUS
100
AcDbLine
 10
175.30001863
 20
17.65000361
 30
0.0
 11
175.30001863
 21
0.0
 31
0.0
1001
GRPNAME
1000
PASTMD0F
  0
LINE
  5
1062
330
76C
100
AcDbEntity
  8
241
  6
CONTINUOUS
100
AcDbLine
 10
176.65995284
 20
17.50000361
 30
0.0
 11
176.65995284
 21
0.0
 31
0.0
1001
GRPNAME
1000
PASTMD0F
  0
LINE
  5
1063
330
76C
100
AcDbEntity
  8
241
  6
HIDDEN2
100
AcDbLine
 10
166.30364832
 20
-0.00000381
 30
0.0
 11
166.30364832
 21
7.58034917
 31
0.0
1001
GRPNAME
1000
PASTMD0N
  0
LINE
  5
1064
330
76C
100
AcDbEntity
  8
241
  6
HIDDEN2
100
AcDbLine
 10
156.3731254
 20
7.99999639
 30
0.0
 11
156.3731254
 21
-0.00000381
 31
0.0
1001
GRPNAME
1000
PASTMD0N
  0
LINE
  5
1065
330
76C
100
AcDbEntity
  8
241
100
AcDbLine
 10
173.30001863
 20
14.50001506
 30
0.0
 11
173.30001863
 21
0.0
 31
0.0
  0
LINE
  5
1066
330
76C
100
AcDbEntity
  8
241
100
AcDbLine
 10
170.273006
 20
14.50001506
 30
0.0
 11
170.273006
 21
0.0
 31
0.0
  0
LINE
  5
1067
330
76C
100
AcDbEntity
  8
240
  6
CONTINUOUS
100
AcDbLine
 10
170.273006
 20
-14.50001506
 30
0.0
 11
173.30001863
 21
-14.50001506
 31
0.0
1001
GRPNAME
1000
PASTMD0N
  0
LINE
  5
1068
330
76C
100
AcDbEntity
  8
241
100
AcDbLine
 10
170.273006
 20
-14.50001506
 30
0.0
 11
170.273006
 21
0.0
 31
0.0
  0
LINE
  5
1069
330
76C
100
AcDbEntity
  8
240
  6
CONTINUOUS
100
AcDbLine
 10
170.273006
 20
-16.75000361
 30
0.0
 11
170.273006
 21
-14.50001506
 31
0.0
1001
GRPNAME
1000
PASTMD0N
  0
ARC
  5
106A
330
76C
100
AcDbEntity
  8
240
  6
CONTINUOUS
100
AcDbCircle
 10
169.773006
 20
-16.75000361
 30
0.0
 40
0.5
100
AcDbArc
 50
270.0
 51
0.0
1001
GRPNAME
1000
PASTMD0N
  0
LINE
  5
106B
330
76C
100
AcDbEntity
  8
241
  6
CONTINUOUS
100
AcDbLine
 10
175.30001863
 20
-17.65000361
 30
0.0
 11
175.30001863
 21
0.0
 31
0.0
1001
GRPNAME
1000
PASTMD0F
  0
LINE
  5
106C
330
76C
100
AcDbEntity
  8
241
  6
CONTINUOUS
100
AcDbLine
 10
176.65995284
 20
-17.50000361
 30
0.0
 11
176.65995284
 21
0.0
 31
0.0
1001
GRPNAME
1000
PASTMD0F
  0
LINE
  5
106D
330
76C
100
AcDbEntity
  8
241
100
AcDbLine
 10
173.30001863
 20
-14.50001506
 30
0.0
 11
173.30001863
 21
0.0
 31
0.0
  0
LINE
  5
106E
330
76C
100
AcDbEntity
  8
240
  6
CONTINUOUS
100
AcDbLine
 10
173.30001863
 20
-14.50001506
 30
0.0
 11
173.30001863
 21
-17.15000361
 31
0.0
1001
GRPNAME
1000
PASTMD0N
  0
LINE
  5
106F
330
76C
100
AcDbEntity
  8
240
  6
CONTINUOUS
100
AcDbLine
 10
173.80001863
 20
-17.65000361
 30
0.0
 11
175.30001863
 21
-17.65000361
 31
0.0
1001
GRPNAME
1000
PASTMD0F
  0
LINE
  5
1070
330
76C
100
AcDbEntity
  8
240
100
AcDbLine
 10
175.45001863
 20
-17.50000361
 30
0.0
 11
175.30001863
 21
-17.65000361
 31
0.0
  0
ARC
  5
1071
330
76C
100
AcDbEntity
  8
240
  6
CONTINUOUS
100
AcDbCircle
 10
173.80001863
 20
-17.15000361
 30
0.0
 40
0.5
100
AcDbArc
 50
180.00000008
 51
270.00000008
1001
GRPNAME
1000
PASTMD0C
  0
LINE
  5
1072
330
76C
100
AcDbEntity
  8
240
  6
CONTINUOUS
100
AcDbLine
 10
170.273006
 20
14.50000783
 30
0.0
 11
173.30001863
 21
14.50000783
 31
0.0
1001
GRPNAME
1000
PASTMD0N
  0
ARC
  5
1073
330
76C
100
AcDbEntity
  8
240
  6
CONTINUOUS
100
AcDbCircle
 10
169.773006
 20
16.74999639
 30
0.0
 40
0.5
100
AcDbArc
 50
0.0
 51
90.0
1001
GRPNAME
1000
PASTMD0N
  0
LINE
  5
1074
330
76C
100
AcDbEntity
  8
241
  6
HIDDEN2
100
AcDbLine
 10
156.3731254
 20
7.99999639
 30
0.0
 11
166.37312921
 21
7.99999639
 31
0.0
1001
GRPNAME
1000
PASTMD0N
  0
LINE
  5
1075
330
76C
100
AcDbEntity
  8
241
  6
HIDDEN2
100
AcDbLine
 10
166.37312921
 20
7.99999639
 30
0.0
 11
166.37312921
 21
7.5876505
 31
0.0
1001
GRPNAME
1000
PASTMD0N
  0
LINE
  5
1076
330
76C
100
AcDbEntity
  8
240
  6
CONTINUOUS
100
AcDbLine
 10
170.273006
 20
16.75000361
 30
0.0
 11
170.273006
 21
14.50000783
 31
0.0
1001
GRPNAME
1000
PASTMD0N
  0
LINE
  5
1077
330
76C
100
AcDbEntity
  8
240
  6
CONTINUOUS
100
AcDbLine
 10
173.30001863
 20
14.50000783
 30
0.0
 11
173.30001863
 21
17.15000361
 31
0.0
1001
GRPNAME
1000
PASTMD0N
  0
LINE
  5
1078
330
76C
100
AcDbEntity
  8
242
  6
HIDDEN2
100
AcDbLine
 10
188.62581667
 20
13.0000002
 30
0.0
 11
178.57299074
 21
13.0000002
 31
0.0
1001
GRPNAME
1000
PASTMD0N
  0
LINE
  5
1079
330
76C
100
AcDbEntity
  8
241
  6
HIDDEN2
100
AcDbLine
 10
188.12581667
 20
13.5000002
 30
0.0
 11
176.57299074
 21
13.5000002
 31
0.0
1001
GRPNAME
1000
PASTMD0N
  0
LINE
  5
107A
330
76C
100
AcDbEntity
  8
241
  6
HIDDEN2
100
AcDbLine
 10
175.57299074
 20
14.50000783
 30
0.0
 11
176.57299074
 21
14.50000783
 31
0.0
1001
GRPNAME
1000
PASTMD0N
  0
LINE
  5
107B
330
76C
100
AcDbEntity
  8
241
  6
HIDDEN2
100
AcDbLine
 10
175.57299074
 20
13.55000707
 30
0.0
 11
175.57299074
 21
14.50000783
 31
0.0
1001
GRPNAME
1000
PASTMD0N
  0
LINE
  5
107C
330
76C
100
AcDbEntity
  8
241
  6
HIDDEN2
100
AcDbLine
 10
174.47299227
 20
13.55000707
 30
0.0
 11
175.57299074
 21
13.55000707
 31
0.0
1001
GRPNAME
1000
PASTMD0N
  0
LINE
  5
107D
330
76C
100
AcDbEntity
  8
241
  6
HIDDEN2
100
AcDbLine
 10
174.47299227
 20
13.55000707
 30
0.0
 11
174.47299227
 21
14.50000783
 31
0.0
1001
GRPNAME
1000
PASTMD0N
  0
LINE
  5
107E
330
76C
100
AcDbEntity
  8
241
100
AcDbLine
 10
176.57299074
 20
13.5000002
 30
0.0
 11
176.57299074
 21
14.50000783
 31
0.0
  0
LINE
  5
107F
330
76C
100
AcDbEntity
  8
241
  6
HIDDEN2
100
AcDbLine
 10
173.30001863
 20
14.50000783
 30
0.0
 11
174.47299227
 21
14.50000783
 31
0.0
1001
GRPNAME
1000
PASTMD0N
  0
LINE
  5
1080
330
76C
100
AcDbEntity
  8
242
  6
HIDDEN2
100
AcDbLine
 10
177.70697054
 20
13.5000002
 30
0.0
 11
178.57299074
 21
13.0000002
 31
0.0
1001
GRPNAME
1000
PASTMD0N
  0
LINE
  5
1081
330
76C
100
AcDbEntity
  8
241
  6
HIDDEN2
100
AcDbLine
 10
189.37313112
 20
12.25268956
 30
0.0
 11
189.37313112
 21
10.00504887
 31
0.0
1001
GRPNAME
1000
PASTMD0N
  0
LINE
  5
1082
330
76C
100
AcDbEntity
  8
241
  6
HIDDEN2
100
AcDbLine
 10
189.37313112
 20
12.25268956
 30
0.0
 11
188.1258243
 21
13.5000002
 31
0.0
1001
GRPNAME
1000
PASTMD0N
  0
LINE
  5
1083
330
76C
100
AcDbEntity
  8
240
  6
CONTINUOUS
100
AcDbLine
 10
173.80001863
 20
17.64999598
 30
0.0
 11
175.30001863
 21
17.64999598
 31
0.0
1001
GRPNAME
1000
PASTMD0F
  0
LINE
  5
1084
330
76C
100
AcDbEntity
  8
240
100
AcDbLine
 10
175.45002204
 20
17.5000002
 30
0.0
 11
175.30001863
 21
17.65000361
 31
0.0
  0
ARC
  5
1085
330
76C
100
AcDbEntity
  8
240
  6
CONTINUOUS
100
AcDbCircle
 10
173.80001863
 20
17.14999598
 30
0.0
 40
0.5
100
AcDbArc
 50
89.99999999
 51
179.99999999
1001
GRPNAME
1000
PASTMD0C
  0
LINE
  5
1086
330
76C
100
AcDbEntity
  8
241
  6
HIDDEN2
100
AcDbLine
 10
197.30364999
 20
-0.00000381
 30
0.0
 11
197.30364999
 21
8.34473821
 31
0.0
1001
GRPNAME
1000
PASTMD0N
  0
LINE
  5
1087
330
76C
100
AcDbEntity
  8
240
  6
CONTINUOUS
100
AcDbLine
 10
200.0
 20
16.80000361
 30
0.0
 11
200.0
 21
0.0
 31
0.0
1001
GRPNAME
1000
PASTMD0N
  0
LINE
  5
1088
330
76C
100
AcDbEntity
  8
240
  6
CONTINUOUS
100
AcDbLine
 10
200.0
 20
-16.80000361
 30
0.0
 11
200.0
 21
0.0
 31
0.0
1001
GRPNAME
1000
PASTMD0N
  0
ARC
  5
1089
330
76C
100
AcDbEntity
  8
240
  6
CONTINUOUS
100
AcDbCircle
 10
199.3
 20
-16.80000361
 30
0.0
 40
0.6999999999999887
100
AcDbArc
 50
269.99999997
 51
359.99999997
1001
GRPNAME
1000
PASTMD0C
  0
ARC
  5
108A
330
76C
100
AcDbEntity
  8
240
  6
CONTINUOUS
100
AcDbCircle
 10
199.3
 20
16.8000002
 30
0.0
 40
0.6999999999999887
100
AcDbArc
 50
0.00000009
 51
90.00000009
1001
GRPNAME
1000
PASTMD0C
  0
LINE
  5
108B
330
76C
100
AcDbEntity
  8
241
  6
HIDDEN2
100
AcDbLine
 10
198.00000371
 20
8.52000066
 30
0.0
 11
200.0
 21
9.67468863
 31
0.0
1001
GRPNAME
1000
PASTMD0N
  0
LINE
  5
108C
330
76C
100
AcDbEntity
  8
241
  6
HIDDEN2
100
AcDbLine
 10
197.30364999
 20
8.34473821
 30
0.0
 11
194.00365433
 21
10.24999639
 31
0.0
1001
GRPNAME
1000
PASTMD0N
  0
LINE
  5
108D
330
76C
100
AcDbEntity
  8
241
  6
HIDDEN2
100
AcDbLine
 10
191.70365175
 20
8.74999639
 30
0.0
 11
193.80364975
 21
8.74999639
 31
0.0
1001
GRPNAME
1000
PASTMD0N
  0
LINE
  5
108E
330
76C
100
AcDbEntity
  8
241
  6
HIDDEN2
100
AcDbLine
 10
191.70365175
 20
8.74999639
 30
0.0
 11
191.70365175
 21
10.24999639
 31
0.0
1001
GRPNAME
1000
PASTMD0N
  0
LINE
  5
108F
330
76C
100
AcDbEntity
  8
241
  6
HIDDEN2
100
AcDbLine
 10
193.80364975
 20
10.24999639
 30
0.0
 11
194.00365433
 21
10.24999639
 31
0.0
1001
GRPNAME
1000
PASTMD0N
  0
LINE
  5
1090
330
76C
100
AcDbEntity
  8
241
  6
HIDDEN2
100
AcDbLine
 10
193.80364975
 20
8.74999639
 30
0.0
 11
193.80364975
 21
10.24999639
 31
0.0
1001
GRPNAME
1000
PASTMD0N
  0
LINE
  5
1091
330
76C
100
AcDbEntity
  8
241
  6
HIDDEN2
100
AcDbLine
 10
197.00000008
 20
8.52000066
 30
0.0
 11
198.00000371
 21
8.52000066
 31
0.0
1001
GRPNAME
1000
PASTMD0N
  0
ENDBLK
  5
7AE
330
76C
100
AcDbEntity
  8
0
100
AcDbBlockEnd
  0
BLOCK
  5
7B0
330
7AF
100
AcDbEntity
  8
0
100
AcDbBlockBegin
  2
_NONE
 70
     0
 10
0.0
 20
0.0
 30
0.0
  3
_NONE
  1

  0
ENDBLK
  5
7B1
330
7AF
100
AcDbEntity
  8
0
100
AcDbBlockEnd
  0
BLOCK
  5
B0D
330
B03
100
AcDbEntity
  8
0
100
AcDbBlockBegin
  2
*D4
 70
     1
 10
0.0
 20
0.0
 30
0.0
  3
*D4
  1

  0
LINE
  5
E0D
330
B03
100
AcDbEntity
  8
250
  6
CONTINUOUS
 62
     3
100
AcDbLine
 10
9.0
 20
8.14999619
 30
0.0
 11
9.0
 21
46.5
 31
0.0
  0
LINE
  5
E0E
330
B03
100
AcDbEntity
  8
250
  6
CONTINUOUS
 62
     3
100
AcDbLine
 10
200.0
 20
17.3000002
 30
0.0
 11
200.0
 21
46.5
 31
0.0
  0
LINE
  5
E0F
330
B03
100
AcDbEntity
  8
250
  6
CONTINUOUS
 62
     3
100
AcDbLine
 10
11.23
 20
45.5
 30
0.0
 11
197.77
 21
45.5
 31
0.0
  0
INSERT
  5
E10
330
B03
100
AcDbEntity
  8
250
  6
CONTINUOUS
 62
     3
100
AcDbBlockReference
  2
_OPEN
 10
9.0
 20
45.5
 30
0.0
 41
2.23
 42
2.23
 43
2.23
 50
180.0
  0
INSERT
  5
E11
330
B03
100
AcDbEntity
  8
250
  6
CONTINUOUS
 62
     3
100
AcDbBlockReference
  2
_OPEN
 10
200.0
 20
45.5
 30
0.0
 41
2.23
 42
2.23
 43
2.23
  0
MTEXT
  5
E12
330
B03
100
AcDbEntity
  8
250
  6
CONTINUOUS
 62
    40
100
AcDbMText
 10
107.58663092
 20
48.0
 30
0.0
 40
3.0
 41
0.0
 71
     5
 72
     1
  1
\A1;（max.191）
1001
ACAD
1000
MTEXTBEGIN
1070
    73
1070
     1
1070
    44
1040
1.0
1070
    74
1070
     0
1000
MTEXTEND
1000
MTEXTBEGIN
1070
    73
1070
     1
1070
    44
1040
1.0
1070
    74
1070
     0
1000
MTEXTEND
  0
POINT
  5
E13
330
B03
100
AcDbEntity
  8
DEFPOINTS
  6
CONTINUOUS
 62
     0
100
AcDbPoint
 10
9.0
 20
7.64999619
 30
0.0
  0
POINT
  5
E14
330
B03
100
AcDbEntity
  8
DEFPOINTS
  6
CONTINUOUS
 62
     0
100
AcDbPoint
 10
200.0
 20
16.8000002
 30
0.0
  0
POINT
  5
E15
330
B03
100
AcDbEntity
  8
DEFPOINTS
  6
CONTINUOUS
 62
     0
100
AcDbPoint
 10
200.0
 20
45.5
 30
0.0
  0
ENDBLK
  5
B0E
330
B03
100
AcDbEntity
  8
0
100
AcDbBlockEnd
  0
BLOCK
  5
B19
330
B0F
100
AcDbEntity
  8
0
100
AcDbBlockBegin
  2
*D5
 70
     1
 10
0.0
 20
0.0
 30
0.0
  3
*D5
  1

  0
LINE
  5
BE3
330
B0F
100
AcDbEntity
  8
250
  6
CONTINUOUS
 62
     3
100
AcDbLine
 10
22.0
 20
30.9925
 30
0.0
 11
22.0
 21
39.5
 31
0.0
  0
LINE
  5
BE4
330
B0F
100
AcDbEntity
  8
250
  6
CONTINUOUS
 62
     3
100
AcDbLine
 10
200.0
 20
17.3000002
 30
0.0
 11
200.0
 21
39.5
 31
0.0
  0
LINE
  5
BE5
330
B0F
100
AcDbEntity
  8
250
  6
CONTINUOUS
 62
     3
100
AcDbLine
 10
24.23
 20
38.5
 30
0.0
 11
197.77
 21
38.5
 31
0.0
  0
INSERT
  5
BE6
330
B0F
100
AcDbEntity
  8
250
  6
CONTINUOUS
 62
     3
100
AcDbBlockReference
  2
_OPEN
 10
22.0
 20
38.5
 30
0.0
 41
2.23
 42
2.23
 43
2.23
 50
180.0
  0
INSERT
  5
BE7
330
B0F
100
AcDbEntity
  8
250
  6
CONTINUOUS
 62
     3
100
AcDbBlockReference
  2
_OPEN
 10
200.0
 20
38.5
 30
0.0
 41
2.23
 42
2.23
 43
2.23
  0
MTEXT
  5
BE8
330
B0F
100
AcDbEntity
  8
250
  6
CONTINUOUS
 62
    40
100
AcDbMText
 10
111.0
 20
41.0
 30
0.0
 40
3.0
 41
0.0
 71
     5
 72
     1
  1
\A1;178
1001
ACAD
1000
MTEXTBEGIN
1070
    73
1070
     1
1070
    44
1040
1.0
1070
    74
1070
     0
1000
MTEXTEND
1000
MTEXTBEGIN
1070
    73
1070
     1
1070
    44
1040
1.0
1070
    74
1070
     0
1000
MTEXTEND
1000
MTEXTBEGIN
1070
    73
1070
     1
1070
    44
1040
1.0
1070
    74
1070
     0
1000
MTEXTEND
1000
MTEXTBEGIN
1070
    73
1070
     1
1070
    44
1040
1.0
1070
    74
1070
     0
1000
MTEXTEND
  0
POINT
  5
BE9
330
B0F
100
AcDbEntity
  8
DEFPOINTS
  6
CONTINUOUS
 62
     0
100
AcDbPoint
 10
22.0
 20
30.4925
 30
0.0
  0
POINT
  5
BEA
330
B0F
100
AcDbEntity
  8
DEFPOINTS
  6
CONTINUOUS
 62
     0
100
AcDbPoint
 10
200.0
 20
16.8000002
 30
0.0
  0
POINT
  5
BEB
330
B0F
100
AcDbEntity
  8
DEFPOINTS
  6
CONTINUOUS
 62
     0
100
AcDbPoint
 10
200.0
 20
38.5
 30
0.0
  0
ENDBLK
  5
B1A
330
B0F
100
AcDbEntity
  8
0
100
AcDbBlockEnd
  0
BLOCK
  5
B25
330
B1B
100
AcDbEntity
  8
0
100
AcDbBlockBegin
  2
*D6
 70
     1
 10
0.0
 20
0.0
 30
0.0
  3
*D6
  1

  0
LINE
  5
BC0
330
B1B
100
AcDbEntity
  8
250
  6
CONTINUOUS
 62
     3
100
AcDbLine
 10
0.0
 20
31.4925
 30
0.0
 11
0.0
 21
53.5
 31
0.0
  0
LINE
  5
BC1
330
B1B
100
AcDbEntity
  8
250
  6
CONTINUOUS
 62
     3
100
AcDbLine
 10
200.0
 20
17.3000002
 30
0.0
 11
200.0
 21
53.5
 31
0.0
  0
LINE
  5
BC2
330
B1B
100
AcDbEntity
  8
250
  6
CONTINUOUS
 62
     3
100
AcDbLine
 10
2.23
 20
52.5
 30
0.0
 11
197.77
 21
52.5
 31
0.0
  0
INSERT
  5
BC3
330
B1B
100
AcDbEntity
  8
250
  6
CONTINUOUS
 62
     3
100
AcDbBlockReference
  2
_OPEN
 10
0.0
 20
52.5
 30
0.0
 41
2.23
 42
2.23
 43
2.23
 50
180.0
  0
INSERT
  5
BC4
330
B1B
100
AcDbEntity
  8
250
  6
CONTINUOUS
 62
     3
100
AcDbBlockReference
  2
_OPEN
 10
200.0
 20
52.5
 30
0.0
 41
2.23
 42
2.23
 43
2.23
  0
MTEXT
  5
BC5
330
B1B
100
AcDbEntity
  8
250
  6
CONTINUOUS
 62
    40
100
AcDbMText
 10
104.64424906
 20
55.0
 30
0.0
 40
3.0
 41
0.0
 71
     5
 72
     1
  1
\A1;200
1001
ACAD
1000
MTEXTBEGIN
1070
    73
1070
     1
1070
    44
1040
1.0
1070
    74
1070
     0
1000
MTEXTEND
1000
MTEXTBEGIN
1070
    73
1070
     1
1070
    44
1040
1.0
1070
    74
1070
     0
1000
MTEXTEND
1000
MTEXTBEGIN
1070
    73
1070
     1
1070
    44
1040
1.0
1070
    74
1070
     0
1000
MTEXTEND
1000
MTEXTBEGIN
1070
    73
1070
     1
1070
    44
1040
1.0
1070
    74
1070
     0
1000
MTEXTEND
  0
POINT
  5
BC6
330
B1B
100
AcDbEntity
  8
DEFPOINTS
  6
CONTINUOUS
 62
     0
100
AcDbPoint
 10
0.0
 20
30.9925
 30
0.0
  0
POINT
  5
BC7
330
B1B
100
AcDbEntity
  8
DEFPOINTS
  6
CONTINUOUS
 62
     0
100
AcDbPoint
 10
200.0
 20
16.8000002
 30
0.0
  0
POINT
  5
BC8
330
B1B
100
AcDbEntity
  8
DEFPOINTS
  6
CONTINUOUS
 62
     0
100
AcDbPoint
 10
200.0
 20
52.5
 30
0.0
  0
ENDBLK
  5
B26
330
B1B
100
AcDbEntity
  8
0
100
AcDbBlockEnd
  0
BLOCK
  5
FFA
330
FF2
100
AcDbEntity
  8
0
100
AcDbBlockBegin
  2
*D13
 70
     1
 10
0.0
 20
0.0
 30
0.0
  3
*D13
  1

  0
LINE
  5
1008
330
FF2
100
AcDbEntity
  8
250
  6
CONTINUOUS
 62
     3
100
AcDbLine
 10
197.80364999
 20
6.49999619
 30
0.0
 11
209.97013312
 21
6.49999619
 31
0.0
  0
LINE
  5
1009
330
FF2
100
AcDbEntity
  8
250
  6
CONTINUOUS
 62
     3
100
AcDbLine
 10
208.97013312
 20
-6.49999619
 30
0.0
 11
208.97013312
 21
4.26999619
 31
0.0
  0
INSERT
  5
100A
330
FF2
100
AcDbEntity
  8
250
  6
CONTINUOUS
 62
     3
100
AcDbBlockReference
  2
_OPEN
 10
208.97013312
 20
6.49999619
 30
0.0
 41
2.23
 42
2.23
 43
2.23
 50
90.0
  0
MTEXT
  5
100B
330
FF2
100
AcDbEntity
  8
250
  6
CONTINUOUS
 62
    40
100
AcDbMText
 10
206.47013312
 20
-1.115
 30
0.0
 40
3.0
 41
0.0
 71
     5
 72
     1
  1
\A1;max.{\H3;\U+2205}13
 11
0.0
 21
1.0
 31
0.0
1001
ACAD
1000
MTEXTBEGIN
1070
    73
1070
     1
1070
    44
1040
1.0
1070
    74
1070
     0
1000
MTEXTEND
  0
POINT
  5
100C
330
FF2
100
AcDbEntity
  8
DEFPOINTS
  6
CONTINUOUS
 62
     0
100
AcDbPoint
 10
197.30364999
 20
-6.49999619
 30
0.0
  0
POINT
  5
100D
330
FF2
100
AcDbEntity
  8
DEFPOINTS
  6
CONTINUOUS
 62
     0
100
AcDbPoint
 10
197.30364999
 20
6.49999619
 30
0.0
  0
POINT
  5
100E
330
FF2
100
AcDbEntity
  8
DEFPOINTS
  6
CONTINUOUS
 62
     0
100
AcDbPoint
 10
208.97013312
 20
6.49999619
 30
0.0
  0
ENDBLK
  5
FFB
330
FF2
100
AcDbEntity
  8
0
100
AcDbBlockEnd
  0
BLOCK
  5
1006
330
FFC
100
AcDbEntity
  8
0
100
AcDbBlockBegin
  2
*D14
 70
     1
 10
0.0
 20
0.0
 30
0.0
  3
*D14
  1

  0
LINE
  5
100F
330
FFC
100
AcDbEntity
  8
250
  6
CONTINUOUS
 62
     3
100
AcDbLine
 10
199.8
 20
-17.50000361
 30
0.0
 11
217.0
 21
-17.50000361
 31
0.0
  0
LINE
  5
1010
330
FFC
100
AcDbEntity
  8
250
  6
CONTINUOUS
 62
     3
100
AcDbLine
 10
199.8
 20
17.5000002
 30
0.0
 11
217.0
 21
17.5000002
 31
0.0
  0
LINE
  5
1011
330
FFC
100
AcDbEntity
  8
250
  6
CONTINUOUS
 62
     3
100
AcDbLine
 10
216.0
 20
-15.27000361
 30
0.0
 11
216.0
 21
15.2700002
 31
0.0
  0
INSERT
  5
1012
330
FFC
100
AcDbEntity
  8
250
  6
CONTINUOUS
 62
     3
100
AcDbBlockReference
  2
_OPEN
 10
216.0
 20
-17.50000361
 30
0.0
 41
2.23
 42
2.23
 43
2.23
 50
270.0
  0
INSERT
  5
1013
330
FFC
100
AcDbEntity
  8
250
  6
CONTINUOUS
 62
     3
100
AcDbBlockReference
  2
_OPEN
 10
216.0
 20
17.5000002
 30
0.0
 41
2.23
 42
2.23
 43
2.23
 50
90.0
  0
MTEXT
  5
1014
330
FFC
100
AcDbEntity
  8
250
  6
CONTINUOUS
 62
    40
100
AcDbMText
 10
213.5
 20
0.0
 30
0.0
 40
3.0
 41
0.0
 71
     5
 72
     1
  1
\A1;{\H3;\U+2205}35
 11
0.0
 21
1.0
 31
0.0
1001
ACAD
1000
MTEXTBEGIN
1070
    73
1070
     1
1070
    44
1040
1.0
1070
    74
1070
     0
1000
MTEXTEND
  0
POINT
  5
1015
330
FFC
100
AcDbEntity
  8
DEFPOINTS
  6
CONTINUOUS
 62
     0
100
AcDbPoint
 10
199.3
 20
-17.50000361
 30
0.0
  0
POINT
  5
1016
330
FFC
100
AcDbEntity
  8
DEFPOINTS
  6
CONTINUOUS
 62
     0
100
AcDbPoint
 10
199.3
 20
17.5000002
 30
0.0
  0
POINT
  5
1017
330
FFC
100
AcDbEntity
  8
DEFPOINTS
  6
CONTINUOUS
 62
     0
100
AcDbPoint
 10
216.0
 20
17.5000002
 30
0.0
  0
ENDBLK
  5
1007
330
FFC
100
AcDbEntity
  8
0
100
AcDbBlockEnd
  0
ENDSEC
  0
SECTION
  2
ENTITIES
  0
INSERT
  5
6E6
330
1A
100
AcDbEntity
  8
245
100
AcDbBlockReference
  2
矢印なし
 10
175.62382697
 20
90.55123572
 30
0.0
  0
TEXT
  5
7E6
330
1A
100
AcDbEntity
  8
241
100
AcDbText
 10
-38.0
 20
66.5
 30
0.0
 40
5.0
  1
C6-MEGA13N-200
  7
YOKO
 11
-38.0
 21
66.5
 31
0.0
100
AcDbText
 73
     1
  0
DIMENSION
  5
AFE
330
1A
100
AcDbEntity
  8
250
  6
CONTINUOUS
100
AcDbDimension
  2
*D4
 10
200.0
 20
45.5
 30
0.0
 11
107.58663092
 21
45.5
 31
0.0
 70
   160
  1
（max.<>）
  3
BIGT$0
100
AcDbAlignedDimension
 13
9.0
 23
7.64999619
 33
0.0
 14
200.0
 24
16.8000002
 34
0.0
100
AcDbRotatedDimension
  0
DIMENSION
  5
AFF
330
1A
100
AcDbEntity
  8
250
  6
CONTINUOUS
100
AcDbDimension
  2
*D5
 10
200.0
 20
38.5
 30
0.0
 11
111.0
 21
41.0
 31
0.0
 70
    32
  3
BIGT$0
100
AcDbAlignedDimension
 13
22.0
 23
30.4925
 33
0.0
 14
200.0
 24
16.8000002
 34
0.0
100
AcDbRotatedDimension
  0
DIMENSION
  5
B00
330
1A
100
AcDbEntity
  8
250
  6
CONTINUOUS
100
AcDbDimension
  2
*D6
 10
200.0
 20
52.5
 30
0.0
 11
104.64424906
 21
52.5
 31
0.0
 70
   160
  3
BIGT$0
100
AcDbAlignedDimension
 13
0.0
 23
30.9925
 33
0.0
 14
200.0
 24
16.8000002
 34
0.0
100
AcDbRotatedDimension
  0
LINE
  5
F3C
330
1A
100
AcDbEntity
  8
250
  6
CONTINUOUS
100
AcDbLine
 10
-21.0
 20
-28.0
 30
0.0
 11
-31.26666667
 21
-28.0
 31
0.0
1001
ITEMNAME
1000
LNSP2
  0
MTEXT
  5
F40
330
1A
100
AcDbEntity
  8
251
  6
CONTINUOUS
100
AcDbMText
 10
-28.46666667
 20
-27.0
 30
0.0
 40
2.8
 41
0.0
 71
     7
 72
     1
  1
C6
  7
YOKO
1001
ITEMNAME
1000
LNSP3
1001
ACAD
1000
MTEXTBEGIN
1070
    73
1070
     1
1070
    44
1040
1.0
1070
    74
1070
     0
1000
MTEXTEND
1000
MTEXTBEGIN
1070
    73
1070
     1
1070
    44
1040
1.0
1070
    74
1070
     0
1000
MTEXTEND
1000
MTEXTBEGIN
1070
    73
1070
     1
1070
    44
1040
1.0
1070
    74
1070
     0
1000
MTEXTEND
1000
MTEXTBEGIN
1070
    73
1070
     1
1070
    44
1040
1.0
1070
    74
1070
     0
1000
MTEXTEND
1000
MTEXTBEGIN
1070
    73
1070
     1
1070
    44
1040
1.0
1070
    74
1070
     0
1000
MTEXTEND
1000
MTEXTBEGIN
1070
    73
1070
     1
1070
    44
1040
1.0
1070
    74
1070
     0
1000
MTEXTEND
1000
MTEXTBEGIN
1070
    73
1070
     1
1070
    44
1040
1.0
1070
    74
1070
     0
1000
MTEXTEND
1000
MTEXTBEGIN
1070
    73
1070
     1
1070
    44
1040
1.0
1070
    74
1070
     0
1000
MTEXTEND
1000
MTEXTBEGIN
1070
    73
1070
     1
1070
    44
1040
1.0
1070
    74
1070
     0
1000
MTEXTEND
1000
MTEXTBEGIN
1070
    73
1070
     1
1070
    44
1040
1.0
1070
    74
1070
     0
1000
MTEXTEND
  0
LEADER
  5
F42
330
1A
100
AcDbEntity
  8
250
  6
CONTINUOUS
100
AcDbLeader
  3
BIGT
 76
     2
 10
-16.47540101
 20
-20.26308537
 30
0.0
 10
-21.0
 20
-28.0
 30
0.0
1001
ACAD
1000
DSTYLE
1002
{
1070
     6
1000
OPEN
1070
    41
1040
2.0
1070
    42
1040
2.0
1070
    44
1040
2.0
1070
   140
1040
4.0
1070
   343
1005
594
1002
}
  0
DIMENSION
  5
FEA
330
1A
100
AcDbEntity
  8
250
  6
CONTINUOUS
100
AcDbDimension
  2
*D13
 10
208.97013312
 20
6.49999619
 30
0.0
 11
208.97013312
 21
-1.115
 31
0.0
 70
   160
  1
max.{\H3;\U+2205}<>
  3
BIGT$0
100
AcDbAlignedDimension
 13
197.30364999
 23
-6.49999619
 33
0.0
 14
197.30364999
 24
6.49999619
 34
0.0
 50
90.0
100
AcDbRotatedDimension
1001
ACAD
1000
DSTYLE
1002
{
1070
     5
1000

1070
   173
1070
     1
1070
     7
1000
OPEN
1070
    75
1070
     1
1070
     6
1000
NONE
1002
}
  0
DIMENSION
  5
FEB
330
1A
100
AcDbEntity
  8
250
  6
CONTINUOUS
100
AcDbDimension
  2
*D14
 10
216.0
 20
17.5000002
 30
0.0
 11
216.0
 21
0.0
 31
0.0
 70
   160
  1
{\H3;\U+2205}<>
  3
BIGT$0
100
AcDbAlignedDimension
 13
199.3
 23
-17.50000361
 33
0.0
 14
199.3
 24
17.5000002
 34
0.0
 50
90.0
100
AcDbRotatedDimension
  0
INSERT
  5
1092
330
1A
100
AcDbEntity
  8
245
100
AcDbBlockReference
  2
1
 10
0.0
 20
0.0
 30
0.0
  0
VIEWPORT
  5
22
330
17
100
AcDbEntity
 67
     1
  8
0
100
AcDbViewport
 10
261.51769912
 20
148.5
 30
0.0
 40
523.03539823
 41
297.0
 68
     1
 69
     1
1001
ACAD
1000
MVIEW
1002
{
1070
    16
1010
0.0
1020
0.0
1030
0.0
1010
0.0
1020
0.0
1030
1.0
1040
0.0
1040
297.0
1040
261.51769912
1040
148.5
1040
50.0
1040
0.0
1040
0.0
1070
     0
1070
   100
1070
     1
1070
     1
1070
     0
1070
     0
1070
     0
1070
     0
1040
0.0
1040
0.0
1040
0.0
1040
1.0
1040
1.0
1040
10.0
1040
10.0
1070
     0
1002
{
1002
}
1002
}
  0
ENDSEC
  0
SECTION
  2
OBJECTS
  0
DICTIONARY
  5
C
330
0
100
AcDbDictionary
  3
ACAD_GROUP
350
D
  3
ACAD_LAYOUT
350
565
  3
ACAD_MLINESTYLE
350
E
  3
ACAD_PLOTSETTINGS
350
566
  3
ACAD_PLOTSTYLENAME
350
563
  3
ACDBHEADERROUNDTRIPXREC
350
1094
  3
GRADE_DWG
350
540
  0
DICTIONARY
  5
9AD
330
1A
100
AcDbDictionary
280
     1
  3
ACAD_LAYOUTSELFREF
360
10B6
  0
DICTIONARY
  5
9AB
330
17
100
AcDbDictionary
280
     1
  3
ACAD_LAYOUTSELFREF
360
10B5
  0
DICTIONARY
  5
D
102
{ACAD_REACTORS
330
C
102
}
330
C
100
AcDbDictionary
  3
*A1
350
6C7
  3
*A2
350
6C8
  3
*A3
350
6D4
  3
*A4
350
6D5
  3
DREC-1
350
5FC
  3
DREC-2
350
654
  3
DREC-3
350
673
  0
DICTIONARY
  5
565
102
{ACAD_REACTORS
330
C
102
}
330
C
100
AcDbDictionary
  0
DICTIONARY
  5
E
102
{ACAD_REACTORS
330
C
102
}
330
C
100
AcDbDictionary
  3
STANDARD
350
13
  0
DICTIONARY
  5
566
102
{ACAD_REACTORS
330
C
102
}
330
C
100
AcDbDictionary
  3
A3_0_5倍_
350
758
  3
A3_1倍_
350
757
  3
A3_1倍__2000_
350
707
  3
A3_2倍_
350
759
  3
A4_0_5倍_
350
755
  3
A4_1倍_
350
754
  3
A4_1倍__2000_
350
708
  3
A4_2倍_
350
756
  0
ACDBDICTIONARYWDFLT
  5
563
102
{ACAD_REACTORS
330
C
102
}
330
C
100
AcDbDictionary
281
     1
  3
Normal
350
564
100
AcDbDictionaryWithDefault
340
564
  0
DICTIONARY
  5
1094
102
{ACAD_REACTORS
330
C
102
}
330
C
100
AcDbDictionary
  3
CEPSNTYPE
350
109E
  3
DIMSTYLEDATA
350
10A2
  3
FINGERPRINTGUID
350
109F
  3
HYPERLINKBASE
350
1097
  3
INSUNITS
350
109D
  3
LAYOUTDICT
350
1099
  3
LWETCUNION
350
109C
  3
PLOTSETDICT
350
109A
  3
PLOTSTYLNAMDICT
350
109B
  3
PSVPSCALE
350
10A1
  3
PUCSBASE
350
10A5
  3
PUCSORGBACK
350
10AB
  3
PUCSORGBOTTOM
350
10A7
  3
PUCSORGFRONT
350
10AA
  3
PUCSORGLEFT
350
10A8
  3
PUCSORGRIGHT
350
10A9
  3
PUCSORGTOP
350
10A6
  3
PUCSORTHOREF
350
10A3
  3
PUCSORTHOVIEW
350
10A4
  3
STYLESHEET
350
1098
  3
TSTACKALIGN
350
1095
  3
TSTACKSIZE
350
1096
  3
UCSBASE
350
10AE
  3
UCSORGBACK
350
10B4
  3
UCSORGBOTTOM
350
10B0
  3
UCSORGFRONT
350
10B3
  3
UCSORGLEFT
350
10B1
  3
UCSORGRIGHT
350
10B2
  3
UCSORGTOP
350
10AF
  3
UCSORTHOREF
350
10AC
  3
UCSORTHOVIEW
350
10AD
  3
VERSIONGUID
350
10A0
  0
DICTIONARY
  5
540
102
{ACAD_REACTORS
330
C
102
}
330
C
100
AcDbDictionary
  3
VERSION
350
560
  0
XRECORD
  5
10B6
102
{ACAD_REACTORS
330
9AD
102
}
330
9AD
100
AcDbXrecord
340
1A
  0
XRECORD
  5
10B5
102
{ACAD_REACTORS
330
9AB
102
}
330
9AB
100
AcDbXrecord
340
17
  0
GROUP
  5
6C7
102
{ACAD_REACTORS
330
D
102
}
330
D
100
AcDbGroup
300

 70
     0
 71
     1
1001
GRPNAME
1000
DMA00
  0
GROUP
  5
6C8
102
{ACAD_REACTORS
330
D
102
}
330
D
100
AcDbGroup
300

 70
     0
 71
     1
1001
GRPNAME
1000
DMA00
  0
GROUP
  5
6D4
102
{ACAD_REACTORS
330
D
102
}
330
D
100
AcDbGroup
300

 70
     0
 71
     1
1001
GRPNAME
1000
DMA00
  0
GROUP
  5
6D5
102
{ACAD_REACTORS
330
D
102
}
330
D
100
AcDbGroup
300

 70
     0
 71
     1
1001
GRPNAME
1000
DMA00
  0
GROUP
  5
5FC
102
{ACAD_REACTORS
330
D
102
}
330
D
100
AcDbGroup
300

 70
     0
 71
     1
1001
GRPNAME
1000
DREC-
1001
GPARA
1000
xsiz
1000
44.182
1000
ysiz
1000
40.677
1000
angl
1000
0
1000
ctyp
1000
0
1000
csiz
1000
5
1000
lfnt
1000
cont
1000
hcnt
1000
hoff
1000
vcnt
1000
voff
1000
opnt
1000
4
1000
dxpt
1000
0
1000
dypt
1000
0
  0
GROUP
  5
654
102
{ACAD_REACTORS
330
D
102
}
330
D
100
AcDbGroup
300

 70
     0
 71
     1
1001
GRPNAME
1000
DREC-
1001
GPARA
1000
xsiz
1000
54.592
1000
ysiz
1000
53.036
1000
angl
1000
0
1000
ctyp
1000
0
1000
csiz
1000
5
1000
lfnt
1000
cont
1000
hcnt
1000
hoff
1000
vcnt
1000
voff
1000
opnt
1000
4
1000
dxpt
1000
0
1000
dypt
1000
0
  0
GROUP
  5
673
102
{ACAD_REACTORS
330
D
102
}
330
D
100
AcDbGroup
300

 70
     0
 71
     1
1001
GRPNAME
1000
DREC-
1001
GPARA
1000
xsiz
1000
30.363
1000
ysiz
1000
36.175
1000
angl
1000
0
1000
ctyp
1000
0
1000
csiz
1000
5
1000
lfnt
1000
cont
1000
hcnt
1000
hoff
1000
vcnt
1000
voff
1000
opnt
1000
4
1000
dxpt
1000
0
1000
dypt
1000
0
  0
MLINESTYLE
  5
13
102
{ACAD_REACTORS
330
E
102
}
330
E
100
AcDbMlineStyle
  2
STANDARD
 70
     0
  3

 62
     0
 51
90.0
 52
90.0
 71
     2
 49
0.5
 62
   256
  6
BYLAYER
 49
-0.5
 62
   256
  6
BYLAYER
  0
PLOTSETTINGS
  5
758
102
{ACAD_REACTORS
330
566
102
}
330
566
100
AcDbPlotSettings
  1
A3(0.5倍)
  2
\\AWTECPC05\HP DeskJet 1120C
  4
A3
  6

 40
5.95841646
 41
13.49375153
 42
6.04309082
 43
3.67242432
 44
296.92599487
 45
419.94665527
 46
89.96
 47
127.14
 48
0.0
 49
0.0
140
0.0
141
0.0
142
1.0
143
2.0
 70
  1716
 72
     1
 73
     1
 74
     2
  7
big.ctb
 75
    17
147
0.5
148
0.0
149
0.0
  0
PLOTSETTINGS
  5
757
102
{ACAD_REACTORS
330
566
102
}
330
566
100
AcDbPlotSettings
  1
A3(1倍)
  2
\\AWTECPC05\HP DeskJet 1120C
  4
A3
  6

 40
5.95841646
 41
13.49375153
 42
6.04309082
 43
3.67242432
 44
296.92599487
 45
419.94665527
 46
37.46
 47
52.89
 48
0.0
 49
0.0
140
0.0
141
0.0
142
1.0
143
1.0
 70
  1716
 72
     1
 73
     1
 74
     2
  7
big.ctb
 75
    16
147
1.0
148
0.0
149
0.0
  0
PLOTSETTINGS
  5
707
102
{ACAD_REACTORS
330
566
102
}
330
566
100
AcDbPlotSettings
  1
A3(1倍)(2000)
  2
SII LS-1300 (D-SCAN)
  4
User258
  6

 40
3.17499995
 41
3.17499995
 42
3.17498779
 43
3.17498779
 44
419.98898315
 45
296.98950195
 46
58.32
 47
40.32
 48
0.0
 49
0.0
140
0.0
141
0.0
142
1.0
143
1.0
 70
  1716
 72
     1
 73
     0
 74
     2
  7
big.ctb
 75
    16
147
1.0
148
0.0
149
0.0
  0
PLOTSETTINGS
  5
759
102
{ACAD_REACTORS
330
566
102
}
330
566
100
AcDbPlotSettings
  1
A3(2倍)
  2
\\AWTECPC05\HP DeskJet 1120C
  4
A3
  6

 40
5.95841646
 41
13.49375153
 42
6.04309082
 43
3.67242432
 44
296.92599487
 45
419.94665527
 46
-67.54
 47
-95.61
 48
0.0
 49
0.0
140
0.0
141
0.0
142
1.0
143
0.5
 70
  1716
 72
     1
 73
     1
 74
     2
  7
big.ctb
 75
    27
147
2.0
148
0.0
149
0.0
  0
PLOTSETTINGS
  5
755
102
{ACAD_REACTORS
330
566
102
}
330
566
100
AcDbPlotSettings
  1
A4(0.5倍)
  2
\\AWTECPC05\HP DeskJet 1120C
  4
A4
  6

 40
4.18041658
 41
13.49374962
 42
4.18040466
 43
3.92642212
 44
209.97332764
 45
296.92599487
 46
48.31
 47
65.5
 48
0.0
 49
0.0
140
0.0
141
0.0
142
1.0
143
2.0
 70
  1716
 72
     1
 73
     1
 74
     2
  7
big.ctb
 75
    17
147
0.5
148
0.0
149
0.0
  0
PLOTSETTINGS
  5
754
102
{ACAD_REACTORS
330
566
102
}
330
566
100
AcDbPlotSettings
  1
A4(1倍)
  2
\\AWTECPC05\HP DeskJet 1120C
  4
A4
  6

 40
4.18041658
 41
13.49374962
 42
4.18040466
 43
3.92642212
 44
209.97332764
 45
296.92599487
 46
-4.19
 47
-8.75
 48
0.0
 49
0.0
140
0.0
141
0.0
142
1.0
143
1.0
 70
  1716
 72
     1
 73
     1
 74
     2
  7
big.ctb
 75
    16
147
1.0
148
0.0
149
0.0
  0
PLOTSETTINGS
  5
708
102
{ACAD_REACTORS
330
566
102
}
330
566
100
AcDbPlotSettings
  1
A4(1倍)(2000)
  2
SII LS-1300 (D-SCAN)
  4
User259
  6

 40
3.17499995
 41
3.17499995
 42
3.17498779
 43
3.17500305
 44
296.98950195
 45
209.99449158
 46
-3.18
 47
-3.18
 48
0.0
 49
0.0
140
0.0
141
0.0
142
1.0
143
1.0
 70
  1716
 72
     1
 73
     0
 74
     2
  7
big.ctb
 75
    16
147
1.0
148
0.0
149
0.0
  0
PLOTSETTINGS
  5
756
102
{ACAD_REACTORS
330
566
102
}
330
566
100
AcDbPlotSettings
  1
A4(2倍)
  2
\\AWTECPC05\HP DeskJet 1120C
  4
A4
  6

 40
4.18041658
 41
13.49374962
 42
4.18040466
 43
3.92642212
 44
209.97332764
 45
296.92599487
 46
-109.19
 47
-157.25
 48
0.0
 49
0.0
140
0.0
141
0.0
142
1.0
143
0.5
 70
  1716
 72
     1
 73
     1
 74
     2
  7
big.ctb
 75
    27
147
2.0
148
0.0
149
0.0
  0
ACDBPLACEHOLDER
  5
564
102
{ACAD_REACTORS
330
563
102
}
330
563
100
AcDbPlaceHolder
280
     0
  0
XRECORD
  5
109E
102
{ACAD_REACTORS
330
1094
102
}
330
1094
100
AcDbXrecord
 90
        0
  0
XRECORD
  5
10A2
102
{ACAD_REACTORS
330
1094
102
}
330
1094
100
AcDbXrecord
1000
DSTYLE
1002
{
1070
   341
340
594
1070
   343
340
594
1070
   344
340
594
1002
}
  0
XRECORD
  5
109F
102
{ACAD_REACTORS
330
1094
102
}
330
1094
100
AcDbXrecord
  1
{51294030-9CB4-11D3-8E18-00A0C925D94D}
  0
XRECORD
  5
1097
102
{ACAD_REACTORS
330
1094
102
}
330
1094
100
AcDbXrecord
  1

  0
XRECORD
  5
109D
102
{ACAD_REACTORS
330
1094
102
}
330
1094
100
AcDbXrecord
 90
        0
  0
XRECORD
  5
1099
102
{ACAD_REACTORS
330
1094
102
}
330
1094
100
AcDbXrecord
340
565
  0
XRECORD
  5
109C
102
{ACAD_REACTORS
330
1094
102
}
330
1094
100
AcDbXrecord
 90
    10781
  0
XRECORD
  5
109A
102
{ACAD_REACTORS
330
1094
102
}
330
1094
100
AcDbXrecord
340
566
  0
XRECORD
  5
109B
102
{ACAD_REACTORS
330
1094
102
}
330
1094
100
AcDbXrecord
340
563
  0
XRECORD
  5
10A1
102
{ACAD_REACTORS
330
1094
102
}
330
1094
100
AcDbXrecord
 40
0.0
  0
XRECORD
  5
10A5
102
{ACAD_REACTORS
330
1094
102
}
330
1094
100
AcDbXrecord
340
0
  0
XRECORD
  5
10AB
102
{ACAD_REACTORS
330
1094
102
}
330
1094
100
AcDbXrecord
 10
0.0
 20
0.0
 30
0.0
  0
XRECORD
  5
10A7
102
{ACAD_REACTORS
330
1094
102
}
330
1094
100
AcDbXrecord
 10
0.0
 20
0.0
 30
0.0
  0
XRECORD
  5
10AA
102
{ACAD_REACTORS
330
1094
102
}
330
1094
100
AcDbXrecord
 10
0.0
 20
0.0
 30
0.0
  0
XRECORD
  5
10A8
102
{ACAD_REACTORS
330
1094
102
}
330
1094
100
AcDbXrecord
 10
0.0
 20
0.0
 30
0.0
  0
XRECORD
  5
10A9
102
{ACAD_REACTORS
330
1094
102
}
330
1094
100
AcDbXrecord
 10
0.0
 20
0.0
 30
0.0
  0
XRECORD
  5
10A6
102
{ACAD_REACTORS
330
1094
102
}
330
1094
100
AcDbXrecord
 10
0.0
 20
0.0
 30
0.0
  0
XRECORD
  5
10A3
102
{ACAD_REACTORS
330
1094
102
}
330
1094
100
AcDbXrecord
340
0
  0
XRECORD
  5
10A4
102
{ACAD_REACTORS
330
1094
102
}
330
1094
100
AcDbXrecord
 70
     0
  0
XRECORD
  5
1098
102
{ACAD_REACTORS
330
1094
102
}
330
1094
100
AcDbXrecord
  1
big.ctb
  0
XRECORD
  5
1095
102
{ACAD_REACTORS
330
1094
102
}
330
1094
100
AcDbXrecord
 90
        1
  0
XRECORD
  5
1096
102
{ACAD_REACTORS
330
1094
102
}
330
1094
100
AcDbXrecord
 90
       70
  0
XRECORD
  5
10AE
102
{ACAD_REACTORS
330
1094
102
}
330
1094
100
AcDbXrecord
340
0
  0
XRECORD
  5
10B4
102
{ACAD_REACTORS
330
1094
102
}
330
1094
100
AcDbXrecord
 10
0.0
 20
0.0
 30
0.0
  0
XRECORD
  5
10B0
102
{ACAD_REACTORS
330
1094
102
}
330
1094
100
AcDbXrecord
 10
0.0
 20
0.0
 30
0.0
  0
XRECORD
  5
10B3
102
{ACAD_REACTORS
330
1094
102
}
330
1094
100
AcDbXrecord
 10
0.0
 20
0.0
 30
0.0
  0
XRECORD
  5
10B1
102
{ACAD_REACTORS
330
1094
102
}
330
1094
100
AcDbXrecord
 10
0.0
 20
0.0
 30
0.0
  0
XRECORD
  5
10B2
102
{ACAD_REACTORS
330
1094
102
}
330
1094
100
AcDbXrecord
 10
0.0
 20
0.0
 30
0.0
  0
XRECORD
  5
10AF
102
{ACAD_REACTORS
330
1094
102
}
330
1094
100
AcDbXrecord
 10
0.0
 20
0.0
 30
0.0
  0
XRECORD
  5
10AC
102
{ACAD_REACTORS
330
1094
102
}
330
1094
100
AcDbXrecord
340
0
  0
XRECORD
  5
10AD
102
{ACAD_REACTORS
330
1094
102
}
330
1094
100
AcDbXrecord
 70
     0
  0
XRECORD
  5
10A0
102
{ACAD_REACTORS
330
1094
102
}
330
1094
100
AcDbXrecord
  1
{E6C6296A-E3B0-4A3E-B052-CC58D7CD554E}
  0
XRECORD
  5
560
102
{ACAD_REACTORS
330
540
102
}
330
540
100
AcDbXrecord
  1
2.0.0
  0
ENDSEC
  0
EOF
