  0
SECTION
  2
HEADER
  9
$ACADVER
  1
AC1014
  9
$ACADMAINTVER
 70
     9
  9
$DWGCODEPAGE
  3
ANSI_932
  9
$INSBASE
 10
0.0
 20
0.0
 30
0.0
  9
$EXTMIN
 10
-39.0140065
 20
-31.70963713
 30
-0.00152582
  9
$EXTMAX
 10
122.00299144
 20
61.00295157
 30
0.00000003
  9
$LIMMIN
 10
0.0
 20
0.0
  9
$LIMMAX
 10
420.0
 20
297.0
  9
$ORTHOMODE
 70
     0
  9
$REGENMODE
 70
     1
  9
$FILLMODE
 70
     1
  9
$QTEXTMODE
 70
     0
  9
$MIRRTEXT
 70
     1
  9
$DRAGMODE
 70
     2
  9
$LTSCALE
 40
10.0
  9
$OSMODE
 70
   549
  9
$ATTMODE
 70
     1
  9
$TEXTSIZE
 40
3.0
  9
$TRACEWID
 40
1.0
  9
$TEXTSTYLE
  7
YOKO
  9
$CLAYER
  8
245
  9
$CELTYPE
  6
BYLAYER
  9
$CECOLOR
 62
   256
  9
$CELTSCALE
 40
1.0
  9
$DELOBJ
 70
     1
  9
$DISPSILH
 70
     0
  9
$DIMSCALE
 40
1.0
  9
$DIMASZ
 40
2.0
  9
$DIMEXO
 40
2.0
  9
$DIMDLI
 40
2.5
  9
$DIMRND
 40
0.0
  9
$DIMDLE
 40
0.0
  9
$DIMEXE
 40
2.0
  9
$DIMTP
 40
0.0
  9
$DIMTM
 40
0.0
  9
$DIMTXT
 40
4.0
  9
$DIMCEN
 40
0.0
  9
$DIMTSZ
 40
0.0
  9
$DIMTOL
 70
     0
  9
$DIMLIM
 70
     0
  9
$DIMTIH
 70
     0
  9
$DIMTOH
 70
     0
  9
$DIMSE1
 70
     0
  9
$DIMSE2
 70
     0
  9
$DIMTAD
 70
     3
  9
$DIMZIN
 70
     8
  9
$DIMBLK
  1

  9
$DIMASO
 70
     1
  9
$DIMSHO
 70
     1
  9
$DIMPOST
  1

  9
$DIMAPOST
  1

  9
$DIMALT
 70
     0
  9
$DIMALTD
 70
     2
  9
$DIMALTF
 40
25.4
  9
$DIMLFAC
 40
1.0
  9
$DIMTOFL
 70
     1
  9
$DIMTVP
 40
0.0
  9
$DIMTIX
 70
     1
  9
$DIMSOXD
 70
     0
  9
$DIMSAH
 70
     1
  9
$DIMBLK1
  1
OPEN
  9
$DIMBLK2
  1
OPEN
  9
$DIMSTYLE
  2
BIGT
  9
$DIMCLRD
 70
   256
  9
$DIMCLRE
 70
   256
  9
$DIMCLRT
 70
    40
  9
$DIMTFAC
 40
1.0
  9
$DIMGAP
 40
1.0
  9
$DIMJUST
 70
     0
  9
$DIMSD1
 70
     0
  9
$DIMSD2
 70
     0
  9
$DIMTOLJ
 70
     1
  9
$DIMTZIN
 70
     8
  9
$DIMALTZ
 70
     0
  9
$DIMALTTZ
 70
     0
  9
$DIMFIT
 70
     3
  9
$DIMUPT
 70
     0
  9
$DIMUNIT
 70
     2
  9
$DIMDEC
 70
     3
  9
$DIMTDEC
 70
     3
  9
$DIMALTU
 70
     2
  9
$DIMALTTD
 70
     2
  9
$DIMTXSTY
  7
STANDARD
  9
$DIMAUNIT
 70
     0
  9
$LUNITS
 70
     2
  9
$LUPREC
 70
     3
  9
$SKETCHINC
 40
1.0
  9
$FILLETRAD
 40
0.0
  9
$AUNITS
 70
     0
  9
$AUPREC
 70
     3
  9
$MENU
  1
.
  9
$ELEVATION
 40
0.0
  9
$PELEVATION
 40
0.0
  9
$THICKNESS
 40
0.0
  9
$LIMCHECK
 70
     0
  9
$BLIPMODE
 70
     0
  9
$CHAMFERA
 40
10.0
  9
$CHAMFERB
 40
10.0
  9
$CHAMFERC
 40
0.0
  9
$CHAMFERD
 40
0.0
  9
$SKPOLY
 70
     0
  9
$TDCREATE
 40
2454995.676290324
  9
$TDUPDATE
 40
2455378.455431666
  9
$TDINDWG
 40
0.0320462616
  9
$TDUSRTIMER
 40
0.0320462616
  9
$USRTIMER
 70
     1
  9
$ANGBASE
 50
0.0
  9
$ANGDIR
 70
     0
  9
$PDMODE
 70
     1
  9
$PDSIZE
 40
-5.0
  9
$PLINEWID
 40
0.0
  9
$COORDS
 70
     0
  9
$SPLFRAME
 70
     0
  9
$SPLINETYPE
 70
     6
  9
$SPLINESEGS
 70
     8
  9
$ATTDIA
 70
     0
  9
$ATTREQ
 70
     1
  9
$HANDLING
 70
-16383
  9
$HANDSEED
  5
1F56
  9
$SURFTAB1
 70
     6
  9
$SURFTAB2
 70
     6
  9
$SURFTYPE
 70
     6
  9
$SURFU
 70
     6
  9
$SURFV
 70
     6
  9
$UCSNAME
  2

  9
$UCSORG
 10
0.0
 20
0.0
 30
0.0
  9
$UCSXDIR
 10
1.0
 20
0.0
 30
0.0
  9
$UCSYDIR
 10
0.0
 20
1.0
 30
0.0
  9
$PUCSNAME
  2

  9
$PUCSORG
 10
0.0
 20
0.0
 30
0.0
  9
$PUCSXDIR
 10
1.0
 20
0.0
 30
0.0
  9
$PUCSYDIR
 10
0.0
 20
1.0
 30
0.0
  9
$USERI1
 70
     1
  9
$USERI2
 70
     0
  9
$USERI3
 70
     0
  9
$USERI4
 70
     0
  9
$USERI5
 70
     0
  9
$USERR1
 40
0.0
  9
$USERR2
 40
0.0
  9
$USERR3
 40
0.0
  9
$USERR4
 40
0.0
  9
$USERR5
 40
0.0
  9
$WORLDVIEW
 70
     1
  9
$SHADEDGE
 70
     3
  9
$SHADEDIF
 70
    70
  9
$TILEMODE
 70
     1
  9
$MAXACTVP
 70
    16
  9
$PINSBASE
 10
0.0
 20
0.0
 30
0.0
  9
$PLIMCHECK
 70
     0
  9
$PEXTMIN
 10
1.00000000E+20
 20
1.00000000E+20
 30
1.00000000E+20
  9
$PEXTMAX
 10
-1.00000000E+20
 20
-1.00000000E+20
 30
-1.00000000E+20
  9
$PLIMMIN
 10
0.0
 20
0.0
  9
$PLIMMAX
 10
420.0
 20
297.0
  9
$UNITMODE
 70
     0
  9
$VISRETAIN
 70
     0
  9
$PLINEGEN
 70
     0
  9
$PSLTSCALE
 70
     1
  9
$TREEDEPTH
 70
  3020
  9
$PICKSTYLE
 70
     0
  9
$CMLSTYLE
  2
STANDARD
  9
$CMLJUST
 70
     0
  9
$CMLSCALE
 40
1.0
  9
$PROXYGRAPHICS
 70
     1
  9
$MEASUREMENT
 70
     1
  0
ENDSEC
  0
SECTION
  2
CLASSES
  0
CLASS
  1
XRECORD
  2
AcDbXrecord
  3
AutoCAD 2000
 90
        0
280
     0
281
     0
  0
CLASS
  1
ACDBDICTIONARYWDFLT
  2
AcDbDictionaryWithDefault
  3
AutoCAD 2000
 90
        0
280
     0
281
     0
  0
CLASS
  1
ACDBPLACEHOLDER
  2
AcDbPlaceHolder
  3
AutoCAD 2000
 90
        0
280
     0
281
     0
  0
CLASS
  1
LAYOUT
  2
AcDbLayout
  3
AutoCAD 2000
 90
        0
280
     0
281
     0
  0
CLASS
  1
PLOTSETTINGS
  2
AcDbPlotSettings
  3
AutoCAD 2000
 90
        0
280
     0
281
     0
  0
CLASS
  1
LONG_TRANSACTION
  2
AcDbLongTransaction
  3
AutoCAD 2000
 90
        0
280
     0
281
     0
  0
CLASS
  1
LWPOLYLINE
  2
AcDbPolyline
  3
AutoCAD 2000
 90
        0
280
     0
281
     1
  0
CLASS
  1
HATCH
  2
AcDbHatch
  3
AutoCAD 2000
 90
        0
280
     0
281
     1
  0
CLASS
  1
XRECORD
  2
AcDbXrecord
  3
AutoCAD 2000
 90
        0
280
     0
281
     0
  0
CLASS
  1
LONG_TRANSACTION
  2
AcDbLongTransaction
  3
AutoCAD 2000
 90
        0
280
     0
281
     0
  0
CLASS
  1
LWPOLYLINE
  2
AcDbPolyline
  3
AutoCAD 2000
 90
        0
280
     0
281
     1
  0
CLASS
  1
HATCH
  2
AcDbHatch
  3
AutoCAD 2000
 90
        0
280
     0
281
     1
  0
CLASS
  1
XRECORD
  2
AcDbXrecord
  3
AutoCAD 2000
 90
        0
280
     0
281
     0
  0
CLASS
  1
LONG_TRANSACTION
  2
AcDbLongTransaction
  3
AutoCAD 2000
 90
        0
280
     0
281
     0
  0
CLASS
  1
LWPOLYLINE
  2
AcDbPolyline
  3
AutoCAD 2000
 90
        0
280
     0
281
     1
  0
CLASS
  1
HATCH
  2
AcDbHatch
  3
AutoCAD 2000
 90
        0
280
     0
281
     1
  0
CLASS
  1
XRECORD
  2
AcDbXrecord
  3
AutoCAD 2000
 90
        0
280
     0
281
     0
  0
CLASS
  1
LONG_TRANSACTION
  2
AcDbLongTransaction
  3
AutoCAD 2000
 90
        0
280
     0
281
     0
  0
CLASS
  1
LWPOLYLINE
  2
AcDbPolyline
  3
AutoCAD 2000
 90
        0
280
     0
281
     1
  0
CLASS
  1
HATCH
  2
AcDbHatch
  3
AutoCAD 2000
 90
        0
280
     0
281
     1
  0
CLASS
  1
XRECORD
  2
AcDbXrecord
  3
AutoCAD 2000
 90
        0
280
     0
281
     0
  0
ENDSEC
  0
SECTION
  2
TABLES
  0
TABLE
  2
VPORT
  5
8
330
0
100
AcDbSymbolTable
 70
     4
  0
VPORT
  5
1F31
330
8
100
AcDbSymbolTableRecord
100
AcDbViewportTableRecord
  2
*ACTIVE
 70
     0
 10
0.0
 20
0.0
 11
1.0
 21
1.0
 12
41.49449247
 22
14.64665722
 13
0.0
 23
0.0
 14
7.0
 24
7.0
 15
7.0
 25
7.0
 16
0.0
 26
0.0
 36
1.0
 17
0.0
 27
0.0
 37
0.0
 40
111.18132961
 41
1.45595855
 42
50.0
 43
0.0
 44
0.0
 50
0.0
 51
0.0
 71
     0
 72
  2000
 73
     1
 74
     0
 75
     0
 76
     0
 77
     0
 78
     0
  0
ENDTAB
  0
TABLE
  2
LTYPE
  5
5
330
0
100
AcDbSymbolTable
 70
     4
  0
LTYPE
  5
14
330
5
100
AcDbSymbolTableRecord
100
AcDbLinetypeTableRecord
  2
BYBLOCK
 70
     0
  3

 72
    65
 73
     0
 40
0.0
  0
LTYPE
  5
15
330
5
100
AcDbSymbolTableRecord
100
AcDbLinetypeTableRecord
  2
BYLAYER
 70
     0
  3

 72
    65
 73
     0
 40
0.0
  0
LTYPE
  5
16
330
5
100
AcDbSymbolTableRecord
100
AcDbLinetypeTableRecord
  2
CONTINUOUS
 70
     0
  3
Solid line
 72
    65
 73
     0
 40
0.0
  0
LTYPE
  5
258
330
5
100
AcDbSymbolTableRecord
100
AcDbLinetypeTableRecord
  2
CENTER2
 70
     0
  3
___ _ ___ _ ___ _ ___ _ ___ _ ___ _ ___ _ ___ _
 72
    65
 73
     4
 40
1.125
 49
0.75
 74
     0
 49
-0.125
 74
     0
 49
0.125
 74
     0
 49
-0.125
 74
     0
  0
LTYPE
  5
25D
330
5
100
AcDbSymbolTableRecord
100
AcDbLinetypeTableRecord
  2
PHANTOM2
 70
     0
  3
___ _ _ ___ _ _ ___ _ _ ___ _ _ ___ _ _ ___ _ _
 72
    65
 73
     6
 40
1.25
 49
0.625
 74
     0
 49
-0.125
 74
     0
 49
0.125
 74
     0
 49
-0.125
 74
     0
 49
0.125
 74
     0
 49
-0.125
 74
     0
  0
LTYPE
  5
1449
330
5
100
AcDbSymbolTableRecord
100
AcDbLinetypeTableRecord
  2
HIDDEN2
 70
     0
  3
_ _ _ _ _ _ _ _ _ _ _ _ _ _ _ _ _ _ _ _ _ _ _ _
 72
    65
 73
     2
 40
0.1875
 49
0.125
 74
     0
 49
-0.0625
 74
     0
  0
ENDTAB
  0
TABLE
  2
LAYER
  5
2
330
0
100
AcDbSymbolTable
 70
    11
  0
LAYER
  5
F
330
2
100
AcDbSymbolTableRecord
100
AcDbLayerTableRecord
  2
0
 70
     0
 62
     7
  6
CONTINUOUS
  0
LAYER
  5
1AA
330
2
100
AcDbSymbolTableRecord
100
AcDbLayerTableRecord
  2
240
 70
     0
 62
     4
  6
CONTINUOUS
  0
LAYER
  5
1AB
330
2
100
AcDbSymbolTableRecord
100
AcDbLayerTableRecord
  2
241
 70
     0
 62
   211
  6
CONTINUOUS
  0
LAYER
  5
1AC
330
2
100
AcDbSymbolTableRecord
100
AcDbLayerTableRecord
  2
242
 70
     0
 62
     3
  6
CONTINUOUS
  0
LAYER
  5
1AF
330
2
100
AcDbSymbolTableRecord
100
AcDbLayerTableRecord
  2
245
 70
     0
 62
     2
  6
CENTER2
  0
LAYER
  5
21A
330
2
100
AcDbSymbolTableRecord
100
AcDbLayerTableRecord
  2
246
 70
     0
 62
     3
  6
PHANTOM2
  0
LAYER
  5
21B
330
2
100
AcDbSymbolTableRecord
100
AcDbLayerTableRecord
  2
247
 70
     0
 62
    60
  6
CONTINUOUS
  0
LAYER
  5
21E
330
2
100
AcDbSymbolTableRecord
100
AcDbLayerTableRecord
  2
250
 70
     0
 62
     3
  6
CONTINUOUS
  0
LAYER
  5
21F
330
2
100
AcDbSymbolTableRecord
100
AcDbLayerTableRecord
  2
251
 70
     0
 62
    40
  6
CONTINUOUS
  0
LAYER
  5
5C4
330
2
100
AcDbSymbolTableRecord
100
AcDbLayerTableRecord
  2
DEFPOINTS
 70
     0
 62
     7
  6
CONTINUOUS
  0
ENDTAB
  0
TABLE
  2
STYLE
  5
3
330
0
100
AcDbSymbolTable
 70
     2
  0
STYLE
  5
10
330
3
100
AcDbSymbolTableRecord
100
AcDbTextStyleTableRecord
  2
STANDARD
 70
     0
 40
0.0
 41
1.0
 50
0.0
 71
     0
 42
3.0
  3
romans.shx
  4
BIGFONT.SHX
  0
STYLE
  5
339
330
3
100
AcDbSymbolTableRecord
100
AcDbTextStyleTableRecord
  2
YOKO
 70
     0
 40
0.0
 41
1.0
 50
0.0
 71
     0
 42
3.0
  3
romans.shx
  4
extfont.shx
  0
ENDTAB
  0
TABLE
  2
VIEW
  5
6
330
0
100
AcDbSymbolTable
 70
     1
  0
VIEW
  5
1F2F
330
6
100
AcDbSymbolTableRecord
100
AcDbViewTableRecord
  2
OLE1
 70
     0
 40
111.18132961
 10
41.49449247
 20
14.64665722
 41
161.87540736
 11
0.0
 21
0.0
 31
1.0
 12
0.0
 22
0.0
 32
0.0
 42
50.0
 43
0.0
 44
0.0
 50
0.0
 71
     0
  0
ENDTAB
  0
TABLE
  2
UCS
  5
7
330
0
100
AcDbSymbolTable
 70
     0
  0
ENDTAB
  0
TABLE
  2
APPID
  5
9
330
0
100
AcDbSymbolTable
 70
     9
  0
APPID
  5
11
330
9
100
AcDbSymbolTableRecord
100
AcDbRegAppTableRecord
  2
ACAD
 70
     0
  0
APPID
  5
1B1
330
9
100
AcDbSymbolTableRecord
100
AcDbRegAppTableRecord
  2
GLOBAL
 70
     0
  0
APPID
  5
2A4
330
9
100
AcDbSymbolTableRecord
100
AcDbRegAppTableRecord
  2
DETAIL
 70
     0
  0
APPID
  5
5FD
330
9
100
AcDbSymbolTableRecord
100
AcDbRegAppTableRecord
  2
GRPNAME
 70
     0
  0
APPID
  5
5FE
330
9
100
AcDbSymbolTableRecord
100
AcDbRegAppTableRecord
  2
GPARA
 70
     0
  0
APPID
  5
6C4
330
9
100
AcDbSymbolTableRecord
100
AcDbRegAppTableRecord
  2
DCO15
 70
     0
  0
APPID
  5
6C5
330
9
100
AcDbSymbolTableRecord
100
AcDbRegAppTableRecord
  2
ITEMNAME
 70
     0
  0
APPID
  5
6C6
330
9
100
AcDbSymbolTableRecord
100
AcDbRegAppTableRecord
  2
GRADE_0
 70
     0
  0
APPID
  5
143D
330
9
100
AcDbSymbolTableRecord
100
AcDbRegAppTableRecord
  2
CONTENTBLOCKICON
 70
     0
  0
ENDTAB
  0
TABLE
  2
DIMSTYLE
  5
A
330
0
100
AcDbSymbolTable
 70
     2
  0
DIMSTYLE
105
725
102
{ACAD_REACTORS
330
1076
102
}
330
A
100
AcDbSymbolTableRecord
100
AcDbDimStyleTableRecord
  2
BIGT
 70
     0
  3

  4

  5

  6
OPEN
  7
OPEN
 40
1.0
 41
2.23
 42
0.5
 43
2.5
 44
1.0
 45
0.0
 46
0.0
 47
0.0
 48
0.0
140
2.8
141
0.0
142
0.0
143
25.4
144
1.0
145
0.0
146
1.0
147
1.0
 71
     0
 72
     0
 73
     0
 74
     0
 75
     0
 76
     0
 77
     3
 78
     8
170
     0
171
     2
172
     1
173
     1
174
     1
175
     0
176
   256
177
   256
178
    40
270
     2
271
     3
272
     3
273
     2
274
     2
340
10
275
     0
280
     0
281
     0
282
     0
283
     1
284
     8
285
     0
286
     0
287
     3
288
     0
  0
DIMSTYLE
105
E37
102
{ACAD_REACTORS
330
1183
330
1184
330
1185
102
}
330
A
100
AcDbSymbolTableRecord
100
AcDbDimStyleTableRecord
  2
BIGT$0
 70
     0
  3

  4
"
  5
OPEN
  6

  7

 40
1.0
 41
2.23
 42
0.5
 43
7.0
 44
1.0
 45
0.0
 46
0.0
 47
0.1
 48
0.1
140
3.0
141
0.0
142
0.0
143
0.0393701
144
1.0
145
0.0
146
0.71
147
1.0
 71
     0
 72
     0
 73
     0
 74
     0
 75
     0
 76
     0
 77
     3
 78
     8
170
     0
171
     2
172
     1
173
     0
174
     0
175
     0
176
     3
177
     3
178
    40
270
     2
271
     3
272
     3
273
     2
274
     2
340
10
275
     0
280
     0
281
     0
282
     0
283
     1
284
     8
285
     0
286
     0
287
     3
288
     0
  0
ENDTAB
  0
TABLE
  2
BLOCK_RECORD
  5
1
330
0
100
AcDbSymbolTable
 70
     7
  0
BLOCK_RECORD
  5
1A
102
{ACAD_XDICTIONARY
360
143B
102
}
330
1
100
AcDbSymbolTableRecord
100
AcDbBlockTableRecord
  2
*MODEL_SPACE
  0
BLOCK_RECORD
  5
17
102
{ACAD_XDICTIONARY
360
1439
102
}
330
1
100
AcDbSymbolTableRecord
100
AcDbBlockTableRecord
  2
*PAPER_SPACE
  0
BLOCK_RECORD
  5
594
330
1
100
AcDbSymbolTableRecord
100
AcDbBlockTableRecord
  2
_OPEN
  0
BLOCK_RECORD
  5
6E3
330
1
100
AcDbSymbolTableRecord
100
AcDbBlockTableRecord
  2
矢印なし
  0
BLOCK_RECORD
  5
1188
330
1
100
AcDbSymbolTableRecord
100
AcDbBlockTableRecord
  2
*D2
  0
BLOCK_RECORD
  5
1194
330
1
100
AcDbSymbolTableRecord
100
AcDbBlockTableRecord
  2
*D3
  0
BLOCK_RECORD
  5
11A0
330
1
100
AcDbSymbolTableRecord
100
AcDbBlockTableRecord
  2
*D4
  0
BLOCK_RECORD
  5
11AC
330
1
100
AcDbSymbolTableRecord
100
AcDbBlockTableRecord
  2
*D5
  0
BLOCK_RECORD
  5
1225
330
1
100
AcDbSymbolTableRecord
100
AcDbBlockTableRecord
  2
1
1001
CONTENTBLOCKICON
1071
        0
1004
2800000020000000200000000100080000000000000400000000000000000000000000000000000000000000000080000080000000808000800000008000800080800000C0C0C000C0DCC000F0CAA6000020400000206000002080000020A0000020C0000020E00000400000004020000040400000406000004080000040A0
1004
000040C0000040E00000600000006020000060400000606000006080000060A0000060C0000060E00000800000008020000080400000806000008080000080A0000080C0000080E00000A0000000A0200000A0400000A0600000A0800000A0A00000A0C00000A0E00000C0000000C0200000C0400000C0600000C0800000C0
1004
A00000C0C00000C0E00000E0000000E0200000E0400000E0600000E0800000E0A00000E0C00000E0E00040000000400020004000400040006000400080004000A0004000C0004000E00040200000402020004020400040206000402080004020A0004020C0004020E000404000004040200040404000404060004040800040
1004
40A0004040C0004040E00040600000406020004060400040606000406080004060A0004060C0004060E00040800000408020004080400040806000408080004080A0004080C0004080E00040A0000040A0200040A0400040A0600040A0800040A0A00040A0C00040A0E00040C0000040C0200040C0400040C0600040C08000
1004
40C0A00040C0C00040C0E00040E0000040E0200040E0400040E0600040E0800040E0A00040E0C00040E0E00080000000800020008000400080006000800080008000A0008000C0008000E00080200000802020008020400080206000802080008020A0008020C0008020E00080400000804020008040400080406000804080
1004
008040A0008040C0008040E00080600000806020008060400080606000806080008060A0008060C0008060E00080800000808020008080400080806000808080008080A0008080C0008080E00080A0000080A0200080A0400080A0600080A0800080A0A00080A0C00080A0E00080C0000080C0200080C0400080C0600080C0
1004
800080C0A00080C0C00080C0E00080E0000080E0200080E0400080E0600080E0800080E0A00080E0C00080E0E000C0000000C0002000C0004000C0006000C0008000C000A000C000C000C000E000C0200000C0202000C0204000C0206000C0208000C020A000C020C000C020E000C0400000C0402000C0404000C0406000C0
1004
408000C040A000C040C000C040E000C0600000C0602000C0604000C0606000C0608000C060A000C060C000C060E000C0800000C0802000C0804000C0806000C0808000C080A000C080C000C080E000C0A00000C0A02000C0A04000C0A06000C0A08000C0A0A000C0A0C000C0A0E000C0C00000C0C02000C0C04000C0C06000
1004
C0C08000C0C0A000F0FBFF00A4A0A000808080000000FF0000FF000000FFFF00FF000000FF00FF00FFFF0000FFFFFF0000000000000000000000000000000000000000000000000000000000000000000000000000000000000000000000000000000000000000000000000000000000000000000000000000000000000000
1004
00000000000000000000000000000000000000000000000000000000000000000000000000000000000000000000000000000000000000000000000000000000000000000000000000000000000000000000000000000000000000000000000000000000000000000000000000000000000000000000000000000000000000
1004
000000000000000000000000000000000000000000000000000000000000000000000000000000000000000000000000000000000000000000000000000000000000000000000000000000000000000000000000000000000000000000000000000000000000000000000000000000000000000000000000000000FEFEE7FE
1004
FE000000000000000000000000000000000000000000000000000000FEE7E7E7FEFE00000000000000000000000000000000000000FEFAFEFEFEFEFEFEE7E7E7E700FEFEFEFE000000000000000000000000000000E70000000000E7E7E7E7E7E70000000000FEFEFE000000000000000000000000E70000000000E7E700E7
1004
00E70000000000000000FEFEFEFEFEFEFAFE00000000E70000000000E7E7000000E700000000000000000000E700E7E7E7FE000000FBE7FBFBFBFBFBE7E7FBFBFBE7FBFBFBFBFBFBFBFBFBFBE7FBE7E7E7E7FB000000FE0000000000E7E700E700E70000000000000000FEFEFEFEFEFEE7E700000000FE0000000000E7E7E7
1004
E7E7E700000000FEFEFEFE000000000000000000000000FE0000000000E7E7E7E7E7E700FEFEFE00000000000000000000000000000000FEFEFEFEFEFEFEFEE7E7E7FEFE0000000000000000000000000000000000000000000000000000FEFEE7FEFE00000000000000000000000000000000000000000000000000000000
1004
00000000000000000000000000000000000000000000000000000000000000000000000000000000000000000000000000000000000000000000000000000000000000000000000000000000000000000000000000000000000000000000000000000000000000000000000000000000000000000000000000000000000000
1004
00000000000000000000000000000000000000000000000000000000000000000000000000000000000000000000000000000000000000000000000000000000000000000000000000000000000000000000000000000000000000000000000000000000000000000000000000000000000000000000000000000000000000
1004
0000000000000000000000000000000000000000000000000000000000000000000000000000000000000000000000000000000000000000
  0
ENDTAB
  0
ENDSEC
  0
SECTION
  2
BLOCKS
  0
BLOCK
  5
1B
330
1A
100
AcDbEntity
  8
0
100
AcDbBlockBegin
  2
*MODEL_SPACE
 70
     0
 10
0.0
 20
0.0
 30
0.0
  3
*MODEL_SPACE
  1

  0
ENDBLK
  5
1C
330
1A
100
AcDbEntity
  8
0
100
AcDbBlockEnd
  0
BLOCK
  5
18
330
17
100
AcDbEntity
 67
     1
  8
0
100
AcDbBlockBegin
  2
*PAPER_SPACE
 70
     0
 10
0.0
 20
0.0
 30
0.0
  3
*PAPER_SPACE
  1

  0
ENDBLK
  5
19
330
17
100
AcDbEntity
 67
     1
  8
0
100
AcDbBlockEnd
  0
BLOCK
  5
598
330
594
100
AcDbEntity
  8
0
100
AcDbBlockBegin
  2
_OPEN
 70
     0
 10
0.0
 20
0.0
 30
0.0
  3
_OPEN
  1

  0
LINE
  5
595
330
594
100
AcDbEntity
  8
0
  6
BYBLOCK
 62
     0
100
AcDbLine
 10
-1.0
 20
0.16666667
 30
0.0
 11
0.0
 21
0.0
 31
0.0
  0
LINE
  5
596
330
594
100
AcDbEntity
  8
0
  6
BYBLOCK
 62
     0
100
AcDbLine
 10
-1.0
 20
-0.16666667
 30
0.0
 11
0.0
 21
0.0
 31
0.0
  0
LINE
  5
597
330
594
100
AcDbEntity
  8
0
  6
BYBLOCK
 62
     0
100
AcDbLine
 10
0.0
 20
0.0
 30
0.0
 11
-1.0
 21
0.0
 31
0.0
  0
ENDBLK
  5
599
330
594
100
AcDbEntity
  8
0
100
AcDbBlockEnd
  0
BLOCK
  5
6E4
330
6E3
100
AcDbEntity
  8
0
100
AcDbBlockBegin
  2
矢印なし
 70
     0
 10
0.0
 20
0.0
 30
0.0
  3
矢印なし
  1

  0
ENDBLK
  5
6E5
330
6E3
100
AcDbEntity
  8
0
100
AcDbBlockEnd
  0
BLOCK
  5
1192
330
1188
100
AcDbEntity
  8
0
100
AcDbBlockBegin
  2
*D2
 70
     1
 10
0.0
 20
0.0
 30
0.0
  3
*D2
  1

  0
LINE
  5
1AE9
330
1188
100
AcDbEntity
  8
250
  6
CONTINUOUS
100
AcDbLine
 10
110.5
 20
-8.0
 30
0.0
 11
122.0
 21
-8.0
 31
0.0
  0
LINE
  5
1AEA
330
1188
100
AcDbEntity
  8
250
  6
CONTINUOUS
100
AcDbLine
 10
110.5
 20
8.0
 30
0.0
 11
122.0
 21
8.0
 31
0.0
  0
LINE
  5
1AEB
330
1188
100
AcDbEntity
  8
250
  6
CONTINUOUS
100
AcDbLine
 10
121.0
 20
-5.77
 30
0.0
 11
121.0
 21
5.77
 31
0.0
  0
INSERT
  5
1AEC
330
1188
100
AcDbEntity
  8
250
  6
CONTINUOUS
100
AcDbBlockReference
  2
_OPEN
 10
121.0
 20
-8.0
 30
0.0
 41
2.23
 42
2.23
 43
2.23
 50
270.0
  0
INSERT
  5
1AED
330
1188
100
AcDbEntity
  8
250
  6
CONTINUOUS
100
AcDbBlockReference
  2
_OPEN
 10
121.0
 20
8.0
 30
0.0
 41
2.23
 42
2.23
 43
2.23
 50
90.0
  0
MTEXT
  5
1AEE
330
1188
100
AcDbEntity
  8
250
  6
CONTINUOUS
 62
    40
100
AcDbMText
 10
118.6
 20
0.0
 30
0.0
 40
2.8
 41
0.0
 71
     5
 72
     1
  1
\A1;{\H2.8;\U+2205}16
 11
0.0
 21
1.0
 31
0.0
1001
ACAD
1000
MTEXTBEGIN
1070
    73
1070
     1
1070
    44
1040
1.0
1070
    74
1070
     0
1000
MTEXTEND
1000
MTEXTBEGIN
1070
    73
1070
     1
1070
    44
1040
1.0
1070
    74
1070
     0
1000
MTEXTEND
  0
POINT
  5
1AEF
330
1188
100
AcDbEntity
  8
DEFPOINTS
  6
CONTINUOUS
 62
     0
100
AcDbPoint
 10
110.0
 20
-8.0
 30
0.0
  0
POINT
  5
1AF0
330
1188
100
AcDbEntity
  8
DEFPOINTS
  6
CONTINUOUS
 62
     0
100
AcDbPoint
 10
110.0
 20
8.0
 30
0.0
  0
POINT
  5
1AF1
330
1188
100
AcDbEntity
  8
DEFPOINTS
  6
CONTINUOUS
 62
     0
100
AcDbPoint
 10
121.0
 20
8.0
 30
0.0
  0
ENDBLK
  5
1193
330
1188
100
AcDbEntity
  8
0
100
AcDbBlockEnd
  0
BLOCK
  5
119E
330
1194
100
AcDbEntity
  8
0
100
AcDbBlockBegin
  2
*D3
 70
     1
 10
0.0
 20
0.0
 30
0.0
  3
*D3
  1

  0
LINE
  5
121C
330
1194
100
AcDbEntity
  8
250
  6
CONTINUOUS
 62
     3
100
AcDbLine
 10
101.0
 20
8.5
 30
0.0
 11
101.0
 21
29.0
 31
0.0
  0
LINE
  5
121D
330
1194
100
AcDbEntity
  8
250
  6
CONTINUOUS
 62
     3
100
AcDbLine
 10
110.0
 20
8.5
 30
0.0
 11
110.0
 21
29.0
 31
0.0
  0
LINE
  5
121E
330
1194
100
AcDbEntity
  8
250
  6
CONTINUOUS
 62
     3
100
AcDbLine
 10
103.23
 20
28.0
 30
0.0
 11
107.77
 21
28.0
 31
0.0
  0
INSERT
  5
121F
330
1194
100
AcDbEntity
  8
250
  6
CONTINUOUS
 62
     3
100
AcDbBlockReference
  2
_OPEN
 10
101.0
 20
28.0
 30
0.0
 41
2.23
 42
2.23
 43
2.23
 50
180.0
  0
INSERT
  5
1220
330
1194
100
AcDbEntity
  8
250
  6
CONTINUOUS
 62
     3
100
AcDbBlockReference
  2
_OPEN
 10
110.0
 20
28.0
 30
0.0
 41
2.23
 42
2.23
 43
2.23
  0
MTEXT
  5
1221
330
1194
100
AcDbEntity
  8
250
  6
CONTINUOUS
 62
    40
100
AcDbMText
 10
105.5
 20
30.5
 30
0.0
 40
3.0
 41
0.0
 71
     5
 72
     1
  1
\A1;9
1001
ACAD
1000
MTEXTBEGIN
1070
    73
1070
     1
1070
    44
1040
1.0
1070
    74
1070
     0
1000
MTEXTEND
1000
MTEXTBEGIN
1070
    73
1070
     1
1070
    44
1040
1.0
1070
    74
1070
     0
1000
MTEXTEND
1000
MTEXTBEGIN
1070
    73
1070
     1
1070
    44
1040
1.0
1070
    74
1070
     0
1000
MTEXTEND
1000
MTEXTBEGIN
1070
    73
1070
     1
1070
    44
1040
1.0
1070
    74
1070
     0
1000
MTEXTEND
  0
POINT
  5
1222
330
1194
100
AcDbEntity
  8
DEFPOINTS
  6
CONTINUOUS
 62
     0
100
AcDbPoint
 10
101.0
 20
8.0
 30
0.0
  0
POINT
  5
1223
330
1194
100
AcDbEntity
  8
DEFPOINTS
  6
CONTINUOUS
 62
     0
100
AcDbPoint
 10
110.0
 20
8.0
 30
0.0
  0
POINT
  5
1224
330
1194
100
AcDbEntity
  8
DEFPOINTS
  6
CONTINUOUS
 62
     0
100
AcDbPoint
 10
110.0
 20
28.0
 30
0.0
  0
ENDBLK
  5
119F
330
1194
100
AcDbEntity
  8
0
100
AcDbBlockEnd
  0
BLOCK
  5
11AA
330
11A0
100
AcDbEntity
  8
0
100
AcDbBlockBegin
  2
*D4
 70
     1
 10
0.0
 20
0.0
 30
0.0
  3
*D4
  1

  0
LINE
  5
1A95
330
11A0
100
AcDbEntity
  8
250
  6
CONTINUOUS
 62
     3
100
AcDbLine
 10
0.0
 20
31.9925
 30
0.0
 11
0.0
 21
43.0
 31
0.0
  0
LINE
  5
1A96
330
11A0
100
AcDbEntity
  8
250
  6
CONTINUOUS
 62
     3
100
AcDbLine
 10
110.0
 20
8.5
 30
0.0
 11
110.0
 21
43.0
 31
0.0
  0
LINE
  5
1A97
330
11A0
100
AcDbEntity
  8
250
  6
CONTINUOUS
 62
     3
100
AcDbLine
 10
2.23
 20
42.0
 30
0.0
 11
107.77
 21
42.0
 31
0.0
  0
INSERT
  5
1A98
330
11A0
100
AcDbEntity
  8
250
  6
CONTINUOUS
 62
     3
100
AcDbBlockReference
  2
_OPEN
 10
0.0
 20
42.0
 30
0.0
 41
2.23
 42
2.23
 43
2.23
 50
180.0
  0
INSERT
  5
1A99
330
11A0
100
AcDbEntity
  8
250
  6
CONTINUOUS
 62
     3
100
AcDbBlockReference
  2
_OPEN
 10
110.0
 20
42.0
 30
0.0
 41
2.23
 42
2.23
 43
2.23
  0
MTEXT
  5
1A9A
330
11A0
100
AcDbEntity
  8
250
  6
CONTINUOUS
 62
    40
100
AcDbMText
 10
55.0
 20
44.5
 30
0.0
 40
3.0
 41
0.0
 71
     5
 72
     1
  1
\A1;110
1001
ACAD
1000
MTEXTBEGIN
1070
    73
1070
     1
1070
    44
1040
1.0
1070
    74
1070
     0
1000
MTEXTEND
1000
MTEXTBEGIN
1070
    73
1070
     1
1070
    44
1040
1.0
1070
    74
1070
     0
1000
MTEXTEND
  0
POINT
  5
1A9B
330
11A0
100
AcDbEntity
  8
DEFPOINTS
  6
CONTINUOUS
 62
     0
100
AcDbPoint
 10
0.0
 20
31.4925
 30
0.0
  0
POINT
  5
1A9C
330
11A0
100
AcDbEntity
  8
DEFPOINTS
  6
CONTINUOUS
 62
     0
100
AcDbPoint
 10
110.0
 20
8.0
 30
0.0
  0
POINT
  5
1A9D
330
11A0
100
AcDbEntity
  8
DEFPOINTS
  6
CONTINUOUS
 62
     0
100
AcDbPoint
 10
110.0
 20
42.0
 30
0.0
  0
ENDBLK
  5
11AB
330
11A0
100
AcDbEntity
  8
0
100
AcDbBlockEnd
  0
BLOCK
  5
11B6
330
11AC
100
AcDbEntity
  8
0
100
AcDbBlockBegin
  2
*D5
 70
     1
 10
0.0
 20
0.0
 30
0.0
  3
*D5
  1

  0
LINE
  5
1213
330
11AC
100
AcDbEntity
  8
250
  6
CONTINUOUS
 62
     3
100
AcDbLine
 10
80.0
 20
7.9
 30
0.0
 11
80.0
 21
36.0
 31
0.0
  0
LINE
  5
1214
330
11AC
100
AcDbEntity
  8
250
  6
CONTINUOUS
 62
     3
100
AcDbLine
 10
110.0
 20
8.5
 30
0.0
 11
110.0
 21
36.0
 31
0.0
  0
LINE
  5
1215
330
11AC
100
AcDbEntity
  8
250
  6
CONTINUOUS
 62
     3
100
AcDbLine
 10
82.23
 20
35.0
 30
0.0
 11
107.77
 21
35.0
 31
0.0
  0
INSERT
  5
1216
330
11AC
100
AcDbEntity
  8
250
  6
CONTINUOUS
 62
     3
100
AcDbBlockReference
  2
_OPEN
 10
80.0
 20
35.0
 30
0.0
 41
2.23
 42
2.23
 43
2.23
 50
180.0
  0
INSERT
  5
1217
330
11AC
100
AcDbEntity
  8
250
  6
CONTINUOUS
 62
     3
100
AcDbBlockReference
  2
_OPEN
 10
110.0
 20
35.0
 30
0.0
 41
2.23
 42
2.23
 43
2.23
  0
MTEXT
  5
1218
330
11AC
100
AcDbEntity
  8
250
  6
CONTINUOUS
 62
    40
100
AcDbMText
 10
95.0
 20
37.5
 30
0.0
 40
3.0
 41
0.0
 71
     5
 72
     1
  1
\A1;30
1001
ACAD
1000
MTEXTBEGIN
1070
    73
1070
     1
1070
    44
1040
1.0
1070
    74
1070
     0
1000
MTEXTEND
1000
MTEXTBEGIN
1070
    73
1070
     1
1070
    44
1040
1.0
1070
    74
1070
     0
1000
MTEXTEND
1000
MTEXTBEGIN
1070
    73
1070
     1
1070
    44
1040
1.0
1070
    74
1070
     0
1000
MTEXTEND
1000
MTEXTBEGIN
1070
    73
1070
     1
1070
    44
1040
1.0
1070
    74
1070
     0
1000
MTEXTEND
  0
POINT
  5
1219
330
11AC
100
AcDbEntity
  8
DEFPOINTS
  6
CONTINUOUS
 62
     0
100
AcDbPoint
 10
80.0
 20
7.4
 30
0.0
  0
POINT
  5
121A
330
11AC
100
AcDbEntity
  8
DEFPOINTS
  6
CONTINUOUS
 62
     0
100
AcDbPoint
 10
110.0
 20
8.0
 30
0.0
  0
POINT
  5
121B
330
11AC
100
AcDbEntity
  8
DEFPOINTS
  6
CONTINUOUS
 62
     0
100
AcDbPoint
 10
110.0
 20
35.0
 30
0.0
  0
ENDBLK
  5
11B7
330
11AC
100
AcDbEntity
  8
0
100
AcDbBlockEnd
  0
BLOCK
  5
1226
330
1225
100
AcDbEntity
  8
0
100
AcDbBlockBegin
  2
1
 70
     0
 10
0.0
 20
0.0
 30
0.0
  3
1
  1

  0
ARC
  5
1DBE
330
1225
100
AcDbEntity
  8
240
100
AcDbCircle
 10
95.96809667
 20
156.5476446
 30
0.0
 40
150.0
100
AcDbArc
 50
241.59883819
 51
262.51387714
  0
LINE
  5
1DBF
330
1225
100
AcDbEntity
  8
245
  6
CENTER2
100
AcDbLine
 10
-39.0
 20
0.0
 30
0.0
 11
111.0
 21
0.0
 31
0.0
  0
ARC
  5
1DC0
330
1225
100
AcDbEntity
  8
240
100
AcDbCircle
 10
95.96809667
 20
-156.5476446
 30
0.0
 40
150.0
100
AcDbArc
 50
97.48612286
 51
118.40116181
  0
SPLINE
  5
1DC1
330
1225
100
AcDbEntity
  8
241
  6
CONTINUOUS
100
AcDbSpline
210
0.0
220
0.0
230
1.0
 70
     8
 71
     3
 72
     9
 73
     5
 74
     3
 42
0.0000000001
 43
0.0000000001
 44
0.0000000001
 40
0.0
 40
0.0
 40
0.0
 40
0.0
 40
10.74384375536308
 40
21.48768751072606
 40
21.48768751072606
 40
21.48768751072606
 40
21.48768751072606
 10
14.05000000000009
 20
30.1813742565713
 30
0.0
 10
14.94252458154614
 20
26.64986878400332
 30
0.0
 10
16.72757374463822
 20
19.58685783886738
 30
0.0
 10
14.94252458154613
 20
12.52384689373145
 30
0.0
 10
14.05000000000009
 20
8.992341421163501
 30
0.0
 11
14.05000000000009
 21
30.1813742565713
 31
0.0
 11
15.83504916309218
 21
19.58685783886735
 31
0.0
 11
14.05000000000009
 21
8.992341421163501
 31
0.0
  0
LINE
  5
1DC2
330
1225
100
AcDbEntity
  8
241
  6
CONTINUOUS
100
AcDbLine
 10
9.95
 20
8.99234142
 30
0.0
 11
9.95
 21
30.18137426
 31
0.0
  0
SPLINE
  5
1DC3
330
1225
100
AcDbEntity
  8
241
  6
CONTINUOUS
100
AcDbSpline
210
0.0
220
0.0
230
1.0
 70
     8
 71
     3
 72
     9
 73
     5
 74
     3
 42
0.0000000001
 43
0.0000000001
 44
0.0000000001
 40
0.0
 40
0.0
 40
0.0
 40
0.0
 40
10.74384375536296
 40
21.48768751072607
 40
21.48768751072607
 40
21.48768751072607
 40
21.48768751072607
 10
9.9500000000001
 20
8.992341421163501
 30
0.0
 10
9.057475418454041
 20
12.52384689373144
 30
0.0
 10
7.272426255361908
 20
19.58685783886737
 30
0.0
 10
9.057475418453993
 20
26.6498687840033
 30
0.0
 10
9.950000000000043
 20
30.1813742565713
 30
0.0
 11
9.9500000000001
 21
8.992341421163501
 31
0.0
 11
8.164950836907962
 21
19.58685783886732
 31
0.0
 11
9.950000000000043
 21
30.1813742565713
 31
0.0
  0
LINE
  5
1DC4
330
1225
100
AcDbEntity
  8
241
  6
CONTINUOUS
100
AcDbLine
 10
14.05
 20
8.99234142
 30
0.0
 11
14.05
 21
30.18137426
 31
0.0
  0
LINE
  5
1DC5
330
1225
100
AcDbEntity
  8
240
  6
CONTINUOUS
100
AcDbLine
 10
0.0
 20
31.4925
 30
0.0
 11
0.0
 21
23.42000332
 31
0.0
  0
LINE
  5
1DC6
330
1225
100
AcDbEntity
  8
240
  6
CONTINUOUS
100
AcDbLine
 10
22.0
 20
30.4925
 30
0.0
 11
22.0
 21
29.0
 31
0.0
  0
LINE
  5
1DC7
330
1225
100
AcDbEntity
  8
240
  6
CONTINUOUS
100
AcDbLine
 10
-2.19993752
 20
-20.62000332
 30
0.0
 11
-36.5
 21
-19.76242639
 31
0.0
  0
LINE
  5
1DC8
330
1225
100
AcDbEntity
  8
240
  6
CONTINUOUS
100
AcDbLine
 10
-36.5
 20
22.56242639
 30
0.0
 11
-2.19993751
 21
23.42000332
 31
0.0
  0
LINE
  5
1DC9
330
1225
100
AcDbEntity
  8
241
  6
CONTINUOUS
100
AcDbLine
 10
-36.5
 20
22.56242639
 30
0.0
 11
-36.5
 21
0.0
 31
0.0
  0
LINE
  5
1DCA
330
1225
100
AcDbEntity
  8
240
  6
CONTINUOUS
100
AcDbLine
 10
-38.0
 20
21.69640099
 30
0.0
 11
-38.0
 21
0.0
 31
0.0
  0
LINE
  5
1DCB
330
1225
100
AcDbEntity
  8
240
  6
CONTINUOUS
100
AcDbLine
 10
-38.0
 20
0.0
 30
0.0
 11
-38.0
 21
-18.26242639
 31
0.0
  0
LINE
  5
1DCC
330
1225
100
AcDbEntity
  8
241
  6
CONTINUOUS
100
AcDbLine
 10
-36.5
 20
0.0
 30
0.0
 11
-36.5
 21
-19.76242639
 31
0.0
  0
LINE
  5
1DCD
330
1225
100
AcDbEntity
  8
242
  6
HIDDEN2
100
AcDbLine
 10
-38.0
 20
-18.0
 30
0.0
 11
-31.8
 21
-18.0
 31
0.0
  0
LINE
  5
1DCE
330
1225
100
AcDbEntity
  8
240
  6
CONTINUOUS
100
AcDbLine
 10
-36.5
 20
-19.76242639
 30
0.0
 11
-38.0
 21
-18.26242639
 31
0.0
  0
LINE
  5
1DCF
330
1225
100
AcDbEntity
  8
242
  6
HIDDEN2
100
AcDbLine
 10
-29.87185543
 20
-19.92814457
 30
0.0
 11
-31.8
 21
-18.0
 31
0.0
  0
LINE
  5
1DD0
330
1225
100
AcDbEntity
  8
242
  6
HIDDEN2
100
AcDbLine
 10
-31.8
 20
-19.87993672
 30
0.0
 11
-31.8
 21
-18.0
 31
0.0
  0
LINE
  5
1DD1
330
1225
100
AcDbEntity
  8
240
  6
CONTINUOUS
100
AcDbLine
 10
-38.0
 20
21.69640099
 30
0.0
 11
-36.5
 21
22.56242639
 31
0.0
  0
LINE
  5
1DD2
330
1225
100
AcDbEntity
  8
240
100
AcDbLine
 10
0.0
 20
-31.4925
 30
0.0
 11
0.0
 21
-20.62000332
 31
0.0
  0
SPLINE
  5
1DD3
330
1225
100
AcDbEntity
  8
241
  6
CONTINUOUS
100
AcDbSpline
210
0.0
220
0.0
230
1.0
 70
     8
 71
     3
 72
     9
 73
     5
 74
     3
 42
0.0000000001
 43
0.0000000001
 44
0.0000000001
 40
0.0
 40
0.0
 40
0.0
 40
0.0
 40
10.74384375536301
 40
21.48768751072616
 40
21.48768751072616
 40
21.48768751072616
 40
21.48768751072616
 10
9.9500000000001
 20
-8.992341421163501
 30
0.0
 10
9.057475418454039
 20
-12.52384689373146
 30
0.0
 10
7.272426255361908
 20
-19.58685783886741
 30
0.0
 10
9.057475418453995
 20
-26.64986878400338
 30
0.0
 10
9.950000000000043
 20
-30.18137425657139
 30
0.0
 11
9.9500000000001
 21
-8.992341421163501
 31
0.0
 11
8.164950836907962
 21
-19.58685783886737
 31
0.0
 11
9.950000000000043
 21
-30.18137425657139
 31
0.0
  0
LINE
  5
1DD4
330
1225
100
AcDbEntity
  8
241
  6
CONTINUOUS
100
AcDbLine
 10
9.95
 20
-8.99234142
 30
0.0
 11
9.95
 21
-30.18137426
 31
0.0
  0
SPLINE
  5
1DD5
330
1225
100
AcDbEntity
  8
241
  6
CONTINUOUS
100
AcDbSpline
210
0.0
220
0.0
230
1.0
 70
     8
 71
     3
 72
     9
 73
     5
 74
     3
 42
0.0000000001
 43
0.0000000001
 44
0.0000000001
 40
0.0
 40
0.0
 40
0.0
 40
0.0
 40
10.74384375536293
 40
21.48768751072603
 40
21.48768751072603
 40
21.48768751072603
 40
21.48768751072603
 10
14.05000000000009
 20
-30.18137425657126
 30
0.0
 10
14.94252458154613
 20
-26.64986878400333
 30
0.0
 10
16.72757374463822
 20
-19.58685783886741
 30
0.0
 10
14.94252458154614
 20
-12.52384689373149
 30
0.0
 10
14.05000000000009
 20
-8.992341421163501
 30
0.0
 11
14.05000000000009
 21
-30.18137425657126
 31
0.0
 11
15.83504916309218
 21
-19.58685783886746
 31
0.0
 11
14.05000000000009
 21
-8.992341421163501
 31
0.0
  0
LINE
  5
1DD6
330
1225
100
AcDbEntity
  8
241
  6
CONTINUOUS
100
AcDbLine
 10
14.05
 20
-8.99234142
 30
0.0
 11
14.05
 21
-30.18137426
 31
0.0
  0
LINE
  5
1DD7
330
1225
100
AcDbEntity
  8
241
  6
CONTINUOUS
100
AcDbLine
 10
22.0
 20
-29.0
 30
0.0
 11
22.0
 21
0.0
 31
0.0
  0
LINE
  5
1DD8
330
1225
100
AcDbEntity
  8
240
  6
CONTINUOUS
100
AcDbLine
 10
0.0
 20
-31.4925
 30
0.0
 11
21.0
 21
-31.4925
 31
0.0
  0
LINE
  5
1DD9
330
1225
100
AcDbEntity
  8
241
  6
CONTINUOUS
100
AcDbLine
 10
9.95
 20
-30.18137426
 30
0.0
 11
14.05
 21
-30.18137426
 31
0.0
  0
ARC
  5
1DDA
330
1225
100
AcDbEntity
  8
240
  6
CONTINUOUS
100
AcDbCircle
 10
27.0
 20
-29.0
 30
0.0
 40
5.000000000004074
100
AcDbArc
 50
118.40116181
 51
180.0
  0
ARC
  5
1DDB
330
1225
100
AcDbEntity
  8
240
  6
CONTINUOUS
100
AcDbCircle
 10
21.0
 20
-30.4925
 30
0.0
 40
1.0
100
AcDbArc
 50
270.0
 51
0.0
  0
LINE
  5
1DDC
330
1225
100
AcDbEntity
  8
240
  6
CONTINUOUS
100
AcDbLine
 10
22.0
 20
-30.4925
 30
0.0
 11
22.0
 21
-29.0
 31
0.0
  0
LINE
  5
1DDD
330
1225
100
AcDbEntity
  8
241
  6
CONTINUOUS
100
AcDbLine
 10
9.95
 20
-8.99234142
 30
0.0
 11
14.05
 21
-8.99234142
 31
0.0
  0
LINE
  5
1DDE
330
1225
100
AcDbEntity
  8
241
  6
CONTINUOUS
100
AcDbLine
 10
9.95
 20
8.99234142
 30
0.0
 11
14.05
 21
8.99234142
 31
0.0
  0
LINE
  5
1DDF
330
1225
100
AcDbEntity
  8
241
100
AcDbLine
 10
0.0
 20
23.42000332
 30
0.0
 11
0.0
 21
0.0
 31
0.0
  0
LINE
  5
1DE0
330
1225
100
AcDbEntity
  8
241
100
AcDbLine
 10
-2.19993752
 20
23.42000332
 30
0.0
 11
-2.19993752
 21
0.0
 31
0.0
  0
LINE
  5
1DE1
330
1225
100
AcDbEntity
  8
241
100
AcDbLine
 10
-2.19993752
 20
0.0
 30
0.0
 11
-2.19993752
 21
-20.62000332
 31
0.0
  0
LINE
  5
1DE2
330
1225
100
AcDbEntity
  8
241
100
AcDbLine
 10
0.0
 20
0.0
 30
0.0
 11
0.0
 21
-20.62000332
 31
0.0
  0
LINE
  5
1DE3
330
1225
100
AcDbEntity
  8
240
100
AcDbLine
 10
-2.19993752
 20
-20.62000332
 30
0.0
 11
0.0
 21
-20.62000332
 31
0.0
  0
LINE
  5
1DE4
330
1225
100
AcDbEntity
  8
240
100
AcDbLine
 10
-2.19993751
 20
23.42000332
 30
0.0
 11
0.0
 21
23.42000332
 31
0.0
  0
LINE
  5
1DE5
330
1225
100
AcDbEntity
  8
241
  6
CONTINUOUS
100
AcDbLine
 10
22.0
 20
0.0
 30
0.0
 11
22.0
 21
29.0
 31
0.0
  0
ARC
  5
1DE6
330
1225
100
AcDbEntity
  8
240
  6
CONTINUOUS
100
AcDbCircle
 10
27.0
 20
29.0
 30
0.0
 40
5.000000000004074
100
AcDbArc
 50
180.0
 51
241.59883819
  0
LINE
  5
1DE7
330
1225
100
AcDbEntity
  8
240
  6
CONTINUOUS
100
AcDbLine
 10
0.0
 20
31.4925
 30
0.0
 11
21.0
 21
31.4925
 31
0.0
  0
LINE
  5
1DE8
330
1225
100
AcDbEntity
  8
241
  6
CONTINUOUS
100
AcDbLine
 10
9.95
 20
30.18137426
 30
0.0
 11
14.05
 21
30.18137426
 31
0.0
  0
ARC
  5
1DE9
330
1225
100
AcDbEntity
  8
240
  6
CONTINUOUS
100
AcDbCircle
 10
21.0
 20
30.4925
 30
0.0
 40
1.0
100
AcDbArc
 50
0.0
 51
90.0
  0
ARC
  5
1DEA
330
1225
100
AcDbEntity
  8
240
100
AcDbCircle
 10
82.9394908
 20
57.4
 30
0.0
 40
50.0
100
AcDbArc
 50
262.51387714
 51
270.0
  0
ARC
  5
1DEB
330
1225
100
AcDbEntity
  8
240
100
AcDbCircle
 10
82.9394908
 20
-57.4
 30
0.0
 40
50.0
100
AcDbArc
 50
90.0
 51
97.48612286
  0
LINE
  5
1DEC
330
1225
100
AcDbEntity
  8
241
  6
CONTINUOUS
100
AcDbLine
 10
80.0
 20
0.0
 30
0.0
 11
80.0
 21
7.4
 31
0.0
1001
GRPNAME
1000
PASTMD3F
  0
LINE
  5
1DED
330
1225
100
AcDbEntity
  8
241
  6
CONTINUOUS
100
AcDbLine
 10
80.0
 20
0.0
 30
0.0
 11
80.0
 21
-7.4
 31
0.0
1001
GRPNAME
1000
PASTMD3F
  0
LINE
  5
1DEE
330
1225
100
AcDbEntity
  8
246
100
AcDbLine
 10
110.0
 20
-8.0
 30
0.0
 11
110.0
 21
8.0
 31
0.0
  0
LINE
  5
1DEF
330
1225
100
AcDbEntity
  8
240
100
AcDbLine
 10
109.5
 20
7.3
 30
0.0
 11
109.5
 21
0.50445513
 31
0.0
  0
LINE
  5
1DF0
330
1225
100
AcDbEntity
  8
240
100
AcDbLine
 10
109.5
 20
-7.3
 30
0.0
 11
100.00000001
 21
-7.6
 31
0.0
  0
LINE
  5
1DF1
330
1225
100
AcDbEntity
  8
241
100
AcDbLine
 10
93.69962837
 20
-4.48958244
 30
0.0
 11
109.28181685
 21
-7.30689
 31
0.0
  0
LINE
  5
1DF2
330
1225
100
AcDbEntity
  8
241
100
AcDbLine
 10
109.60907584
 20
0.48341371
 30
0.0
 11
99.96190064
 21
2.18447099
 31
0.0
  0
LINE
  5
1DF3
330
1225
100
AcDbEntity
  8
241
100
AcDbLine
 10
98.86821946
 20
-0.05790774
 30
0.0
 11
109.5
 21
-3.66057103
 31
0.0
  0
ARC
  5
1DF4
330
1225
100
AcDbEntity
  8
241
100
AcDbCircle
 10
94.17568132
 20
-1.85659096
 30
0.0
 40
2.67568131511622
100
AcDbArc
 50
80.0
 51
259.75144627
  0
LINE
  5
1DF5
330
1225
100
AcDbEntity
  8
240
100
AcDbLine
 10
99.45050451
 20
-7.4
 30
0.0
 11
82.9394908
 21
-7.4
 31
0.0
  0
LINE
  5
1DF6
330
1225
100
AcDbEntity
  8
240
100
AcDbLine
 10
99.45050451
 20
-7.4
 30
0.0
 11
100.00000001
 21
-7.6
 31
0.0
  0
LINE
  5
1DF7
330
1225
100
AcDbEntity
  8
241
100
AcDbLine
 10
94.6403085
 20
0.77844074
 30
0.0
 11
98.90902268
 21
0.02575126
 31
0.0
  0
LINE
  5
1DF8
330
1225
100
AcDbEntity
  8
241
100
AcDbLine
 10
99.96190064
 20
2.18447099
 30
0.0
 11
98.86821946
 21
-0.05790774
 31
0.0
  0
LINE
  5
1DF9
330
1225
100
AcDbEntity
  8
240
100
AcDbLine
 10
109.99051309
 20
-2.97357041
 30
0.0
 11
109.60907584
 21
0.48341371
 31
0.0
  0
LINE
  5
1DFA
330
1225
100
AcDbEntity
  8
242
100
AcDbLine
 10
110.0
 20
-8.0
 30
0.0
 11
101.0
 21
-8.0
 31
0.0
  0
LINE
  5
1DFB
330
1225
100
AcDbEntity
  8
240
100
AcDbLine
 10
110.0
 20
-3.83
 30
0.0
 11
109.5
 21
-3.66057103
 31
0.0
  0
LINE
  5
1DFC
330
1225
100
AcDbEntity
  8
240
100
AcDbLine
 10
109.5
 20
-7.3
 30
0.0
 11
109.5
 21
-3.66057103
 31
0.0
  0
LINE
  5
1DFD
330
1225
100
AcDbEntity
  8
247
100
AcDbLine
 10
109.69544263
 20
-1.25512764
 30
0.0
 11
109.69454015
 21
-1.25484608
 31
0.0
  0
LINE
  5
1DFE
330
1225
100
AcDbEntity
  8
240
100
AcDbLine
 10
109.99051309
 20
-2.97357041
 30
0.0
 11
110.0
 21
-3.83
 31
0.0
  0
LINE
  5
1DFF
330
1225
100
AcDbEntity
  8
240
100
AcDbLine
 10
109.5
 20
7.3
 30
0.0
 11
100.00000001
 21
7.6
 31
0.0
  0
LINE
  5
1E00
330
1225
100
AcDbEntity
  8
240
100
AcDbLine
 10
99.45050451
 20
7.4
 30
0.0
 11
82.9394908
 21
7.4
 31
0.0
  0
LINE
  5
1E01
330
1225
100
AcDbEntity
  8
240
100
AcDbLine
 10
100.00000001
 20
7.6
 30
0.0
 11
99.45050451
 21
7.4
 31
0.0
  0
LINE
  5
1E02
330
1225
100
AcDbEntity
  8
242
100
AcDbLine
 10
110.0
 20
8.0
 30
0.0
 11
101.0
 21
8.0
 31
0.0
  0
POLYLINE
  5
1E03
330
1225
100
AcDbEntity
  8
241
100
AcDb3dPolyline
 66
     1
 10
0.0
 20
0.0
 30
0.0
 70
     8
  0
VERTEX
  5
1E04
330
1E03
100
AcDbEntity
  8
241
100
AcDbVertex
100
AcDb3dPolylineVertex
 10
103.9316
 20
5.98201
 30
0.0
 70
    32
  0
VERTEX
  5
1E05
330
1E03
100
AcDbEntity
  8
241
100
AcDbVertex
100
AcDb3dPolylineVertex
 10
103.9267
 20
5.95187
 30
0.0
 70
    32
  0
VERTEX
  5
1E06
330
1E03
100
AcDbEntity
  8
241
100
AcDbVertex
100
AcDb3dPolylineVertex
 10
103.9225
 20
5.92162
 30
0.0
 70
    32
  0
VERTEX
  5
1E07
330
1E03
100
AcDbEntity
  8
241
100
AcDbVertex
100
AcDb3dPolylineVertex
 10
103.9191
 20
5.89128
 30
0.0
 70
    32
  0
VERTEX
  5
1E08
330
1E03
100
AcDbEntity
  8
241
100
AcDbVertex
100
AcDb3dPolylineVertex
 10
103.9164
 20
5.86085
 30
0.0
 70
    32
  0
VERTEX
  5
1E09
330
1E03
100
AcDbEntity
  8
241
100
AcDbVertex
100
AcDb3dPolylineVertex
 10
103.9145
 20
5.83037
 30
0.0
 70
    32
  0
VERTEX
  5
1E0A
330
1E03
100
AcDbEntity
  8
241
100
AcDbVertex
100
AcDb3dPolylineVertex
 10
103.9133
 20
5.79986
 30
0.0
 70
    32
  0
VERTEX
  5
1E0B
330
1E03
100
AcDbEntity
  8
241
100
AcDbVertex
100
AcDb3dPolylineVertex
 10
103.9128
 20
5.76932
 30
0.0
 70
    32
  0
VERTEX
  5
1E0C
330
1E03
100
AcDbEntity
  8
241
100
AcDbVertex
100
AcDb3dPolylineVertex
 10
103.9131
 20
5.73877
 30
0.0
 70
    32
  0
VERTEX
  5
1E0D
330
1E03
100
AcDbEntity
  8
241
100
AcDbVertex
100
AcDb3dPolylineVertex
 10
103.9142
 20
5.70825
 30
0.0
 70
    32
  0
VERTEX
  5
1E0E
330
1E03
100
AcDbEntity
  8
241
100
AcDbVertex
100
AcDb3dPolylineVertex
 10
103.916
 20
5.67775
 30
0.0
 70
    32
  0
VERTEX
  5
1E0F
330
1E03
100
AcDbEntity
  8
241
100
AcDbVertex
100
AcDb3dPolylineVertex
 10
103.9186
 20
5.64731
 30
0.0
 70
    32
  0
VERTEX
  5
1E10
330
1E03
100
AcDbEntity
  8
241
100
AcDbVertex
100
AcDb3dPolylineVertex
 10
103.9219
 20
5.61694
 30
0.0
 70
    32
  0
VERTEX
  5
1E11
330
1E03
100
AcDbEntity
  8
241
100
AcDbVertex
100
AcDb3dPolylineVertex
 10
103.926
 20
5.58666
 30
0.0
 70
    32
  0
VERTEX
  5
1E12
330
1E03
100
AcDbEntity
  8
241
100
AcDbVertex
100
AcDb3dPolylineVertex
 10
103.9308
 20
5.55649
 30
0.0
 70
    32
  0
VERTEX
  5
1E13
330
1E03
100
AcDbEntity
  8
241
100
AcDbVertex
100
AcDb3dPolylineVertex
 10
103.9364
 20
5.52644
 30
0.0
 70
    32
  0
VERTEX
  5
1E14
330
1E03
100
AcDbEntity
  8
241
100
AcDbVertex
100
AcDb3dPolylineVertex
 10
103.9427
 20
5.49654
 30
0.0
 70
    32
  0
VERTEX
  5
1E15
330
1E03
100
AcDbEntity
  8
241
100
AcDbVertex
100
AcDb3dPolylineVertex
 10
103.9497
 20
5.4668
 30
0.0
 70
    32
  0
VERTEX
  5
1E16
330
1E03
100
AcDbEntity
  8
241
100
AcDbVertex
100
AcDb3dPolylineVertex
 10
103.9575
 20
5.43724
 30
0.0
 70
    32
  0
VERTEX
  5
1E17
330
1E03
100
AcDbEntity
  8
241
100
AcDbVertex
100
AcDb3dPolylineVertex
 10
103.9659
 20
5.40787
 30
0.0
 70
    32
  0
VERTEX
  5
1E18
330
1E03
100
AcDbEntity
  8
241
100
AcDbVertex
100
AcDb3dPolylineVertex
 10
103.9751
 20
5.37872
 30
0.0
 70
    32
  0
VERTEX
  5
1E19
330
1E03
100
AcDbEntity
  8
241
100
AcDbVertex
100
AcDb3dPolylineVertex
 10
103.9851
 20
5.3498
 30
0.0
 70
    32
  0
VERTEX
  5
1E1A
330
1E03
100
AcDbEntity
  8
241
100
AcDbVertex
100
AcDb3dPolylineVertex
 10
103.9957
 20
5.32114
 30
0.0
 70
    32
  0
VERTEX
  5
1E1B
330
1E03
100
AcDbEntity
  8
241
100
AcDbVertex
100
AcDb3dPolylineVertex
 10
104.007
 20
5.29274
 30
0.0
 70
    32
  0
VERTEX
  5
1E1C
330
1E03
100
AcDbEntity
  8
241
100
AcDbVertex
100
AcDb3dPolylineVertex
 10
104.0191
 20
5.26462
 30
0.0
 70
    32
  0
VERTEX
  5
1E1D
330
1E03
100
AcDbEntity
  8
241
100
AcDbVertex
100
AcDb3dPolylineVertex
 10
104.0318
 20
5.23681
 30
0.0
 70
    32
  0
VERTEX
  5
1E1E
330
1E03
100
AcDbEntity
  8
241
100
AcDbVertex
100
AcDb3dPolylineVertex
 10
104.0452
 20
5.20931
 30
0.0
 70
    32
  0
VERTEX
  5
1E1F
330
1E03
100
AcDbEntity
  8
241
100
AcDbVertex
100
AcDb3dPolylineVertex
 10
104.0593
 20
5.18215
 30
0.0
 70
    32
  0
VERTEX
  5
1E20
330
1E03
100
AcDbEntity
  8
241
100
AcDbVertex
100
AcDb3dPolylineVertex
 10
104.074
 20
5.15534
 30
0.0
 70
    32
  0
VERTEX
  5
1E21
330
1E03
100
AcDbEntity
  8
241
100
AcDbVertex
100
AcDb3dPolylineVertex
 10
104.0894
 20
5.1289
 30
0.0
 70
    32
  0
VERTEX
  5
1E22
330
1E03
100
AcDbEntity
  8
241
100
AcDbVertex
100
AcDb3dPolylineVertex
 10
104.1054
 20
5.10284
 30
0.0
 70
    32
  0
VERTEX
  5
1E23
330
1E03
100
AcDbEntity
  8
241
100
AcDbVertex
100
AcDb3dPolylineVertex
 10
104.1221
 20
5.07718
 30
0.0
 70
    32
  0
VERTEX
  5
1E24
330
1E03
100
AcDbEntity
  8
241
100
AcDbVertex
100
AcDb3dPolylineVertex
 10
104.1394
 20
5.05193
 30
0.0
 70
    32
  0
VERTEX
  5
1E25
330
1E03
100
AcDbEntity
  8
241
100
AcDbVertex
100
AcDb3dPolylineVertex
 10
104.1573
 20
5.02711
 30
0.0
 70
    32
  0
VERTEX
  5
1E26
330
1E03
100
AcDbEntity
  8
241
100
AcDbVertex
100
AcDb3dPolylineVertex
 10
104.1759
 20
5.00274
 30
0.0
 70
    32
  0
VERTEX
  5
1E27
330
1E03
100
AcDbEntity
  8
241
100
AcDbVertex
100
AcDb3dPolylineVertex
 10
104.195
 20
4.97883
 30
0.0
 70
    32
  0
VERTEX
  5
1E28
330
1E03
100
AcDbEntity
  8
241
100
AcDbVertex
100
AcDb3dPolylineVertex
 10
104.2147
 20
4.95539
 30
0.0
 70
    32
  0
VERTEX
  5
1E29
330
1E03
100
AcDbEntity
  8
241
100
AcDbVertex
100
AcDb3dPolylineVertex
 10
104.235
 20
4.93244
 30
0.0
 70
    32
  0
VERTEX
  5
1E2A
330
1E03
100
AcDbEntity
  8
241
100
AcDbVertex
100
AcDb3dPolylineVertex
 10
104.2558
 20
4.90998
 30
0.0
 70
    32
  0
VERTEX
  5
1E2B
330
1E03
100
AcDbEntity
  8
241
100
AcDbVertex
100
AcDb3dPolylineVertex
 10
104.2772
 20
4.88805
 30
0.0
 70
    32
  0
VERTEX
  5
1E2C
330
1E03
100
AcDbEntity
  8
241
100
AcDbVertex
100
AcDb3dPolylineVertex
 10
104.2991
 20
4.86664
 30
0.0
 70
    32
  0
VERTEX
  5
1E2D
330
1E03
100
AcDbEntity
  8
241
100
AcDbVertex
100
AcDb3dPolylineVertex
 10
104.3215
 20
4.84577
 30
0.0
 70
    32
  0
VERTEX
  5
1E2E
330
1E03
100
AcDbEntity
  8
241
100
AcDbVertex
100
AcDb3dPolylineVertex
 10
104.3445
 20
4.82546
 30
0.0
 70
    32
  0
VERTEX
  5
1E2F
330
1E03
100
AcDbEntity
  8
241
100
AcDbVertex
100
AcDb3dPolylineVertex
 10
104.3679
 20
4.80571
 30
0.0
 70
    32
  0
VERTEX
  5
1E30
330
1E03
100
AcDbEntity
  8
241
100
AcDbVertex
100
AcDb3dPolylineVertex
 10
104.3918
 20
4.78655
 30
0.0
 70
    32
  0
VERTEX
  5
1E31
330
1E03
100
AcDbEntity
  8
241
100
AcDbVertex
100
AcDb3dPolylineVertex
 10
104.4162
 20
4.76797
 30
0.0
 70
    32
  0
VERTEX
  5
1E32
330
1E03
100
AcDbEntity
  8
241
100
AcDbVertex
100
AcDb3dPolylineVertex
 10
104.441
 20
4.74999
 30
0.0
 70
    32
  0
VERTEX
  5
1E33
330
1E03
100
AcDbEntity
  8
241
100
AcDbVertex
100
AcDb3dPolylineVertex
 10
104.4663
 20
4.73262
 30
0.0
 70
    32
  0
VERTEX
  5
1E34
330
1E03
100
AcDbEntity
  8
241
100
AcDbVertex
100
AcDb3dPolylineVertex
 10
104.4919
 20
4.71587
 30
0.0
 70
    32
  0
VERTEX
  5
1E35
330
1E03
100
AcDbEntity
  8
241
100
AcDbVertex
100
AcDb3dPolylineVertex
 10
104.518
 20
4.69976
 30
0.0
 70
    32
  0
VERTEX
  5
1E36
330
1E03
100
AcDbEntity
  8
241
100
AcDbVertex
100
AcDb3dPolylineVertex
 10
104.5445
 20
4.68429
 30
0.0
 70
    32
  0
VERTEX
  5
1E37
330
1E03
100
AcDbEntity
  8
241
100
AcDbVertex
100
AcDb3dPolylineVertex
 10
104.5713
 20
4.66947
 30
0.0
 70
    32
  0
VERTEX
  5
1E38
330
1E03
100
AcDbEntity
  8
241
100
AcDbVertex
100
AcDb3dPolylineVertex
 10
104.5985
 20
4.6553
 30
0.0
 70
    32
  0
VERTEX
  5
1E39
330
1E03
100
AcDbEntity
  8
241
100
AcDbVertex
100
AcDb3dPolylineVertex
 10
104.6261
 20
4.64181
 30
0.0
 70
    32
  0
VERTEX
  5
1E3A
330
1E03
100
AcDbEntity
  8
241
100
AcDbVertex
100
AcDb3dPolylineVertex
 10
104.6539
 20
4.62899
 30
0.0
 70
    32
  0
VERTEX
  5
1E3B
330
1E03
100
AcDbEntity
  8
241
100
AcDbVertex
100
AcDb3dPolylineVertex
 10
104.6821
 20
4.61686
 30
0.0
 70
    32
  0
VERTEX
  5
1E3C
330
1E03
100
AcDbEntity
  8
241
100
AcDbVertex
100
AcDb3dPolylineVertex
 10
104.7106
 20
4.60542
 30
0.0
 70
    32
  0
VERTEX
  5
1E3D
330
1E03
100
AcDbEntity
  8
241
100
AcDbVertex
100
AcDb3dPolylineVertex
 10
104.7393
 20
4.59468
 30
0.0
 70
    32
  0
VERTEX
  5
1E3E
330
1E03
100
AcDbEntity
  8
241
100
AcDbVertex
100
AcDb3dPolylineVertex
 10
104.7683
 20
4.58464
 30
0.0
 70
    32
  0
VERTEX
  5
1E3F
330
1E03
100
AcDbEntity
  8
241
100
AcDbVertex
100
AcDb3dPolylineVertex
 10
104.7975
 20
4.57531
 30
0.0
 70
    32
  0
VERTEX
  5
1E40
330
1E03
100
AcDbEntity
  8
241
100
AcDbVertex
100
AcDb3dPolylineVertex
 10
104.827
 20
4.5667
 30
0.0
 70
    32
  0
VERTEX
  5
1E41
330
1E03
100
AcDbEntity
  8
241
100
AcDbVertex
100
AcDb3dPolylineVertex
 10
104.8566
 20
4.55882
 30
0.0
 70
    32
  0
VERTEX
  5
1E42
330
1E03
100
AcDbEntity
  8
241
100
AcDbVertex
100
AcDb3dPolylineVertex
 10
104.8864
 20
4.55165
 30
0.0
 70
    32
  0
VERTEX
  5
1E43
330
1E03
100
AcDbEntity
  8
241
100
AcDbVertex
100
AcDb3dPolylineVertex
 10
104.9164
 20
4.54522
 30
0.0
 70
    32
  0
VERTEX
  5
1E44
330
1E03
100
AcDbEntity
  8
241
100
AcDbVertex
100
AcDb3dPolylineVertex
 10
104.9466
 20
4.53953
 30
0.0
 70
    32
  0
VERTEX
  5
1E45
330
1E03
100
AcDbEntity
  8
241
100
AcDbVertex
100
AcDb3dPolylineVertex
 10
104.9769
 20
4.53457
 30
0.0
 70
    32
  0
VERTEX
  5
1E46
330
1E03
100
AcDbEntity
  8
241
100
AcDbVertex
100
AcDb3dPolylineVertex
 10
105.0072
 20
4.53035
 30
0.0
 70
    32
  0
VERTEX
  5
1E47
330
1E03
100
AcDbEntity
  8
241
100
AcDbVertex
100
AcDb3dPolylineVertex
 10
105.0377
 20
4.52688
 30
0.0
 70
    32
  0
VERTEX
  5
1E48
330
1E03
100
AcDbEntity
  8
241
100
AcDbVertex
100
AcDb3dPolylineVertex
 10
105.0683
 20
4.52415
 30
0.0
 70
    32
  0
VERTEX
  5
1E49
330
1E03
100
AcDbEntity
  8
241
100
AcDbVertex
100
AcDb3dPolylineVertex
 10
105.0989
 20
4.52217
 30
0.0
 70
    32
  0
VERTEX
  5
1E4A
330
1E03
100
AcDbEntity
  8
241
100
AcDbVertex
100
AcDb3dPolylineVertex
 10
105.1295
 20
4.52094
 30
0.0
 70
    32
  0
VERTEX
  5
1E4B
330
1E03
100
AcDbEntity
  8
241
100
AcDbVertex
100
AcDb3dPolylineVertex
 10
105.1602
 20
4.52046
 30
0.0
 70
    32
  0
VERTEX
  5
1E4C
330
1E03
100
AcDbEntity
  8
241
100
AcDbVertex
100
AcDb3dPolylineVertex
 10
105.1909
 20
4.52073
 30
0.0
 70
    32
  0
VERTEX
  5
1E4D
330
1E03
100
AcDbEntity
  8
241
100
AcDbVertex
100
AcDb3dPolylineVertex
 10
105.2215
 20
4.52174
 30
0.0
 70
    32
  0
VERTEX
  5
1E4E
330
1E03
100
AcDbEntity
  8
241
100
AcDbVertex
100
AcDb3dPolylineVertex
 10
105.2522
 20
4.52351
 30
0.0
 70
    32
  0
VERTEX
  5
1E4F
330
1E03
100
AcDbEntity
  8
241
100
AcDbVertex
100
AcDb3dPolylineVertex
 10
105.2827
 20
4.52602
 30
0.0
 70
    32
  0
VERTEX
  5
1E50
330
1E03
100
AcDbEntity
  8
241
100
AcDbVertex
100
AcDb3dPolylineVertex
 10
105.3132
 20
4.52928
 30
0.0
 70
    32
  0
VERTEX
  5
1E51
330
1E03
100
AcDbEntity
  8
241
100
AcDbVertex
100
AcDb3dPolylineVertex
 10
105.3436
 20
4.53329
 30
0.0
 70
    32
  0
VERTEX
  5
1E52
330
1E03
100
AcDbEntity
  8
241
100
AcDbVertex
100
AcDb3dPolylineVertex
 10
105.3739
 20
4.53804
 30
0.0
 70
    32
  0
VERTEX
  5
1E53
330
1E03
100
AcDbEntity
  8
241
100
AcDbVertex
100
AcDb3dPolylineVertex
 10
105.4041
 20
4.54352
 30
0.0
 70
    32
  0
VERTEX
  5
1E54
330
1E03
100
AcDbEntity
  8
241
100
AcDbVertex
100
AcDb3dPolylineVertex
 10
105.4341
 20
4.54974
 30
0.0
 70
    32
  0
VERTEX
  5
1E55
330
1E03
100
AcDbEntity
  8
241
100
AcDbVertex
100
AcDb3dPolylineVertex
 10
105.464
 20
4.5567
 30
0.0
 70
    32
  0
VERTEX
  5
1E56
330
1E03
100
AcDbEntity
  8
241
100
AcDbVertex
100
AcDb3dPolylineVertex
 10
105.4937
 20
4.56438
 30
0.0
 70
    32
  0
VERTEX
  5
1E57
330
1E03
100
AcDbEntity
  8
241
100
AcDbVertex
100
AcDb3dPolylineVertex
 10
105.5231
 20
4.57278
 30
0.0
 70
    32
  0
VERTEX
  5
1E58
330
1E03
100
AcDbEntity
  8
241
100
AcDbVertex
100
AcDb3dPolylineVertex
 10
105.5524
 20
4.5819
 30
0.0
 70
    32
  0
VERTEX
  5
1E59
330
1E03
100
AcDbEntity
  8
241
100
AcDbVertex
100
AcDb3dPolylineVertex
 10
105.5814
 20
4.59174
 30
0.0
 70
    32
  0
VERTEX
  5
1E5A
330
1E03
100
AcDbEntity
  8
241
100
AcDbVertex
100
AcDb3dPolylineVertex
 10
105.6102
 20
4.60228
 30
0.0
 70
    32
  0
VERTEX
  5
1E5B
330
1E03
100
AcDbEntity
  8
241
100
AcDbVertex
100
AcDb3dPolylineVertex
 10
105.6387
 20
4.61352
 30
0.0
 70
    32
  0
VERTEX
  5
1E5C
330
1E03
100
AcDbEntity
  8
241
100
AcDbVertex
100
AcDb3dPolylineVertex
 10
105.6669
 20
4.62546
 30
0.0
 70
    32
  0
VERTEX
  5
1E5D
330
1E03
100
AcDbEntity
  8
241
100
AcDbVertex
100
AcDb3dPolylineVertex
 10
105.6948
 20
4.63808
 30
0.0
 70
    32
  0
VERTEX
  5
1E5E
330
1E03
100
AcDbEntity
  8
241
100
AcDbVertex
100
AcDb3dPolylineVertex
 10
105.7224
 20
4.65138
 30
0.0
 70
    32
  0
VERTEX
  5
1E5F
330
1E03
100
AcDbEntity
  8
241
100
AcDbVertex
100
AcDb3dPolylineVertex
 10
105.7497
 20
4.66535
 30
0.0
 70
    32
  0
VERTEX
  5
1E60
330
1E03
100
AcDbEntity
  8
241
100
AcDbVertex
100
AcDb3dPolylineVertex
 10
105.7766
 20
4.67998
 30
0.0
 70
    32
  0
VERTEX
  5
1E61
330
1E03
100
AcDbEntity
  8
241
100
AcDbVertex
100
AcDb3dPolylineVertex
 10
105.8031
 20
4.69527
 30
0.0
 70
    32
  0
VERTEX
  5
1E62
330
1E03
100
AcDbEntity
  8
241
100
AcDbVertex
100
AcDb3dPolylineVertex
 10
105.8292
 20
4.7112
 30
0.0
 70
    32
  0
VERTEX
  5
1E63
330
1E03
100
AcDbEntity
  8
241
100
AcDbVertex
100
AcDb3dPolylineVertex
 10
105.855
 20
4.72777
 30
0.0
 70
    32
  0
VERTEX
  5
1E64
330
1E03
100
AcDbEntity
  8
241
100
AcDbVertex
100
AcDb3dPolylineVertex
 10
105.8803
 20
4.74496
 30
0.0
 70
    32
  0
VERTEX
  5
1E65
330
1E03
100
AcDbEntity
  8
241
100
AcDbVertex
100
AcDb3dPolylineVertex
 10
105.9052
 20
4.76277
 30
0.0
 70
    32
  0
VERTEX
  5
1E66
330
1E03
100
AcDbEntity
  8
241
100
AcDbVertex
100
AcDb3dPolylineVertex
 10
105.9297
 20
4.78118
 30
0.0
 70
    32
  0
VERTEX
  5
1E67
330
1E03
100
AcDbEntity
  8
241
100
AcDbVertex
100
AcDb3dPolylineVertex
 10
105.9537
 20
4.80018
 30
0.0
 70
    32
  0
VERTEX
  5
1E68
330
1E03
100
AcDbEntity
  8
241
100
AcDbVertex
100
AcDb3dPolylineVertex
 10
105.9772
 20
4.81976
 30
0.0
 70
    32
  0
VERTEX
  5
1E69
330
1E03
100
AcDbEntity
  8
241
100
AcDbVertex
100
AcDb3dPolylineVertex
 10
106.0002
 20
4.83991
 30
0.0
 70
    32
  0
VERTEX
  5
1E6A
330
1E03
100
AcDbEntity
  8
241
100
AcDbVertex
100
AcDb3dPolylineVertex
 10
106.0227
 20
4.86062
 30
0.0
 70
    32
  0
VERTEX
  5
1E6B
330
1E03
100
AcDbEntity
  8
241
100
AcDbVertex
100
AcDb3dPolylineVertex
 10
106.0447
 20
4.88188
 30
0.0
 70
    32
  0
VERTEX
  5
1E6C
330
1E03
100
AcDbEntity
  8
241
100
AcDbVertex
100
AcDb3dPolylineVertex
 10
106.0662
 20
4.90366
 30
0.0
 70
    32
  0
VERTEX
  5
1E6D
330
1E03
100
AcDbEntity
  8
241
100
AcDbVertex
100
AcDb3dPolylineVertex
 10
106.0871
 20
4.92597
 30
0.0
 70
    32
  0
VERTEX
  5
1E6E
330
1E03
100
AcDbEntity
  8
241
100
AcDbVertex
100
AcDb3dPolylineVertex
 10
106.1074
 20
4.94878
 30
0.0
 70
    32
  0
VERTEX
  5
1E6F
330
1E03
100
AcDbEntity
  8
241
100
AcDbVertex
100
AcDb3dPolylineVertex
 10
106.1272
 20
4.97208
 30
0.0
 70
    32
  0
VERTEX
  5
1E70
330
1E03
100
AcDbEntity
  8
241
100
AcDbVertex
100
AcDb3dPolylineVertex
 10
106.1465
 20
4.99586
 30
0.0
 70
    32
  0
VERTEX
  5
1E71
330
1E03
100
AcDbEntity
  8
241
100
AcDbVertex
100
AcDb3dPolylineVertex
 10
106.1651
 20
5.0201
 30
0.0
 70
    32
  0
VERTEX
  5
1E72
330
1E03
100
AcDbEntity
  8
241
100
AcDbVertex
100
AcDb3dPolylineVertex
 10
106.1831
 20
5.0448
 30
0.0
 70
    32
  0
VERTEX
  5
1E73
330
1E03
100
AcDbEntity
  8
241
100
AcDbVertex
100
AcDb3dPolylineVertex
 10
106.2005
 20
5.06992
 30
0.0
 70
    32
  0
VERTEX
  5
1E74
330
1E03
100
AcDbEntity
  8
241
100
AcDbVertex
100
AcDb3dPolylineVertex
 10
106.2173
 20
5.09546
 30
0.0
 70
    32
  0
VERTEX
  5
1E75
330
1E03
100
AcDbEntity
  8
241
100
AcDbVertex
100
AcDb3dPolylineVertex
 10
106.2334
 20
5.12141
 30
0.0
 70
    32
  0
VERTEX
  5
1E76
330
1E03
100
AcDbEntity
  8
241
100
AcDbVertex
100
AcDb3dPolylineVertex
 10
106.2489
 20
5.14775
 30
0.0
 70
    32
  0
VERTEX
  5
1E77
330
1E03
100
AcDbEntity
  8
241
100
AcDbVertex
100
AcDb3dPolylineVertex
 10
106.2638
 20
5.17445
 30
0.0
 70
    32
  0
VERTEX
  5
1E78
330
1E03
100
AcDbEntity
  8
241
100
AcDbVertex
100
AcDb3dPolylineVertex
 10
106.2779
 20
5.20152
 30
0.0
 70
    32
  0
VERTEX
  5
1E79
330
1E03
100
AcDbEntity
  8
241
100
AcDbVertex
100
AcDb3dPolylineVertex
 10
106.2914
 20
5.22892
 30
0.0
 70
    32
  0
VERTEX
  5
1E7A
330
1E03
100
AcDbEntity
  8
241
100
AcDbVertex
100
AcDb3dPolylineVertex
 10
106.3043
 20
5.25664
 30
0.0
 70
    32
  0
VERTEX
  5
1E7B
330
1E03
100
AcDbEntity
  8
241
100
AcDbVertex
100
AcDb3dPolylineVertex
 10
106.3164
 20
5.28467
 30
0.0
 70
    32
  0
VERTEX
  5
1E7C
330
1E03
100
AcDbEntity
  8
241
100
AcDbVertex
100
AcDb3dPolylineVertex
 10
106.3279
 20
5.31299
 30
0.0
 70
    32
  0
VERTEX
  5
1E7D
330
1E03
100
AcDbEntity
  8
241
100
AcDbVertex
100
AcDb3dPolylineVertex
 10
106.3386
 20
5.34159
 30
0.0
 70
    32
  0
VERTEX
  5
1E7E
330
1E03
100
AcDbEntity
  8
241
100
AcDbVertex
100
AcDb3dPolylineVertex
 10
106.3486
 20
5.37043
 30
0.0
 70
    32
  0
VERTEX
  5
1E7F
330
1E03
100
AcDbEntity
  8
241
100
AcDbVertex
100
AcDb3dPolylineVertex
 10
106.358
 20
5.39952
 30
0.0
 70
    32
  0
VERTEX
  5
1E80
330
1E03
100
AcDbEntity
  8
241
100
AcDbVertex
100
AcDb3dPolylineVertex
 10
106.3666
 20
5.42882
 30
0.0
 70
    32
  0
VERTEX
  5
1E81
330
1E03
100
AcDbEntity
  8
241
100
AcDbVertex
100
AcDb3dPolylineVertex
 10
106.3744
 20
5.45833
 30
0.0
 70
    32
  0
VERTEX
  5
1E82
330
1E03
100
AcDbEntity
  8
241
100
AcDbVertex
100
AcDb3dPolylineVertex
 10
106.3816
 20
5.48802
 30
0.0
 70
    32
  0
VERTEX
  5
1E83
330
1E03
100
AcDbEntity
  8
241
100
AcDbVertex
100
AcDb3dPolylineVertex
 10
106.388
 20
5.51788
 30
0.0
 70
    32
  0
VERTEX
  5
1E84
330
1E03
100
AcDbEntity
  8
241
100
AcDbVertex
100
AcDb3dPolylineVertex
 10
106.3937
 20
5.54789
 30
0.0
 70
    32
  0
SEQEND
  5
1E85
330
1E03
100
AcDbEntity
  8
241
  0
POLYLINE
  5
1E86
330
1225
100
AcDbEntity
  8
241
100
AcDb3dPolyline
 66
     1
 10
0.0
 20
0.0
 30
0.0
 70
     8
  0
VERTEX
  5
1E87
330
1E86
100
AcDbEntity
  8
241
100
AcDbVertex
100
AcDb3dPolylineVertex
 10
106.3937
 20
5.54789
 30
0.0
 70
    32
  0
VERTEX
  5
1E88
330
1E86
100
AcDbEntity
  8
241
100
AcDbVertex
100
AcDb3dPolylineVertex
 10
106.3967
 20
5.56711
 30
0.0
 70
    32
  0
VERTEX
  5
1E89
330
1E86
100
AcDbEntity
  8
241
100
AcDbVertex
100
AcDb3dPolylineVertex
 10
106.3989
 20
5.58644
 30
0.0
 70
    32
  0
VERTEX
  5
1E8A
330
1E86
100
AcDbEntity
  8
241
100
AcDbVertex
100
AcDb3dPolylineVertex
 10
106.4005
 20
5.60589
 30
0.0
 70
    32
  0
VERTEX
  5
1E8B
330
1E86
100
AcDbEntity
  8
241
100
AcDbVertex
100
AcDb3dPolylineVertex
 10
106.4012
 20
5.62543
 30
0.0
 70
    32
  0
VERTEX
  5
1E8C
330
1E86
100
AcDbEntity
  8
241
100
AcDbVertex
100
AcDb3dPolylineVertex
 10
106.4013
 20
5.64505
 30
0.0
 70
    32
  0
VERTEX
  5
1E8D
330
1E86
100
AcDbEntity
  8
241
100
AcDbVertex
100
AcDb3dPolylineVertex
 10
106.4005
 20
5.66474
 30
0.0
 70
    32
  0
VERTEX
  5
1E8E
330
1E86
100
AcDbEntity
  8
241
100
AcDbVertex
100
AcDb3dPolylineVertex
 10
106.3991
 20
5.6845
 30
0.0
 70
    32
  0
VERTEX
  5
1E8F
330
1E86
100
AcDbEntity
  8
241
100
AcDbVertex
100
AcDb3dPolylineVertex
 10
106.3969
 20
5.7043
 30
0.0
 70
    32
  0
VERTEX
  5
1E90
330
1E86
100
AcDbEntity
  8
241
100
AcDbVertex
100
AcDb3dPolylineVertex
 10
106.3939
 20
5.72414
 30
0.0
 70
    32
  0
VERTEX
  5
1E91
330
1E86
100
AcDbEntity
  8
241
100
AcDbVertex
100
AcDb3dPolylineVertex
 10
106.3902
 20
5.74401
 30
0.0
 70
    32
  0
VERTEX
  5
1E92
330
1E86
100
AcDbEntity
  8
241
100
AcDbVertex
100
AcDb3dPolylineVertex
 10
106.3858
 20
5.76388
 30
0.0
 70
    32
  0
VERTEX
  5
1E93
330
1E86
100
AcDbEntity
  8
241
100
AcDbVertex
100
AcDb3dPolylineVertex
 10
106.3806
 20
5.78376
 30
0.0
 70
    32
  0
VERTEX
  5
1E94
330
1E86
100
AcDbEntity
  8
241
100
AcDbVertex
100
AcDb3dPolylineVertex
 10
106.3747
 20
5.80363
 30
0.0
 70
    32
  0
VERTEX
  5
1E95
330
1E86
100
AcDbEntity
  8
241
100
AcDbVertex
100
AcDb3dPolylineVertex
 10
106.3681
 20
5.82347
 30
0.0
 70
    32
  0
VERTEX
  5
1E96
330
1E86
100
AcDbEntity
  8
241
100
AcDbVertex
100
AcDb3dPolylineVertex
 10
106.3607
 20
5.84328
 30
0.0
 70
    32
  0
VERTEX
  5
1E97
330
1E86
100
AcDbEntity
  8
241
100
AcDbVertex
100
AcDb3dPolylineVertex
 10
106.3526
 20
5.86304
 30
0.0
 70
    32
  0
VERTEX
  5
1E98
330
1E86
100
AcDbEntity
  8
241
100
AcDbVertex
100
AcDb3dPolylineVertex
 10
106.3438
 20
5.88274
 30
0.0
 70
    32
  0
VERTEX
  5
1E99
330
1E86
100
AcDbEntity
  8
241
100
AcDbVertex
100
AcDb3dPolylineVertex
 10
106.3343
 20
5.90237
 30
0.0
 70
    32
  0
VERTEX
  5
1E9A
330
1E86
100
AcDbEntity
  8
241
100
AcDbVertex
100
AcDb3dPolylineVertex
 10
106.3241
 20
5.92192
 30
0.0
 70
    32
  0
VERTEX
  5
1E9B
330
1E86
100
AcDbEntity
  8
241
100
AcDbVertex
100
AcDb3dPolylineVertex
 10
106.3132
 20
5.94138
 30
0.0
 70
    32
  0
VERTEX
  5
1E9C
330
1E86
100
AcDbEntity
  8
241
100
AcDbVertex
100
AcDb3dPolylineVertex
 10
106.3016
 20
5.96072
 30
0.0
 70
    32
  0
VERTEX
  5
1E9D
330
1E86
100
AcDbEntity
  8
241
100
AcDbVertex
100
AcDb3dPolylineVertex
 10
106.2893
 20
5.97995
 30
0.0
 70
    32
  0
VERTEX
  5
1E9E
330
1E86
100
AcDbEntity
  8
241
100
AcDbVertex
100
AcDb3dPolylineVertex
 10
106.2763
 20
5.99905
 30
0.0
 70
    32
  0
VERTEX
  5
1E9F
330
1E86
100
AcDbEntity
  8
241
100
AcDbVertex
100
AcDb3dPolylineVertex
 10
106.2626
 20
6.01801
 30
0.0
 70
    32
  0
VERTEX
  5
1EA0
330
1E86
100
AcDbEntity
  8
241
100
AcDbVertex
100
AcDb3dPolylineVertex
 10
106.2483
 20
6.03682
 30
0.0
 70
    32
  0
VERTEX
  5
1EA1
330
1E86
100
AcDbEntity
  8
241
100
AcDbVertex
100
AcDb3dPolylineVertex
 10
106.2334
 20
6.05546
 30
0.0
 70
    32
  0
VERTEX
  5
1EA2
330
1E86
100
AcDbEntity
  8
241
100
AcDbVertex
100
AcDb3dPolylineVertex
 10
106.2178
 20
6.07393
 30
0.0
 70
    32
  0
VERTEX
  5
1EA3
330
1E86
100
AcDbEntity
  8
241
100
AcDbVertex
100
AcDb3dPolylineVertex
 10
106.2015
 20
6.09221
 30
0.0
 70
    32
  0
VERTEX
  5
1EA4
330
1E86
100
AcDbEntity
  8
241
100
AcDbVertex
100
AcDb3dPolylineVertex
 10
106.1847
 20
6.1103
 30
0.0
 70
    32
  0
VERTEX
  5
1EA5
330
1E86
100
AcDbEntity
  8
241
100
AcDbVertex
100
AcDb3dPolylineVertex
 10
106.1672
 20
6.12817
 30
0.0
 70
    32
  0
VERTEX
  5
1EA6
330
1E86
100
AcDbEntity
  8
241
100
AcDbVertex
100
AcDb3dPolylineVertex
 10
106.1491
 20
6.14583
 30
0.0
 70
    32
  0
VERTEX
  5
1EA7
330
1E86
100
AcDbEntity
  8
241
100
AcDbVertex
100
AcDb3dPolylineVertex
 10
106.1304
 20
6.16326
 30
0.0
 70
    32
  0
VERTEX
  5
1EA8
330
1E86
100
AcDbEntity
  8
241
100
AcDbVertex
100
AcDb3dPolylineVertex
 10
106.1111
 20
6.18045
 30
0.0
 70
    32
  0
VERTEX
  5
1EA9
330
1E86
100
AcDbEntity
  8
241
100
AcDbVertex
100
AcDb3dPolylineVertex
 10
106.0913
 20
6.19738
 30
0.0
 70
    32
  0
VERTEX
  5
1EAA
330
1E86
100
AcDbEntity
  8
241
100
AcDbVertex
100
AcDb3dPolylineVertex
 10
106.0709
 20
6.21406
 30
0.0
 70
    32
  0
VERTEX
  5
1EAB
330
1E86
100
AcDbEntity
  8
241
100
AcDbVertex
100
AcDb3dPolylineVertex
 10
106.05
 20
6.23047
 30
0.0
 70
    32
  0
VERTEX
  5
1EAC
330
1E86
100
AcDbEntity
  8
241
100
AcDbVertex
100
AcDb3dPolylineVertex
 10
106.0285
 20
6.2466
 30
0.0
 70
    32
  0
VERTEX
  5
1EAD
330
1E86
100
AcDbEntity
  8
241
100
AcDbVertex
100
AcDb3dPolylineVertex
 10
106.0065
 20
6.26243
 30
0.0
 70
    32
  0
VERTEX
  5
1EAE
330
1E86
100
AcDbEntity
  8
241
100
AcDbVertex
100
AcDb3dPolylineVertex
 10
105.984
 20
6.27797
 30
0.0
 70
    32
  0
VERTEX
  5
1EAF
330
1E86
100
AcDbEntity
  8
241
100
AcDbVertex
100
AcDb3dPolylineVertex
 10
105.961
 20
6.2932
 30
0.0
 70
    32
  0
VERTEX
  5
1EB0
330
1E86
100
AcDbEntity
  8
241
100
AcDbVertex
100
AcDb3dPolylineVertex
 10
105.9375
 20
6.30811
 30
0.0
 70
    32
  0
VERTEX
  5
1EB1
330
1E86
100
AcDbEntity
  8
241
100
AcDbVertex
100
AcDb3dPolylineVertex
 10
105.9135
 20
6.32269
 30
0.0
 70
    32
  0
VERTEX
  5
1EB2
330
1E86
100
AcDbEntity
  8
241
100
AcDbVertex
100
AcDb3dPolylineVertex
 10
105.8891
 20
6.33694
 30
0.0
 70
    32
  0
VERTEX
  5
1EB3
330
1E86
100
AcDbEntity
  8
241
100
AcDbVertex
100
AcDb3dPolylineVertex
 10
105.8643
 20
6.35084
 30
0.0
 70
    32
  0
VERTEX
  5
1EB4
330
1E86
100
AcDbEntity
  8
241
100
AcDbVertex
100
AcDb3dPolylineVertex
 10
105.839
 20
6.36439
 30
0.0
 70
    32
  0
VERTEX
  5
1EB5
330
1E86
100
AcDbEntity
  8
241
100
AcDbVertex
100
AcDb3dPolylineVertex
 10
105.8134
 20
6.37757
 30
0.0
 70
    32
  0
VERTEX
  5
1EB6
330
1E86
100
AcDbEntity
  8
241
100
AcDbVertex
100
AcDb3dPolylineVertex
 10
105.7873
 20
6.39039
 30
0.0
 70
    32
  0
VERTEX
  5
1EB7
330
1E86
100
AcDbEntity
  8
241
100
AcDbVertex
100
AcDb3dPolylineVertex
 10
105.7609
 20
6.40284
 30
0.0
 70
    32
  0
VERTEX
  5
1EB8
330
1E86
100
AcDbEntity
  8
241
100
AcDbVertex
100
AcDb3dPolylineVertex
 10
105.7341
 20
6.41489
 30
0.0
 70
    32
  0
VERTEX
  5
1EB9
330
1E86
100
AcDbEntity
  8
241
100
AcDbVertex
100
AcDb3dPolylineVertex
 10
105.7069
 20
6.42656
 30
0.0
 70
    32
  0
VERTEX
  5
1EBA
330
1E86
100
AcDbEntity
  8
241
100
AcDbVertex
100
AcDb3dPolylineVertex
 10
105.6795
 20
6.43783
 30
0.0
 70
    32
  0
VERTEX
  5
1EBB
330
1E86
100
AcDbEntity
  8
241
100
AcDbVertex
100
AcDb3dPolylineVertex
 10
105.6517
 20
6.44869
 30
0.0
 70
    32
  0
VERTEX
  5
1EBC
330
1E86
100
AcDbEntity
  8
241
100
AcDbVertex
100
AcDb3dPolylineVertex
 10
105.6236
 20
6.45914
 30
0.0
 70
    32
  0
VERTEX
  5
1EBD
330
1E86
100
AcDbEntity
  8
241
100
AcDbVertex
100
AcDb3dPolylineVertex
 10
105.5952
 20
6.46917
 30
0.0
 70
    32
  0
VERTEX
  5
1EBE
330
1E86
100
AcDbEntity
  8
241
100
AcDbVertex
100
AcDb3dPolylineVertex
 10
105.5666
 20
6.47878
 30
0.0
 70
    32
  0
VERTEX
  5
1EBF
330
1E86
100
AcDbEntity
  8
241
100
AcDbVertex
100
AcDb3dPolylineVertex
 10
105.5378
 20
6.48796
 30
0.0
 70
    32
  0
VERTEX
  5
1EC0
330
1E86
100
AcDbEntity
  8
241
100
AcDbVertex
100
AcDb3dPolylineVertex
 10
105.5087
 20
6.4967
 30
0.0
 70
    32
  0
VERTEX
  5
1EC1
330
1E86
100
AcDbEntity
  8
241
100
AcDbVertex
100
AcDb3dPolylineVertex
 10
105.4794
 20
6.50501
 30
0.0
 70
    32
  0
VERTEX
  5
1EC2
330
1E86
100
AcDbEntity
  8
241
100
AcDbVertex
100
AcDb3dPolylineVertex
 10
105.4499
 20
6.51286
 30
0.0
 70
    32
  0
VERTEX
  5
1EC3
330
1E86
100
AcDbEntity
  8
241
100
AcDbVertex
100
AcDb3dPolylineVertex
 10
105.4202
 20
6.52027
 30
0.0
 70
    32
  0
VERTEX
  5
1EC4
330
1E86
100
AcDbEntity
  8
241
100
AcDbVertex
100
AcDb3dPolylineVertex
 10
105.3904
 20
6.52722
 30
0.0
 70
    32
  0
VERTEX
  5
1EC5
330
1E86
100
AcDbEntity
  8
241
100
AcDbVertex
100
AcDb3dPolylineVertex
 10
105.3605
 20
6.53371
 30
0.0
 70
    32
  0
VERTEX
  5
1EC6
330
1E86
100
AcDbEntity
  8
241
100
AcDbVertex
100
AcDb3dPolylineVertex
 10
105.3304
 20
6.53974
 30
0.0
 70
    32
  0
VERTEX
  5
1EC7
330
1E86
100
AcDbEntity
  8
241
100
AcDbVertex
100
AcDb3dPolylineVertex
 10
105.3003
 20
6.5453
 30
0.0
 70
    32
  0
VERTEX
  5
1EC8
330
1E86
100
AcDbEntity
  8
241
100
AcDbVertex
100
AcDb3dPolylineVertex
 10
105.27
 20
6.55039
 30
0.0
 70
    32
  0
VERTEX
  5
1EC9
330
1E86
100
AcDbEntity
  8
241
100
AcDbVertex
100
AcDb3dPolylineVertex
 10
105.2397
 20
6.55501
 30
0.0
 70
    32
  0
VERTEX
  5
1ECA
330
1E86
100
AcDbEntity
  8
241
100
AcDbVertex
100
AcDb3dPolylineVertex
 10
105.2093
 20
6.55915
 30
0.0
 70
    32
  0
VERTEX
  5
1ECB
330
1E86
100
AcDbEntity
  8
241
100
AcDbVertex
100
AcDb3dPolylineVertex
 10
105.1789
 20
6.56282
 30
0.0
 70
    32
  0
VERTEX
  5
1ECC
330
1E86
100
AcDbEntity
  8
241
100
AcDbVertex
100
AcDb3dPolylineVertex
 10
105.1485
 20
6.566
 30
0.0
 70
    32
  0
VERTEX
  5
1ECD
330
1E86
100
AcDbEntity
  8
241
100
AcDbVertex
100
AcDb3dPolylineVertex
 10
105.1181
 20
6.5687
 30
0.0
 70
    32
  0
VERTEX
  5
1ECE
330
1E86
100
AcDbEntity
  8
241
100
AcDbVertex
100
AcDb3dPolylineVertex
 10
105.0878
 20
6.57092
 30
0.0
 70
    32
  0
VERTEX
  5
1ECF
330
1E86
100
AcDbEntity
  8
241
100
AcDbVertex
100
AcDb3dPolylineVertex
 10
105.0575
 20
6.57265
 30
0.0
 70
    32
  0
VERTEX
  5
1ED0
330
1E86
100
AcDbEntity
  8
241
100
AcDbVertex
100
AcDb3dPolylineVertex
 10
105.0272
 20
6.5739
 30
0.0
 70
    32
  0
VERTEX
  5
1ED1
330
1E86
100
AcDbEntity
  8
241
100
AcDbVertex
100
AcDb3dPolylineVertex
 10
104.997
 20
6.57466
 30
0.0
 70
    32
  0
VERTEX
  5
1ED2
330
1E86
100
AcDbEntity
  8
241
100
AcDbVertex
100
AcDb3dPolylineVertex
 10
104.9669
 20
6.57493
 30
0.0
 70
    32
  0
VERTEX
  5
1ED3
330
1E86
100
AcDbEntity
  8
241
100
AcDbVertex
100
AcDb3dPolylineVertex
 10
104.937
 20
6.57471
 30
0.0
 70
    32
  0
VERTEX
  5
1ED4
330
1E86
100
AcDbEntity
  8
241
100
AcDbVertex
100
AcDb3dPolylineVertex
 10
104.9072
 20
6.574
 30
0.0
 70
    32
  0
VERTEX
  5
1ED5
330
1E86
100
AcDbEntity
  8
241
100
AcDbVertex
100
AcDb3dPolylineVertex
 10
104.8775
 20
6.57281
 30
0.0
 70
    32
  0
VERTEX
  5
1ED6
330
1E86
100
AcDbEntity
  8
241
100
AcDbVertex
100
AcDb3dPolylineVertex
 10
104.848
 20
6.57113
 30
0.0
 70
    32
  0
VERTEX
  5
1ED7
330
1E86
100
AcDbEntity
  8
241
100
AcDbVertex
100
AcDb3dPolylineVertex
 10
104.8187
 20
6.56897
 30
0.0
 70
    32
  0
VERTEX
  5
1ED8
330
1E86
100
AcDbEntity
  8
241
100
AcDbVertex
100
AcDb3dPolylineVertex
 10
104.7896
 20
6.56632
 30
0.0
 70
    32
  0
VERTEX
  5
1ED9
330
1E86
100
AcDbEntity
  8
241
100
AcDbVertex
100
AcDb3dPolylineVertex
 10
104.7607
 20
6.56318
 30
0.0
 70
    32
  0
VERTEX
  5
1EDA
330
1E86
100
AcDbEntity
  8
241
100
AcDbVertex
100
AcDb3dPolylineVertex
 10
104.7321
 20
6.55957
 30
0.0
 70
    32
  0
VERTEX
  5
1EDB
330
1E86
100
AcDbEntity
  8
241
100
AcDbVertex
100
AcDb3dPolylineVertex
 10
104.7037
 20
6.55548
 30
0.0
 70
    32
  0
VERTEX
  5
1EDC
330
1E86
100
AcDbEntity
  8
241
100
AcDbVertex
100
AcDb3dPolylineVertex
 10
104.6756
 20
6.55091
 30
0.0
 70
    32
  0
VERTEX
  5
1EDD
330
1E86
100
AcDbEntity
  8
241
100
AcDbVertex
100
AcDb3dPolylineVertex
 10
104.6478
 20
6.54587
 30
0.0
 70
    32
  0
VERTEX
  5
1EDE
330
1E86
100
AcDbEntity
  8
241
100
AcDbVertex
100
AcDb3dPolylineVertex
 10
104.6203
 20
6.54036
 30
0.0
 70
    32
  0
VERTEX
  5
1EDF
330
1E86
100
AcDbEntity
  8
241
100
AcDbVertex
100
AcDb3dPolylineVertex
 10
104.5932
 20
6.53438
 30
0.0
 70
    32
  0
VERTEX
  5
1EE0
330
1E86
100
AcDbEntity
  8
241
100
AcDbVertex
100
AcDb3dPolylineVertex
 10
104.5663
 20
6.52794
 30
0.0
 70
    32
  0
VERTEX
  5
1EE1
330
1E86
100
AcDbEntity
  8
241
100
AcDbVertex
100
AcDb3dPolylineVertex
 10
104.5399
 20
6.52104
 30
0.0
 70
    32
  0
VERTEX
  5
1EE2
330
1E86
100
AcDbEntity
  8
241
100
AcDbVertex
100
AcDb3dPolylineVertex
 10
104.5138
 20
6.51368
 30
0.0
 70
    32
  0
VERTEX
  5
1EE3
330
1E86
100
AcDbEntity
  8
241
100
AcDbVertex
100
AcDb3dPolylineVertex
 10
104.4881
 20
6.50587
 30
0.0
 70
    32
  0
VERTEX
  5
1EE4
330
1E86
100
AcDbEntity
  8
241
100
AcDbVertex
100
AcDb3dPolylineVertex
 10
104.4628
 20
6.49762
 30
0.0
 70
    32
  0
VERTEX
  5
1EE5
330
1E86
100
AcDbEntity
  8
241
100
AcDbVertex
100
AcDb3dPolylineVertex
 10
104.4379
 20
6.48892
 30
0.0
 70
    32
  0
VERTEX
  5
1EE6
330
1E86
100
AcDbEntity
  8
241
100
AcDbVertex
100
AcDb3dPolylineVertex
 10
104.4135
 20
6.47979
 30
0.0
 70
    32
  0
VERTEX
  5
1EE7
330
1E86
100
AcDbEntity
  8
241
100
AcDbVertex
100
AcDb3dPolylineVertex
 10
104.3895
 20
6.47023
 30
0.0
 70
    32
  0
VERTEX
  5
1EE8
330
1E86
100
AcDbEntity
  8
241
100
AcDbVertex
100
AcDb3dPolylineVertex
 10
104.366
 20
6.46024
 30
0.0
 70
    32
  0
VERTEX
  5
1EE9
330
1E86
100
AcDbEntity
  8
241
100
AcDbVertex
100
AcDb3dPolylineVertex
 10
104.3429
 20
6.44983
 30
0.0
 70
    32
  0
VERTEX
  5
1EEA
330
1E86
100
AcDbEntity
  8
241
100
AcDbVertex
100
AcDb3dPolylineVertex
 10
104.3204
 20
6.43901
 30
0.0
 70
    32
  0
VERTEX
  5
1EEB
330
1E86
100
AcDbEntity
  8
241
100
AcDbVertex
100
AcDb3dPolylineVertex
 10
104.2984
 20
6.42779
 30
0.0
 70
    32
  0
VERTEX
  5
1EEC
330
1E86
100
AcDbEntity
  8
241
100
AcDbVertex
100
AcDb3dPolylineVertex
 10
104.2768
 20
6.41617
 30
0.0
 70
    32
  0
VERTEX
  5
1EED
330
1E86
100
AcDbEntity
  8
241
100
AcDbVertex
100
AcDb3dPolylineVertex
 10
104.2559
 20
6.40415
 30
0.0
 70
    32
  0
VERTEX
  5
1EEE
330
1E86
100
AcDbEntity
  8
241
100
AcDbVertex
100
AcDb3dPolylineVertex
 10
104.2354
 20
6.39175
 30
0.0
 70
    32
  0
VERTEX
  5
1EEF
330
1E86
100
AcDbEntity
  8
241
100
AcDbVertex
100
AcDb3dPolylineVertex
 10
104.2156
 20
6.37897
 30
0.0
 70
    32
  0
VERTEX
  5
1EF0
330
1E86
100
AcDbEntity
  8
241
100
AcDbVertex
100
AcDb3dPolylineVertex
 10
104.1962
 20
6.36582
 30
0.0
 70
    32
  0
VERTEX
  5
1EF1
330
1E86
100
AcDbEntity
  8
241
100
AcDbVertex
100
AcDb3dPolylineVertex
 10
104.1775
 20
6.35231
 30
0.0
 70
    32
  0
VERTEX
  5
1EF2
330
1E86
100
AcDbEntity
  8
241
100
AcDbVertex
100
AcDb3dPolylineVertex
 10
104.1594
 20
6.33845
 30
0.0
 70
    32
  0
VERTEX
  5
1EF3
330
1E86
100
AcDbEntity
  8
241
100
AcDbVertex
100
AcDb3dPolylineVertex
 10
104.1419
 20
6.32424
 30
0.0
 70
    32
  0
VERTEX
  5
1EF4
330
1E86
100
AcDbEntity
  8
241
100
AcDbVertex
100
AcDb3dPolylineVertex
 10
104.125
 20
6.30969
 30
0.0
 70
    32
  0
VERTEX
  5
1EF5
330
1E86
100
AcDbEntity
  8
241
100
AcDbVertex
100
AcDb3dPolylineVertex
 10
104.1087
 20
6.29481
 30
0.0
 70
    32
  0
VERTEX
  5
1EF6
330
1E86
100
AcDbEntity
  8
241
100
AcDbVertex
100
AcDb3dPolylineVertex
 10
104.093
 20
6.27962
 30
0.0
 70
    32
  0
VERTEX
  5
1EF7
330
1E86
100
AcDbEntity
  8
241
100
AcDbVertex
100
AcDb3dPolylineVertex
 10
104.078
 20
6.26412
 30
0.0
 70
    32
  0
VERTEX
  5
1EF8
330
1E86
100
AcDbEntity
  8
241
100
AcDbVertex
100
AcDb3dPolylineVertex
 10
104.0637
 20
6.24831
 30
0.0
 70
    32
  0
VERTEX
  5
1EF9
330
1E86
100
AcDbEntity
  8
241
100
AcDbVertex
100
AcDb3dPolylineVertex
 10
104.05
 20
6.23222
 30
0.0
 70
    32
  0
VERTEX
  5
1EFA
330
1E86
100
AcDbEntity
  8
241
100
AcDbVertex
100
AcDb3dPolylineVertex
 10
104.0369
 20
6.21584
 30
0.0
 70
    32
  0
VERTEX
  5
1EFB
330
1E86
100
AcDbEntity
  8
241
100
AcDbVertex
100
AcDb3dPolylineVertex
 10
104.0246
 20
6.19919
 30
0.0
 70
    32
  0
VERTEX
  5
1EFC
330
1E86
100
AcDbEntity
  8
241
100
AcDbVertex
100
AcDb3dPolylineVertex
 10
104.0129
 20
6.18228
 30
0.0
 70
    32
  0
VERTEX
  5
1EFD
330
1E86
100
AcDbEntity
  8
241
100
AcDbVertex
100
AcDb3dPolylineVertex
 10
104.002
 20
6.16512
 30
0.0
 70
    32
  0
VERTEX
  5
1EFE
330
1E86
100
AcDbEntity
  8
241
100
AcDbVertex
100
AcDb3dPolylineVertex
 10
103.9917
 20
6.14771
 30
0.0
 70
    32
  0
VERTEX
  5
1EFF
330
1E86
100
AcDbEntity
  8
241
100
AcDbVertex
100
AcDb3dPolylineVertex
 10
103.9821
 20
6.13008
 30
0.0
 70
    32
  0
VERTEX
  5
1F00
330
1E86
100
AcDbEntity
  8
241
100
AcDbVertex
100
AcDb3dPolylineVertex
 10
103.9733
 20
6.11223
 30
0.0
 70
    32
  0
VERTEX
  5
1F01
330
1E86
100
AcDbEntity
  8
241
100
AcDbVertex
100
AcDb3dPolylineVertex
 10
103.9652
 20
6.09416
 30
0.0
 70
    32
  0
VERTEX
  5
1F02
330
1E86
100
AcDbEntity
  8
241
100
AcDbVertex
100
AcDb3dPolylineVertex
 10
103.9577
 20
6.0759
 30
0.0
 70
    32
  0
VERTEX
  5
1F03
330
1E86
100
AcDbEntity
  8
241
100
AcDbVertex
100
AcDb3dPolylineVertex
 10
103.9511
 20
6.05746
 30
0.0
 70
    32
  0
VERTEX
  5
1F04
330
1E86
100
AcDbEntity
  8
241
100
AcDbVertex
100
AcDb3dPolylineVertex
 10
103.9451
 20
6.03883
 30
0.0
 70
    32
  0
VERTEX
  5
1F05
330
1E86
100
AcDbEntity
  8
241
100
AcDbVertex
100
AcDb3dPolylineVertex
 10
103.9399
 20
6.02004
 30
0.0
 70
    32
  0
VERTEX
  5
1F06
330
1E86
100
AcDbEntity
  8
241
100
AcDbVertex
100
AcDb3dPolylineVertex
 10
103.9354
 20
6.0011
 30
0.0
 70
    32
  0
VERTEX
  5
1F07
330
1E86
100
AcDbEntity
  8
241
100
AcDbVertex
100
AcDb3dPolylineVertex
 10
103.9316
 20
5.98201
 30
0.0
 70
    32
  0
SEQEND
  5
1F08
330
1E86
100
AcDbEntity
  8
241
  0
ENDBLK
  5
1227
330
1225
100
AcDbEntity
  8
0
100
AcDbBlockEnd
  0
ENDSEC
  0
SECTION
  2
ENTITIES
  0
INSERT
  5
6E6
330
1A
100
AcDbEntity
  8
245
100
AcDbBlockReference
  2
矢印なし
 10
175.62382697
 20
90.55123572
 30
0.0
  0
TEXT
  5
9F1
330
1A
100
AcDbEntity
  8
241
100
AcDbText
 10
-38.0
 20
56.0
 30
0.0
 40
5.0
  1
C6-FCM16092-110
  7
YOKO
 11
-38.0
 21
56.0
 31
0.0
100
AcDbText
 73
     1
  0
DIMENSION
  5
1076
330
1A
100
AcDbEntity
  8
250
  6
CONTINUOUS
100
AcDbDimension
  2
*D2
 10
121.0
 20
8.0
 30
0.0
 11
121.0
 21
0.0
 31
0.0
 70
   160
  1
{\H2.8;\U+2205}<>
  3
BIGT
100
AcDbAlignedDimension
 13
110.0
 23
-8.0
 33
0.0
 14
110.0
 24
8.0
 34
0.0
 50
90.0
100
AcDbRotatedDimension
  0
DIMENSION
  5
1183
330
1A
100
AcDbEntity
  8
250
  6
CONTINUOUS
100
AcDbDimension
  2
*D3
 10
110.0
 20
28.0
 30
0.0
 11
105.5
 21
30.5
 31
0.0
 70
    32
  3
BIGT$0
100
AcDbAlignedDimension
 13
101.0
 23
8.0
 33
0.0
 14
110.0
 24
8.0
 34
0.0
100
AcDbRotatedDimension
  0
DIMENSION
  5
1184
330
1A
100
AcDbEntity
  8
250
  6
CONTINUOUS
100
AcDbDimension
  2
*D4
 10
110.0
 20
42.0
 30
0.0
 11
55.0
 21
44.5
 31
0.0
 70
    32
  3
BIGT$0
100
AcDbAlignedDimension
 13
0.0
 23
31.4925
 33
0.0
 14
110.0
 24
8.0
 34
0.0
100
AcDbRotatedDimension
  0
DIMENSION
  5
1185
330
1A
100
AcDbEntity
  8
250
  6
CONTINUOUS
100
AcDbDimension
  2
*D5
 10
110.0
 20
35.0
 30
0.0
 11
95.0
 21
37.5
 31
0.0
 70
    32
  3
BIGT$0
100
AcDbAlignedDimension
 13
80.0
 23
7.4
 33
0.0
 14
110.0
 24
8.0
 34
0.0
100
AcDbRotatedDimension
  0
LINE
  5
1A71
330
1A
100
AcDbEntity
  8
250
  6
CONTINUOUS
100
AcDbLine
 10
-21.0
 20
-28.0
 30
0.0
 11
-31.26666667
 21
-28.0
 31
0.0
1001
ITEMNAME
1000
LNSP2
  0
MTEXT
  5
1A75
330
1A
100
AcDbEntity
  8
251
  6
CONTINUOUS
100
AcDbMText
 10
-28.46666667
 20
-27.0
 30
0.0
 40
2.8
 41
0.0
 71
     7
 72
     1
  1
C6
  7
YOKO
1001
ITEMNAME
1000
LNSP3
1001
ACAD
1000
MTEXTBEGIN
1070
    73
1070
     1
1070
    44
1040
1.0
1070
    74
1070
     0
1000
MTEXTEND
1000
MTEXTBEGIN
1070
    73
1070
     1
1070
    44
1040
1.0
1070
    74
1070
     0
1000
MTEXTEND
1000
MTEXTBEGIN
1070
    73
1070
     1
1070
    44
1040
1.0
1070
    74
1070
     0
1000
MTEXTEND
1000
MTEXTBEGIN
1070
    73
1070
     1
1070
    44
1040
1.0
1070
    74
1070
     0
1000
MTEXTEND
1000
MTEXTBEGIN
1070
    73
1070
     1
1070
    44
1040
1.0
1070
    74
1070
     0
1000
MTEXTEND
1000
MTEXTBEGIN
1070
    73
1070
     1
1070
    44
1040
1.0
1070
    74
1070
     0
1000
MTEXTEND
1000
MTEXTBEGIN
1070
    73
1070
     1
1070
    44
1040
1.0
1070
    74
1070
     0
1000
MTEXTEND
1000
MTEXTBEGIN
1070
    73
1070
     1
1070
    44
1040
1.0
1070
    74
1070
     0
1000
MTEXTEND
1000
MTEXTBEGIN
1070
    73
1070
     1
1070
    44
1040
1.0
1070
    74
1070
     0
1000
MTEXTEND
1000
MTEXTBEGIN
1070
    73
1070
     1
1070
    44
1040
1.0
1070
    74
1070
     0
1000
MTEXTEND
1000
MTEXTBEGIN
1070
    73
1070
     1
1070
    44
1040
1.0
1070
    74
1070
     0
1000
MTEXTEND
  0
LEADER
  5
1A77
330
1A
100
AcDbEntity
  8
250
  6
CONTINUOUS
100
AcDbLeader
  3
BIGT
 76
     2
 10
-16.47540101
 20
-20.26308537
 30
0.0
 10
-21.0
 20
-28.0
 30
0.0
1001
ACAD
1000
DSTYLE
1002
{
1070
     6
1000
OPEN
1070
    41
1040
2.0
1070
    42
1040
2.0
1070
    44
1040
2.0
1070
   140
1040
4.0
1070
   343
1005
594
1002
}
  0
INSERT
  5
1F09
330
1A
100
AcDbEntity
  8
245
100
AcDbBlockReference
  2
1
 10
0.0
 20
0.0
 30
0.0
  0
VIEWPORT
  5
22
330
17
100
AcDbEntity
 67
     1
  8
0
100
AcDbViewport
 10
261.51769912
 20
148.5
 30
0.0
 40
523.03539823
 41
297.0
 68
     1
 69
     1
1001
ACAD
1000
MVIEW
1002
{
1070
    16
1010
0.0
1020
0.0
1030
0.0
1010
0.0
1020
0.0
1030
1.0
1040
0.0
1040
297.0
1040
261.51769912
1040
148.5
1040
50.0
1040
0.0
1040
0.0
1070
     0
1070
   100
1070
     1
1070
     1
1070
     0
1070
     0
1070
     0
1070
     0
1040
0.0
1040
0.0
1040
0.0
1040
1.0
1040
1.0
1040
10.0
1040
10.0
1070
     0
1002
{
1002
}
1002
}
  0
ENDSEC
  0
SECTION
  2
OBJECTS
  0
DICTIONARY
  5
C
330
0
100
AcDbDictionary
  3
ACAD_GROUP
350
D
  3
ACAD_LAYOUT
350
565
  3
ACAD_MLINESTYLE
350
E
  3
ACAD_PLOTSETTINGS
350
566
  3
ACAD_PLOTSTYLENAME
350
563
  3
ACDBHEADERROUNDTRIPXREC
350
1F32
  3
GRADE_DWG
350
540
  0
DICTIONARY
  5
143B
330
1A
100
AcDbDictionary
280
     1
  3
ACAD_LAYOUTSELFREF
360
1F54
  0
DICTIONARY
  5
1439
330
17
100
AcDbDictionary
280
     1
  3
ACAD_LAYOUTSELFREF
360
1F53
  0
DICTIONARY
  5
D
102
{ACAD_REACTORS
330
C
102
}
330
C
100
AcDbDictionary
  3
*A1
350
6C7
  3
*A2
350
6C8
  3
*A3
350
6D4
  3
*A4
350
6D5
  3
DREC-1
350
5FC
  3
DREC-2
350
654
  3
DREC-3
350
673
  0
DICTIONARY
  5
565
102
{ACAD_REACTORS
330
C
102
}
330
C
100
AcDbDictionary
  0
DICTIONARY
  5
E
102
{ACAD_REACTORS
330
C
102
}
330
C
100
AcDbDictionary
  3
STANDARD
350
13
  0
DICTIONARY
  5
566
102
{ACAD_REACTORS
330
C
102
}
330
C
100
AcDbDictionary
  3
A3_0_5倍_
350
758
  3
A3_1倍_
350
757
  3
A3_1倍__2000_
350
707
  3
A3_2倍_
350
759
  3
A4_0_5倍_
350
755
  3
A4_1倍_
350
754
  3
A4_1倍__2000_
350
708
  3
A4_2倍_
350
756
  0
ACDBDICTIONARYWDFLT
  5
563
102
{ACAD_REACTORS
330
C
102
}
330
C
100
AcDbDictionary
281
     1
  3
Normal
350
564
100
AcDbDictionaryWithDefault
340
564
  0
DICTIONARY
  5
1F32
102
{ACAD_REACTORS
330
C
102
}
330
C
100
AcDbDictionary
  3
CEPSNTYPE
350
1F3C
  3
DIMSTYLEDATA
350
1F40
  3
FINGERPRINTGUID
350
1F3D
  3
HYPERLINKBASE
350
1F35
  3
INSUNITS
350
1F3B
  3
LAYOUTDICT
350
1F37
  3
LWETCUNION
350
1F3A
  3
PLOTSETDICT
350
1F38
  3
PLOTSTYLNAMDICT
350
1F39
  3
PSVPSCALE
350
1F3F
  3
PUCSBASE
350
1F43
  3
PUCSORGBACK
350
1F49
  3
PUCSORGBOTTOM
350
1F45
  3
PUCSORGFRONT
350
1F48
  3
PUCSORGLEFT
350
1F46
  3
PUCSORGRIGHT
350
1F47
  3
PUCSORGTOP
350
1F44
  3
PUCSORTHOREF
350
1F41
  3
PUCSORTHOVIEW
350
1F42
  3
STYLESHEET
350
1F36
  3
TSTACKALIGN
350
1F33
  3
TSTACKSIZE
350
1F34
  3
UCSBASE
350
1F4C
  3
UCSORGBACK
350
1F52
  3
UCSORGBOTTOM
350
1F4E
  3
UCSORGFRONT
350
1F51
  3
UCSORGLEFT
350
1F4F
  3
UCSORGRIGHT
350
1F50
  3
UCSORGTOP
350
1F4D
  3
UCSORTHOREF
350
1F4A
  3
UCSORTHOVIEW
350
1F4B
  3
VERSIONGUID
350
1F3E
  0
DICTIONARY
  5
540
102
{ACAD_REACTORS
330
C
102
}
330
C
100
AcDbDictionary
  3
VERSION
350
560
  0
XRECORD
  5
1F54
102
{ACAD_REACTORS
330
143B
102
}
330
143B
100
AcDbXrecord
340
1A
  0
XRECORD
  5
1F53
102
{ACAD_REACTORS
330
1439
102
}
330
1439
100
AcDbXrecord
340
17
  0
GROUP
  5
6C7
102
{ACAD_REACTORS
330
D
102
}
330
D
100
AcDbGroup
300

 70
     0
 71
     1
1001
GRPNAME
1000
DMA00
  0
GROUP
  5
6C8
102
{ACAD_REACTORS
330
D
102
}
330
D
100
AcDbGroup
300

 70
     0
 71
     1
1001
GRPNAME
1000
DMA00
  0
GROUP
  5
6D4
102
{ACAD_REACTORS
330
D
102
}
330
D
100
AcDbGroup
300

 70
     0
 71
     1
1001
GRPNAME
1000
DMA00
  0
GROUP
  5
6D5
102
{ACAD_REACTORS
330
D
102
}
330
D
100
AcDbGroup
300

 70
     0
 71
     1
1001
GRPNAME
1000
DMA00
  0
GROUP
  5
5FC
102
{ACAD_REACTORS
330
D
102
}
330
D
100
AcDbGroup
300

 70
     0
 71
     1
1001
GRPNAME
1000
DREC-
1001
GPARA
1000
xsiz
1000
44.182
1000
ysiz
1000
40.677
1000
angl
1000
0
1000
ctyp
1000
0
1000
csiz
1000
5
1000
lfnt
1000
cont
1000
hcnt
1000
hoff
1000
vcnt
1000
voff
1000
opnt
1000
4
1000
dxpt
1000
0
1000
dypt
1000
0
  0
GROUP
  5
654
102
{ACAD_REACTORS
330
D
102
}
330
D
100
AcDbGroup
300

 70
     0
 71
     1
1001
GRPNAME
1000
DREC-
1001
GPARA
1000
xsiz
1000
54.592
1000
ysiz
1000
53.036
1000
angl
1000
0
1000
ctyp
1000
0
1000
csiz
1000
5
1000
lfnt
1000
cont
1000
hcnt
1000
hoff
1000
vcnt
1000
voff
1000
opnt
1000
4
1000
dxpt
1000
0
1000
dypt
1000
0
  0
GROUP
  5
673
102
{ACAD_REACTORS
330
D
102
}
330
D
100
AcDbGroup
300

 70
     0
 71
     1
1001
GRPNAME
1000
DREC-
1001
GPARA
1000
xsiz
1000
30.363
1000
ysiz
1000
36.175
1000
angl
1000
0
1000
ctyp
1000
0
1000
csiz
1000
5
1000
lfnt
1000
cont
1000
hcnt
1000
hoff
1000
vcnt
1000
voff
1000
opnt
1000
4
1000
dxpt
1000
0
1000
dypt
1000
0
  0
MLINESTYLE
  5
13
102
{ACAD_REACTORS
330
E
102
}
330
E
100
AcDbMlineStyle
  2
STANDARD
 70
     0
  3

 62
     0
 51
90.0
 52
90.0
 71
     2
 49
0.5
 62
   256
  6
BYLAYER
 49
-0.5
 62
   256
  6
BYLAYER
  0
PLOTSETTINGS
  5
758
102
{ACAD_REACTORS
330
566
102
}
330
566
100
AcDbPlotSettings
  1
A3(0.5倍)
  2
\\AWTECPC05\HP DeskJet 1120C
  4
A3
  6

 40
5.95841646
 41
13.49375153
 42
6.04309082
 43
3.67242432
 44
296.92599487
 45
419.94665527
 46
89.96
 47
127.14
 48
0.0
 49
0.0
140
0.0
141
0.0
142
1.0
143
2.0
 70
  1716
 72
     1
 73
     1
 74
     2
  7
big.ctb
 75
    17
147
0.5
148
0.0
149
0.0
  0
PLOTSETTINGS
  5
757
102
{ACAD_REACTORS
330
566
102
}
330
566
100
AcDbPlotSettings
  1
A3(1倍)
  2
\\AWTECPC05\HP DeskJet 1120C
  4
A3
  6

 40
5.95841646
 41
13.49375153
 42
6.04309082
 43
3.67242432
 44
296.92599487
 45
419.94665527
 46
37.46
 47
52.89
 48
0.0
 49
0.0
140
0.0
141
0.0
142
1.0
143
1.0
 70
  1716
 72
     1
 73
     1
 74
     2
  7
big.ctb
 75
    16
147
1.0
148
0.0
149
0.0
  0
PLOTSETTINGS
  5
707
102
{ACAD_REACTORS
330
566
102
}
330
566
100
AcDbPlotSettings
  1
A3(1倍)(2000)
  2
SII LS-1300 (D-SCAN)
  4
User258
  6

 40
3.17499995
 41
3.17499995
 42
3.17498779
 43
3.17498779
 44
419.98898315
 45
296.98950195
 46
58.32
 47
40.32
 48
0.0
 49
0.0
140
0.0
141
0.0
142
1.0
143
1.0
 70
  1716
 72
     1
 73
     0
 74
     2
  7
big.ctb
 75
    16
147
1.0
148
0.0
149
0.0
  0
PLOTSETTINGS
  5
759
102
{ACAD_REACTORS
330
566
102
}
330
566
100
AcDbPlotSettings
  1
A3(2倍)
  2
\\AWTECPC05\HP DeskJet 1120C
  4
A3
  6

 40
5.95841646
 41
13.49375153
 42
6.04309082
 43
3.67242432
 44
296.92599487
 45
419.94665527
 46
-67.54
 47
-95.61
 48
0.0
 49
0.0
140
0.0
141
0.0
142
1.0
143
0.5
 70
  1716
 72
     1
 73
     1
 74
     2
  7
big.ctb
 75
    27
147
2.0
148
0.0
149
0.0
  0
PLOTSETTINGS
  5
755
102
{ACAD_REACTORS
330
566
102
}
330
566
100
AcDbPlotSettings
  1
A4(0.5倍)
  2
\\AWTECPC05\HP DeskJet 1120C
  4
A4
  6

 40
4.18041658
 41
13.49374962
 42
4.18040466
 43
3.92642212
 44
209.97332764
 45
296.92599487
 46
48.31
 47
65.5
 48
0.0
 49
0.0
140
0.0
141
0.0
142
1.0
143
2.0
 70
  1716
 72
     1
 73
     1
 74
     2
  7
big.ctb
 75
    17
147
0.5
148
0.0
149
0.0
  0
PLOTSETTINGS
  5
754
102
{ACAD_REACTORS
330
566
102
}
330
566
100
AcDbPlotSettings
  1
A4(1倍)
  2
\\AWTECPC05\HP DeskJet 1120C
  4
A4
  6

 40
4.18041658
 41
13.49374962
 42
4.18040466
 43
3.92642212
 44
209.97332764
 45
296.92599487
 46
-4.19
 47
-8.75
 48
0.0
 49
0.0
140
0.0
141
0.0
142
1.0
143
1.0
 70
  1716
 72
     1
 73
     1
 74
     2
  7
big.ctb
 75
    16
147
1.0
148
0.0
149
0.0
  0
PLOTSETTINGS
  5
708
102
{ACAD_REACTORS
330
566
102
}
330
566
100
AcDbPlotSettings
  1
A4(1倍)(2000)
  2
SII LS-1300 (D-SCAN)
  4
User259
  6

 40
3.17499995
 41
3.17499995
 42
3.17498779
 43
3.17500305
 44
296.98950195
 45
209.99449158
 46
-3.18
 47
-3.18
 48
0.0
 49
0.0
140
0.0
141
0.0
142
1.0
143
1.0
 70
  1716
 72
     1
 73
     0
 74
     2
  7
big.ctb
 75
    16
147
1.0
148
0.0
149
0.0
  0
PLOTSETTINGS
  5
756
102
{ACAD_REACTORS
330
566
102
}
330
566
100
AcDbPlotSettings
  1
A4(2倍)
  2
\\AWTECPC05\HP DeskJet 1120C
  4
A4
  6

 40
4.18041658
 41
13.49374962
 42
4.18040466
 43
3.92642212
 44
209.97332764
 45
296.92599487
 46
-109.19
 47
-157.25
 48
0.0
 49
0.0
140
0.0
141
0.0
142
1.0
143
0.5
 70
  1716
 72
     1
 73
     1
 74
     2
  7
big.ctb
 75
    27
147
2.0
148
0.0
149
0.0
  0
ACDBPLACEHOLDER
  5
564
102
{ACAD_REACTORS
330
563
102
}
330
563
100
AcDbPlaceHolder
280
     0
  0
XRECORD
  5
1F3C
102
{ACAD_REACTORS
330
1F32
102
}
330
1F32
100
AcDbXrecord
 90
        0
  0
XRECORD
  5
1F40
102
{ACAD_REACTORS
330
1F32
102
}
330
1F32
100
AcDbXrecord
1000
DSTYLE
1002
{
1070
    79
 70
     2
1070
   179
 70
     3
1070
   341
340
594
1070
   343
340
594
1070
   344
340
594
1070
   371
 70
    -1
1070
   372
 70
    -1
1002
}
  0
XRECORD
  5
1F3D
102
{ACAD_REACTORS
330
1F32
102
}
330
1F32
100
AcDbXrecord
  1
{51294030-9CB4-11D3-8E18-00A0C925D94D}
  0
XRECORD
  5
1F35
102
{ACAD_REACTORS
330
1F32
102
}
330
1F32
100
AcDbXrecord
  1

  0
XRECORD
  5
1F3B
102
{ACAD_REACTORS
330
1F32
102
}
330
1F32
100
AcDbXrecord
 90
        0
  0
XRECORD
  5
1F37
102
{ACAD_REACTORS
330
1F32
102
}
330
1F32
100
AcDbXrecord
340
565
  0
XRECORD
  5
1F3A
102
{ACAD_REACTORS
330
1F32
102
}
330
1F32
100
AcDbXrecord
 90
    10781
  0
XRECORD
  5
1F38
102
{ACAD_REACTORS
330
1F32
102
}
330
1F32
100
AcDbXrecord
340
566
  0
XRECORD
  5
1F39
102
{ACAD_REACTORS
330
1F32
102
}
330
1F32
100
AcDbXrecord
340
563
  0
XRECORD
  5
1F3F
102
{ACAD_REACTORS
330
1F32
102
}
330
1F32
100
AcDbXrecord
 40
0.0
  0
XRECORD
  5
1F43
102
{ACAD_REACTORS
330
1F32
102
}
330
1F32
100
AcDbXrecord
340
0
  0
XRECORD
  5
1F49
102
{ACAD_REACTORS
330
1F32
102
}
330
1F32
100
AcDbXrecord
 10
0.0
 20
0.0
 30
0.0
  0
XRECORD
  5
1F45
102
{ACAD_REACTORS
330
1F32
102
}
330
1F32
100
AcDbXrecord
 10
0.0
 20
0.0
 30
0.0
  0
XRECORD
  5
1F48
102
{ACAD_REACTORS
330
1F32
102
}
330
1F32
100
AcDbXrecord
 10
0.0
 20
0.0
 30
0.0
  0
XRECORD
  5
1F46
102
{ACAD_REACTORS
330
1F32
102
}
330
1F32
100
AcDbXrecord
 10
0.0
 20
0.0
 30
0.0
  0
XRECORD
  5
1F47
102
{ACAD_REACTORS
330
1F32
102
}
330
1F32
100
AcDbXrecord
 10
0.0
 20
0.0
 30
0.0
  0
XRECORD
  5
1F44
102
{ACAD_REACTORS
330
1F32
102
}
330
1F32
100
AcDbXrecord
 10
0.0
 20
0.0
 30
0.0
  0
XRECORD
  5
1F41
102
{ACAD_REACTORS
330
1F32
102
}
330
1F32
100
AcDbXrecord
340
0
  0
XRECORD
  5
1F42
102
{ACAD_REACTORS
330
1F32
102
}
330
1F32
100
AcDbXrecord
 70
     0
  0
XRECORD
  5
1F36
102
{ACAD_REACTORS
330
1F32
102
}
330
1F32
100
AcDbXrecord
  1
big.ctb
  0
XRECORD
  5
1F33
102
{ACAD_REACTORS
330
1F32
102
}
330
1F32
100
AcDbXrecord
 90
        1
  0
XRECORD
  5
1F34
102
{ACAD_REACTORS
330
1F32
102
}
330
1F32
100
AcDbXrecord
 90
       70
  0
XRECORD
  5
1F4C
102
{ACAD_REACTORS
330
1F32
102
}
330
1F32
100
AcDbXrecord
340
0
  0
XRECORD
  5
1F52
102
{ACAD_REACTORS
330
1F32
102
}
330
1F32
100
AcDbXrecord
 10
0.0
 20
0.0
 30
0.0
  0
XRECORD
  5
1F4E
102
{ACAD_REACTORS
330
1F32
102
}
330
1F32
100
AcDbXrecord
 10
0.0
 20
0.0
 30
0.0
  0
XRECORD
  5
1F51
102
{ACAD_REACTORS
330
1F32
102
}
330
1F32
100
AcDbXrecord
 10
0.0
 20
0.0
 30
0.0
  0
XRECORD
  5
1F4F
102
{ACAD_REACTORS
330
1F32
102
}
330
1F32
100
AcDbXrecord
 10
0.0
 20
0.0
 30
0.0
  0
XRECORD
  5
1F50
102
{ACAD_REACTORS
330
1F32
102
}
330
1F32
100
AcDbXrecord
 10
0.0
 20
0.0
 30
0.0
  0
XRECORD
  5
1F4D
102
{ACAD_REACTORS
330
1F32
102
}
330
1F32
100
AcDbXrecord
 10
0.0
 20
0.0
 30
0.0
  0
XRECORD
  5
1F4A
102
{ACAD_REACTORS
330
1F32
102
}
330
1F32
100
AcDbXrecord
340
0
  0
XRECORD
  5
1F4B
102
{ACAD_REACTORS
330
1F32
102
}
330
1F32
100
AcDbXrecord
 70
     0
  0
XRECORD
  5
1F3E
102
{ACAD_REACTORS
330
1F32
102
}
330
1F32
100
AcDbXrecord
  1
{B0687ABB-D6E6-4ABF-A334-E40F38FF97D8}
  0
XRECORD
  5
560
102
{ACAD_REACTORS
330
540
102
}
330
540
100
AcDbXrecord
  1
2.0.0
  0
ENDSEC
  0
EOF
