  0
SECTION
  2
HEADER
  9
$ACADVER
  1
AC1014
  9
$ACADMAINTVER
 70
     9
  9
$DWGCODEPAGE
  3
ANSI_932
  9
$INSBASE
 10
0.0
 20
0.0
 30
0.0
  9
$EXTMIN
 10
-31.0137623776842
 20
-25.20693870640229
 30
-0.0015258207003583
  9
$EXTMAX
 10
121.0032966004257
 20
61.00104239411598
 30
0.0000000349246037
  9
$LIMMIN
 10
0.0
 20
0.0
  9
$LIMMAX
 10
420.0
 20
297.0
  9
$ORTHOMODE
 70
     1
  9
$REGENMODE
 70
     1
  9
$FILLMODE
 70
     1
  9
$QTEXTMODE
 70
     0
  9
$MIRRTEXT
 70
     1
  9
$DRAGMODE
 70
     2
  9
$LTSCALE
 40
10.0
  9
$OSMODE
 70
   549
  9
$ATTMODE
 70
     1
  9
$TEXTSIZE
 40
3.0
  9
$TRACEWID
 40
1.0
  9
$TEXTSTYLE
  7
YOKO
  9
$CLAYER
  8
245
  9
$CELTYPE
  6
BYLAYER
  9
$CECOLOR
 62
   256
  9
$CELTSCALE
 40
1.0
  9
$DELOBJ
 70
     1
  9
$DISPSILH
 70
     0
  9
$DIMSCALE
 40
1.0
  9
$DIMASZ
 40
2.0
  9
$DIMEXO
 40
2.0
  9
$DIMDLI
 40
2.5
  9
$DIMRND
 40
0.0
  9
$DIMDLE
 40
0.0
  9
$DIMEXE
 40
2.0
  9
$DIMTP
 40
0.0
  9
$DIMTM
 40
0.0
  9
$DIMTXT
 40
4.0
  9
$DIMCEN
 40
0.0
  9
$DIMTSZ
 40
0.0
  9
$DIMTOL
 70
     0
  9
$DIMLIM
 70
     0
  9
$DIMTIH
 70
     0
  9
$DIMTOH
 70
     0
  9
$DIMSE1
 70
     0
  9
$DIMSE2
 70
     0
  9
$DIMTAD
 70
     3
  9
$DIMZIN
 70
     8
  9
$DIMBLK
  1

  9
$DIMASO
 70
     1
  9
$DIMSHO
 70
     1
  9
$DIMPOST
  1

  9
$DIMAPOST
  1

  9
$DIMALT
 70
     0
  9
$DIMALTD
 70
     2
  9
$DIMALTF
 40
25.4
  9
$DIMLFAC
 40
1.0
  9
$DIMTOFL
 70
     1
  9
$DIMTVP
 40
0.0
  9
$DIMTIX
 70
     1
  9
$DIMSOXD
 70
     0
  9
$DIMSAH
 70
     1
  9
$DIMBLK1
  1
OPEN
  9
$DIMBLK2
  1
OPEN
  9
$DIMSTYLE
  2
BIGT
  9
$DIMCLRD
 70
   256
  9
$DIMCLRE
 70
   256
  9
$DIMCLRT
 70
    40
  9
$DIMTFAC
 40
1.0
  9
$DIMGAP
 40
1.0
  9
$DIMJUST
 70
     0
  9
$DIMSD1
 70
     0
  9
$DIMSD2
 70
     0
  9
$DIMTOLJ
 70
     1
  9
$DIMTZIN
 70
     8
  9
$DIMALTZ
 70
     0
  9
$DIMALTTZ
 70
     0
  9
$DIMFIT
 70
     3
  9
$DIMUPT
 70
     0
  9
$DIMUNIT
 70
     2
  9
$DIMDEC
 70
     3
  9
$DIMTDEC
 70
     3
  9
$DIMALTU
 70
     2
  9
$DIMALTTD
 70
     2
  9
$DIMTXSTY
  7
STANDARD
  9
$DIMAUNIT
 70
     0
  9
$LUNITS
 70
     2
  9
$LUPREC
 70
     3
  9
$SKETCHINC
 40
1.0
  9
$FILLETRAD
 40
0.5
  9
$AUNITS
 70
     0
  9
$AUPREC
 70
     3
  9
$MENU
  1
.
  9
$ELEVATION
 40
0.0
  9
$PELEVATION
 40
0.0
  9
$THICKNESS
 40
0.0
  9
$LIMCHECK
 70
     0
  9
$BLIPMODE
 70
     0
  9
$CHAMFERA
 40
10.0
  9
$CHAMFERB
 40
10.0
  9
$CHAMFERC
 40
0.0
  9
$CHAMFERD
 40
0.0
  9
$SKPOLY
 70
     0
  9
$TDCREATE
 40
2454965.414893298
  9
$TDUPDATE
 40
2455203.558641493
  9
$TDINDWG
 40
0.0232705671
  9
$TDUSRTIMER
 40
0.0232705671
  9
$USRTIMER
 70
     1
  9
$ANGBASE
 50
0.0
  9
$ANGDIR
 70
     0
  9
$PDMODE
 70
    35
  9
$PDSIZE
 40
-5.0
  9
$PLINEWID
 40
0.0
  9
$COORDS
 70
     2
  9
$SPLFRAME
 70
     0
  9
$SPLINETYPE
 70
     6
  9
$SPLINESEGS
 70
     8
  9
$ATTDIA
 70
     0
  9
$ATTREQ
 70
     1
  9
$HANDLING
 70
-16383
  9
$HANDSEED
  5
12C6
  9
$SURFTAB1
 70
     6
  9
$SURFTAB2
 70
     6
  9
$SURFTYPE
 70
     6
  9
$SURFU
 70
     6
  9
$SURFV
 70
     6
  9
$UCSNAME
  2

  9
$UCSORG
 10
0.0
 20
0.0
 30
0.0
  9
$UCSXDIR
 10
1.0
 20
0.0
 30
0.0
  9
$UCSYDIR
 10
0.0
 20
1.0
 30
0.0
  9
$PUCSNAME
  2

  9
$PUCSORG
 10
0.0
 20
0.0
 30
0.0
  9
$PUCSXDIR
 10
1.0
 20
0.0
 30
0.0
  9
$PUCSYDIR
 10
0.0
 20
1.0
 30
0.0
  9
$USERI1
 70
     1
  9
$USERI2
 70
     0
  9
$USERI3
 70
     0
  9
$USERI4
 70
     0
  9
$USERI5
 70
     0
  9
$USERR1
 40
0.0
  9
$USERR2
 40
0.0
  9
$USERR3
 40
0.0
  9
$USERR4
 40
0.0
  9
$USERR5
 40
0.0
  9
$WORLDVIEW
 70
     1
  9
$SHADEDGE
 70
     3
  9
$SHADEDIF
 70
    70
  9
$TILEMODE
 70
     1
  9
$MAXACTVP
 70
    16
  9
$PINSBASE
 10
0.0
 20
0.0
 30
0.0
  9
$PLIMCHECK
 70
     0
  9
$PEXTMIN
 10
1.000000000000000E+20
 20
1.000000000000000E+20
 30
1.000000000000000E+20
  9
$PEXTMAX
 10
-1.000000000000000E+20
 20
-1.000000000000000E+20
 30
-1.000000000000000E+20
  9
$PLIMMIN
 10
0.0
 20
0.0
  9
$PLIMMAX
 10
420.0
 20
297.0
  9
$UNITMODE
 70
     0
  9
$VISRETAIN
 70
     0
  9
$PLINEGEN
 70
     0
  9
$PSLTSCALE
 70
     1
  9
$TREEDEPTH
 70
  3020
  9
$PICKSTYLE
 70
     0
  9
$CMLSTYLE
  2
STANDARD
  9
$CMLJUST
 70
     0
  9
$CMLSCALE
 40
1.0
  9
$PROXYGRAPHICS
 70
     1
  9
$MEASUREMENT
 70
     1
  0
ENDSEC
  0
SECTION
  2
CLASSES
  0
CLASS
  1
XRECORD
  2
AcDbXrecord
  3
AutoCAD 2000
 90
        0
280
     0
281
     0
  0
CLASS
  1
ACDBDICTIONARYWDFLT
  2
AcDbDictionaryWithDefault
  3
AutoCAD 2000
 90
        0
280
     0
281
     0
  0
CLASS
  1
ACDBPLACEHOLDER
  2
AcDbPlaceHolder
  3
AutoCAD 2000
 90
        0
280
     0
281
     0
  0
CLASS
  1
LAYOUT
  2
AcDbLayout
  3
AutoCAD 2000
 90
        0
280
     0
281
     0
  0
CLASS
  1
PLOTSETTINGS
  2
AcDbPlotSettings
  3
AutoCAD 2000
 90
        0
280
     0
281
     0
  0
CLASS
  1
LONG_TRANSACTION
  2
AcDbLongTransaction
  3
AutoCAD 2000
 90
        0
280
     0
281
     0
  0
CLASS
  1
LWPOLYLINE
  2
AcDbPolyline
  3
AutoCAD 2000
 90
        0
280
     0
281
     1
  0
CLASS
  1
HATCH
  2
AcDbHatch
  3
AutoCAD 2000
 90
        0
280
     0
281
     1
  0
CLASS
  1
XRECORD
  2
AcDbXrecord
  3
AutoCAD 2000
 90
        0
280
     0
281
     0
  0
CLASS
  1
LONG_TRANSACTION
  2
AcDbLongTransaction
  3
AutoCAD 2000
 90
        0
280
     0
281
     0
  0
CLASS
  1
LWPOLYLINE
  2
AcDbPolyline
  3
AutoCAD 2000
 90
        0
280
     0
281
     1
  0
CLASS
  1
HATCH
  2
AcDbHatch
  3
AutoCAD 2000
 90
        0
280
     0
281
     1
  0
CLASS
  1
XRECORD
  2
AcDbXrecord
  3
AutoCAD 2000
 90
        0
280
     0
281
     0
  0
CLASS
  1
LONG_TRANSACTION
  2
AcDbLongTransaction
  3
AutoCAD 2000
 90
        0
280
     0
281
     0
  0
CLASS
  1
LWPOLYLINE
  2
AcDbPolyline
  3
AutoCAD 2000
 90
        0
280
     0
281
     1
  0
CLASS
  1
HATCH
  2
AcDbHatch
  3
AutoCAD 2000
 90
        0
280
     0
281
     1
  0
CLASS
  1
XRECORD
  2
AcDbXrecord
  3
AutoCAD 2000
 90
        0
280
     0
281
     0
  0
CLASS
  1
LONG_TRANSACTION
  2
AcDbLongTransaction
  3
AutoCAD 2000
 90
        0
280
     0
281
     0
  0
CLASS
  1
LWPOLYLINE
  2
AcDbPolyline
  3
AutoCAD 2000
 90
        0
280
     0
281
     1
  0
CLASS
  1
HATCH
  2
AcDbHatch
  3
AutoCAD 2000
 90
        0
280
     0
281
     1
  0
CLASS
  1
XRECORD
  2
AcDbXrecord
  3
AutoCAD 2000
 90
        0
280
     0
281
     0
  0
CLASS
  1
LONG_TRANSACTION
  2
AcDbLongTransaction
  3
AutoCAD 2000
 90
        0
280
     0
281
     0
  0
CLASS
  1
LWPOLYLINE
  2
AcDbPolyline
  3
AutoCAD 2000
 90
        0
280
     0
281
     1
  0
CLASS
  1
HATCH
  2
AcDbHatch
  3
AutoCAD 2000
 90
        0
280
     0
281
     1
  0
CLASS
  1
XRECORD
  2
AcDbXrecord
  3
AutoCAD 2000
 90
        0
280
     0
281
     0
  0
CLASS
  1
LONG_TRANSACTION
  2
AcDbLongTransaction
  3
AutoCAD 2000
 90
        0
280
     0
281
     0
  0
CLASS
  1
LWPOLYLINE
  2
AcDbPolyline
  3
AutoCAD 2000
 90
        0
280
     0
281
     1
  0
CLASS
  1
HATCH
  2
AcDbHatch
  3
AutoCAD 2000
 90
        0
280
     0
281
     1
  0
CLASS
  1
XRECORD
  2
AcDbXrecord
  3
AutoCAD 2000
 90
        0
280
     0
281
     0
  0
CLASS
  1
LONG_TRANSACTION
  2
AcDbLongTransaction
  3
AutoCAD 2000
 90
        0
280
     0
281
     0
  0
CLASS
  1
LWPOLYLINE
  2
AcDbPolyline
  3
AutoCAD 2000
 90
        0
280
     0
281
     1
  0
CLASS
  1
HATCH
  2
AcDbHatch
  3
AutoCAD 2000
 90
        0
280
     0
281
     1
  0
CLASS
  1
XRECORD
  2
AcDbXrecord
  3
AutoCAD 2000
 90
        0
280
     0
281
     0
  0
ENDSEC
  0
SECTION
  2
TABLES
  0
TABLE
  2
VPORT
  5
8
330
0
100
AcDbSymbolTable
 70
     2
  0
VPORT
  5
12A1
330
8
100
AcDbSymbolTableRecord
100
AcDbViewportTableRecord
  2
*ACTIVE
 70
     0
 10
0.0
 20
0.0
 11
1.0
 21
1.0
 12
44.99476711137078
 22
17.89705184385684
 13
0.0
 23
0.0
 14
7.0
 24
7.0
 15
7.0
 25
7.0
 16
0.0
 26
0.0
 36
1.0
 17
0.0
 27
0.0
 37
0.0
 40
106.7345123103606
 41
1.431847133757961
 42
50.0
 43
0.0
 44
0.0
 50
0.0
 51
0.0
 71
     0
 72
  2000
 73
     1
 74
     0
 75
     0
 76
     0
 77
     0
 78
     0
  0
ENDTAB
  0
TABLE
  2
LTYPE
  5
5
330
0
100
AcDbSymbolTable
 70
     3
  0
LTYPE
  5
14
330
5
100
AcDbSymbolTableRecord
100
AcDbLinetypeTableRecord
  2
BYBLOCK
 70
     0
  3

 72
    65
 73
     0
 40
0.0
  0
LTYPE
  5
15
330
5
100
AcDbSymbolTableRecord
100
AcDbLinetypeTableRecord
  2
BYLAYER
 70
     0
  3

 72
    65
 73
     0
 40
0.0
  0
LTYPE
  5
16
330
5
100
AcDbSymbolTableRecord
100
AcDbLinetypeTableRecord
  2
CONTINUOUS
 70
     0
  3
Solid line
 72
    65
 73
     0
 40
0.0
  0
LTYPE
  5
258
330
5
100
AcDbSymbolTableRecord
100
AcDbLinetypeTableRecord
  2
CENTER2
 70
     0
  3
___ _ ___ _ ___ _ ___ _ ___ _ ___ _ ___ _ ___ _
 72
    65
 73
     4
 40
1.125
 49
0.75
 74
     0
 49
-0.125
 74
     0
 49
0.125
 74
     0
 49
-0.125
 74
     0
  0
LTYPE
  5
25C
330
5
100
AcDbSymbolTableRecord
100
AcDbLinetypeTableRecord
  2
HIDDEN2
 70
     0
  3
_ _ _ _ _ _ _ _ _ _ _ _ _ _ _ _ _ _ _ _ _ _ _ _
 72
    65
 73
     2
 40
0.1875
 49
0.125
 74
     0
 49
-0.0625
 74
     0
  0
ENDTAB
  0
TABLE
  2
LAYER
  5
2
330
0
100
AcDbSymbolTable
 70
     9
  0
LAYER
  5
F
330
2
100
AcDbSymbolTableRecord
100
AcDbLayerTableRecord
  2
0
 70
     0
 62
     7
  6
CONTINUOUS
  0
LAYER
  5
1AA
330
2
100
AcDbSymbolTableRecord
100
AcDbLayerTableRecord
  2
240
 70
     0
 62
     4
  6
CONTINUOUS
  0
LAYER
  5
1AB
330
2
100
AcDbSymbolTableRecord
100
AcDbLayerTableRecord
  2
241
 70
     0
 62
   211
  6
CONTINUOUS
  0
LAYER
  5
1AF
330
2
100
AcDbSymbolTableRecord
100
AcDbLayerTableRecord
  2
245
 70
     0
 62
     2
  6
CENTER2
  0
LAYER
  5
21E
330
2
100
AcDbSymbolTableRecord
100
AcDbLayerTableRecord
  2
250
 70
     0
 62
     3
  6
CONTINUOUS
  0
LAYER
  5
21F
330
2
100
AcDbSymbolTableRecord
100
AcDbLayerTableRecord
  2
251
 70
     0
 62
    40
  6
CONTINUOUS
  0
LAYER
  5
5C4
330
2
100
AcDbSymbolTableRecord
100
AcDbLayerTableRecord
  2
DEFPOINTS
 70
     0
 62
     7
  6
CONTINUOUS
  0
LAYER
  5
B00
330
2
100
AcDbSymbolTableRecord
100
AcDbLayerTableRecord
  2
242
 70
     0
 62
     3
  6
CONTINUOUS
  0
LAYER
  5
129A
330
2
100
AcDbSymbolTableRecord
100
AcDbLayerTableRecord
  2
DETAIL
 70
     0
 62
     3
  6
CONTINUOUS
  0
ENDTAB
  0
TABLE
  2
STYLE
  5
3
330
0
100
AcDbSymbolTable
 70
     2
  0
STYLE
  5
10
330
3
100
AcDbSymbolTableRecord
100
AcDbTextStyleTableRecord
  2
STANDARD
 70
     0
 40
0.0
 41
1.0
 50
0.0
 71
     0
 42
3.0
  3
romans.shx
  4
BIGFONT.SHX
  0
STYLE
  5
339
330
3
100
AcDbSymbolTableRecord
100
AcDbTextStyleTableRecord
  2
YOKO
 70
     0
 40
0.0
 41
1.0
 50
0.0
 71
     0
 42
3.0
  3
romans.shx
  4
extfont.shx
  0
ENDTAB
  0
TABLE
  2
VIEW
  5
6
330
0
100
AcDbSymbolTable
 70
     0
  0
ENDTAB
  0
TABLE
  2
UCS
  5
7
330
0
100
AcDbSymbolTable
 70
     0
  0
ENDTAB
  0
TABLE
  2
APPID
  5
9
330
0
100
AcDbSymbolTable
 70
    10
  0
APPID
  5
11
330
9
100
AcDbSymbolTableRecord
100
AcDbRegAppTableRecord
  2
ACAD
 70
     0
  0
APPID
  5
1B1
330
9
100
AcDbSymbolTableRecord
100
AcDbRegAppTableRecord
  2
GLOBAL
 70
     0
  0
APPID
  5
2A4
330
9
100
AcDbSymbolTableRecord
100
AcDbRegAppTableRecord
  2
DETAIL
 70
     0
  0
APPID
  5
5FD
330
9
100
AcDbSymbolTableRecord
100
AcDbRegAppTableRecord
  2
GRPNAME
 70
     0
  0
APPID
  5
5FE
330
9
100
AcDbSymbolTableRecord
100
AcDbRegAppTableRecord
  2
GPARA
 70
     0
  0
APPID
  5
6C4
330
9
100
AcDbSymbolTableRecord
100
AcDbRegAppTableRecord
  2
DCO15
 70
     0
  0
APPID
  5
6C5
330
9
100
AcDbSymbolTableRecord
100
AcDbRegAppTableRecord
  2
ITEMNAME
 70
     0
  0
APPID
  5
6C6
330
9
100
AcDbSymbolTableRecord
100
AcDbRegAppTableRecord
  2
GRADE_0
 70
     0
  0
APPID
  5
8A0
330
9
100
AcDbSymbolTableRecord
100
AcDbRegAppTableRecord
  2
ACAD_PSEXT
 70
     0
  0
APPID
  5
A5B
330
9
100
AcDbSymbolTableRecord
100
AcDbRegAppTableRecord
  2
CONTENTBLOCKICON
 70
     0
  0
ENDTAB
  0
TABLE
  2
DIMSTYLE
  5
A
330
0
100
AcDbSymbolTable
 70
     3
  0
DIMSTYLE
105
725
330
A
100
AcDbSymbolTableRecord
100
AcDbDimStyleTableRecord
  2
BIGT
 70
     0
  3

  4

  5

  6
OPEN
  7
OPEN
 40
1.0
 41
2.229999999999999
 42
0.5
 43
2.5
 44
1.0
 45
0.0
 46
0.0
 47
0.0
 48
0.0
140
2.799999999999999
141
0.0
142
0.0
143
25.4
144
1.0
145
0.0
146
1.0
147
1.0
 71
     0
 72
     0
 73
     0
 74
     0
 75
     0
 76
     0
 77
     3
 78
     8
170
     0
171
     2
172
     1
173
     1
174
     1
175
     0
176
   256
177
   256
178
    40
270
     2
271
     3
272
     3
273
     2
274
     2
340
10
275
     0
280
     0
281
     0
282
     0
283
     1
284
     8
285
     0
286
     0
287
     3
288
     0
  0
DIMSTYLE
105
7E8
102
{ACAD_REACTORS
330
7F7
330
A7C
330
B20
330
1074
102
}
330
A
100
AcDbSymbolTableRecord
100
AcDbDimStyleTableRecord
  2
BIGT$0
 70
     0
  3

  4
"
  5
OPEN
  6

  7

 40
1.0
 41
2.229999999999999
 42
0.5
 43
7.0
 44
1.0
 45
0.0
 46
0.0
 47
0.1
 48
0.1
140
3.0
141
0.0
142
0.0
143
0.0393701
144
1.0
145
0.0
146
0.71
147
1.0
 71
     0
 72
     0
 73
     0
 74
     0
 75
     0
 76
     0
 77
     3
 78
     8
170
     0
171
     2
172
     1
173
     0
174
     0
175
     0
176
     3
177
     3
178
    40
270
     2
271
     3
272
     3
273
     2
274
     2
340
10
275
     0
280
     0
281
     0
282
     0
283
     1
284
     8
285
     0
286
     0
287
     3
288
     0
  0
DIMSTYLE
105
7E9
330
A
100
AcDbSymbolTableRecord
100
AcDbDimStyleTableRecord
  2
BIGT$7
 70
     0
  3

  4
"
  5
OPEN
  6

  7

 40
1.0
 41
2.5
 42
0.5
 43
7.0
 44
1.0
 45
0.0
 46
0.0
 47
0.1
 48
0.1
140
5.0
141
0.0
142
0.0
143
0.0393701
144
1.0
145
0.0
146
0.71
147
1.5
 71
     0
 72
     0
 73
     0
 74
     0
 75
     0
 76
     0
 77
     3
 78
     8
170
     0
171
     2
172
     1
173
     0
174
     0
175
     0
176
     3
177
     3
178
    40
270
     2
271
     3
272
     3
273
     2
274
     2
340
10
275
     0
280
     0
281
     0
282
     0
283
     1
284
     8
285
     0
286
     0
287
     3
288
     0
  0
ENDTAB
  0
TABLE
  2
BLOCK_RECORD
  5
1
330
0
100
AcDbSymbolTable
 70
     8
  0
BLOCK_RECORD
  5
1A
102
{ACAD_XDICTIONARY
360
A59
102
}
330
1
100
AcDbSymbolTableRecord
100
AcDbBlockTableRecord
  2
*MODEL_SPACE
  0
BLOCK_RECORD
  5
17
102
{ACAD_XDICTIONARY
360
A57
102
}
330
1
100
AcDbSymbolTableRecord
100
AcDbBlockTableRecord
  2
*PAPER_SPACE
  0
BLOCK_RECORD
  5
594
330
1
100
AcDbSymbolTableRecord
100
AcDbBlockTableRecord
  2
_OPEN
  0
BLOCK_RECORD
  5
6E3
330
1
100
AcDbSymbolTableRecord
100
AcDbBlockTableRecord
  2
矢印なし
  0
BLOCK_RECORD
  5
7FE
330
1
100
AcDbSymbolTableRecord
100
AcDbBlockTableRecord
  2
*D2
  0
BLOCK_RECORD
  5
A7D
330
1
100
AcDbSymbolTableRecord
100
AcDbBlockTableRecord
  2
*D3
  0
BLOCK_RECORD
  5
B21
330
1
100
AcDbSymbolTableRecord
100
AcDbBlockTableRecord
  2
*D4
  0
BLOCK_RECORD
  5
C67
330
1
100
AcDbSymbolTableRecord
100
AcDbBlockTableRecord
  2
1
1001
CONTENTBLOCKICON
1071
        0
1004
2800000020000000200000000100080000000000000400000000000000000000000000000000000000000000000080000080000000808000800000008000800080800000C0C0C000C0DCC000F0CAA6000020400000206000002080000020A0000020C0000020E00000400000004020000040400000406000004080000040A0
1004
000040C0000040E00000600000006020000060400000606000006080000060A0000060C0000060E00000800000008020000080400000806000008080000080A0000080C0000080E00000A0000000A0200000A0400000A0600000A0800000A0A00000A0C00000A0E00000C0000000C0200000C0400000C0600000C0800000C0
1004
A00000C0C00000C0E00000E0000000E0200000E0400000E0600000E0800000E0A00000E0C00000E0E00040000000400020004000400040006000400080004000A0004000C0004000E00040200000402020004020400040206000402080004020A0004020C0004020E000404000004040200040404000404060004040800040
1004
40A0004040C0004040E00040600000406020004060400040606000406080004060A0004060C0004060E00040800000408020004080400040806000408080004080A0004080C0004080E00040A0000040A0200040A0400040A0600040A0800040A0A00040A0C00040A0E00040C0000040C0200040C0400040C0600040C08000
1004
40C0A00040C0C00040C0E00040E0000040E0200040E0400040E0600040E0800040E0A00040E0C00040E0E00080000000800020008000400080006000800080008000A0008000C0008000E00080200000802020008020400080206000802080008020A0008020C0008020E00080400000804020008040400080406000804080
1004
008040A0008040C0008040E00080600000806020008060400080606000806080008060A0008060C0008060E00080800000808020008080400080806000808080008080A0008080C0008080E00080A0000080A0200080A0400080A0600080A0800080A0A00080A0C00080A0E00080C0000080C0200080C0400080C0600080C0
1004
800080C0A00080C0C00080C0E00080E0000080E0200080E0400080E0600080E0800080E0A00080E0C00080E0E000C0000000C0002000C0004000C0006000C0008000C000A000C000C000C000E000C0200000C0202000C0204000C0206000C0208000C020A000C020C000C020E000C0400000C0402000C0404000C0406000C0
1004
408000C040A000C040C000C040E000C0600000C0602000C0604000C0606000C0608000C060A000C060C000C060E000C0800000C0802000C0804000C0806000C0808000C080A000C080C000C080E000C0A00000C0A02000C0A04000C0A06000C0A08000C0A0A000C0A0C000C0A0E000C0C00000C0C02000C0C04000C0C06000
1004
C0C08000C0C0A000F0FBFF00A4A0A000808080000000FF0000FF000000FFFF00FF000000FF00FF00FFFF0000FFFFFF0000000000000000000000000000000000000000000000000000000000000000000000000000000000000000000000000000000000000000000000000000000000000000000000000000000000000000
1004
00000000000000000000000000000000000000000000000000000000000000000000000000000000000000000000000000000000000000000000000000000000000000000000000000000000000000000000000000000000000000000000000000000000000000000000000000000000000000000000000000000000000000
1004
0000000000000000000000000000000000000000000000000000000000000000000000000000000000000000000000000000000000000000000000000000000000000000000000000000000000000000000000000000000000000000000000000000000000000000000000000000000000000000000000000000FEFEFEFEFE
1004
000000000000000000000000000000000000000000000000000000FEE7E7E7FE000000000000000000000000000000000000000000FEFAFEFEFEFEFEE7E7E7FE000000000000000000000000000000000000000000FAFA000000E7E7E7E7E7E7FEFEFEFEFEFEFE0000000000000000000000000000FE00000000E7E7E7E700
1004
E700000000000000FEFEFEFEFEFEFEFEFEFE00000000FE00000000E7E7000000E700000000000000000000000000FEFE00FE000000FBFEFBFBFBFBE7E7FBFBFBE7FBFBFBFBFBFBFBE7E7FAE7E7E7FEE7E7FEFB000000E700000000E7E7E7E700E700000000000000FEFEFEFEFEFEFEFEFEFE00000000E700000000E7E7E7E7
1004
E7E7FEFEFEFEFEFEFE0000000000000000000000000000FEFEFEFEFEFEFEE7E7E7FE000000000000000000000000000000000000000000000000000000FEE7E7E7FE000000000000000000000000000000000000000000000000000000FEFEFEFEFE0000000000000000000000000000000000000000000000000000000000
1004
00000000000000000000000000000000000000000000000000000000000000000000000000000000000000000000000000000000000000000000000000000000000000000000000000000000000000000000000000000000000000000000000000000000000000000000000000000000000000000000000000000000000000
1004
00000000000000000000000000000000000000000000000000000000000000000000000000000000000000000000000000000000000000000000000000000000000000000000000000000000000000000000000000000000000000000000000000000000000000000000000000000000000000000000000000000000000000
1004
0000000000000000000000000000000000000000000000000000000000000000000000000000000000000000000000000000000000000000
  0
BLOCK_RECORD
  5
107C
330
1
100
AcDbSymbolTableRecord
100
AcDbBlockTableRecord
  2
*D6
  0
ENDTAB
  0
ENDSEC
  0
SECTION
  2
BLOCKS
  0
BLOCK
  5
1B
330
1A
100
AcDbEntity
  8
0
100
AcDbBlockBegin
  2
*MODEL_SPACE
 70
     0
 10
0.0
 20
0.0
 30
0.0
  3
*MODEL_SPACE
  1

  0
ENDBLK
  5
1C
330
1A
100
AcDbEntity
  8
0
100
AcDbBlockEnd
  0
BLOCK
  5
18
330
17
100
AcDbEntity
 67
     1
  8
0
100
AcDbBlockBegin
  2
*PAPER_SPACE
 70
     0
 10
0.0
 20
0.0
 30
0.0
  3
*PAPER_SPACE
  1

  0
ENDBLK
  5
19
330
17
100
AcDbEntity
 67
     1
  8
0
100
AcDbBlockEnd
  0
BLOCK
  5
598
330
594
100
AcDbEntity
  8
0
100
AcDbBlockBegin
  2
_OPEN
 70
     0
 10
0.0
 20
0.0
 30
0.0
  3
_OPEN
  1

  0
LINE
  5
595
330
594
100
AcDbEntity
  8
0
  6
BYBLOCK
 62
     0
100
AcDbLine
 10
-1.0
 20
0.16666667
 30
0.0
 11
0.0
 21
0.0
 31
0.0
  0
LINE
  5
596
330
594
100
AcDbEntity
  8
0
  6
BYBLOCK
 62
     0
100
AcDbLine
 10
-1.0
 20
-0.16666667
 30
0.0
 11
0.0
 21
0.0
 31
0.0
  0
LINE
  5
597
330
594
100
AcDbEntity
  8
0
  6
BYBLOCK
 62
     0
100
AcDbLine
 10
0.0
 20
0.0
 30
0.0
 11
-1.0
 21
0.0
 31
0.0
  0
ENDBLK
  5
599
330
594
100
AcDbEntity
  8
0
100
AcDbBlockEnd
  0
BLOCK
  5
6E4
330
6E3
100
AcDbEntity
  8
0
100
AcDbBlockBegin
  2
矢印なし
 70
     0
 10
0.0
 20
0.0
 30
0.0
  3
矢印なし
  1

  0
ENDBLK
  5
6E5
330
6E3
100
AcDbEntity
  8
0
100
AcDbBlockEnd
  0
BLOCK
  5
808
330
7FE
100
AcDbEntity
  8
0
100
AcDbBlockBegin
  2
*D2
 70
     1
 10
0.0
 20
0.0
 30
0.0
  3
*D2
  1

  0
LINE
  5
1091
330
7FE
100
AcDbEntity
  8
250
  6
CONTINUOUS
 62
     3
100
AcDbLine
 10
0.0
 20
25.19
 30
0.0
 11
0.0
 21
43.0
 31
0.0
  0
LINE
  5
1092
330
7FE
100
AcDbEntity
  8
250
  6
CONTINUOUS
 62
     3
100
AcDbLine
 10
105.0
 20
4.549999999999999
 30
0.0
 11
105.0
 21
43.0
 31
0.0
  0
LINE
  5
1093
330
7FE
100
AcDbEntity
  8
250
  6
CONTINUOUS
 62
     3
100
AcDbLine
 10
2.0
 20
42.0
 30
0.0
 11
103.0
 21
42.0
 31
0.0
  0
INSERT
  5
1094
330
7FE
100
AcDbEntity
  8
250
  6
CONTINUOUS
 62
     3
100
AcDbBlockReference
  2
_OPEN
 10
0.0
 20
42.0
 30
0.0
 41
2.0
 42
2.0
 43
2.0
 50
180.0
  0
INSERT
  5
1095
330
7FE
100
AcDbEntity
  8
250
  6
CONTINUOUS
 62
     3
100
AcDbBlockReference
  2
_OPEN
 10
105.0
 20
42.0
 30
0.0
 41
2.0
 42
2.0
 43
2.0
  0
MTEXT
  5
1096
330
7FE
100
AcDbEntity
  8
250
  6
CONTINUOUS
 62
    40
100
AcDbMText
 10
52.5
 20
44.5
 30
0.0
 40
3.0
 41
0.0
 71
     5
 72
     1
  1
\A1;105
1001
ACAD
1000
MTEXTBEGIN
1070
    73
1070
     1
1070
    44
1040
1.0
1070
    74
1070
     0
1000
MTEXTEND
1000
MTEXTBEGIN
1070
    73
1070
     1
1070
    44
1040
1.0
1070
    74
1070
     0
1000
MTEXTEND
1000
MTEXTBEGIN
1070
    73
1070
     1
1070
    44
1040
1.0
1070
    74
1070
     0
1000
MTEXTEND
  0
POINT
  5
1097
330
7FE
100
AcDbEntity
  8
DEFPOINTS
  6
CONTINUOUS
 62
     0
100
AcDbPoint
 10
0.0
 20
24.69
 30
0.0
  0
POINT
  5
1098
330
7FE
100
AcDbEntity
  8
DEFPOINTS
  6
CONTINUOUS
 62
     0
100
AcDbPoint
 10
105.0
 20
4.049999999999999
 30
0.0
  0
POINT
  5
1099
330
7FE
100
AcDbEntity
  8
DEFPOINTS
  6
CONTINUOUS
 62
     0
100
AcDbPoint
 10
105.0
 20
42.0
 30
0.0
  0
ENDBLK
  5
809
330
7FE
100
AcDbEntity
  8
0
100
AcDbBlockEnd
  0
BLOCK
  5
A87
330
A7D
100
AcDbEntity
  8
0
100
AcDbBlockBegin
  2
*D3
 70
     1
 10
0.0
 20
0.0
 30
0.0
  3
*D3
  1

  0
LINE
  5
109A
330
A7D
100
AcDbEntity
  8
250
  6
CONTINUOUS
 62
     3
100
AcDbLine
 10
20.0
 20
24.48999999999999
 30
0.0
 11
20.0
 21
29.0
 31
0.0
  0
LINE
  5
109B
330
A7D
100
AcDbEntity
  8
250
  6
CONTINUOUS
 62
     3
100
AcDbLine
 10
105.0
 20
4.549999999999999
 30
0.0
 11
105.0
 21
29.0
 31
0.0
  0
LINE
  5
109C
330
A7D
100
AcDbEntity
  8
250
  6
CONTINUOUS
 62
     3
100
AcDbLine
 10
22.23
 20
28.0
 30
0.0
 11
102.77
 21
28.0
 31
0.0
  0
INSERT
  5
109D
330
A7D
100
AcDbEntity
  8
250
  6
CONTINUOUS
 62
     3
100
AcDbBlockReference
  2
_OPEN
 10
20.0
 20
28.0
 30
0.0
 41
2.229999999999999
 42
2.229999999999999
 43
2.229999999999999
 50
180.0
  0
INSERT
  5
109E
330
A7D
100
AcDbEntity
  8
250
  6
CONTINUOUS
 62
     3
100
AcDbBlockReference
  2
_OPEN
 10
105.0
 20
28.0
 30
0.0
 41
2.229999999999999
 42
2.229999999999999
 43
2.229999999999999
  0
MTEXT
  5
109F
330
A7D
100
AcDbEntity
  8
250
  6
CONTINUOUS
 62
    40
100
AcDbMText
 10
62.5
 20
30.5
 30
0.0
 40
3.0
 41
0.0
 71
     5
 72
     1
  1
\A1;85
1001
ACAD
1000
MTEXTBEGIN
1070
    73
1070
     1
1070
    44
1040
1.0
1070
    74
1070
     0
1000
MTEXTEND
1000
MTEXTBEGIN
1070
    73
1070
     1
1070
    44
1040
1.0
1070
    74
1070
     0
1000
MTEXTEND
1000
MTEXTBEGIN
1070
    73
1070
     1
1070
    44
1040
1.0
1070
    74
1070
     0
1000
MTEXTEND
  0
POINT
  5
10A0
330
A7D
100
AcDbEntity
  8
DEFPOINTS
  6
CONTINUOUS
 62
     0
100
AcDbPoint
 10
20.0
 20
23.99
 30
0.0
  0
POINT
  5
10A1
330
A7D
100
AcDbEntity
  8
DEFPOINTS
  6
CONTINUOUS
 62
     0
100
AcDbPoint
 10
105.0
 20
4.049999999999999
 30
0.0
  0
POINT
  5
10A2
330
A7D
100
AcDbEntity
  8
DEFPOINTS
  6
CONTINUOUS
 62
     0
100
AcDbPoint
 10
105.0
 20
28.0
 30
0.0
  0
ENDBLK
  5
A88
330
A7D
100
AcDbEntity
  8
0
100
AcDbBlockEnd
  0
BLOCK
  5
B2B
330
B21
100
AcDbEntity
  8
0
100
AcDbBlockBegin
  2
*D4
 70
     1
 10
0.0
 20
0.0
 30
0.0
  3
*D4
  1

  0
LINE
  5
10A3
330
B21
100
AcDbEntity
  8
250
  6
CONTINUOUS
 62
     3
100
AcDbLine
 10
7.0
 20
3.2
 30
0.0
 11
7.0
 21
36.0
 31
0.0
  0
LINE
  5
10A4
330
B21
100
AcDbEntity
  8
250
  6
CONTINUOUS
 62
     3
100
AcDbLine
 10
105.0
 20
4.549999999999999
 30
0.0
 11
105.0
 21
36.0
 31
0.0
  0
LINE
  5
10A5
330
B21
100
AcDbEntity
  8
250
  6
CONTINUOUS
 62
     3
100
AcDbLine
 10
9.23
 20
35.0
 30
0.0
 11
102.77
 21
35.0
 31
0.0
  0
INSERT
  5
10A6
330
B21
100
AcDbEntity
  8
250
  6
CONTINUOUS
 62
     3
100
AcDbBlockReference
  2
_OPEN
 10
7.0
 20
35.0
 30
0.0
 41
2.229999999999999
 42
2.229999999999999
 43
2.229999999999999
 50
180.0
  0
INSERT
  5
10A7
330
B21
100
AcDbEntity
  8
250
  6
CONTINUOUS
 62
     3
100
AcDbBlockReference
  2
_OPEN
 10
105.0
 20
35.0
 30
0.0
 41
2.229999999999999
 42
2.229999999999999
 43
2.229999999999999
  0
MTEXT
  5
10A8
330
B21
100
AcDbEntity
  8
250
  6
CONTINUOUS
 62
    40
100
AcDbMText
 10
56.0
 20
37.5
 30
0.0
 40
3.0
 41
0.0
 71
     5
 72
     1
  1
\A1;（max.98）
1001
ACAD
1000
MTEXTBEGIN
1070
    73
1070
     1
1070
    44
1040
1.0
1070
    74
1070
     0
1000
MTEXTEND
1000
MTEXTBEGIN
1070
    73
1070
     1
1070
    44
1040
1.0
1070
    74
1070
     0
1000
MTEXTEND
1000
MTEXTBEGIN
1070
    73
1070
     1
1070
    44
1040
1.0
1070
    74
1070
     0
1000
MTEXTEND
  0
POINT
  5
10A9
330
B21
100
AcDbEntity
  8
DEFPOINTS
  6
CONTINUOUS
 62
     0
100
AcDbPoint
 10
7.0
 20
2.7
 30
0.0
  0
POINT
  5
10AA
330
B21
100
AcDbEntity
  8
DEFPOINTS
  6
CONTINUOUS
 62
     0
100
AcDbPoint
 10
105.0
 20
4.049999999999999
 30
0.0
  0
POINT
  5
10AB
330
B21
100
AcDbEntity
  8
DEFPOINTS
  6
CONTINUOUS
 62
     0
100
AcDbPoint
 10
105.0
 20
35.0
 30
0.0
  0
ENDBLK
  5
B2C
330
B21
100
AcDbEntity
  8
0
100
AcDbBlockEnd
  0
BLOCK
  5
C68
330
C67
100
AcDbEntity
  8
0
100
AcDbBlockBegin
  2
1
 70
     0
 10
0.0
 20
0.0
 30
0.0
  3
1
  1

  0
LINE
  5
11DD
330
C67
100
AcDbEntity
  8
245
  6
CENTER2
100
AcDbLine
 10
-31.0
 20
0.0
 30
0.0
 11
106.0
 21
0.0
 31
0.0
1001
GRPNAME
1000
PASTMD0U
  0
LINE
  5
11DE
330
C67
100
AcDbEntity
  8
240
100
AcDbLine
 10
90.40558651000001
 20
5.018821939999999
 30
0.0
 11
24.56422128999999
 21
10.77919499
 31
0.0
  0
LINE
  5
11DF
330
C67
100
AcDbEntity
  8
240
100
AcDbLine
 10
90.40558651000001
 20
-5.018821939999999
 30
0.0
 11
24.56422128999999
 21
-10.77919499
 31
0.0
  0
LINE
  5
11E0
330
C67
100
AcDbEntity
  8
240
  6
CONTINUOUS
100
AcDbLine
 10
-2.19993752
 20
-16.40000332
 30
0.0
 11
-28.5
 21
-15.74244388
 31
0.0
  0
LINE
  5
11E1
330
C67
100
AcDbEntity
  8
240
  6
CONTINUOUS
100
AcDbLine
 10
-28.5
 20
17.98244396999999
 30
0.0
 11
-2.19993752
 21
18.64000332
 31
0.0
  0
LINE
  5
11E2
330
C67
100
AcDbEntity
  8
241
100
AcDbLine
 10
-28.5
 20
-15.74244388
 30
0.0
 11
-28.5
 21
0.0
 31
0.0
  0
LINE
  5
11E3
330
C67
100
AcDbEntity
  8
240
  6
CONTINUOUS
100
AcDbLine
 10
-28.5
 20
-15.74244388
 30
0.0
 11
-30.0
 21
-14.87641847999999
 31
0.0
  0
LINE
  5
11E4
330
C67
100
AcDbEntity
  8
242
  6
HIDDEN2
100
AcDbLine
 10
-22.81542934
 20
-15.88457066
 30
0.0
 11
-24.7
 21
-14.0
 31
0.0
  0
LINE
  5
11E5
330
C67
100
AcDbEntity
  8
242
  6
HIDDEN2
100
AcDbLine
 10
-24.7
 20
-14.0
 30
0.0
 11
-24.7
 21
-15.83745224
 31
0.0
  0
LINE
  5
11E6
330
C67
100
AcDbEntity
  8
240
  6
CONTINUOUS
100
AcDbLine
 10
-30.0
 20
17.11641857
 30
0.0
 11
-30.0
 21
0.0
 31
0.0
  0
LINE
  5
11E7
330
C67
100
AcDbEntity
  8
241
100
AcDbLine
 10
-28.5
 20
17.98244396999999
 30
0.0
 11
-28.5
 21
0.0
 31
0.0
  0
LINE
  5
11E8
330
C67
100
AcDbEntity
  8
240
  6
CONTINUOUS
100
AcDbLine
 10
-30.0
 20
-14.87641847999999
 30
0.0
 11
-30.0
 21
0.0
 31
0.0
  0
LINE
  5
11E9
330
C67
100
AcDbEntity
  8
242
  6
HIDDEN2
100
AcDbLine
 10
-30.0
 20
-14.0
 30
0.0
 11
-24.7
 21
-14.0
 31
0.0
  0
LINE
  5
11EA
330
C67
100
AcDbEntity
  8
240
  6
CONTINUOUS
100
AcDbLine
 10
-30.0
 20
17.11641857
 30
0.0
 11
-28.5
 21
17.98244396999999
 31
0.0
  0
SPLINE
  5
11EB
330
C67
100
AcDbEntity
  8
241
  6
CONTINUOUS
100
AcDbSpline
210
0.0
220
0.0
230
1.0
 70
     8
 71
     3
 72
     9
 73
     5
 74
     3
 42
0.0000000001
 43
0.0000000001
 44
0.0000000001
 40
0.0
 40
0.0
 40
0.0
 40
0.0
 40
8.637419212856784
 40
17.27483842571344
 40
17.27483842571344
 40
17.27483842571344
 40
17.27483842571344
 10
7.949999999999959
 20
-7.174818896234311
 30
0.0
 10
6.906572875253742
 20
-9.96866232619087
 30
0.0
 10
4.819718625761326
 20
-15.55634918610395
 30
0.0
 10
6.906572875253714
 20
-21.14403604601703
 30
0.0
 10
7.949999999999902
 20
-23.93787947597356
 30
0.0
 11
7.949999999999959
 21
-7.174818896234311
 31
0.0
 11
5.863145750507527
 21
-15.55634918610398
 31
0.0
 11
7.949999999999902
 21
-23.93787947597356
 31
0.0
  0
LINE
  5
11EC
330
C67
100
AcDbEntity
  8
241
100
AcDbLine
 10
0.0
 20
0.0
 30
0.0
 11
0.0
 21
-16.40000332
 31
0.0
  0
LINE
  5
11ED
330
C67
100
AcDbEntity
  8
241
100
AcDbLine
 10
-2.19993752
 20
-16.40000332
 30
0.0
 11
-2.19993752
 21
0.0
 31
0.0
  0
SPLINE
  5
11EE
330
C67
100
AcDbEntity
  8
241
  6
CONTINUOUS
100
AcDbSpline
210
0.0
220
0.0
230
1.0
 70
     8
 71
     3
 72
     9
 73
     5
 74
     3
 42
0.0000000001
 43
0.0000000001
 44
0.0000000001
 40
0.0
 40
0.0
 40
0.0
 40
0.0
 40
8.630480605859997
 40
17.26096121171998
 40
17.26096121171998
 40
17.26096121171998
 40
17.26096121171998
 10
12.04999999999991
 20
-23.93787947597367
 30
0.0
 10
13.07897345545473
 20
-21.14403604601711
 30
0.0
 10
15.13692036636438
 20
-15.55634918610399
 30
0.0
 10
13.07897345545473
 20
-9.968662326190871
 30
0.0
 10
12.04999999999991
 20
-7.174818896234311
 30
0.0
 11
12.04999999999991
 21
-23.93787947597367
 31
0.0
 11
14.10794691090956
 21
-15.55634918610398
 31
0.0
 11
12.04999999999991
 21
-7.174818896234311
 31
0.0
  0
LINE
  5
11EF
330
C67
100
AcDbEntity
  8
241
  6
CONTINUOUS
100
AcDbLine
 10
12.05
 20
-7.174818899999999
 30
0.0
 11
12.05
 21
-23.93787947999999
 31
0.0
  0
LINE
  5
11F0
330
C67
100
AcDbEntity
  8
241
  6
CONTINUOUS
100
AcDbLine
 10
7.95
 20
-7.174818899999999
 30
0.0
 11
7.95
 21
-23.93787947999999
 31
0.0
  0
ARC
  5
11F1
330
C67
100
AcDbEntity
  8
240
100
AcDbCircle
 10
25.0
 20
-15.76016848
 30
0.0
 40
5.0
100
AcDbArc
 50
95.0
 51
180.0
  0
LINE
  5
11F2
330
C67
100
AcDbEntity
  8
241
100
AcDbLine
 10
20.0
 20
-15.76016848
 30
0.0
 11
20.0
 21
0.0
 31
0.0
  0
LINE
  5
11F3
330
C67
100
AcDbEntity
  8
240
  6
CONTINUOUS
100
AcDbLine
 10
0.3
 20
-24.99
 30
0.0
 11
19.0
 21
-24.99
 31
0.0
  0
LINE
  5
11F4
330
C67
100
AcDbEntity
  8
240
  6
CONTINUOUS
100
AcDbLine
 10
0.0
 20
-24.69
 30
0.0
 11
0.0
 21
-16.40000332
 31
0.0
  0
ARC
  5
11F5
330
C67
100
AcDbEntity
  8
240
  6
CONTINUOUS
100
AcDbCircle
 10
0.3
 20
-24.69
 30
0.0
 40
0.3
100
AcDbArc
 50
180.0
 51
270.0
  0
LINE
  5
11F6
330
C67
100
AcDbEntity
  8
240
100
AcDbLine
 10
-2.19993752
 20
-16.40000332
 30
0.0
 11
0.0
 21
-16.40000332
 31
0.0
  0
LINE
  5
11F7
330
C67
100
AcDbEntity
  8
241
  6
CONTINUOUS
100
AcDbLine
 10
7.95
 20
-23.93787947999999
 30
0.0
 11
12.05
 21
-23.93787947999999
 31
0.0
  0
LINE
  5
11F8
330
C67
100
AcDbEntity
  8
240
100
AcDbLine
 10
20.0
 20
-23.99
 30
0.0
 11
20.0
 21
-15.76016848
 31
0.0
  0
ARC
  5
11F9
330
C67
100
AcDbEntity
  8
240
  6
CONTINUOUS
100
AcDbCircle
 10
19.0
 20
-23.99
 30
0.0
 40
1.0
100
AcDbArc
 50
270.0
 51
0.0
  0
LINE
  5
11FA
330
C67
100
AcDbEntity
  8
240
  6
CONTINUOUS
100
AcDbLine
 10
0.3
 20
24.99
 30
0.0
 11
19.0
 21
24.99
 31
0.0
  0
SPLINE
  5
11FB
330
C67
100
AcDbEntity
  8
241
  6
CONTINUOUS
100
AcDbSpline
210
0.0
220
0.0
230
1.0
 70
     8
 71
     3
 72
     9
 73
     5
 74
     3
 42
0.0000000001
 43
0.0000000001
 44
0.0000000001
 40
0.0
 40
0.0
 40
0.0
 40
0.0
 40
8.637419212856814
 40
17.27483842571353
 40
17.27483842571353
 40
17.27483842571353
 40
17.27483842571353
 10
7.949999999999959
 20
7.174818896234171
 30
0.0
 10
6.906572875253744
 20
9.968662326190742
 30
0.0
 10
4.819718625761325
 20
15.55634918610384
 30
0.0
 10
6.906572875253714
 20
21.14403604601696
 30
0.0
 10
7.949999999999902
 20
23.9378794759735
 30
0.0
 11
7.949999999999959
 21
7.174818896234171
 31
0.0
 11
5.863145750507527
 21
15.55634918610388
 31
0.0
 11
7.949999999999902
 21
23.9378794759735
 31
0.0
  0
LINE
  5
11FC
330
C67
100
AcDbEntity
  8
241
100
AcDbLine
 10
0.0
 20
18.64266156
 30
0.0
 11
0.0
 21
0.0
 31
0.0
  0
LINE
  5
11FD
330
C67
100
AcDbEntity
  8
241
100
AcDbLine
 10
-2.19993752
 20
18.64000332
 30
0.0
 11
-2.19993752
 21
0.0
 31
0.0
  0
LINE
  5
11FE
330
C67
100
AcDbEntity
  8
241
  6
CONTINUOUS
100
AcDbLine
 10
7.95
 20
7.174818899999999
 30
0.0
 11
7.95
 21
23.93787947999999
 31
0.0
  0
SPLINE
  5
11FF
330
C67
100
AcDbEntity
  8
241
  6
CONTINUOUS
100
AcDbSpline
210
0.0
220
0.0
230
1.0
 70
     8
 71
     3
 72
     9
 73
     5
 74
     3
 42
0.0000000001
 43
0.0000000001
 44
0.0000000001
 40
0.0
 40
0.0
 40
0.0
 40
0.0
 40
8.630480605859938
 40
17.26096121171982
 40
17.26096121171982
 40
17.26096121171982
 40
17.26096121171982
 10
12.04999999999991
 20
23.9378794759735
 30
0.0
 10
13.07897345545473
 20
21.14403604601696
 30
0.0
 10
15.13692036636438
 20
15.55634918610389
 30
0.0
 10
13.07897345545473
 20
9.96866232619083
 30
0.0
 10
12.04999999999991
 20
7.174818896234311
 30
0.0
 11
12.04999999999991
 21
23.9378794759735
 31
0.0
 11
14.10794691090956
 21
15.55634918610388
 31
0.0
 11
12.04999999999991
 21
7.174818896234311
 31
0.0
  0
LINE
  5
1200
330
C67
100
AcDbEntity
  8
241
  6
CONTINUOUS
100
AcDbLine
 10
12.05
 20
7.174818899999999
 30
0.0
 11
12.05
 21
23.93787947999999
 31
0.0
  0
LINE
  5
1201
330
C67
100
AcDbEntity
  8
241
  6
CONTINUOUS
100
AcDbLine
 10
7.95
 20
-7.174818899999999
 30
0.0
 11
12.05
 21
-7.174818899999999
 31
0.0
  0
LINE
  5
1202
330
C67
100
AcDbEntity
  8
241
  6
CONTINUOUS
100
AcDbLine
 10
7.95
 20
7.174818899999999
 30
0.0
 11
12.05
 21
7.174818899999999
 31
0.0
  0
LINE
  5
1203
330
C67
100
AcDbEntity
  8
240
  6
CONTINUOUS
100
AcDbLine
 10
0.0
 20
24.69
 30
0.0
 11
0.0
 21
18.64266156
 31
0.0
  0
LINE
  5
1204
330
C67
100
AcDbEntity
  8
240
100
AcDbLine
 10
-2.19993752
 20
18.64266156
 30
0.0
 11
0.0
 21
18.64266156
 31
0.0
  0
ARC
  5
1205
330
C67
100
AcDbEntity
  8
240
  6
CONTINUOUS
100
AcDbCircle
 10
0.3
 20
24.69
 30
0.0
 40
0.3
100
AcDbArc
 50
90.0
 51
180.0
  0
LINE
  5
1206
330
C67
100
AcDbEntity
  8
241
  6
CONTINUOUS
100
AcDbLine
 10
7.95
 20
23.93787947999999
 30
0.0
 11
12.05
 21
23.93787947999999
 31
0.0
  0
ARC
  5
1207
330
C67
100
AcDbEntity
  8
240
100
AcDbCircle
 10
25.0
 20
15.76016848
 30
0.0
 40
5.0
100
AcDbArc
 50
180.0
 51
265.0
  0
LINE
  5
1208
330
C67
100
AcDbEntity
  8
241
100
AcDbLine
 10
20.0
 20
15.76016848
 30
0.0
 11
20.0
 21
0.0
 31
0.0
  0
LINE
  5
1209
330
C67
100
AcDbEntity
  8
240
100
AcDbLine
 10
20.0
 20
23.5
 30
0.0
 11
20.0
 21
15.76016848
 31
0.0
  0
LINE
  5
120A
330
C67
100
AcDbEntity
  8
240
100
AcDbLine
 10
20.0
 20
23.99
 30
0.0
 11
20.0
 21
23.5
 31
0.0
  0
ARC
  5
120B
330
C67
100
AcDbEntity
  8
240
100
AcDbCircle
 10
19.0
 20
23.99
 30
0.0
 40
1.0
100
AcDbArc
 50
0.0
 51
90.0
  0
LINE
  5
120C
330
C67
100
AcDbEntity
  8
241
  6
HIDDEN2
100
AcDbLine
 10
92.02341447
 20
2.35
 30
0.0
 11
84.77604658
 21
2.35
 31
0.0
  0
LINE
  5
120D
330
C67
100
AcDbEntity
  8
241
  6
HIDDEN2
100
AcDbLine
 10
92.64252994999999
 20
1.7
 30
0.0
 11
84.77604658
 21
1.7
 31
0.0
  0
LINE
  5
120E
330
C67
100
AcDbEntity
  8
242
  6
HIDDEN2
100
AcDbLine
 10
66.79566182000001
 20
2.0
 30
0.0
 11
82.79566182000001
 21
2.0
 31
0.0
  0
LINE
  5
120F
330
C67
100
AcDbEntity
  8
241
  6
HIDDEN2
100
AcDbLine
 10
60.75021717
 20
1.7
 30
0.0
 11
82.79566182000001
 21
1.7
 31
0.0
  0
LINE
  5
1210
330
C67
100
AcDbEntity
  8
242
  6
HIDDEN2
100
AcDbLine
 10
66.79566182000001
 20
0.0
 30
0.0
 11
66.79566182000001
 21
2.0
 31
0.0
  0
LINE
  5
1211
330
C67
100
AcDbEntity
  8
241
  6
HIDDEN2
100
AcDbLine
 10
82.79566182000001
 20
2.649999999999999
 30
0.0
 11
84.77604658
 21
2.649999999999999
 31
0.0
  0
LINE
  5
1212
330
C67
100
AcDbEntity
  8
241
  6
HIDDEN2
100
AcDbLine
 10
82.79566182000001
 20
0.0
 30
0.0
 11
82.79566182000001
 21
2.649999999999999
 31
0.0
  0
LINE
  5
1213
330
C67
100
AcDbEntity
  8
241
  6
HIDDEN2
100
AcDbLine
 10
84.77604658
 20
0.0
 30
0.0
 11
84.77604658
 21
2.649999999999999
 31
0.0
  0
LINE
  5
1214
330
C67
100
AcDbEntity
  8
240
100
AcDbLine
 10
105.0
 20
-4.0
 30
0.0
 11
105.0
 21
0.0
 31
0.0
  0
LINE
  5
1215
330
C67
100
AcDbEntity
  8
241
100
AcDbLine
 10
91.03792678999999
 20
-4.350000009999999
 30
0.0
 11
91.03792678999999
 21
0.0
 31
0.0
  0
LINE
  5
1216
330
C67
100
AcDbEntity
  8
241
  6
CONTINUOUS
100
AcDbLine
 10
92.0
 20
0.0
 30
0.0
 11
92.0
 21
-4.349999999999999
 31
0.0
1001
GRPNAME
1000
PASTMD01
  0
LINE
  5
1217
330
C67
100
AcDbEntity
  8
241
100
AcDbLine
 10
90.66264911999999
 20
-4.90824829
 30
0.0
 11
90.66264911999999
 21
0.0
 31
0.0
  0
LINE
  5
1218
330
C67
100
AcDbEntity
  8
241
100
AcDbLine
 10
93.49999999999999
 20
-5.15
 30
0.0
 11
93.49999999999999
 21
0.0
 31
0.0
  0
LINE
  5
1219
330
C67
100
AcDbEntity
  8
241
100
AcDbLine
 10
94.7
 20
-5.0
 30
0.0
 11
94.7
 21
0.0
 31
0.0
  0
LINE
  5
121A
330
C67
100
AcDbEntity
  8
240
  6
CONTINUOUS
100
AcDbLine
 10
93.75980762000001
 20
-5.0
 30
0.0
 11
104.0
 21
-5.0
 31
0.0
1001
GRPNAME
1000
PASTMD01
  0
LINE
  5
121B
330
C67
100
AcDbEntity
  8
240
  6
CONTINUOUS
100
AcDbLine
 10
92.3
 20
-5.15
 30
0.0
 11
93.49999999999999
 21
-5.15
 31
0.0
  0
LINE
  5
121C
330
C67
100
AcDbEntity
  8
240
  6
CONTINUOUS
100
AcDbLine
 10
92.0
 20
-4.349999999999999
 30
0.0
 11
91.03792678999999
 21
-4.349999999999999
 31
0.0
  0
LINE
  5
121D
330
C67
100
AcDbEntity
  8
240
  6
CONTINUOUS
100
AcDbLine
 10
92.0
 20
-4.849999999999999
 30
0.0
 11
92.0
 21
-4.349999999999999
 31
0.0
1001
GRPNAME
1000
PASTMD01
  0
ARC
  5
121E
330
C67
100
AcDbEntity
  8
240
  6
CONTINUOUS
100
AcDbCircle
 10
92.3
 20
-4.849999999999999
 30
0.0
 40
0.3000000000000043
100
AcDbArc
 50
180.0
 51
270.0
1001
GRPNAME
1000
PASTMD01
  0
LINE
  5
121F
330
C67
100
AcDbEntity
  8
240
100
AcDbLine
 10
91.03792678999999
 20
-4.350000009999999
 30
0.0
 11
90.79502134
 21
-4.77072459
 31
0.0
  0
ARC
  5
1220
330
C67
100
AcDbEntity
  8
240
100
AcDbCircle
 10
90.36200863000001
 20
-4.52072459
 30
0.0
 40
0.5
100
AcDbArc
 50
275.0
 51
329.9999997499999
  0
LINE
  5
1221
330
C67
100
AcDbEntity
  8
240
100
AcDbLine
 10
93.75980762000001
 20
-5.0
 30
0.0
 11
93.49999999999999
 21
-5.15
 31
0.0
  0
ARC
  5
1222
330
C67
100
AcDbEntity
  8
240
100
AcDbCircle
 10
104.0
 20
-4.0
 30
0.0
 40
1.0
100
AcDbArc
 50
270.0
 51
0.0
1001
GRPNAME
1000
PASTMD01
  0
LINE
  5
1223
330
C67
100
AcDbEntity
  8
241
  6
HIDDEN2
100
AcDbLine
 10
92.758
 20
1.5
 30
0.0
 11
104.0
 21
1.5
 31
0.0
1001
GRPNAME
1000
00000007
  0
LINE
  5
1224
330
C67
100
AcDbEntity
  8
242
  6
HIDDEN2
100
AcDbLine
 10
94.18316181999999
 20
3.674999999999999
 30
0.0
 11
101.22066182
 21
3.674999999999999
 31
0.0
  0
LINE
  5
1225
330
C67
100
AcDbEntity
  8
241
  6
HIDDEN2
100
AcDbLine
 10
102.25214698
 20
2.886065159999999
 30
0.0
 11
92.02341447
 21
2.35
 31
0.0
  0
LINE
  5
1226
330
C67
100
AcDbEntity
  8
241
  6
HIDDEN2
100
AcDbLine
 10
93.54566182000001
 20
4.099999999999999
 30
0.0
 11
100.79566182
 21
4.099999999999999
 31
0.0
  0
LINE
  5
1227
330
C67
100
AcDbEntity
  8
240
  6
CONTINUOUS
100
AcDbLine
 10
93.75980762000001
 20
5.0
 30
0.0
 11
104.0
 21
5.0
 31
0.0
1001
GRPNAME
1000
PASTMD01
  0
LINE
  5
1228
330
C67
100
AcDbEntity
  8
241
100
AcDbLine
 10
93.49999999999999
 20
5.15
 30
0.0
 11
93.49999999999999
 21
0.0
 31
0.0
  0
LINE
  5
1229
330
C67
100
AcDbEntity
  8
241
100
AcDbLine
 10
94.7
 20
5.0
 30
0.0
 11
94.7
 21
0.0
 31
0.0
  0
LINE
  5
122A
330
C67
100
AcDbEntity
  8
242
  6
HIDDEN2
100
AcDbLine
 10
94.18316181999999
 20
3.674999999999999
 30
0.0
 11
93.54566182000001
 21
4.099999999999999
 31
0.0
  0
LINE
  5
122B
330
C67
100
AcDbEntity
  8
241
100
AcDbLine
 10
91.03792678999999
 20
0.0
 30
0.0
 11
91.03792678999999
 21
4.349999999999999
 31
0.0
  0
LINE
  5
122C
330
C67
100
AcDbEntity
  8
241
100
AcDbLine
 10
90.66264911999999
 20
0.0
 30
0.0
 11
90.66264911999999
 21
4.90824829
 31
0.0
  0
LINE
  5
122D
330
C67
100
AcDbEntity
  8
241
  6
CONTINUOUS
100
AcDbLine
 10
92.0
 20
0.0
 30
0.0
 11
92.0
 21
4.349999999999999
 31
0.0
1001
GRPNAME
1000
PASTMD01
  0
LINE
  5
122E
330
C67
100
AcDbEntity
  8
241
  6
HIDDEN2
100
AcDbLine
 10
92.758
 20
1.5
 30
0.0
 11
92.64252994999999
 21
1.7
 31
0.0
  0
LINE
  5
122F
330
C67
100
AcDbEntity
  8
240
  6
CONTINUOUS
100
AcDbLine
 10
92.3
 20
5.15
 30
0.0
 11
93.49999999999999
 21
5.15
 31
0.0
  0
LINE
  5
1230
330
C67
100
AcDbEntity
  8
241
  6
HIDDEN2
100
AcDbLine
 10
93.29566182
 20
4.349999999999999
 30
0.0
 11
92.0
 21
4.349999999999999
 31
0.0
  0
LINE
  5
1231
330
C67
100
AcDbEntity
  8
240
  6
CONTINUOUS
100
AcDbLine
 10
91.03792678999999
 20
4.349999999999999
 30
0.0
 11
92.0
 21
4.349999999999999
 31
0.0
  0
LINE
  5
1232
330
C67
100
AcDbEntity
  8
240
  6
CONTINUOUS
100
AcDbLine
 10
92.0
 20
4.849999999999999
 30
0.0
 11
92.0
 21
4.349999999999999
 31
0.0
1001
GRPNAME
1000
PASTMD01
  0
ARC
  5
1233
330
C67
100
AcDbEntity
  8
240
  6
CONTINUOUS
100
AcDbCircle
 10
92.3
 20
4.849999999999999
 30
0.0
 40
0.3000000000000043
100
AcDbArc
 50
90.0
 51
180.0
1001
GRPNAME
1000
PASTMD01
  0
LINE
  5
1234
330
C67
100
AcDbEntity
  8
240
100
AcDbLine
 10
91.03792678999999
 20
4.349999999999999
 30
0.0
 11
90.79502134
 21
4.77072459
 31
0.0
  0
ARC
  5
1235
330
C67
100
AcDbEntity
  8
240
100
AcDbCircle
 10
90.36200863999999
 20
4.52072459
 30
0.0
 40
0.5
100
AcDbArc
 50
29.99999963
 51
85.0
  0
LINE
  5
1236
330
C67
100
AcDbEntity
  8
240
100
AcDbLine
 10
93.75980762000001
 20
5.0
 30
0.0
 11
93.49999999999999
 21
5.15
 31
0.0
  0
LINE
  5
1237
330
C67
100
AcDbEntity
  8
241
  6
HIDDEN2
100
AcDbLine
 10
93.54566182000001
 20
4.099999999999999
 30
0.0
 11
93.29566182
 21
4.349999999999999
 31
0.0
  0
LINE
  5
1238
330
C67
100
AcDbEntity
  8
240
100
AcDbLine
 10
105.0
 20
4.0
 30
0.0
 11
105.0
 21
0.0
 31
0.0
  0
LINE
  5
1239
330
C67
100
AcDbEntity
  8
241
  6
HIDDEN2
100
AcDbLine
 10
100.79566182
 20
4.099999999999999
 30
0.0
 11
101.29566182
 21
3.6
 31
0.0
  0
LINE
  5
123A
330
C67
100
AcDbEntity
  8
241
  6
HIDDEN2
100
AcDbLine
 10
101.29566182
 20
3.6
 30
0.0
 11
101.29566182
 21
2.835937889999999
 31
0.0
  0
LINE
  5
123B
330
C67
100
AcDbEntity
  8
241
  6
HIDDEN2
100
AcDbLine
 10
104.70857864
 20
1.649999999999999
 30
0.0
 11
104.0
 21
1.649999999999999
 31
0.0
1001
GRPNAME
1000
PASTMD01
  0
LINE
  5
123C
330
C67
100
AcDbEntity
  8
241
  6
HIDDEN2
100
AcDbLine
 10
103.4
 20
3.02997621
 30
0.0
 11
103.7
 21
3.02997621
 31
0.0
1001
GRPNAME
1000
00000007
  0
ARC
  5
123D
330
C67
100
AcDbEntity
  8
241
  6
HIDDEN2
100
AcDbCircle
 10
104.70857864
 20
1.75
 30
0.0
 40
0.1
100
AcDbArc
 50
270.0
 51
315.0
1001
GRPNAME
1000
PASTMD01
  0
LINE
  5
123E
330
C67
100
AcDbEntity
  8
241
  6
HIDDEN2
100
AcDbLine
 10
104.77928932
 20
1.67928932
 30
0.0
 11
105.0
 21
1.9
 31
0.0
1001
GRPNAME
1000
PASTMD01
  0
LINE
  5
123F
330
C67
100
AcDbEntity
  8
241
  6
HIDDEN2
100
AcDbLine
 10
103.4
 20
3.02997621
 30
0.0
 11
103.0
 21
2.62997621
 31
0.0
  0
LINE
  5
1240
330
C67
100
AcDbEntity
  8
241
  6
HIDDEN2
100
AcDbLine
 10
102.4
 20
2.62997621
 30
0.0
 11
103.0
 21
2.62997621
 31
0.0
1001
GRPNAME
1000
00000007
  0
LINE
  5
1241
330
C67
100
AcDbEntity
  8
241
  6
HIDDEN2
100
AcDbLine
 10
102.4
 20
2.62997621
 30
0.0
 11
102.25214698
 21
2.886065159999999
 31
0.0
1001
GRPNAME
1000
00000007
  0
LINE
  5
1242
330
C67
100
AcDbEntity
  8
241
  6
HIDDEN2
100
AcDbLine
 10
104.0
 20
2.729976209999999
 30
0.0
 11
104.0
 21
0.0
 31
0.0
1001
GRPNAME
1000
PASTMD01
  0
LINE
  5
1243
330
C67
100
AcDbEntity
  8
241
  6
HIDDEN2
100
AcDbLine
 10
103.7
 20
3.02997621
 30
0.0
 11
104.0
 21
2.729976209999999
 31
0.0
1001
GRPNAME
1000
00000007
  0
ARC
  5
1244
330
C67
100
AcDbEntity
  8
240
100
AcDbCircle
 10
104.0
 20
4.0
 30
0.0
 40
1.0
100
AcDbArc
 50
0.0
 51
90.0
1001
GRPNAME
1000
PASTMD01
  0
ENDBLK
  5
C69
330
C67
100
AcDbEntity
  8
0
100
AcDbBlockEnd
  0
BLOCK
  5
1086
330
107C
100
AcDbEntity
  8
0
100
AcDbBlockBegin
  2
*D6
 70
     1
 10
0.0
 20
0.0
 30
0.0
  3
*D6
  1

  0
LINE
  5
1088
330
107C
100
AcDbEntity
  8
250
  6
CONTINUOUS
 62
     3
100
AcDbLine
 10
104.3499999999999
 20
-5.0
 30
0.0
 11
121.0
 21
-5.0
 31
0.0
  0
LINE
  5
1089
330
107C
100
AcDbEntity
  8
250
  6
CONTINUOUS
 62
     3
100
AcDbLine
 10
104.4999999999999
 20
5.0
 30
0.0
 11
121.0
 21
5.0
 31
0.0
  0
LINE
  5
108A
330
107C
100
AcDbEntity
  8
250
  6
CONTINUOUS
 62
     3
100
AcDbLine
 10
120.0
 20
-3.0
 30
0.0
 11
120.0
 21
3.0
 31
0.0
  0
INSERT
  5
108B
330
107C
100
AcDbEntity
  8
250
  6
CONTINUOUS
 62
     3
100
AcDbBlockReference
  2
_OPEN
 10
120.0
 20
-5.0
 30
0.0
 41
2.0
 42
2.0
 43
2.0
 50
270.0
  0
INSERT
  5
108C
330
107C
100
AcDbEntity
  8
250
  6
CONTINUOUS
 62
     3
100
AcDbBlockReference
  2
_OPEN
 10
120.0
 20
5.0
 30
0.0
 41
2.0
 42
2.0
 43
2.0
 50
90.0
  0
MTEXT
  5
108D
330
107C
100
AcDbEntity
  8
250
  6
CONTINUOUS
 62
    40
100
AcDbMText
 10
117.5
 20
0.0
 30
0.0
 40
2.799999999999999
 41
0.0
 71
     5
 72
     1
  1
\A1;{\H3;\U+2205}10
 11
0.0
 21
1.0
 31
0.0
1001
ACAD
1000
MTEXTBEGIN
1070
    73
1070
     1
1070
    44
1040
1.0
1070
    74
1070
     0
1000
MTEXTEND
1000
MTEXTBEGIN
1070
    73
1070
     1
1070
    44
1040
1.0
1070
    74
1070
     0
1000
MTEXTEND
1000
MTEXTBEGIN
1070
    73
1070
     1
1070
    44
1040
1.0
1070
    74
1070
     0
1000
MTEXTEND
  0
POINT
  5
108E
330
107C
100
AcDbEntity
  8
DEFPOINTS
  6
CONTINUOUS
 62
     0
100
AcDbPoint
 10
103.8499999999999
 20
-5.0
 30
0.0
  0
POINT
  5
108F
330
107C
100
AcDbEntity
  8
DEFPOINTS
  6
CONTINUOUS
 62
     0
100
AcDbPoint
 10
104.0
 20
5.0
 30
0.0
  0
POINT
  5
1090
330
107C
100
AcDbEntity
  8
DEFPOINTS
  6
CONTINUOUS
 62
     0
100
AcDbPoint
 10
120.0
 20
5.0
 30
0.0
  0
ENDBLK
  5
1087
330
107C
100
AcDbEntity
  8
0
100
AcDbBlockEnd
  0
ENDSEC
  0
SECTION
  2
ENTITIES
  0
INSERT
  5
6E6
330
1A
100
AcDbEntity
  8
245
100
AcDbBlockReference
  2
矢印なし
 10
175.62382697
 20
90.55123571999999
 30
0.0
  0
DIMENSION
  5
7F7
330
1A
100
AcDbEntity
  8
250
  6
CONTINUOUS
100
AcDbDimension
  2
*D2
 10
105.0
 20
42.0
 30
0.0
 11
52.5
 21
44.5
 31
0.0
 70
    32
  3
BIGT$0
100
AcDbAlignedDimension
 13
0.0
 23
24.69
 33
0.0
 14
105.0
 24
4.049999999999999
 34
0.0
100
AcDbRotatedDimension
1001
ACAD
1000
DSTYLE
1002
{
1070
    41
1040
2.0
1002
}
  0
TEXT
  5
7FB
330
1A
100
AcDbEntity
  8
241
100
AcDbText
 10
-30.0
 20
56.0
 30
0.0
 40
5.0
  1
C5-MEGA3S-105T
  7
YOKO
 11
-30.0
 21
56.0
 31
0.0
100
AcDbText
 73
     1
  0
DIMENSION
  5
A7C
330
1A
100
AcDbEntity
  8
250
  6
CONTINUOUS
100
AcDbDimension
  2
*D3
 10
105.0
 20
28.0
 30
0.0
 11
62.5
 21
30.5
 31
0.0
 70
    32
  3
BIGT$0
100
AcDbAlignedDimension
 13
20.0
 23
23.99
 33
0.0
 14
105.0
 24
4.049999999999999
 34
0.0
100
AcDbRotatedDimension
  0
DIMENSION
  5
B20
330
1A
100
AcDbEntity
  8
250
  6
CONTINUOUS
100
AcDbDimension
  2
*D4
 10
105.0
 20
35.0
 30
0.0
 11
56.0
 21
37.5
 31
0.0
 70
    32
  1
（max.<>）
  3
BIGT$0
100
AcDbAlignedDimension
 13
7.0
 23
2.7
 33
0.0
 14
105.0
 24
4.049999999999999
 34
0.0
100
AcDbRotatedDimension
  0
LEADER
  5
FB6
330
1A
100
AcDbEntity
  8
250
  6
CONTINUOUS
100
AcDbLeader
  3
BIGT$7
 76
     2
 10
-13.54211194
 20
-16.116424
 30
0.0
 10
-18.45331416
 20
-24.62287576
 30
0.0
1001
ACAD
1000
DSTYLE
1002
{
1070
     5
1000
OPEN
1070
    41
1040
2.0
1070
   342
1005
594
1002
}
  0
MTEXT
  5
FB7
330
1A
100
AcDbEntity
  8
251
  6
CONTINUOUS
100
AcDbMText
 10
-25.91998081999999
 20
-23.62287575999999
 30
0.0
 40
2.799999999999999
 41
0.0
 71
     7
 72
     1
  1
C5
  7
YOKO
1001
ITEMNAME
1000
LNSP3
1001
ACAD
1000
MTEXTBEGIN
1070
    73
1070
     1
1070
    44
1040
1.0
1070
    74
1070
     0
1000
MTEXTEND
1000
MTEXTBEGIN
1070
    73
1070
     1
1070
    44
1040
1.0
1070
    74
1070
     0
1000
MTEXTEND
1000
MTEXTBEGIN
1070
    73
1070
     1
1070
    44
1040
1.0
1070
    74
1070
     0
1000
MTEXTEND
1000
MTEXTBEGIN
1070
    73
1070
     1
1070
    44
1040
1.0
1070
    74
1070
     0
1000
MTEXTEND
1000
MTEXTBEGIN
1070
    73
1070
     1
1070
    44
1040
1.0
1070
    74
1070
     0
1000
MTEXTEND
1000
MTEXTBEGIN
1070
    73
1070
     1
1070
    44
1040
1.0
1070
    74
1070
     0
1000
MTEXTEND
1000
MTEXTBEGIN
1070
    73
1070
     1
1070
    44
1040
1.0
1070
    74
1070
     0
1000
MTEXTEND
1000
MTEXTBEGIN
1070
    73
1070
     1
1070
    44
1040
1.0
1070
    74
1070
     0
1000
MTEXTEND
1000
MTEXTBEGIN
1070
    73
1070
     1
1070
    44
1040
1.0
1070
    74
1070
     0
1000
MTEXTEND
1000
MTEXTBEGIN
1070
    73
1070
     1
1070
    44
1040
1.0
1070
    74
1070
     0
1000
MTEXTEND
1000
MTEXTBEGIN
1070
    73
1070
     1
1070
    44
1040
1.0
1070
    74
1070
     0
1000
MTEXTEND
1000
MTEXTBEGIN
1070
    73
1070
     1
1070
    44
1040
1.0
1070
    74
1070
     0
1000
MTEXTEND
1000
MTEXTBEGIN
1070
    73
1070
     1
1070
    44
1040
1.0
1070
    74
1070
     0
1000
MTEXTEND
1000
MTEXTBEGIN
1070
    73
1070
     1
1070
    44
1040
1.0
1070
    74
1070
     0
1000
MTEXTEND
  0
LINE
  5
FC3
330
1A
100
AcDbEntity
  8
250
  6
CONTINUOUS
100
AcDbLine
 10
-18.45331416
 20
-24.62287576
 30
0.0
 11
-28.71998082
 21
-24.62287576
 31
0.0
1001
ITEMNAME
1000
LNSP2
  0
INSERT
  5
1038
330
1A
100
AcDbEntity
  8
250
  6
CONTINUOUS
 62
     3
100
AcDbBlockReference
  2
_OPEN
 10
113.0
 20
1.5
 30
0.0
 41
2.229999999999999
 42
2.229999999999999
 43
2.229999999999999
 50
90.0
  0
LINE
  5
1039
330
1A
100
AcDbEntity
  8
250
  6
CONTINUOUS
 62
     3
100
AcDbLine
 10
113.0
 20
1.5
 30
0.0
 11
113.0
 21
-4.15667921
 31
0.0
  0
LINE
  5
103A
330
1A
100
AcDbEntity
  8
250
  6
CONTINUOUS
 62
     3
100
AcDbLine
 10
104.2
 20
1.5
 30
0.0
 11
114.0
 21
1.5
 31
0.0
  0
DIMENSION
  5
1074
330
1A
100
AcDbEntity
  8
250
  6
CONTINUOUS
100
AcDbDimension
  2
*D6
 10
120.0
 20
5.0
 30
0.0
 11
120.0
 21
0.0
 31
0.0
 70
   160
  1
{\H3;\U+2205}<>
  3
BIGT$0
100
AcDbAlignedDimension
 13
103.8499999999999
 23
-5.0
 33
0.0
 14
104.0
 24
5.0
 34
0.0
 50
90.0
100
AcDbRotatedDimension
1001
ACAD
1000
DSTYLE
1002
{
1070
   140
1040
2.799999999999999
1070
    41
1040
2.0
1002
}
  0
INSERT
  5
1245
330
1A
100
AcDbEntity
  8
245
100
AcDbBlockReference
  2
1
 10
0.0
 20
0.0
 30
0.0
  0
MTEXT
  5
12A0
330
1A
100
AcDbEntity
  8
250
  6
CONTINUOUS
 62
    40
100
AcDbMText
 10
110.5999999999999
 20
-1.22711918425216
 30
0.0
 40
2.799999999999998
 41
0.0
 71
     5
 72
     1
  1
max.φ3.2
 11
0.0000000000000001
 21
1.0
 31
0.0
1001
ITEMNAME
1000
DI010
1001
ACAD
1000
MTEXTBEGIN
1070
    73
1070
     1
1070
    44
1040
1.0
1070
    74
1070
     0
1000
MTEXTEND
1000
MTEXTBEGIN
1070
    73
1070
     1
1070
    44
1040
1.0
1070
    74
1070
     0
1000
MTEXTEND
  0
VIEWPORT
  5
22
330
17
100
AcDbEntity
 67
     1
  8
0
100
AcDbViewport
 10
261.5176991199999
 20
148.5
 30
0.0
 40
523.03539823
 41
297.0
 68
     1
 69
     1
1001
ACAD
1000
MVIEW
1002
{
1070
    16
1010
0.0
1020
0.0
1030
0.0
1010
0.0
1020
0.0
1030
1.0
1040
0.0
1040
9.0
1040
6.443312099999999
1040
4.5
1040
50.0
1040
0.0
1040
0.0
1070
     0
1070
   100
1070
     1
1070
     3
1070
     0
1070
     0
1070
     0
1070
     0
1040
0.0
1040
0.0
1040
0.0
1040
1.0
1040
1.0
1040
0.0
1040
0.0
1070
     0
1002
{
1002
}
1002
}
  0
ENDSEC
  0
SECTION
  2
OBJECTS
  0
DICTIONARY
  5
C
330
0
100
AcDbDictionary
  3
ACAD_GROUP
350
D
  3
ACAD_LAYOUT
350
565
  3
ACAD_MLINESTYLE
350
E
  3
ACAD_PLOTSETTINGS
350
566
  3
ACAD_PLOTSTYLENAME
350
563
  3
ACDBHEADERROUNDTRIPXREC
350
12A2
  3
GRADE_DWG
350
540
  0
DICTIONARY
  5
A59
330
1A
100
AcDbDictionary
280
     1
  3
ACAD_LAYOUTSELFREF
360
12C4
  0
DICTIONARY
  5
A57
330
17
100
AcDbDictionary
280
     1
  3
ACAD_LAYOUTSELFREF
360
12C3
  0
DICTIONARY
  5
D
102
{ACAD_REACTORS
330
C
102
}
330
C
100
AcDbDictionary
  3
*A1
350
6C7
  3
*A2
350
6C8
  3
*A3
350
6D4
  3
*A4
350
6D5
  3
DM800-1
350
115D
  3
DREC-1
350
5FC
  3
DREC-2
350
654
  3
DREC-3
350
673
  0
DICTIONARY
  5
565
102
{ACAD_REACTORS
330
C
102
}
330
C
100
AcDbDictionary
  0
DICTIONARY
  5
E
102
{ACAD_REACTORS
330
C
102
}
330
C
100
AcDbDictionary
  3
STANDARD
350
13
  0
DICTIONARY
  5
566
102
{ACAD_REACTORS
330
C
102
}
330
C
100
AcDbDictionary
  3
A3_0_5倍_
350
758
  3
A3_1倍_
350
757
  3
A3_1倍__2000_
350
707
  3
A3_2倍_
350
759
  3
A4_0_5倍_
350
755
  3
A4_1倍_
350
754
  3
A4_1倍__2000_
350
708
  3
A4_2倍_
350
756
  0
ACDBDICTIONARYWDFLT
  5
563
102
{ACAD_REACTORS
330
C
102
}
330
C
100
AcDbDictionary
281
     1
  3
Normal
350
564
100
AcDbDictionaryWithDefault
340
564
  0
DICTIONARY
  5
12A2
102
{ACAD_REACTORS
330
C
102
}
330
C
100
AcDbDictionary
  3
CEPSNTYPE
350
12AC
  3
DIMSTYLEDATA
350
12B0
  3
FINGERPRINTGUID
350
12AD
  3
HYPERLINKBASE
350
12A5
  3
INSUNITS
350
12AB
  3
LAYOUTDICT
350
12A7
  3
LWETCUNION
350
12AA
  3
PLOTSETDICT
350
12A8
  3
PLOTSTYLNAMDICT
350
12A9
  3
PSVPSCALE
350
12AF
  3
PUCSBASE
350
12B3
  3
PUCSORGBACK
350
12B9
  3
PUCSORGBOTTOM
350
12B5
  3
PUCSORGFRONT
350
12B8
  3
PUCSORGLEFT
350
12B6
  3
PUCSORGRIGHT
350
12B7
  3
PUCSORGTOP
350
12B4
  3
PUCSORTHOREF
350
12B1
  3
PUCSORTHOVIEW
350
12B2
  3
STYLESHEET
350
12A6
  3
TSTACKALIGN
350
12A3
  3
TSTACKSIZE
350
12A4
  3
UCSBASE
350
12BC
  3
UCSORGBACK
350
12C2
  3
UCSORGBOTTOM
350
12BE
  3
UCSORGFRONT
350
12C1
  3
UCSORGLEFT
350
12BF
  3
UCSORGRIGHT
350
12C0
  3
UCSORGTOP
350
12BD
  3
UCSORTHOREF
350
12BA
  3
UCSORTHOVIEW
350
12BB
  3
VERSIONGUID
350
12AE
  0
DICTIONARY
  5
540
102
{ACAD_REACTORS
330
C
102
}
330
C
100
AcDbDictionary
  3
VERSION
350
560
  0
XRECORD
  5
12C4
102
{ACAD_REACTORS
330
A59
102
}
330
A59
100
AcDbXrecord
340
1A
  0
XRECORD
  5
12C3
102
{ACAD_REACTORS
330
A57
102
}
330
A57
100
AcDbXrecord
340
17
  0
GROUP
  5
6C7
102
{ACAD_REACTORS
330
D
102
}
330
D
100
AcDbGroup
300

 70
     0
 71
     1
1001
GRPNAME
1000
DMA00
  0
GROUP
  5
6C8
102
{ACAD_REACTORS
330
D
102
}
330
D
100
AcDbGroup
300

 70
     0
 71
     1
1001
GRPNAME
1000
DMA00
  0
GROUP
  5
6D4
102
{ACAD_REACTORS
330
D
102
}
330
D
100
AcDbGroup
300

 70
     0
 71
     1
1001
GRPNAME
1000
DMA00
  0
GROUP
  5
6D5
102
{ACAD_REACTORS
330
D
102
}
330
D
100
AcDbGroup
300

 70
     0
 71
     1
1001
GRPNAME
1000
DMA00
  0
GROUP
  5
115D
102
{ACAD_REACTORS
330
D
102
}
330
D
100
AcDbGroup
300

 70
     0
 71
     1
1001
GRPNAME
1000
DM800
  0
GROUP
  5
5FC
102
{ACAD_REACTORS
330
D
102
}
330
D
100
AcDbGroup
300

 70
     0
 71
     1
1001
GRPNAME
1000
DREC-
1001
GPARA
1000
xsiz
1000
44.182
1000
ysiz
1000
40.677
1000
angl
1000
0
1000
ctyp
1000
0
1000
csiz
1000
5
1000
lfnt
1000
cont
1000
hcnt
1000
hoff
1000
vcnt
1000
voff
1000
opnt
1000
4
1000
dxpt
1000
0
1000
dypt
1000
0
  0
GROUP
  5
654
102
{ACAD_REACTORS
330
D
102
}
330
D
100
AcDbGroup
300

 70
     0
 71
     1
1001
GRPNAME
1000
DREC-
1001
GPARA
1000
xsiz
1000
54.592
1000
ysiz
1000
53.036
1000
angl
1000
0
1000
ctyp
1000
0
1000
csiz
1000
5
1000
lfnt
1000
cont
1000
hcnt
1000
hoff
1000
vcnt
1000
voff
1000
opnt
1000
4
1000
dxpt
1000
0
1000
dypt
1000
0
  0
GROUP
  5
673
102
{ACAD_REACTORS
330
D
102
}
330
D
100
AcDbGroup
300

 70
     0
 71
     1
1001
GRPNAME
1000
DREC-
1001
GPARA
1000
xsiz
1000
30.363
1000
ysiz
1000
36.175
1000
angl
1000
0
1000
ctyp
1000
0
1000
csiz
1000
5
1000
lfnt
1000
cont
1000
hcnt
1000
hoff
1000
vcnt
1000
voff
1000
opnt
1000
4
1000
dxpt
1000
0
1000
dypt
1000
0
  0
MLINESTYLE
  5
13
102
{ACAD_REACTORS
330
E
102
}
330
E
100
AcDbMlineStyle
  2
STANDARD
 70
     0
  3

 62
     0
 51
90.0
 52
90.0
 71
     2
 49
0.5
 62
   256
  6
BYLAYER
 49
-0.5
 62
   256
  6
BYLAYER
  0
PLOTSETTINGS
  5
758
102
{ACAD_REACTORS
330
566
102
}
330
566
100
AcDbPlotSettings
  1
A3(0.5倍)
  2
\\AWTECPC05\HP DeskJet 1120C
  4
A3
  6

 40
5.958416459999999
 41
13.49375153
 42
6.043090819999999
 43
3.67242432
 44
296.9259948699999
 45
419.94665527
 46
89.96
 47
127.14
 48
0.0
 49
0.0
140
0.0
141
0.0
142
1.0
143
2.0
 70
  1716
 72
     1
 73
     1
 74
     2
  7
big.ctb
 75
    17
147
0.5
148
0.0
149
0.0
  0
PLOTSETTINGS
  5
757
102
{ACAD_REACTORS
330
566
102
}
330
566
100
AcDbPlotSettings
  1
A3(1倍)
  2
\\AWTECPC05\HP DeskJet 1120C
  4
A3
  6

 40
5.958416459999999
 41
13.49375153
 42
6.043090819999999
 43
3.67242432
 44
296.9259948699999
 45
419.94665527
 46
37.46
 47
52.89
 48
0.0
 49
0.0
140
0.0
141
0.0
142
1.0
143
1.0
 70
  1716
 72
     1
 73
     1
 74
     2
  7
big.ctb
 75
    16
147
1.0
148
0.0
149
0.0
  0
PLOTSETTINGS
  5
707
102
{ACAD_REACTORS
330
566
102
}
330
566
100
AcDbPlotSettings
  1
A3(1倍)(2000)
  2
SII LS-1300 (D-SCAN)
  4
User258
  6

 40
3.17499995
 41
3.17499995
 42
3.174987789999999
 43
3.174987789999999
 44
419.98898315
 45
296.98950195
 46
58.32
 47
40.32
 48
0.0
 49
0.0
140
0.0
141
0.0
142
1.0
143
1.0
 70
  1716
 72
     1
 73
     0
 74
     2
  7
big.ctb
 75
    16
147
1.0
148
0.0
149
0.0
  0
PLOTSETTINGS
  5
759
102
{ACAD_REACTORS
330
566
102
}
330
566
100
AcDbPlotSettings
  1
A3(2倍)
  2
\\AWTECPC05\HP DeskJet 1120C
  4
A3
  6

 40
5.958416459999999
 41
13.49375153
 42
6.043090819999999
 43
3.67242432
 44
296.9259948699999
 45
419.94665527
 46
-67.54000000000001
 47
-95.60999999999999
 48
0.0
 49
0.0
140
0.0
141
0.0
142
1.0
143
0.5
 70
  1716
 72
     1
 73
     1
 74
     2
  7
big.ctb
 75
    27
147
2.0
148
0.0
149
0.0
  0
PLOTSETTINGS
  5
755
102
{ACAD_REACTORS
330
566
102
}
330
566
100
AcDbPlotSettings
  1
A4(0.5倍)
  2
\\AWTECPC05\HP DeskJet 1120C
  4
A4
  6

 40
4.18041658
 41
13.49374961999999
 42
4.180404659999999
 43
3.926422119999999
 44
209.97332764
 45
296.9259948699999
 46
48.31
 47
65.5
 48
0.0
 49
0.0
140
0.0
141
0.0
142
1.0
143
2.0
 70
  1716
 72
     1
 73
     1
 74
     2
  7
big.ctb
 75
    17
147
0.5
148
0.0
149
0.0
  0
PLOTSETTINGS
  5
754
102
{ACAD_REACTORS
330
566
102
}
330
566
100
AcDbPlotSettings
  1
A4(1倍)
  2
\\AWTECPC05\HP DeskJet 1120C
  4
A4
  6

 40
4.18041658
 41
13.49374961999999
 42
4.180404659999999
 43
3.926422119999999
 44
209.97332764
 45
296.9259948699999
 46
-4.19
 47
-8.75
 48
0.0
 49
0.0
140
0.0
141
0.0
142
1.0
143
1.0
 70
  1716
 72
     1
 73
     1
 74
     2
  7
big.ctb
 75
    16
147
1.0
148
0.0
149
0.0
  0
PLOTSETTINGS
  5
708
102
{ACAD_REACTORS
330
566
102
}
330
566
100
AcDbPlotSettings
  1
A4(1倍)(2000)
  2
SII LS-1300 (D-SCAN)
  4
User259
  6

 40
3.17499995
 41
3.17499995
 42
3.174987789999999
 43
3.175003049999999
 44
296.98950195
 45
209.99449158
 46
-3.18
 47
-3.18
 48
0.0
 49
0.0
140
0.0
141
0.0
142
1.0
143
1.0
 70
  1716
 72
     1
 73
     0
 74
     2
  7
big.ctb
 75
    16
147
1.0
148
0.0
149
0.0
  0
PLOTSETTINGS
  5
756
102
{ACAD_REACTORS
330
566
102
}
330
566
100
AcDbPlotSettings
  1
A4(2倍)
  2
\\AWTECPC05\HP DeskJet 1120C
  4
A4
  6

 40
4.18041658
 41
13.49374961999999
 42
4.180404659999999
 43
3.926422119999999
 44
209.97332764
 45
296.9259948699999
 46
-109.19
 47
-157.2499999999999
 48
0.0
 49
0.0
140
0.0
141
0.0
142
1.0
143
0.5
 70
  1716
 72
     1
 73
     1
 74
     2
  7
big.ctb
 75
    27
147
2.0
148
0.0
149
0.0
  0
ACDBPLACEHOLDER
  5
564
102
{ACAD_REACTORS
330
563
102
}
330
563
100
AcDbPlaceHolder
280
     0
  0
XRECORD
  5
12AC
102
{ACAD_REACTORS
330
12A2
102
}
330
12A2
100
AcDbXrecord
 90
        0
  0
XRECORD
  5
12B0
102
{ACAD_REACTORS
330
12A2
102
}
330
12A2
100
AcDbXrecord
1000
DSTYLE
1002
{
1070
   341
340
594
1070
   343
340
594
1070
   344
340
594
1002
}
  0
XRECORD
  5
12AD
102
{ACAD_REACTORS
330
12A2
102
}
330
12A2
100
AcDbXrecord
  1
{51294030-9CB4-11D3-8E18-00A0C925D94D}
  0
XRECORD
  5
12A5
102
{ACAD_REACTORS
330
12A2
102
}
330
12A2
100
AcDbXrecord
  1

  0
XRECORD
  5
12AB
102
{ACAD_REACTORS
330
12A2
102
}
330
12A2
100
AcDbXrecord
 90
        0
  0
XRECORD
  5
12A7
102
{ACAD_REACTORS
330
12A2
102
}
330
12A2
100
AcDbXrecord
340
565
  0
XRECORD
  5
12AA
102
{ACAD_REACTORS
330
12A2
102
}
330
12A2
100
AcDbXrecord
 90
    10781
  0
XRECORD
  5
12A8
102
{ACAD_REACTORS
330
12A2
102
}
330
12A2
100
AcDbXrecord
340
566
  0
XRECORD
  5
12A9
102
{ACAD_REACTORS
330
12A2
102
}
330
12A2
100
AcDbXrecord
340
563
  0
XRECORD
  5
12AF
102
{ACAD_REACTORS
330
12A2
102
}
330
12A2
100
AcDbXrecord
 40
0.0
  0
XRECORD
  5
12B3
102
{ACAD_REACTORS
330
12A2
102
}
330
12A2
100
AcDbXrecord
340
0
  0
XRECORD
  5
12B9
102
{ACAD_REACTORS
330
12A2
102
}
330
12A2
100
AcDbXrecord
 10
0.0
 20
0.0
 30
0.0
  0
XRECORD
  5
12B5
102
{ACAD_REACTORS
330
12A2
102
}
330
12A2
100
AcDbXrecord
 10
0.0
 20
0.0
 30
0.0
  0
XRECORD
  5
12B8
102
{ACAD_REACTORS
330
12A2
102
}
330
12A2
100
AcDbXrecord
 10
0.0
 20
0.0
 30
0.0
  0
XRECORD
  5
12B6
102
{ACAD_REACTORS
330
12A2
102
}
330
12A2
100
AcDbXrecord
 10
0.0
 20
0.0
 30
0.0
  0
XRECORD
  5
12B7
102
{ACAD_REACTORS
330
12A2
102
}
330
12A2
100
AcDbXrecord
 10
0.0
 20
0.0
 30
0.0
  0
XRECORD
  5
12B4
102
{ACAD_REACTORS
330
12A2
102
}
330
12A2
100
AcDbXrecord
 10
0.0
 20
0.0
 30
0.0
  0
XRECORD
  5
12B1
102
{ACAD_REACTORS
330
12A2
102
}
330
12A2
100
AcDbXrecord
340
0
  0
XRECORD
  5
12B2
102
{ACAD_REACTORS
330
12A2
102
}
330
12A2
100
AcDbXrecord
 70
     0
  0
XRECORD
  5
12A6
102
{ACAD_REACTORS
330
12A2
102
}
330
12A2
100
AcDbXrecord
  1
big.ctb
  0
XRECORD
  5
12A3
102
{ACAD_REACTORS
330
12A2
102
}
330
12A2
100
AcDbXrecord
 90
        1
  0
XRECORD
  5
12A4
102
{ACAD_REACTORS
330
12A2
102
}
330
12A2
100
AcDbXrecord
 90
       70
  0
XRECORD
  5
12BC
102
{ACAD_REACTORS
330
12A2
102
}
330
12A2
100
AcDbXrecord
340
0
  0
XRECORD
  5
12C2
102
{ACAD_REACTORS
330
12A2
102
}
330
12A2
100
AcDbXrecord
 10
0.0
 20
0.0
 30
0.0
  0
XRECORD
  5
12BE
102
{ACAD_REACTORS
330
12A2
102
}
330
12A2
100
AcDbXrecord
 10
0.0
 20
0.0
 30
0.0
  0
XRECORD
  5
12C1
102
{ACAD_REACTORS
330
12A2
102
}
330
12A2
100
AcDbXrecord
 10
0.0
 20
0.0
 30
0.0
  0
XRECORD
  5
12BF
102
{ACAD_REACTORS
330
12A2
102
}
330
12A2
100
AcDbXrecord
 10
0.0
 20
0.0
 30
0.0
  0
XRECORD
  5
12C0
102
{ACAD_REACTORS
330
12A2
102
}
330
12A2
100
AcDbXrecord
 10
0.0
 20
0.0
 30
0.0
  0
XRECORD
  5
12BD
102
{ACAD_REACTORS
330
12A2
102
}
330
12A2
100
AcDbXrecord
 10
0.0
 20
0.0
 30
0.0
  0
XRECORD
  5
12BA
102
{ACAD_REACTORS
330
12A2
102
}
330
12A2
100
AcDbXrecord
340
0
  0
XRECORD
  5
12BB
102
{ACAD_REACTORS
330
12A2
102
}
330
12A2
100
AcDbXrecord
 70
     0
  0
XRECORD
  5
12AE
102
{ACAD_REACTORS
330
12A2
102
}
330
12A2
100
AcDbXrecord
  1
{36BFCC34-99F6-4105-B7FE-D576673C97C2}
  0
XRECORD
  5
560
102
{ACAD_REACTORS
330
540
102
}
330
540
100
AcDbXrecord
  1
2.0.0
  0
ENDSEC
  0
EOF
