  0
SECTION
  2
HEADER
  9
$ACADVER
  1
AC1014
  9
$ACADMAINTVER
 70
     9
  9
$DWGCODEPAGE
  3
ANSI_932
  9
$INSBASE
 10
0.0
 20
0.0
 30
0.0
  9
$EXTMIN
 10
-31.01376238
 20
-25.20693871
 30
-0.00152582
  9
$EXTMAX
 10
122.00114511
 20
64.51622385
 30
0.00000003
  9
$LIMMIN
 10
0.0
 20
0.0
  9
$LIMMAX
 10
420.0
 20
297.0
  9
$ORTHOMODE
 70
     0
  9
$REGENMODE
 70
     1
  9
$FILLMODE
 70
     1
  9
$QTEXTMODE
 70
     0
  9
$MIRRTEXT
 70
     1
  9
$DRAGMODE
 70
     2
  9
$LTSCALE
 40
10.0
  9
$OSMODE
 70
   549
  9
$ATTMODE
 70
     1
  9
$TEXTSIZE
 40
3.0
  9
$TRACEWID
 40
1.0
  9
$TEXTSTYLE
  7
YOKO
  9
$CLAYER
  8
245
  9
$CELTYPE
  6
BYLAYER
  9
$CECOLOR
 62
   256
  9
$CELTSCALE
 40
1.0
  9
$DELOBJ
 70
     1
  9
$DISPSILH
 70
     0
  9
$DIMSCALE
 40
1.0
  9
$DIMASZ
 40
2.0
  9
$DIMEXO
 40
2.0
  9
$DIMDLI
 40
2.5
  9
$DIMRND
 40
0.0
  9
$DIMDLE
 40
0.0
  9
$DIMEXE
 40
2.0
  9
$DIMTP
 40
0.0
  9
$DIMTM
 40
0.0
  9
$DIMTXT
 40
4.0
  9
$DIMCEN
 40
0.0
  9
$DIMTSZ
 40
0.0
  9
$DIMTOL
 70
     0
  9
$DIMLIM
 70
     0
  9
$DIMTIH
 70
     0
  9
$DIMTOH
 70
     0
  9
$DIMSE1
 70
     0
  9
$DIMSE2
 70
     0
  9
$DIMTAD
 70
     3
  9
$DIMZIN
 70
     8
  9
$DIMBLK
  1

  9
$DIMASO
 70
     1
  9
$DIMSHO
 70
     1
  9
$DIMPOST
  1

  9
$DIMAPOST
  1

  9
$DIMALT
 70
     0
  9
$DIMALTD
 70
     2
  9
$DIMALTF
 40
25.4
  9
$DIMLFAC
 40
1.0
  9
$DIMTOFL
 70
     1
  9
$DIMTVP
 40
0.0
  9
$DIMTIX
 70
     1
  9
$DIMSOXD
 70
     0
  9
$DIMSAH
 70
     1
  9
$DIMBLK1
  1
OPEN
  9
$DIMBLK2
  1
OPEN
  9
$DIMSTYLE
  2
BIGT
  9
$DIMCLRD
 70
   256
  9
$DIMCLRE
 70
   256
  9
$DIMCLRT
 70
    40
  9
$DIMTFAC
 40
1.0
  9
$DIMGAP
 40
1.0
  9
$DIMJUST
 70
     0
  9
$DIMSD1
 70
     0
  9
$DIMSD2
 70
     0
  9
$DIMTOLJ
 70
     1
  9
$DIMTZIN
 70
     8
  9
$DIMALTZ
 70
     0
  9
$DIMALTTZ
 70
     0
  9
$DIMFIT
 70
     3
  9
$DIMUPT
 70
     0
  9
$DIMUNIT
 70
     2
  9
$DIMDEC
 70
     3
  9
$DIMTDEC
 70
     3
  9
$DIMALTU
 70
     2
  9
$DIMALTTD
 70
     2
  9
$DIMTXSTY
  7
STANDARD
  9
$DIMAUNIT
 70
     0
  9
$LUNITS
 70
     2
  9
$LUPREC
 70
     3
  9
$SKETCHINC
 40
1.0
  9
$FILLETRAD
 40
0.8
  9
$AUNITS
 70
     0
  9
$AUPREC
 70
     3
  9
$MENU
  1
.
  9
$ELEVATION
 40
0.0
  9
$PELEVATION
 40
0.0
  9
$THICKNESS
 40
0.0
  9
$LIMCHECK
 70
     0
  9
$BLIPMODE
 70
     0
  9
$CHAMFERA
 40
10.0
  9
$CHAMFERB
 40
10.0
  9
$CHAMFERC
 40
0.0
  9
$CHAMFERD
 40
0.0
  9
$SKPOLY
 70
     0
  9
$TDCREATE
 40
2454965.695135810
  9
$TDUPDATE
 40
2455223.395162569
  9
$TDINDWG
 40
0.0552584375
  9
$TDUSRTIMER
 40
0.0552582523
  9
$USRTIMER
 70
     1
  9
$ANGBASE
 50
0.0
  9
$ANGDIR
 70
     0
  9
$PDMODE
 70
     1
  9
$PDSIZE
 40
-5.0
  9
$PLINEWID
 40
0.0
  9
$COORDS
 70
     2
  9
$SPLFRAME
 70
     0
  9
$SPLINETYPE
 70
     6
  9
$SPLINESEGS
 70
     8
  9
$ATTDIA
 70
     0
  9
$ATTREQ
 70
     1
  9
$HANDLING
 70
-16383
  9
$HANDSEED
  5
15EF
  9
$SURFTAB1
 70
     6
  9
$SURFTAB2
 70
     6
  9
$SURFTYPE
 70
     6
  9
$SURFU
 70
     6
  9
$SURFV
 70
     6
  9
$UCSNAME
  2

  9
$UCSORG
 10
0.0
 20
0.0
 30
0.0
  9
$UCSXDIR
 10
1.0
 20
0.0
 30
0.0
  9
$UCSYDIR
 10
0.0
 20
1.0
 30
0.0
  9
$PUCSNAME
  2

  9
$PUCSORG
 10
0.0
 20
0.0
 30
0.0
  9
$PUCSXDIR
 10
1.0
 20
0.0
 30
0.0
  9
$PUCSYDIR
 10
0.0
 20
1.0
 30
0.0
  9
$USERI1
 70
     1
  9
$USERI2
 70
     0
  9
$USERI3
 70
     0
  9
$USERI4
 70
     0
  9
$USERI5
 70
     0
  9
$USERR1
 40
0.0
  9
$USERR2
 40
0.0
  9
$USERR3
 40
0.0
  9
$USERR4
 40
0.0
  9
$USERR5
 40
0.0
  9
$WORLDVIEW
 70
     1
  9
$SHADEDGE
 70
     3
  9
$SHADEDIF
 70
    70
  9
$TILEMODE
 70
     1
  9
$MAXACTVP
 70
    16
  9
$PINSBASE
 10
0.0
 20
0.0
 30
0.0
  9
$PLIMCHECK
 70
     0
  9
$PEXTMIN
 10
1.00000000E+20
 20
1.00000000E+20
 30
1.00000000E+20
  9
$PEXTMAX
 10
-1.00000000E+20
 20
-1.00000000E+20
 30
-1.00000000E+20
  9
$PLIMMIN
 10
0.0
 20
0.0
  9
$PLIMMAX
 10
420.0
 20
297.0
  9
$UNITMODE
 70
     0
  9
$VISRETAIN
 70
     0
  9
$PLINEGEN
 70
     0
  9
$PSLTSCALE
 70
     1
  9
$TREEDEPTH
 70
  3020
  9
$PICKSTYLE
 70
     0
  9
$CMLSTYLE
  2
STANDARD
  9
$CMLJUST
 70
     0
  9
$CMLSCALE
 40
1.0
  9
$PROXYGRAPHICS
 70
     1
  9
$MEASUREMENT
 70
     1
  0
ENDSEC
  0
SECTION
  2
CLASSES
  0
CLASS
  1
XRECORD
  2
AcDbXrecord
  3
AutoCAD 2000
 90
        0
280
     0
281
     0
  0
CLASS
  1
ACDBDICTIONARYWDFLT
  2
AcDbDictionaryWithDefault
  3
AutoCAD 2000
 90
        0
280
     0
281
     0
  0
CLASS
  1
ACDBPLACEHOLDER
  2
AcDbPlaceHolder
  3
AutoCAD 2000
 90
        0
280
     0
281
     0
  0
CLASS
  1
LAYOUT
  2
AcDbLayout
  3
AutoCAD 2000
 90
        0
280
     0
281
     0
  0
CLASS
  1
PLOTSETTINGS
  2
AcDbPlotSettings
  3
AutoCAD 2000
 90
        0
280
     0
281
     0
  0
CLASS
  1
LONG_TRANSACTION
  2
AcDbLongTransaction
  3
AutoCAD 2000
 90
        0
280
     0
281
     0
  0
CLASS
  1
LWPOLYLINE
  2
AcDbPolyline
  3
AutoCAD 2000
 90
        0
280
     0
281
     1
  0
CLASS
  1
HATCH
  2
AcDbHatch
  3
AutoCAD 2000
 90
        0
280
     0
281
     1
  0
CLASS
  1
XRECORD
  2
AcDbXrecord
  3
AutoCAD 2000
 90
        0
280
     0
281
     0
  0
CLASS
  1
LONG_TRANSACTION
  2
AcDbLongTransaction
  3
AutoCAD 2000
 90
        0
280
     0
281
     0
  0
CLASS
  1
LWPOLYLINE
  2
AcDbPolyline
  3
AutoCAD 2000
 90
        0
280
     0
281
     1
  0
CLASS
  1
HATCH
  2
AcDbHatch
  3
AutoCAD 2000
 90
        0
280
     0
281
     1
  0
CLASS
  1
XRECORD
  2
AcDbXrecord
  3
AutoCAD 2000
 90
        0
280
     0
281
     0
  0
CLASS
  1
LONG_TRANSACTION
  2
AcDbLongTransaction
  3
AutoCAD 2000
 90
        0
280
     0
281
     0
  0
CLASS
  1
LWPOLYLINE
  2
AcDbPolyline
  3
AutoCAD 2000
 90
        0
280
     0
281
     1
  0
CLASS
  1
HATCH
  2
AcDbHatch
  3
AutoCAD 2000
 90
        0
280
     0
281
     1
  0
CLASS
  1
XRECORD
  2
AcDbXrecord
  3
AutoCAD 2000
 90
        0
280
     0
281
     0
  0
CLASS
  1
LONG_TRANSACTION
  2
AcDbLongTransaction
  3
AutoCAD 2000
 90
        0
280
     0
281
     0
  0
CLASS
  1
LWPOLYLINE
  2
AcDbPolyline
  3
AutoCAD 2000
 90
        0
280
     0
281
     1
  0
CLASS
  1
HATCH
  2
AcDbHatch
  3
AutoCAD 2000
 90
        0
280
     0
281
     1
  0
CLASS
  1
XRECORD
  2
AcDbXrecord
  3
AutoCAD 2000
 90
        0
280
     0
281
     0
  0
CLASS
  1
LONG_TRANSACTION
  2
AcDbLongTransaction
  3
AutoCAD 2000
 90
        0
280
     0
281
     0
  0
CLASS
  1
LWPOLYLINE
  2
AcDbPolyline
  3
AutoCAD 2000
 90
        0
280
     0
281
     1
  0
CLASS
  1
HATCH
  2
AcDbHatch
  3
AutoCAD 2000
 90
        0
280
     0
281
     1
  0
CLASS
  1
XRECORD
  2
AcDbXrecord
  3
AutoCAD 2000
 90
        0
280
     0
281
     0
  0
CLASS
  1
LONG_TRANSACTION
  2
AcDbLongTransaction
  3
AutoCAD 2000
 90
        0
280
     0
281
     0
  0
CLASS
  1
LWPOLYLINE
  2
AcDbPolyline
  3
AutoCAD 2000
 90
        0
280
     0
281
     1
  0
CLASS
  1
HATCH
  2
AcDbHatch
  3
AutoCAD 2000
 90
        0
280
     0
281
     1
  0
CLASS
  1
XRECORD
  2
AcDbXrecord
  3
AutoCAD 2000
 90
        0
280
     0
281
     0
  0
CLASS
  1
LONG_TRANSACTION
  2
AcDbLongTransaction
  3
AutoCAD 2000
 90
        0
280
     0
281
     0
  0
CLASS
  1
LWPOLYLINE
  2
AcDbPolyline
  3
AutoCAD 2000
 90
        0
280
     0
281
     1
  0
CLASS
  1
HATCH
  2
AcDbHatch
  3
AutoCAD 2000
 90
        0
280
     0
281
     1
  0
CLASS
  1
XRECORD
  2
AcDbXrecord
  3
AutoCAD 2000
 90
        0
280
     0
281
     0
  0
CLASS
  1
LONG_TRANSACTION
  2
AcDbLongTransaction
  3
AutoCAD 2000
 90
        0
280
     0
281
     0
  0
CLASS
  1
LWPOLYLINE
  2
AcDbPolyline
  3
AutoCAD 2000
 90
        0
280
     0
281
     1
  0
CLASS
  1
HATCH
  2
AcDbHatch
  3
AutoCAD 2000
 90
        0
280
     0
281
     1
  0
CLASS
  1
XRECORD
  2
AcDbXrecord
  3
AutoCAD 2000
 90
        0
280
     0
281
     0
  0
CLASS
  1
LONG_TRANSACTION
  2
AcDbLongTransaction
  3
AutoCAD 2000
 90
        0
280
     0
281
     0
  0
CLASS
  1
LWPOLYLINE
  2
AcDbPolyline
  3
AutoCAD 2000
 90
        0
280
     0
281
     1
  0
CLASS
  1
HATCH
  2
AcDbHatch
  3
AutoCAD 2000
 90
        0
280
     0
281
     1
  0
CLASS
  1
XRECORD
  2
AcDbXrecord
  3
AutoCAD 2000
 90
        0
280
     0
281
     0
  0
CLASS
  1
LONG_TRANSACTION
  2
AcDbLongTransaction
  3
AutoCAD 2000
 90
        0
280
     0
281
     0
  0
CLASS
  1
LWPOLYLINE
  2
AcDbPolyline
  3
AutoCAD 2000
 90
        0
280
     0
281
     1
  0
CLASS
  1
HATCH
  2
AcDbHatch
  3
AutoCAD 2000
 90
        0
280
     0
281
     1
  0
CLASS
  1
XRECORD
  2
AcDbXrecord
  3
AutoCAD 2000
 90
        0
280
     0
281
     0
  0
ENDSEC
  0
SECTION
  2
TABLES
  0
TABLE
  2
VPORT
  5
8
330
0
100
AcDbSymbolTable
 70
     4
  0
VPORT
  5
15CA
330
8
100
AcDbSymbolTableRecord
100
AcDbViewportTableRecord
  2
*ACTIVE
 70
     0
 10
0.0
 20
0.0
 11
1.0
 21
1.0
 12
45.49369137
 22
19.65464257
 13
0.0
 23
0.0
 14
7.0
 24
7.0
 15
7.0
 25
7.0
 16
0.0
 26
0.0
 36
1.0
 17
0.0
 27
0.0
 37
0.0
 40
107.43512364
 41
1.43184713
 42
50.0
 43
0.0
 44
0.0
 50
0.0
 51
0.0
 71
     0
 72
  2000
 73
     1
 74
     0
 75
     0
 76
     0
 77
     0
 78
     0
  0
ENDTAB
  0
TABLE
  2
LTYPE
  5
5
330
0
100
AcDbSymbolTable
 70
     3
  0
LTYPE
  5
14
330
5
100
AcDbSymbolTableRecord
100
AcDbLinetypeTableRecord
  2
BYBLOCK
 70
     0
  3

 72
    65
 73
     0
 40
0.0
  0
LTYPE
  5
15
330
5
100
AcDbSymbolTableRecord
100
AcDbLinetypeTableRecord
  2
BYLAYER
 70
     0
  3

 72
    65
 73
     0
 40
0.0
  0
LTYPE
  5
16
330
5
100
AcDbSymbolTableRecord
100
AcDbLinetypeTableRecord
  2
CONTINUOUS
 70
     0
  3
Solid line
 72
    65
 73
     0
 40
0.0
  0
LTYPE
  5
258
330
5
100
AcDbSymbolTableRecord
100
AcDbLinetypeTableRecord
  2
CENTER2
 70
     0
  3
___ _ ___ _ ___ _ ___ _ ___ _ ___ _ ___ _ ___ _
 72
    65
 73
     4
 40
1.125
 49
0.75
 74
     0
 49
-0.125
 74
     0
 49
0.125
 74
     0
 49
-0.125
 74
     0
  0
LTYPE
  5
25C
330
5
100
AcDbSymbolTableRecord
100
AcDbLinetypeTableRecord
  2
HIDDEN2
 70
     0
  3
_ _ _ _ _ _ _ _ _ _ _ _ _ _ _ _ _ _ _ _ _ _ _ _
 72
    65
 73
     2
 40
0.1875
 49
0.125
 74
     0
 49
-0.0625
 74
     0
  0
ENDTAB
  0
TABLE
  2
LAYER
  5
2
330
0
100
AcDbSymbolTable
 70
     9
  0
LAYER
  5
F
330
2
100
AcDbSymbolTableRecord
100
AcDbLayerTableRecord
  2
0
 70
     0
 62
     7
  6
CONTINUOUS
  0
LAYER
  5
1AA
330
2
100
AcDbSymbolTableRecord
100
AcDbLayerTableRecord
  2
240
 70
     0
 62
     4
  6
CONTINUOUS
  0
LAYER
  5
1AB
330
2
100
AcDbSymbolTableRecord
100
AcDbLayerTableRecord
  2
241
 70
     0
 62
   211
  6
CONTINUOUS
  0
LAYER
  5
1AF
330
2
100
AcDbSymbolTableRecord
100
AcDbLayerTableRecord
  2
245
 70
     0
 62
     2
  6
CENTER2
  0
LAYER
  5
21E
330
2
100
AcDbSymbolTableRecord
100
AcDbLayerTableRecord
  2
250
 70
     0
 62
     3
  6
CONTINUOUS
  0
LAYER
  5
21F
330
2
100
AcDbSymbolTableRecord
100
AcDbLayerTableRecord
  2
251
 70
     0
 62
    40
  6
CONTINUOUS
  0
LAYER
  5
5C4
330
2
100
AcDbSymbolTableRecord
100
AcDbLayerTableRecord
  2
DEFPOINTS
 70
     0
 62
     7
  6
CONTINUOUS
  0
LAYER
  5
A77
102
{ACAD_XDICTIONARY
360
A78
102
}
330
2
100
AcDbSymbolTableRecord
100
AcDbLayerTableRecord
  2
242
 70
     0
 62
     3
  6
CONTINUOUS
  0
ENDTAB
  0
TABLE
  2
STYLE
  5
3
330
0
100
AcDbSymbolTable
 70
     2
  0
STYLE
  5
10
330
3
100
AcDbSymbolTableRecord
100
AcDbTextStyleTableRecord
  2
STANDARD
 70
     0
 40
0.0
 41
1.0
 50
0.0
 71
     0
 42
3.0
  3
romans.shx
  4
BIGFONT.SHX
  0
STYLE
  5
339
330
3
100
AcDbSymbolTableRecord
100
AcDbTextStyleTableRecord
  2
YOKO
 70
     0
 40
0.0
 41
1.0
 50
0.0
 71
     0
 42
3.0
  3
romans.shx
  4
extfont.shx
  0
ENDTAB
  0
TABLE
  2
VIEW
  5
6
330
0
100
AcDbSymbolTable
 70
     2
  0
VIEW
  5
C37
330
6
100
AcDbSymbolTableRecord
100
AcDbViewTableRecord
  2
OLE1
 70
     0
 40
108.15989399
 10
46.00981991
 20
19.65464257
 41
154.86843419
 11
0.0
 21
0.0
 31
1.0
 12
0.0
 22
0.0
 32
0.0
 42
50.0
 43
0.0
 44
0.0
 50
0.0
 71
     0
  0
VIEW
  5
15C8
330
6
100
AcDbSymbolTableRecord
100
AcDbViewTableRecord
  2
OLE2
 70
     0
 40
107.43512364
 10
45.49369137
 20
19.65464257
 41
153.83067385
 11
0.0
 21
0.0
 31
1.0
 12
0.0
 22
0.0
 32
0.0
 42
50.0
 43
0.0
 44
0.0
 50
0.0
 71
     0
  0
ENDTAB
  0
TABLE
  2
UCS
  5
7
330
0
100
AcDbSymbolTable
 70
     0
  0
ENDTAB
  0
TABLE
  2
APPID
  5
9
330
0
100
AcDbSymbolTable
 70
     9
  0
APPID
  5
11
330
9
100
AcDbSymbolTableRecord
100
AcDbRegAppTableRecord
  2
ACAD
 70
     0
  0
APPID
  5
1B1
330
9
100
AcDbSymbolTableRecord
100
AcDbRegAppTableRecord
  2
GLOBAL
 70
     0
  0
APPID
  5
2A4
330
9
100
AcDbSymbolTableRecord
100
AcDbRegAppTableRecord
  2
DETAIL
 70
     0
  0
APPID
  5
5FD
330
9
100
AcDbSymbolTableRecord
100
AcDbRegAppTableRecord
  2
GRPNAME
 70
     0
  0
APPID
  5
5FE
330
9
100
AcDbSymbolTableRecord
100
AcDbRegAppTableRecord
  2
GPARA
 70
     0
  0
APPID
  5
6C4
330
9
100
AcDbSymbolTableRecord
100
AcDbRegAppTableRecord
  2
DCO15
 70
     0
  0
APPID
  5
6C5
330
9
100
AcDbSymbolTableRecord
100
AcDbRegAppTableRecord
  2
ITEMNAME
 70
     0
  0
APPID
  5
6C6
330
9
100
AcDbSymbolTableRecord
100
AcDbRegAppTableRecord
  2
GRADE_0
 70
     0
  0
APPID
  5
A1B
330
9
100
AcDbSymbolTableRecord
100
AcDbRegAppTableRecord
  2
CONTENTBLOCKICON
 70
     0
  0
ENDTAB
  0
TABLE
  2
DIMSTYLE
  5
A
330
0
100
AcDbSymbolTable
 70
     6
  0
DIMSTYLE
105
725
330
A
100
AcDbSymbolTableRecord
100
AcDbDimStyleTableRecord
  2
BIGT
 70
     0
  3

  4

  5

  6
OPEN
  7
OPEN
 40
1.0
 41
2.23
 42
0.5
 43
2.5
 44
1.0
 45
0.0
 46
0.0
 47
0.0
 48
0.0
140
2.8
141
0.0
142
0.0
143
25.4
144
1.0
145
0.0
146
1.0
147
1.0
 71
     0
 72
     0
 73
     0
 74
     0
 75
     0
 76
     0
 77
     3
 78
     8
170
     0
171
     2
172
     1
173
     1
174
     1
175
     0
176
   256
177
   256
178
    40
270
     2
271
     3
272
     3
273
     2
274
     2
340
10
275
     0
280
     0
281
     0
282
     0
283
     1
284
     8
285
     0
286
     0
287
     3
288
     0
  0
DIMSTYLE
105
791
102
{ACAD_REACTORS
330
AC8
330
AC9
330
ACA
330
11CE
330
11CF
102
}
330
A
100
AcDbSymbolTableRecord
100
AcDbDimStyleTableRecord
  2
BIGT$0
 70
     0
  3

  4
"
  5
OPEN
  6

  7

 40
1.0
 41
2.23
 42
0.5
 43
7.0
 44
1.0
 45
0.0
 46
0.0
 47
0.1
 48
0.1
140
3.0
141
0.0
142
0.0
143
0.0393701
144
1.0
145
0.0
146
0.71
147
1.0
 71
     0
 72
     0
 73
     0
 74
     0
 75
     0
 76
     0
 77
     3
 78
     8
170
     0
171
     2
172
     1
173
     0
174
     0
175
     0
176
     3
177
     3
178
    40
270
     2
271
     3
272
     3
273
     2
274
     2
340
10
275
     0
280
     0
281
     0
282
     0
283
     1
284
     8
285
     0
286
     0
287
     3
288
     0
  0
DIMSTYLE
105
792
330
A
100
AcDbSymbolTableRecord
100
AcDbDimStyleTableRecord
  2
BIGT$7
 70
     0
  3

  4
"
  5
OPEN
  6

  7

 40
1.0
 41
2.5
 42
0.5
 43
7.0
 44
1.0
 45
0.0
 46
0.0
 47
0.1
 48
0.1
140
5.0
141
0.0
142
0.0
143
0.0393701
144
1.0
145
0.0
146
0.71
147
1.5
 71
     0
 72
     0
 73
     0
 74
     0
 75
     0
 76
     0
 77
     3
 78
     8
170
     0
171
     2
172
     1
173
     0
174
     0
175
     0
176
     3
177
     3
178
    40
270
     2
271
     3
272
     3
273
     2
274
     2
340
10
275
     0
280
     0
281
     0
282
     0
283
     1
284
     8
285
     0
286
     0
287
     3
288
     0
  0
ENDTAB
  0
TABLE
  2
BLOCK_RECORD
  5
1
330
0
100
AcDbSymbolTable
 70
    10
  0
BLOCK_RECORD
  5
1A
102
{ACAD_XDICTIONARY
360
A19
102
}
330
1
100
AcDbSymbolTableRecord
100
AcDbBlockTableRecord
  2
*MODEL_SPACE
  0
BLOCK_RECORD
  5
17
102
{ACAD_XDICTIONARY
360
A17
102
}
330
1
100
AcDbSymbolTableRecord
100
AcDbBlockTableRecord
  2
*PAPER_SPACE
  0
BLOCK_RECORD
  5
594
330
1
100
AcDbSymbolTableRecord
100
AcDbBlockTableRecord
  2
_OPEN
  0
BLOCK_RECORD
  5
6E3
330
1
100
AcDbSymbolTableRecord
100
AcDbBlockTableRecord
  2
矢印なし
  0
BLOCK_RECORD
  5
76C
330
1
100
AcDbSymbolTableRecord
100
AcDbBlockTableRecord
  2
_NONE
  0
BLOCK_RECORD
  5
977
330
1
100
AcDbSymbolTableRecord
100
AcDbBlockTableRecord
  2
1
1001
CONTENTBLOCKICON
1071
        0
1004
2800000020000000200000000100080000000000000400000000000000000000000000000000000000000000000080000080000000808000800000008000800080800000C0C0C000C0DCC000F0CAA6000020400000206000002080000020A0000020C0000020E00000400000004020000040400000406000004080000040A0
1004
000040C0000040E00000600000006020000060400000606000006080000060A0000060C0000060E00000800000008020000080400000806000008080000080A0000080C0000080E00000A0000000A0200000A0400000A0600000A0800000A0A00000A0C00000A0E00000C0000000C0200000C0400000C0600000C0800000C0
1004
A00000C0C00000C0E00000E0000000E0200000E0400000E0600000E0800000E0A00000E0C00000E0E00040000000400020004000400040006000400080004000A0004000C0004000E00040200000402020004020400040206000402080004020A0004020C0004020E000404000004040200040404000404060004040800040
1004
40A0004040C0004040E00040600000406020004060400040606000406080004060A0004060C0004060E00040800000408020004080400040806000408080004080A0004080C0004080E00040A0000040A0200040A0400040A0600040A0800040A0A00040A0C00040A0E00040C0000040C0200040C0400040C0600040C08000
1004
40C0A00040C0C00040C0E00040E0000040E0200040E0400040E0600040E0800040E0A00040E0C00040E0E00080000000800020008000400080006000800080008000A0008000C0008000E00080200000802020008020400080206000802080008020A0008020C0008020E00080400000804020008040400080406000804080
1004
008040A0008040C0008040E00080600000806020008060400080606000806080008060A0008060C0008060E00080800000808020008080400080806000808080008080A0008080C0008080E00080A0000080A0200080A0400080A0600080A0800080A0A00080A0C00080A0E00080C0000080C0200080C0400080C0600080C0
1004
800080C0A00080C0C00080C0E00080E0000080E0200080E0400080E0600080E0800080E0A00080E0C00080E0E000C0000000C0002000C0004000C0006000C0008000C000A000C000C000C000E000C0200000C0202000C0204000C0206000C0208000C020A000C020C000C020E000C0400000C0402000C0404000C0406000C0
1004
408000C040A000C040C000C040E000C0600000C0602000C0604000C0606000C0608000C060A000C060C000C060E000C0800000C0802000C0804000C0806000C0808000C080A000C080C000C080E000C0A00000C0A02000C0A04000C0A06000C0A08000C0A0A000C0A0C000C0A0E000C0C00000C0C02000C0C04000C0C06000
1004
C0C08000C0C0A000F0FBFF00A4A0A000808080000000FF0000FF000000FFFF00FF000000FF00FF00FFFF0000FFFFFF0000000000000000000000000000000000000000000000000000000000000000000000000000000000000000000000000000000000000000000000000000000000000000000000000000000000000000
1004
00000000000000000000000000000000000000000000000000000000000000000000000000000000000000000000000000000000000000000000000000000000000000000000000000000000000000000000000000000000000000000000000000000000000000000000000000000000000000000000000000000000000000
1004
0000000000000000000000000000000000000000000000000000000000000000000000000000000000000000000000000000000000000000000000000000000000000000000000000000000000000000000000000000000000000000000000000000000000000000000000000000000000000000000000000000FEFEFEFEFE
1004
000000000000000000000000000000000000000000000000000000FEE7E7E7FEFEFEFEFEFE00000000000000000000000000000000FEFAFEFEFEFEFEE7E7E7E70000000000FEFEFEFEFEFEFEFEFEFEFEFE00000000FAFA000000E7E7E7E7E7E7000000000000000000000000FE000000FE00000000FE00000000E7E7E7E700
1004
E7000000000000000000000000E7000000FE00000000FE00000000E7E7000000E70000FA000000000000000000E7000000FE000000FBFEFBFBFBFBE7E7FBFBFBE7FBFBFAFBFBFBFBE7FBE7FBFBE7FBFBFBFEFB000000FE00000000E7E7E7E700E7E7E7FAE7E7E7E7E7E7E7E7E7E7E7E7E7E700000000FE00000000E7E7E7E7
1004
E7E7000000000000000000000000FEFAFAE7FE00000000FEFEFEFEFEFEFEE7E7E7E7000000000000FEFEFEFEFEFEFEFEFEFEFE00000000000000000000FEE7E7E7FEFEFEFEFEFEFE000000000000000000000000000000000000000000FEFEFEFEFE0000000000000000000000000000000000000000000000000000000000
1004
00000000000000000000000000000000000000000000000000000000000000000000000000000000000000000000000000000000000000000000000000000000000000000000000000000000000000000000000000000000000000000000000000000000000000000000000000000000000000000000000000000000000000
1004
00000000000000000000000000000000000000000000000000000000000000000000000000000000000000000000000000000000000000000000000000000000000000000000000000000000000000000000000000000000000000000000000000000000000000000000000000000000000000000000000000000000000000
1004
0000000000000000000000000000000000000000000000000000000000000000000000000000000000000000000000000000000000000000
  0
BLOCK_RECORD
  5
ACD
330
1
100
AcDbSymbolTableRecord
100
AcDbBlockTableRecord
  2
*D4
  0
BLOCK_RECORD
  5
AD9
330
1
100
AcDbSymbolTableRecord
100
AcDbBlockTableRecord
  2
*D5
  0
BLOCK_RECORD
  5
AE5
330
1
100
AcDbSymbolTableRecord
100
AcDbBlockTableRecord
  2
*D6
  0
BLOCK_RECORD
  5
11FC
330
1
100
AcDbSymbolTableRecord
100
AcDbBlockTableRecord
  2
*D7
  0
BLOCK_RECORD
  5
1208
330
1
100
AcDbSymbolTableRecord
100
AcDbBlockTableRecord
  2
*D8
  0
ENDTAB
  0
ENDSEC
  0
SECTION
  2
BLOCKS
  0
BLOCK
  5
1B
330
1A
100
AcDbEntity
  8
0
100
AcDbBlockBegin
  2
*MODEL_SPACE
 70
     0
 10
0.0
 20
0.0
 30
0.0
  3
*MODEL_SPACE
  1

  0
ENDBLK
  5
1C
330
1A
100
AcDbEntity
  8
0
100
AcDbBlockEnd
  0
BLOCK
  5
18
330
17
100
AcDbEntity
 67
     1
  8
0
100
AcDbBlockBegin
  2
*PAPER_SPACE
 70
     0
 10
0.0
 20
0.0
 30
0.0
  3
*PAPER_SPACE
  1

  0
ENDBLK
  5
19
330
17
100
AcDbEntity
 67
     1
  8
0
100
AcDbBlockEnd
  0
BLOCK
  5
598
330
594
100
AcDbEntity
  8
0
100
AcDbBlockBegin
  2
_OPEN
 70
     0
 10
0.0
 20
0.0
 30
0.0
  3
_OPEN
  1

  0
LINE
  5
595
330
594
100
AcDbEntity
  8
0
  6
BYBLOCK
 62
     0
100
AcDbLine
 10
-1.0
 20
0.16666667
 30
0.0
 11
0.0
 21
0.0
 31
0.0
  0
LINE
  5
596
330
594
100
AcDbEntity
  8
0
  6
BYBLOCK
 62
     0
100
AcDbLine
 10
-1.0
 20
-0.16666667
 30
0.0
 11
0.0
 21
0.0
 31
0.0
  0
LINE
  5
597
330
594
100
AcDbEntity
  8
0
  6
BYBLOCK
 62
     0
100
AcDbLine
 10
0.0
 20
0.0
 30
0.0
 11
-1.0
 21
0.0
 31
0.0
  0
ENDBLK
  5
599
330
594
100
AcDbEntity
  8
0
100
AcDbBlockEnd
  0
BLOCK
  5
6E4
330
6E3
100
AcDbEntity
  8
0
100
AcDbBlockBegin
  2
矢印なし
 70
     0
 10
0.0
 20
0.0
 30
0.0
  3
矢印なし
  1

  0
ENDBLK
  5
6E5
330
6E3
100
AcDbEntity
  8
0
100
AcDbBlockEnd
  0
BLOCK
  5
76D
330
76C
100
AcDbEntity
  8
0
100
AcDbBlockBegin
  2
_NONE
 70
     0
 10
0.0
 20
0.0
 30
0.0
  3
_NONE
  1

  0
ENDBLK
  5
76E
330
76C
100
AcDbEntity
  8
0
100
AcDbBlockEnd
  0
BLOCK
  5
978
330
977
100
AcDbEntity
  8
0
100
AcDbBlockBegin
  2
1
 70
     0
 10
0.0
 20
0.0
 30
0.0
  3
1
  1

  0
LINE
  5
153B
330
977
100
AcDbEntity
  8
245
  6
CENTER2
100
AcDbLine
 10
-31.0
 20
0.0
 30
0.0
 11
106.0
 21
0.0
 31
0.0
1001
GRPNAME
1000
PASTMD0U
  0
LINE
  5
153C
330
977
100
AcDbEntity
  8
240
100
AcDbLine
 10
81.22615718
 20
17.52483248
 30
0.0
 11
20.94766404
 21
20.68389445
 31
0.0
  0
LINE
  5
153D
330
977
100
AcDbEntity
  8
240
100
AcDbLine
 10
81.22615718
 20
-17.52483248
 30
0.0
 11
20.94766404
 21
-20.68389445
 31
0.0
  0
LINE
  5
153E
330
977
100
AcDbEntity
  8
242
  6
HIDDEN2
100
AcDbLine
 10
56.9999847
 20
5.49999635
 30
0.0
 11
34.2999892
 21
5.49999635
 31
0.0
1001
GRPNAME
1000
PASTMD15
  0
LINE
  5
153F
330
977
100
AcDbEntity
  8
241
  6
HIDDEN2
100
AcDbLine
 10
25.46186942
 20
5.2
 30
0.0
 11
56.9999847
 21
5.2
 31
0.0
1001
GRPNAME
1000
PASTMD15
  0
LINE
  5
1540
330
977
100
AcDbEntity
  8
240
  6
CONTINUOUS
100
AcDbLine
 10
-2.19993752
 20
-16.40000332
 30
0.0
 11
-28.5
 21
-15.74244388
 31
0.0
  0
LINE
  5
1541
330
977
100
AcDbEntity
  8
240
  6
CONTINUOUS
100
AcDbLine
 10
-28.5
 20
17.98244397
 30
0.0
 11
-2.09361726
 21
18.64266156
 31
0.0
  0
LINE
  5
1542
330
977
100
AcDbEntity
  8
242
  6
HIDDEN2
100
AcDbLine
 10
-22.81542934
 20
-15.88457066
 30
0.0
 11
-24.7
 21
-14.0
 31
0.0
  0
LINE
  5
1543
330
977
100
AcDbEntity
  8
242
  6
HIDDEN2
100
AcDbLine
 10
-24.7
 20
-14.0
 30
0.0
 11
-24.7
 21
-15.83745224
 31
0.0
  0
LINE
  5
1544
330
977
100
AcDbEntity
  8
240
  6
CONTINUOUS
100
AcDbLine
 10
-28.5
 20
-15.74244388
 30
0.0
 11
-30.0
 21
-14.87641848
 31
0.0
  0
LINE
  5
1545
330
977
100
AcDbEntity
  8
241
100
AcDbLine
 10
-28.5
 20
-15.74244388
 30
0.0
 11
-28.5
 21
0.0
 31
0.0
  0
LINE
  5
1546
330
977
100
AcDbEntity
  8
241
100
AcDbLine
 10
-28.5
 20
0.0
 30
0.0
 11
-28.5
 21
17.98244397
 31
0.0
  0
LINE
  5
1547
330
977
100
AcDbEntity
  8
240
  6
CONTINUOUS
100
AcDbLine
 10
-30.0
 20
0.0
 30
0.0
 11
-30.0
 21
17.11641857
 31
0.0
  0
LINE
  5
1548
330
977
100
AcDbEntity
  8
240
  6
CONTINUOUS
100
AcDbLine
 10
-30.0
 20
-14.87641848
 30
0.0
 11
-30.0
 21
0.0
 31
0.0
  0
LINE
  5
1549
330
977
100
AcDbEntity
  8
242
  6
HIDDEN2
100
AcDbLine
 10
-30.0
 20
-14.0
 30
0.0
 11
-24.7
 21
-14.0
 31
0.0
  0
LINE
  5
154A
330
977
100
AcDbEntity
  8
240
  6
CONTINUOUS
100
AcDbLine
 10
-30.0
 20
17.11641857
 30
0.0
 11
-28.5
 21
17.98244397
 31
0.0
  0
LINE
  5
154B
330
977
100
AcDbEntity
  8
241
  6
CONTINUOUS
100
AcDbLine
 10
7.95
 20
-7.1748189
 30
0.0
 11
7.95
 21
-23.93787948
 31
0.0
  0
LINE
  5
154C
330
977
100
AcDbEntity
  8
241
100
AcDbLine
 10
20.0
 20
-21.68252398
 30
0.0
 11
20.0
 21
0.0
 31
0.0
  0
LINE
  5
154D
330
977
100
AcDbEntity
  8
241
100
AcDbLine
 10
-2.19993752
 20
-16.40000332
 30
0.0
 11
-2.19993752
 21
0.0
 31
0.0
  0
LINE
  5
154E
330
977
100
AcDbEntity
  8
241
100
AcDbLine
 10
0.0
 20
-16.40000332
 30
0.0
 11
0.0
 21
0.0
 31
0.0
  0
SPLINE
  5
154F
330
977
100
AcDbEntity
  8
241
  6
CONTINUOUS
100
AcDbSpline
210
0.0
220
0.0
230
1.0
 70
     8
 71
     3
 72
     9
 73
     5
 74
     3
 42
0.0000000001
 43
0.0000000001
 44
0.0000000001
 40
0.0
 40
0.0
 40
0.0
 40
0.0
 40
8.630480605859919
 40
17.26096121171992
 40
17.26096121171992
 40
17.26096121171992
 40
17.26096121171992
 10
12.05
 20
-23.93787948032985
 30
0.0
 10
13.07897345545482
 20
-21.14403605037331
 30
0.0
 10
15.13692036636449
 20
-15.55634919046022
 30
0.0
 10
13.07897345545483
 20
-9.968662330547125
 30
0.0
 10
12.05
 20
-7.174818900590564
 30
0.0
 11
12.05
 21
-23.93787948032985
 31
0.0
 11
14.10794691090966
 21
-15.55634919046025
 31
0.0
 11
12.05
 21
-7.174818900590564
 31
0.0
  0
LINE
  5
1550
330
977
100
AcDbEntity
  8
241
  6
CONTINUOUS
100
AcDbLine
 10
12.05
 20
-7.1748189
 30
0.0
 11
12.05
 21
-23.93787948
 31
0.0
  0
SPLINE
  5
1551
330
977
100
AcDbEntity
  8
241
  6
CONTINUOUS
100
AcDbSpline
210
0.0
220
0.0
230
1.0
 70
     8
 71
     3
 72
     9
 73
     5
 74
     3
 42
0.0000000001
 43
0.0000000001
 44
0.0000000001
 40
0.0
 40
0.0
 40
0.0
 40
0.0
 40
8.637419212856791
 40
17.27483842571348
 40
17.27483842571348
 40
17.27483842571348
 40
17.27483842571348
 10
7.950000000000045
 20
-7.174818900590536
 30
0.0
 10
6.906572875253829
 20
-9.968662330547097
 30
0.0
 10
4.819718625761408
 20
-15.55634919046018
 30
0.0
 10
6.906572875253798
 20
-21.14403605037328
 30
0.0
 10
7.949999999999986
 20
-23.93787948032982
 30
0.0
 11
7.950000000000045
 21
-7.174818900590536
 31
0.0
 11
5.86314575050761
 21
-15.55634919046022
 31
0.0
 11
7.949999999999986
 21
-23.93787948032982
 31
0.0
  0
LINE
  5
1552
330
977
100
AcDbEntity
  8
240
  6
CONTINUOUS
100
AcDbLine
 10
0.3
 20
-24.99
 30
0.0
 11
19.0
 21
-24.99
 31
0.0
  0
LINE
  5
1553
330
977
100
AcDbEntity
  8
240
  6
CONTINUOUS
100
AcDbLine
 10
0.0
 20
-24.69
 30
0.0
 11
0.0
 21
-16.40000332
 31
0.0
  0
ARC
  5
1554
330
977
100
AcDbEntity
  8
240
  6
CONTINUOUS
100
AcDbCircle
 10
0.3
 20
-24.69
 30
0.0
 40
0.3
100
AcDbArc
 50
180.0
 51
270.0
  0
LINE
  5
1555
330
977
100
AcDbEntity
  8
240
100
AcDbLine
 10
-2.19993752
 20
-16.40000332
 30
0.0
 11
0.0
 21
-16.40000332
 31
0.0
  0
LINE
  5
1556
330
977
100
AcDbEntity
  8
241
  6
CONTINUOUS
100
AcDbLine
 10
7.95
 20
-23.93787948
 30
0.0
 11
12.05
 21
-23.93787948
 31
0.0
  0
ARC
  5
1557
330
977
100
AcDbEntity
  8
240
100
AcDbCircle
 10
21.0
 20
-21.68252398
 30
0.0
 40
1.0
100
AcDbArc
 50
93.0
 51
180.0
  0
ARC
  5
1558
330
977
100
AcDbEntity
  8
240
  6
CONTINUOUS
100
AcDbCircle
 10
19.0
 20
-23.99
 30
0.0
 40
1.0
100
AcDbArc
 50
270.0
 51
0.0
  0
LINE
  5
1559
330
977
100
AcDbEntity
  8
240
100
AcDbLine
 10
20.0
 20
-23.99
 30
0.0
 11
20.0
 21
-21.68252398
 31
0.0
  0
LINE
  5
155A
330
977
100
AcDbEntity
  8
240
  6
CONTINUOUS
100
AcDbLine
 10
0.3
 20
24.99
 30
0.0
 11
19.0
 21
24.99
 31
0.0
  0
LINE
  5
155B
330
977
100
AcDbEntity
  8
241
100
AcDbLine
 10
0.0
 20
0.0
 30
0.0
 11
0.0
 21
18.64266156
 31
0.0
  0
LINE
  5
155C
330
977
100
AcDbEntity
  8
241
100
AcDbLine
 10
-2.19993752
 20
0.0
 30
0.0
 11
-2.19993752
 21
18.64000332
 31
0.0
  0
SPLINE
  5
155D
330
977
100
AcDbEntity
  8
241
  6
CONTINUOUS
100
AcDbSpline
210
0.0
220
0.0
230
1.0
 70
     8
 71
     3
 72
     9
 73
     5
 74
     3
 42
0.0000000001
 43
0.0000000001
 44
0.0000000001
 40
0.0
 40
0.0
 40
0.0
 40
0.0
 40
8.630480605859938
 40
17.26096121171991
 40
17.26096121171991
 40
17.26096121171991
 40
17.26096121171991
 10
12.05
 20
23.93787947161734
 30
0.0
 10
13.07897345545482
 20
21.1440360416608
 30
0.0
 10
15.13692036636449
 20
15.5563491817477
 30
0.0
 10
13.07897345545483
 20
9.968662321834612
 30
0.0
 10
12.05
 20
7.174818891878061
 30
0.0
 11
12.05
 21
23.93787947161734
 31
0.0
 11
14.10794691090966
 21
15.55634918174772
 31
0.0
 11
12.05
 21
7.174818891878061
 31
0.0
  0
LINE
  5
155E
330
977
100
AcDbEntity
  8
241
  6
CONTINUOUS
100
AcDbLine
 10
12.05
 20
7.1748189
 30
0.0
 11
12.05
 21
23.93787948
 31
0.0
  0
SPLINE
  5
155F
330
977
100
AcDbEntity
  8
241
  6
CONTINUOUS
100
AcDbSpline
210
0.0
220
0.0
230
1.0
 70
     8
 71
     3
 72
     9
 73
     5
 74
     3
 42
0.0000000001
 43
0.0000000001
 44
0.0000000001
 40
0.0
 40
0.0
 40
0.0
 40
0.0
 40
8.637419212856821
 40
17.27483842571346
 40
17.27483842571346
 40
17.27483842571346
 40
17.27483842571346
 10
7.950000000000045
 20
7.174818891878004
 30
0.0
 10
6.906572875253826
 20
9.968662321834578
 30
0.0
 10
4.819718625761408
 20
15.55634918174766
 30
0.0
 10
6.9065728752538
 20
21.14403604166074
 30
0.0
 10
7.949999999999986
 20
23.93787947161726
 30
0.0
 11
7.950000000000045
 21
7.174818891878004
 31
0.0
 11
5.86314575050761
 21
15.55634918174772
 31
0.0
 11
7.949999999999986
 21
23.93787947161726
 31
0.0
  0
LINE
  5
1560
330
977
100
AcDbEntity
  8
241
  6
CONTINUOUS
100
AcDbLine
 10
7.95
 20
7.1748189
 30
0.0
 11
7.95
 21
23.93787948
 31
0.0
  0
LINE
  5
1561
330
977
100
AcDbEntity
  8
241
  6
CONTINUOUS
100
AcDbLine
 10
7.95
 20
-7.1748189
 30
0.0
 11
12.05
 21
-7.1748189
 31
0.0
  0
LINE
  5
1562
330
977
100
AcDbEntity
  8
241
  6
CONTINUOUS
100
AcDbLine
 10
7.95
 20
7.1748189
 30
0.0
 11
12.05
 21
7.1748189
 31
0.0
  0
LINE
  5
1563
330
977
100
AcDbEntity
  8
240
  6
CONTINUOUS
100
AcDbLine
 10
0.0
 20
24.69
 30
0.0
 11
0.0
 21
18.64266156
 31
0.0
  0
LINE
  5
1564
330
977
100
AcDbEntity
  8
240
100
AcDbLine
 10
-2.09361726
 20
18.64266156
 30
0.0
 11
0.0
 21
18.64266156
 31
0.0
  0
ARC
  5
1565
330
977
100
AcDbEntity
  8
240
  6
CONTINUOUS
100
AcDbCircle
 10
0.3
 20
24.69
 30
0.0
 40
0.3
100
AcDbArc
 50
90.0
 51
180.0
  0
LINE
  5
1566
330
977
100
AcDbEntity
  8
241
  6
CONTINUOUS
100
AcDbLine
 10
7.95
 20
23.93787948
 30
0.0
 11
12.05
 21
23.93787948
 31
0.0
  0
LINE
  5
1567
330
977
100
AcDbEntity
  8
241
100
AcDbLine
 10
20.0
 20
21.68252398
 30
0.0
 11
20.0
 21
0.0
 31
0.0
  0
LINE
  5
1568
330
977
100
AcDbEntity
  8
242
  6
HIDDEN2
100
AcDbLine
 10
34.2999892
 20
5.49999635
 30
0.0
 11
34.2999892
 21
-0.00000381
 31
0.0
1001
GRPNAME
1000
PASTMD7X
  0
LINE
  5
1569
330
977
100
AcDbEntity
  8
240
100
AcDbLine
 10
20.0
 20
23.99
 30
0.0
 11
20.0
 21
21.68252398
 31
0.0
  0
ARC
  5
156A
330
977
100
AcDbEntity
  8
240
100
AcDbCircle
 10
21.0
 20
21.68252398
 30
0.0
 40
1.0
100
AcDbArc
 50
180.0
 51
267.0
  0
ARC
  5
156B
330
977
100
AcDbEntity
  8
240
100
AcDbCircle
 10
19.0
 20
23.99
 30
0.0
 40
1.0
100
AcDbArc
 50
0.0
 51
90.0
  0
LINE
  5
156C
330
977
100
AcDbEntity
  8
240
  6
CONTINUOUS
100
AcDbLine
 10
82.4999892
 20
-17.15
 30
0.0
 11
82.4999892
 21
-13.7
 31
0.0
1001
GRPNAME
1000
PASTMD1S
  0
LINE
  5
156D
330
977
100
AcDbEntity
  8
240
  6
CONTINUOUS
100
AcDbLine
 10
81.6999892
 20
-17.02551771
 30
0.0
 11
81.6999892
 21
-13.7
 31
0.0
1001
GRPNAME
1000
PASTMD06
  0
LINE
  5
156E
330
977
100
AcDbEntity
  8
241
  6
CONTINUOUS
100
AcDbLine
 10
84.4999892
 20
-17.65
 30
0.0
 11
84.4999892
 21
0.0
 31
0.0
1001
GRPNAME
1000
PASTMD1S
  0
LINE
  5
156F
330
977
100
AcDbEntity
  8
241
  6
CONTINUOUS
100
AcDbLine
 10
85.6999892
 20
-17.5
 30
0.0
 11
85.6999892
 21
0.0
 31
0.0
1001
GRPNAME
1000
PASTMD1S
  0
LINE
  5
1570
330
977
100
AcDbEntity
  8
240
  6
CONTINUOUS
100
AcDbLine
 10
105.0
 20
-16.7
 30
0.0
 11
105.0
 21
0.0
 31
0.0
1001
GRPNAME
1000
PASTMD1S
  0
LINE
  5
1571
330
977
100
AcDbEntity
  8
240
  6
CONTINUOUS
100
AcDbLine
 10
104.2
 20
-17.5
 30
0.0
 11
84.75979682
 21
-17.5
 31
0.0
1001
GRPNAME
1000
PASTMD1S
  0
LINE
  5
1572
330
977
100
AcDbEntity
  8
240
  6
CONTINUOUS
100
AcDbLine
 10
82.9999892
 20
-17.65
 30
0.0
 11
84.4999892
 21
-17.65
 31
0.0
1001
GRPNAME
1000
PASTMD1S
  0
ARC
  5
1573
330
977
100
AcDbEntity
  8
240
  6
CONTINUOUS
100
AcDbCircle
 10
82.9999892
 20
-17.15
 30
0.0
 40
0.5
100
AcDbArc
 50
179.99999998
 51
269.99999998
1001
GRPNAME
1000
PASTMD1S
  0
ARC
  5
1574
330
977
100
AcDbEntity
  8
240
  6
CONTINUOUS
100
AcDbCircle
 10
81.1999892
 20
-17.02551771
 30
0.0
 40
0.5
100
AcDbArc
 50
273.00000001
 51
0.0
  0
LINE
  5
1575
330
977
100
AcDbEntity
  8
240
100
AcDbLine
 10
84.75979682
 20
-17.5
 30
0.0
 11
84.4999892
 21
-17.65
 31
0.0
  0
ARC
  5
1576
330
977
100
AcDbEntity
  8
240
  6
CONTINUOUS
100
AcDbCircle
 10
104.2
 20
-16.7
 30
0.0
 40
0.8
100
AcDbArc
 50
270.0
 51
0.0
1001
GRPNAME
1000
PASTMD1S
  0
LINE
  5
1577
330
977
100
AcDbEntity
  8
241
  6
HIDDEN2
100
AcDbLine
 10
97.5999892
 20
13.5
 30
0.0
 11
88.5499892
 21
13.5
 31
0.0
1001
GRPNAME
1000
PASTMD1B
  0
LINE
  5
1578
330
977
100
AcDbEntity
  8
242
  6
HIDDEN2
100
AcDbLine
 10
89.0499892
 20
13.0
 30
0.0
 11
88.5499892
 21
13.5
 31
0.0
1001
GRPNAME
1000
PASTMD1B
  0
LINE
  5
1579
330
977
100
AcDbEntity
  8
241
  6
HIDDEN2
100
AcDbLine
 10
67.91819964
 20
5.0
 30
0.0
 11
105.0
 21
5.0
 31
0.0
1001
GRPNAME
1000
PASTMD1P
  0
LINE
  5
157A
330
977
100
AcDbEntity
  8
241
  6
HIDDEN2
100
AcDbLine
 10
71.84350753
 20
6.65
 30
0.0
 11
98.9999892
 21
8.54896619
 31
0.0
1001
GRPNAME
1000
PASTMD6S
  0
LINE
  5
157B
330
977
100
AcDbEntity
  8
240
  6
CONTINUOUS
100
AcDbLine
 10
104.2
 20
17.5
 30
0.0
 11
84.75979682
 21
17.5
 31
0.0
1001
GRPNAME
1000
PASTMD6P
  0
LINE
  5
157C
330
977
100
AcDbEntity
  8
241
100
AcDbLine
 10
81.6999892
 20
0.0
 30
0.0
 11
81.6999892
 21
13.7
 31
0.0
  0
LINE
  5
157D
330
977
100
AcDbEntity
  8
241
100
AcDbLine
 10
82.4999892
 20
0.0
 30
0.0
 11
82.4999892
 21
13.7
 31
0.0
  0
LINE
  5
157E
330
977
100
AcDbEntity
  8
241
  6
CONTINUOUS
100
AcDbLine
 10
85.6999892
 20
17.5
 30
0.0
 11
85.6999892
 21
0.0
 31
0.0
1001
GRPNAME
1000
PASTMD1S
  0
LINE
  5
157F
330
977
100
AcDbEntity
  8
241
  6
CONTINUOUS
100
AcDbLine
 10
84.4999892
 20
17.65
 30
0.0
 11
84.4999892
 21
0.0
 31
0.0
1001
GRPNAME
1000
PASTMD1S
  0
LINE
  5
1580
330
977
100
AcDbEntity
  8
241
  6
HIDDEN2
100
AcDbLine
 10
59.2999847
 20
6.65
 30
0.0
 11
71.84350753
 21
6.65
 31
0.0
1001
GRPNAME
1000
PASTMD1B
  0
LINE
  5
1581
330
977
100
AcDbEntity
  8
241
  6
HIDDEN2
100
AcDbLine
 10
67.91819964
 20
5.20000116
 30
0.0
 11
59.2999847
 21
5.20000116
 31
0.0
1001
GRPNAME
1000
PASTMD6S
  0
LINE
  5
1582
330
977
100
AcDbEntity
  8
241
  6
HIDDEN2
100
AcDbLine
 10
59.2999847
 20
6.65
 30
0.0
 11
59.2999847
 21
0.0
 31
0.0
1001
GRPNAME
1000
PASTMD6V
  0
LINE
  5
1583
330
977
100
AcDbEntity
  8
241
  6
HIDDEN2
100
AcDbLine
 10
56.9999847
 20
6.95
 30
0.0
 11
56.9999847
 21
0.0
 31
0.0
1001
GRPNAME
1000
PASTMD1B
  0
LINE
  5
1584
330
977
100
AcDbEntity
  8
241
  6
HIDDEN2
100
AcDbLine
 10
56.9999847
 20
6.95
 30
0.0
 11
60.6999847
 21
6.95
 31
0.0
1001
GRPNAME
1000
PASTMD1B
  0
LINE
  5
1585
330
977
100
AcDbEntity
  8
241
  6
HIDDEN2
100
AcDbLine
 10
60.6999847
 20
6.65
 30
0.0
 11
60.6999847
 21
6.95
 31
0.0
1001
GRPNAME
1000
PASTMD06
  0
LINE
  5
1586
330
977
100
AcDbEntity
  8
241
  6
HIDDEN2
100
AcDbLine
 10
67.91819964
 20
0.0
 30
0.0
 11
67.91819964
 21
5.20000116
 31
0.0
1001
GRPNAME
1000
PASTMD1P
  0
LINE
  5
1587
330
977
100
AcDbEntity
  8
241
100
AcDbLine
 10
81.6999892
 20
0.0
 30
0.0
 11
81.6999892
 21
-13.7
 31
0.0
  0
LINE
  5
1588
330
977
100
AcDbEntity
  8
241
100
AcDbLine
 10
82.4999892
 20
0.0
 30
0.0
 11
82.4999892
 21
-13.7
 31
0.0
  0
LINE
  5
1589
330
977
100
AcDbEntity
  8
240
  6
CONTINUOUS
100
AcDbLine
 10
81.6999892
 20
-13.7
 30
0.0
 11
82.4999892
 21
-13.7
 31
0.0
1001
GRPNAME
1000
PASTMD1B
  0
LINE
  5
158A
330
977
100
AcDbEntity
  8
240
  6
CONTINUOUS
100
AcDbLine
 10
82.4999892
 20
17.15
 30
0.0
 11
82.4999892
 21
13.7
 31
0.0
1001
GRPNAME
1000
PASTMD1S
  0
LINE
  5
158B
330
977
100
AcDbEntity
  8
240
  6
CONTINUOUS
100
AcDbLine
 10
81.6999892
 20
17.02551771
 30
0.0
 11
81.6999892
 21
13.7
 31
0.0
1001
GRPNAME
1000
PASTMD06
  0
LINE
  5
158C
330
977
100
AcDbEntity
  8
241
  6
HIDDEN2
100
AcDbLine
 10
82.4999892
 20
13.7
 30
0.0
 11
86.1999892
 21
13.7
 31
0.0
1001
GRPNAME
1000
PASTMD1B
  0
LINE
  5
158D
330
977
100
AcDbEntity
  8
240
  6
CONTINUOUS
100
AcDbLine
 10
81.6999892
 20
13.7
 30
0.0
 11
82.4999892
 21
13.7
 31
0.0
1001
GRPNAME
1000
PASTMD1B
  0
LINE
  5
158E
330
977
100
AcDbEntity
  8
241
  6
HIDDEN2
100
AcDbLine
 10
88.2999892
 20
13.75
 30
0.0
 11
87.2999892
 21
13.75
 31
0.0
1001
GRPNAME
1000
PASTMD1B
  0
LINE
  5
158F
330
977
100
AcDbEntity
  8
241
100
AcDbLine
 10
86.1999892
 20
12.76967746
 30
0.0
 11
87.2999892
 21
12.76967746
 31
0.0
  0
LINE
  5
1590
330
977
100
AcDbEntity
  8
241
  6
HIDDEN2
100
AcDbLine
 10
87.2999892
 20
12.76967746
 30
0.0
 11
87.2999892
 21
13.75
 31
0.0
1001
GRPNAME
1000
PASTMD1B
  0
LINE
  5
1591
330
977
100
AcDbEntity
  8
241
  6
HIDDEN2
100
AcDbLine
 10
86.1999892
 20
12.76967746
 30
0.0
 11
86.1999892
 21
13.7
 31
0.0
1001
GRPNAME
1000
PASTMD1B
  0
LINE
  5
1592
330
977
100
AcDbEntity
  8
241
  6
HIDDEN2
100
AcDbLine
 10
88.5499892
 20
13.5
 30
0.0
 11
88.2999892
 21
13.75
 31
0.0
1001
GRPNAME
1000
PASTMD1B
  0
LINE
  5
1593
330
977
100
AcDbEntity
  8
240
  6
CONTINUOUS
100
AcDbLine
 10
82.9999892
 20
17.65
 30
0.0
 11
84.4999892
 21
17.65
 31
0.0
1001
GRPNAME
1000
PASTMD6P
  0
ARC
  5
1594
330
977
100
AcDbEntity
  8
240
  6
CONTINUOUS
100
AcDbCircle
 10
82.9999892
 20
17.15
 30
0.0
 40
0.5
100
AcDbArc
 50
89.99999999
 51
180.0
1001
GRPNAME
1000
PASTMD1S
  0
ARC
  5
1595
330
977
100
AcDbEntity
  8
240
  6
CONTINUOUS
100
AcDbCircle
 10
81.1999892
 20
17.02551771
 30
0.0
 40
0.5
100
AcDbArc
 50
0.0
 51
86.99999999
  0
LINE
  5
1596
330
977
100
AcDbEntity
  8
240
100
AcDbLine
 10
84.75979682
 20
17.5
 30
0.0
 11
84.4999892
 21
17.65
 31
0.0
  0
LINE
  5
1597
330
977
100
AcDbEntity
  8
241
  6
HIDDEN2
100
AcDbLine
 10
98.2999892
 20
12.8
 30
0.0
 11
98.2999892
 21
8.50001742
 31
0.0
1001
GRPNAME
1000
PASTMD1B
  0
LINE
  5
1598
330
977
100
AcDbEntity
  8
240
  6
CONTINUOUS
100
AcDbLine
 10
105.0
 20
16.7
 30
0.0
 11
105.0
 21
0.0
 31
0.0
1001
GRPNAME
1000
PASTMD1S
  0
LINE
  5
1599
330
977
100
AcDbEntity
  8
241
  6
HIDDEN2
100
AcDbLine
 10
101.8735335
 20
7.20015468
 30
0.0
 11
102.6735335
 21
7.20015468
 31
0.0
1001
GRPNAME
1000
PASTMD6O
  0
LINE
  5
159A
330
977
100
AcDbEntity
  8
241
  6
HIDDEN2
100
AcDbLine
 10
100.0385335
 20
6.75015468
 30
0.0
 11
98.9999892
 21
8.54896619
 31
0.0
1001
GRPNAME
1000
PASTMD6O
  0
LINE
  5
159B
330
977
100
AcDbEntity
  8
241
  6
HIDDEN2
100
AcDbLine
 10
100.0385335
 20
6.75015468
 30
0.0
 11
101.4235335
 21
6.75015468
 31
0.0
1001
GRPNAME
1000
PASTMD6O
  0
LINE
  5
159C
330
977
100
AcDbEntity
  8
241
  6
HIDDEN2
100
AcDbLine
 10
101.4235335
 20
6.75015468
 30
0.0
 11
101.8735335
 21
7.20015468
 31
0.0
1001
GRPNAME
1000
PASTMD6O
  0
LINE
  5
159D
330
977
100
AcDbEntity
  8
241
  6
HIDDEN2
100
AcDbLine
 10
98.2999892
 20
9.18783049
 30
0.0
 11
98.2999892
 21
8.50001742
 31
0.0
1001
GRPNAME
1000
PASTMD1B
  0
LINE
  5
159E
330
977
100
AcDbEntity
  8
241
  6
HIDDEN2
100
AcDbLine
 10
102.6735335
 20
7.20015468
 30
0.0
 11
105.0
 21
6.35339013
 31
0.0
1001
GRPNAME
1000
PASTMD1O
  0
LINE
  5
159F
330
977
100
AcDbEntity
  8
242
  6
HIDDEN2
100
AcDbLine
 10
98.0999892
 20
13.0
 30
0.0
 11
89.0499892
 21
13.0
 31
0.0
1001
GRPNAME
1000
PASTMD1B
  0
LINE
  5
15A0
330
977
100
AcDbEntity
  8
241
  6
HIDDEN2
100
AcDbLine
 10
97.5999892
 20
13.5
 30
0.0
 11
98.2999892
 21
12.8
 31
0.0
1001
GRPNAME
1000
PASTMD06
  0
ARC
  5
15A1
330
977
100
AcDbEntity
  8
240
  6
CONTINUOUS
100
AcDbCircle
 10
104.2
 20
16.7
 30
0.0
 40
0.8
100
AcDbArc
 50
0.0
 51
90.0
1001
GRPNAME
1000
PASTMD1S
  0
ENDBLK
  5
979
330
977
100
AcDbEntity
  8
0
100
AcDbBlockEnd
  0
BLOCK
  5
AD7
330
ACD
100
AcDbEntity
  8
0
100
AcDbBlockBegin
  2
*D4
 70
     1
 10
0.0
 20
0.0
 30
0.0
  3
*D4
  1

  0
LINE
  5
122F
330
ACD
100
AcDbEntity
  8
250
  6
CONTINUOUS
 62
     3
100
AcDbLine
 10
7.0
 20
5.7
 30
0.0
 11
7.0
 21
39.5
 31
0.0
  0
LINE
  5
1230
330
ACD
100
AcDbEntity
  8
250
  6
CONTINUOUS
 62
     3
100
AcDbLine
 10
105.0
 20
17.305322
 30
0.0
 11
105.0
 21
39.5
 31
0.0
  0
LINE
  5
1231
330
ACD
100
AcDbEntity
  8
250
  6
CONTINUOUS
 62
     3
100
AcDbLine
 10
9.0
 20
38.5
 30
0.0
 11
103.0
 21
38.5
 31
0.0
  0
INSERT
  5
1232
330
ACD
100
AcDbEntity
  8
250
  6
CONTINUOUS
 62
     3
100
AcDbBlockReference
  2
_OPEN
 10
7.0
 20
38.5
 30
0.0
 41
2.0
 42
2.0
 43
2.0
 50
180.0
  0
INSERT
  5
1233
330
ACD
100
AcDbEntity
  8
250
  6
CONTINUOUS
 62
     3
100
AcDbBlockReference
  2
_OPEN
 10
105.0
 20
38.5
 30
0.0
 41
2.0
 42
2.0
 43
2.0
  0
MTEXT
  5
1234
330
ACD
100
AcDbEntity
  8
250
  6
CONTINUOUS
 62
    40
100
AcDbMText
 10
56.0
 20
41.0
 30
0.0
 40
3.0
 41
0.0
 71
     5
 72
     1
  1
\A1;（max.98）
1001
ACAD
1000
MTEXTBEGIN
1070
    73
1070
     1
1070
    44
1040
1.0
1070
    74
1070
     0
1000
MTEXTEND
1000
MTEXTBEGIN
1070
    73
1070
     1
1070
    44
1040
1.0
1070
    74
1070
     0
1000
MTEXTEND
1000
MTEXTBEGIN
1070
    73
1070
     1
1070
    44
1040
1.0
1070
    74
1070
     0
1000
MTEXTEND
  0
POINT
  5
1235
330
ACD
100
AcDbEntity
  8
DEFPOINTS
  6
CONTINUOUS
 62
     0
100
AcDbPoint
 10
7.0
 20
5.2
 30
0.0
  0
POINT
  5
1236
330
ACD
100
AcDbEntity
  8
DEFPOINTS
  6
CONTINUOUS
 62
     0
100
AcDbPoint
 10
105.0
 20
16.805322
 30
0.0
  0
POINT
  5
1237
330
ACD
100
AcDbEntity
  8
DEFPOINTS
  6
CONTINUOUS
 62
     0
100
AcDbPoint
 10
105.0
 20
38.5
 30
0.0
  0
ENDBLK
  5
AD8
330
ACD
100
AcDbEntity
  8
0
100
AcDbBlockEnd
  0
BLOCK
  5
AE3
330
AD9
100
AcDbEntity
  8
0
100
AcDbBlockBegin
  2
*D5
 70
     1
 10
0.0
 20
0.0
 30
0.0
  3
*D5
  1

  0
LINE
  5
B9F
330
AD9
100
AcDbEntity
  8
250
  6
CONTINUOUS
 62
     3
100
AcDbLine
 10
0.0
 20
25.19
 30
0.0
 11
0.0
 21
46.5
 31
0.0
  0
LINE
  5
BA0
330
AD9
100
AcDbEntity
  8
250
  6
CONTINUOUS
 62
     3
100
AcDbLine
 10
105.0
 20
17.305322
 30
0.0
 11
105.0
 21
46.5
 31
0.0
  0
LINE
  5
BA1
330
AD9
100
AcDbEntity
  8
250
  6
CONTINUOUS
 62
     3
100
AcDbLine
 10
2.23
 20
45.5
 30
0.0
 11
102.77
 21
45.5
 31
0.0
  0
INSERT
  5
BA2
330
AD9
100
AcDbEntity
  8
250
  6
CONTINUOUS
 62
     3
100
AcDbBlockReference
  2
_OPEN
 10
0.0
 20
45.5
 30
0.0
 41
2.23
 42
2.23
 43
2.23
 50
180.0
  0
INSERT
  5
BA3
330
AD9
100
AcDbEntity
  8
250
  6
CONTINUOUS
 62
     3
100
AcDbBlockReference
  2
_OPEN
 10
105.0
 20
45.5
 30
0.0
 41
2.23
 42
2.23
 43
2.23
  0
MTEXT
  5
BA4
330
AD9
100
AcDbEntity
  8
250
  6
CONTINUOUS
 62
    40
100
AcDbMText
 10
54.73417975
 20
48.0
 30
0.0
 40
3.0
 41
0.0
 71
     5
 72
     1
  1
\A1;105
1001
ACAD
1000
MTEXTBEGIN
1070
    73
1070
     1
1070
    44
1040
1.0
1070
    74
1070
     0
1000
MTEXTEND
1000
MTEXTBEGIN
1070
    73
1070
     1
1070
    44
1040
1.0
1070
    74
1070
     0
1000
MTEXTEND
1000
MTEXTBEGIN
1070
    73
1070
     1
1070
    44
1040
1.0
1070
    74
1070
     0
1000
MTEXTEND
1000
MTEXTBEGIN
1070
    73
1070
     1
1070
    44
1040
1.0
1070
    74
1070
     0
1000
MTEXTEND
1000
MTEXTBEGIN
1070
    73
1070
     1
1070
    44
1040
1.0
1070
    74
1070
     0
1000
MTEXTEND
1000
MTEXTBEGIN
1070
    73
1070
     1
1070
    44
1040
1.0
1070
    74
1070
     0
1000
MTEXTEND
1000
MTEXTBEGIN
1070
    73
1070
     1
1070
    44
1040
1.0
1070
    74
1070
     0
1000
MTEXTEND
1000
MTEXTBEGIN
1070
    73
1070
     1
1070
    44
1040
1.0
1070
    74
1070
     0
1000
MTEXTEND
  0
POINT
  5
BA5
330
AD9
100
AcDbEntity
  8
DEFPOINTS
  6
CONTINUOUS
 62
     0
100
AcDbPoint
 10
0.0
 20
24.69
 30
0.0
  0
POINT
  5
BA6
330
AD9
100
AcDbEntity
  8
DEFPOINTS
  6
CONTINUOUS
 62
     0
100
AcDbPoint
 10
105.0
 20
16.805322
 30
0.0
  0
POINT
  5
BA7
330
AD9
100
AcDbEntity
  8
DEFPOINTS
  6
CONTINUOUS
 62
     0
100
AcDbPoint
 10
105.0
 20
45.5
 30
0.0
  0
ENDBLK
  5
AE4
330
AD9
100
AcDbEntity
  8
0
100
AcDbBlockEnd
  0
BLOCK
  5
AEF
330
AE5
100
AcDbEntity
  8
0
100
AcDbBlockBegin
  2
*D6
 70
     1
 10
0.0
 20
0.0
 30
0.0
  3
*D6
  1

  0
LINE
  5
BA8
330
AE5
100
AcDbEntity
  8
250
  6
CONTINUOUS
 62
     3
100
AcDbLine
 10
20.0
 20
24.49
 30
0.0
 11
20.0
 21
32.5
 31
0.0
  0
LINE
  5
BA9
330
AE5
100
AcDbEntity
  8
250
  6
CONTINUOUS
 62
     3
100
AcDbLine
 10
105.0
 20
17.305322
 30
0.0
 11
105.0
 21
32.5
 31
0.0
  0
LINE
  5
BAA
330
AE5
100
AcDbEntity
  8
250
  6
CONTINUOUS
 62
     3
100
AcDbLine
 10
22.23
 20
31.5
 30
0.0
 11
102.77
 21
31.5
 31
0.0
  0
INSERT
  5
BAB
330
AE5
100
AcDbEntity
  8
250
  6
CONTINUOUS
 62
     3
100
AcDbBlockReference
  2
_OPEN
 10
20.0
 20
31.5
 30
0.0
 41
2.23
 42
2.23
 43
2.23
 50
180.0
  0
INSERT
  5
BAC
330
AE5
100
AcDbEntity
  8
250
  6
CONTINUOUS
 62
     3
100
AcDbBlockReference
  2
_OPEN
 10
105.0
 20
31.5
 30
0.0
 41
2.23
 42
2.23
 43
2.23
  0
MTEXT
  5
BAD
330
AE5
100
AcDbEntity
  8
250
  6
CONTINUOUS
 62
    40
100
AcDbMText
 10
62.5
 20
34.0
 30
0.0
 40
3.0
 41
0.0
 71
     5
 72
     1
  1
\A1;85
1001
ACAD
1000
MTEXTBEGIN
1070
    73
1070
     1
1070
    44
1040
1.0
1070
    74
1070
     0
1000
MTEXTEND
1000
MTEXTBEGIN
1070
    73
1070
     1
1070
    44
1040
1.0
1070
    74
1070
     0
1000
MTEXTEND
1000
MTEXTBEGIN
1070
    73
1070
     1
1070
    44
1040
1.0
1070
    74
1070
     0
1000
MTEXTEND
1000
MTEXTBEGIN
1070
    73
1070
     1
1070
    44
1040
1.0
1070
    74
1070
     0
1000
MTEXTEND
1000
MTEXTBEGIN
1070
    73
1070
     1
1070
    44
1040
1.0
1070
    74
1070
     0
1000
MTEXTEND
1000
MTEXTBEGIN
1070
    73
1070
     1
1070
    44
1040
1.0
1070
    74
1070
     0
1000
MTEXTEND
1000
MTEXTBEGIN
1070
    73
1070
     1
1070
    44
1040
1.0
1070
    74
1070
     0
1000
MTEXTEND
1000
MTEXTBEGIN
1070
    73
1070
     1
1070
    44
1040
1.0
1070
    74
1070
     0
1000
MTEXTEND
  0
POINT
  5
BAE
330
AE5
100
AcDbEntity
  8
DEFPOINTS
  6
CONTINUOUS
 62
     0
100
AcDbPoint
 10
20.0
 20
23.99
 30
0.0
  0
POINT
  5
BAF
330
AE5
100
AcDbEntity
  8
DEFPOINTS
  6
CONTINUOUS
 62
     0
100
AcDbPoint
 10
105.0
 20
16.805322
 30
0.0
  0
POINT
  5
BB0
330
AE5
100
AcDbEntity
  8
DEFPOINTS
  6
CONTINUOUS
 62
     0
100
AcDbPoint
 10
105.0
 20
31.5
 30
0.0
  0
ENDBLK
  5
AF0
330
AE5
100
AcDbEntity
  8
0
100
AcDbBlockEnd
  0
BLOCK
  5
1206
330
11FC
100
AcDbEntity
  8
0
100
AcDbBlockBegin
  2
*D7
 70
     1
 10
0.0
 20
0.0
 30
0.0
  3
*D7
  1

  0
LINE
  5
1212
330
11FC
100
AcDbEntity
  8
250
  6
CONTINUOUS
 62
     3
100
AcDbLine
 10
104.7
 20
-17.5
 30
0.0
 11
122.0
 21
-17.5
 31
0.0
  0
LINE
  5
1213
330
11FC
100
AcDbEntity
  8
250
  6
CONTINUOUS
 62
     3
100
AcDbLine
 10
104.7
 20
17.5
 30
0.0
 11
122.0
 21
17.5
 31
0.0
  0
LINE
  5
1214
330
11FC
100
AcDbEntity
  8
250
  6
CONTINUOUS
 62
     3
100
AcDbLine
 10
121.0
 20
-15.27
 30
0.0
 11
121.0
 21
15.27
 31
0.0
  0
INSERT
  5
1215
330
11FC
100
AcDbEntity
  8
250
  6
CONTINUOUS
 62
     3
100
AcDbBlockReference
  2
_OPEN
 10
121.0
 20
-17.5
 30
0.0
 41
2.23
 42
2.23
 43
2.23
 50
270.0
  0
INSERT
  5
1216
330
11FC
100
AcDbEntity
  8
250
  6
CONTINUOUS
 62
     3
100
AcDbBlockReference
  2
_OPEN
 10
121.0
 20
17.5
 30
0.0
 41
2.23
 42
2.23
 43
2.23
 50
90.0
  0
MTEXT
  5
1217
330
11FC
100
AcDbEntity
  8
250
  6
CONTINUOUS
 62
    40
100
AcDbMText
 10
118.5
 20
0.0
 30
0.0
 40
3.0
 41
0.0
 71
     5
 72
     1
  1
\A1;{\H3;\U+2205}35
 11
0.0
 21
1.0
 31
0.0
1001
ACAD
1000
MTEXTBEGIN
1070
    73
1070
     1
1070
    44
1040
1.0
1070
    74
1070
     0
1000
MTEXTEND
1000
MTEXTBEGIN
1070
    73
1070
     1
1070
    44
1040
1.0
1070
    74
1070
     0
1000
MTEXTEND
1000
MTEXTBEGIN
1070
    73
1070
     1
1070
    44
1040
1.0
1070
    74
1070
     0
1000
MTEXTEND
  0
POINT
  5
1218
330
11FC
100
AcDbEntity
  8
DEFPOINTS
  6
CONTINUOUS
 62
     0
100
AcDbPoint
 10
104.2
 20
-17.5
 30
0.0
  0
POINT
  5
1219
330
11FC
100
AcDbEntity
  8
DEFPOINTS
  6
CONTINUOUS
 62
     0
100
AcDbPoint
 10
104.2
 20
17.5
 30
0.0
  0
POINT
  5
121A
330
11FC
100
AcDbEntity
  8
DEFPOINTS
  6
CONTINUOUS
 62
     0
100
AcDbPoint
 10
121.0
 20
17.5
 30
0.0
  0
ENDBLK
  5
1207
330
11FC
100
AcDbEntity
  8
0
100
AcDbBlockEnd
  0
BLOCK
  5
1210
330
1208
100
AcDbEntity
  8
0
100
AcDbBlockBegin
  2
*D8
 70
     1
 10
0.0
 20
0.0
 30
0.0
  3
*D8
  1

  0
LINE
  5
121B
330
1208
100
AcDbEntity
  8
250
  6
CONTINUOUS
 62
     3
100
AcDbLine
 10
105.5
 20
5.0
 30
0.0
 11
115.0
 21
5.0
 31
0.0
  0
LINE
  5
121C
330
1208
100
AcDbEntity
  8
250
  6
CONTINUOUS
 62
     3
100
AcDbLine
 10
114.0
 20
-5.0
 30
0.0
 11
114.0
 21
2.77
 31
0.0
  0
INSERT
  5
121D
330
1208
100
AcDbEntity
  8
250
  6
CONTINUOUS
 62
     3
100
AcDbBlockReference
  2
_OPEN
 10
114.0
 20
5.0
 30
0.0
 41
2.23
 42
2.23
 43
2.23
 50
90.0
  0
MTEXT
  5
121E
330
1208
100
AcDbEntity
  8
250
  6
CONTINUOUS
 62
    40
100
AcDbMText
 10
111.5
 20
-1.115
 30
0.0
 40
3.0
 41
0.0
 71
     5
 72
     1
  1
\A1;max.φ10
 11
0.0
 21
1.0
 31
0.0
1001
ACAD
1000
MTEXTBEGIN
1070
    73
1070
     1
1070
    44
1040
1.0
1070
    74
1070
     0
1000
MTEXTEND
1000
MTEXTBEGIN
1070
    73
1070
     1
1070
    44
1040
1.0
1070
    74
1070
     0
1000
MTEXTEND
1000
MTEXTBEGIN
1070
    73
1070
     1
1070
    44
1040
1.0
1070
    74
1070
     0
1000
MTEXTEND
  0
POINT
  5
121F
330
1208
100
AcDbEntity
  8
DEFPOINTS
  6
CONTINUOUS
 62
     0
100
AcDbPoint
 10
104.8
 20
-5.0
 30
0.0
  0
POINT
  5
1220
330
1208
100
AcDbEntity
  8
DEFPOINTS
  6
CONTINUOUS
 62
     0
100
AcDbPoint
 10
105.0
 20
5.0
 30
0.0
  0
POINT
  5
1221
330
1208
100
AcDbEntity
  8
DEFPOINTS
  6
CONTINUOUS
 62
     0
100
AcDbPoint
 10
114.0
 20
5.0
 30
0.0
  0
ENDBLK
  5
1211
330
1208
100
AcDbEntity
  8
0
100
AcDbBlockEnd
  0
ENDSEC
  0
SECTION
  2
ENTITIES
  0
INSERT
  5
6E6
330
1A
100
AcDbEntity
  8
245
100
AcDbBlockReference
  2
矢印なし
 10
175.62382697
 20
90.55123572
 30
0.0
  0
TEXT
  5
7F3
330
1A
100
AcDbEntity
  8
241
100
AcDbText
 10
-30.0
 20
59.5
 30
0.0
 40
5.0
  1
C5-MEGA10E-105
  7
YOKO
 11
-30.0
 21
59.5
 31
0.0
100
AcDbText
 73
     1
  0
DIMENSION
  5
AC8
330
1A
100
AcDbEntity
  8
250
  6
CONTINUOUS
100
AcDbDimension
  2
*D4
 10
105.0
 20
38.5
 30
0.0
 11
56.0
 21
41.0
 31
0.0
 70
    32
  1
（max.<>）
  3
BIGT$0
100
AcDbAlignedDimension
 13
7.0
 23
5.2
 33
0.0
 14
105.0
 24
16.805322
 34
0.0
100
AcDbRotatedDimension
1001
ACAD
1000
DSTYLE
1002
{
1070
    41
1040
2.0
1002
}
  0
DIMENSION
  5
AC9
330
1A
100
AcDbEntity
  8
250
  6
CONTINUOUS
100
AcDbDimension
  2
*D5
 10
105.0
 20
45.5
 30
0.0
 11
54.73417975
 21
45.5
 31
0.0
 70
   160
  3
BIGT$0
100
AcDbAlignedDimension
 13
0.0
 23
24.69
 33
0.0
 14
105.0
 24
16.805322
 34
0.0
100
AcDbRotatedDimension
  0
DIMENSION
  5
ACA
330
1A
100
AcDbEntity
  8
250
  6
CONTINUOUS
100
AcDbDimension
  2
*D6
 10
105.0
 20
31.5
 30
0.0
 11
62.5
 21
34.0
 31
0.0
 70
    32
  3
BIGT$0
100
AcDbAlignedDimension
 13
20.0
 23
23.99
 33
0.0
 14
105.0
 24
16.805322
 34
0.0
100
AcDbRotatedDimension
  0
MTEXT
  5
113A
330
1A
100
AcDbEntity
  8
251
  6
CONTINUOUS
100
AcDbMText
 10
-25.91998082
 20
-23.62287576
 30
0.0
 40
2.8
 41
0.0
 71
     7
 72
     1
  1
C5
  7
YOKO
1001
ITEMNAME
1000
LNSP3
1001
ACAD
1000
MTEXTBEGIN
1070
    73
1070
     1
1070
    44
1040
1.0
1070
    74
1070
     0
1000
MTEXTEND
1000
MTEXTBEGIN
1070
    73
1070
     1
1070
    44
1040
1.0
1070
    74
1070
     0
1000
MTEXTEND
1000
MTEXTBEGIN
1070
    73
1070
     1
1070
    44
1040
1.0
1070
    74
1070
     0
1000
MTEXTEND
1000
MTEXTBEGIN
1070
    73
1070
     1
1070
    44
1040
1.0
1070
    74
1070
     0
1000
MTEXTEND
1000
MTEXTBEGIN
1070
    73
1070
     1
1070
    44
1040
1.0
1070
    74
1070
     0
1000
MTEXTEND
1000
MTEXTBEGIN
1070
    73
1070
     1
1070
    44
1040
1.0
1070
    74
1070
     0
1000
MTEXTEND
1000
MTEXTBEGIN
1070
    73
1070
     1
1070
    44
1040
1.0
1070
    74
1070
     0
1000
MTEXTEND
1000
MTEXTBEGIN
1070
    73
1070
     1
1070
    44
1040
1.0
1070
    74
1070
     0
1000
MTEXTEND
1000
MTEXTBEGIN
1070
    73
1070
     1
1070
    44
1040
1.0
1070
    74
1070
     0
1000
MTEXTEND
1000
MTEXTBEGIN
1070
    73
1070
     1
1070
    44
1040
1.0
1070
    74
1070
     0
1000
MTEXTEND
1000
MTEXTBEGIN
1070
    73
1070
     1
1070
    44
1040
1.0
1070
    74
1070
     0
1000
MTEXTEND
1000
MTEXTBEGIN
1070
    73
1070
     1
1070
    44
1040
1.0
1070
    74
1070
     0
1000
MTEXTEND
1000
MTEXTBEGIN
1070
    73
1070
     1
1070
    44
1040
1.0
1070
    74
1070
     0
1000
MTEXTEND
1000
MTEXTBEGIN
1070
    73
1070
     1
1070
    44
1040
1.0
1070
    74
1070
     0
1000
MTEXTEND
  0
LINE
  5
113B
330
1A
100
AcDbEntity
  8
250
  6
CONTINUOUS
100
AcDbLine
 10
-18.45331416
 20
-24.62287576
 30
0.0
 11
-28.71998082
 21
-24.62287576
 31
0.0
1001
ITEMNAME
1000
LNSP2
  0
LEADER
  5
1140
330
1A
100
AcDbEntity
  8
250
  6
CONTINUOUS
100
AcDbLeader
  3
BIGT$7
 76
     2
 10
-13.54211194
 20
-16.116424
 30
0.0
 10
-18.45331416
 20
-24.62287576
 30
0.0
1001
ACAD
1000
DSTYLE
1002
{
1070
     5
1000
OPEN
1070
    41
1040
2.0
1070
   342
1005
594
1002
}
  0
DIMENSION
  5
11CE
330
1A
100
AcDbEntity
  8
250
  6
CONTINUOUS
100
AcDbDimension
  2
*D7
 10
121.0
 20
17.5
 30
0.0
 11
121.0
 21
0.0
 31
0.0
 70
   160
  1
{\H3;\U+2205}<>
  3
BIGT$0
100
AcDbAlignedDimension
 13
104.2
 23
-17.5
 33
0.0
 14
104.2
 24
17.5
 34
0.0
 50
90.0
100
AcDbRotatedDimension
  0
DIMENSION
  5
11CF
330
1A
100
AcDbEntity
  8
250
  6
CONTINUOUS
100
AcDbDimension
  2
*D8
 10
114.0
 20
5.0
 30
0.0
 11
114.0
 21
-1.115
 31
0.0
 70
   160
  1
max.φ<>
  3
BIGT$0
100
AcDbAlignedDimension
 13
104.8
 23
-5.0
 33
0.0
 14
105.0
 24
5.0
 34
0.0
 50
90.0
100
AcDbRotatedDimension
1001
ACAD
1000
DSTYLE
1002
{
1070
     5
1000

1070
   173
1070
     1
1070
     7
1000
OPEN
1070
    75
1070
     1
1070
     6
1000
NONE
1002
}
  0
INSERT
  5
15A2
330
1A
100
AcDbEntity
  8
245
100
AcDbBlockReference
  2
1
 10
0.0
 20
0.0
 30
0.0
  0
VIEWPORT
  5
22
330
17
100
AcDbEntity
 67
     1
  8
0
100
AcDbViewport
 10
261.51769912
 20
148.5
 30
0.0
 40
523.03539823
 41
297.0
 68
     1
 69
     1
1001
ACAD
1000
MVIEW
1002
{
1070
    16
1010
0.0
1020
0.0
1030
0.0
1010
0.0
1020
0.0
1030
1.0
1040
0.0
1040
297.0
1040
261.51769912
1040
148.5
1040
50.0
1040
0.0
1040
0.0
1070
     0
1070
   100
1070
     1
1070
     1
1070
     0
1070
     0
1070
     0
1070
     0
1040
0.0
1040
0.0
1040
0.0
1040
1.0
1040
1.0
1040
10.0
1040
10.0
1070
     0
1002
{
1002
}
1002
}
  0
ENDSEC
  0
SECTION
  2
OBJECTS
  0
DICTIONARY
  5
C
330
0
100
AcDbDictionary
  3
ACAD_GROUP
350
D
  3
ACAD_LAYOUT
350
565
  3
ACAD_MLINESTYLE
350
E
  3
ACAD_PLOTSETTINGS
350
566
  3
ACAD_PLOTSTYLENAME
350
563
  3
ACDBHEADERROUNDTRIPXREC
350
15CB
  3
GRADE_DWG
350
540
  0
DICTIONARY
  5
A78
330
A77
100
AcDbDictionary
280
     1
  3
ACAD_XREC_ROUNDTRIP
360
A79
  3
ADSK_XREC_LAYER_RECONCILED
360
A7A
  0
DICTIONARY
  5
A19
330
1A
100
AcDbDictionary
280
     1
  3
ACAD_LAYOUTSELFREF
360
15ED
  0
DICTIONARY
  5
A17
330
17
100
AcDbDictionary
280
     1
  3
ACAD_LAYOUTSELFREF
360
15EC
  0
DICTIONARY
  5
D
102
{ACAD_REACTORS
330
C
102
}
330
C
100
AcDbDictionary
  3
*A1
350
6C7
  3
*A2
350
6C8
  3
*A3
350
6D4
  3
*A4
350
6D5
  3
DREC-1
350
5FC
  3
DREC-2
350
654
  3
DREC-3
350
673
  0
DICTIONARY
  5
565
102
{ACAD_REACTORS
330
C
102
}
330
C
100
AcDbDictionary
  0
DICTIONARY
  5
E
102
{ACAD_REACTORS
330
C
102
}
330
C
100
AcDbDictionary
  3
STANDARD
350
13
  0
DICTIONARY
  5
566
102
{ACAD_REACTORS
330
C
102
}
330
C
100
AcDbDictionary
  3
A3_0_5倍_
350
758
  3
A3_1倍_
350
757
  3
A3_1倍__2000_
350
707
  3
A3_2倍_
350
759
  3
A4_0_5倍_
350
755
  3
A4_1倍_
350
754
  3
A4_1倍__2000_
350
708
  3
A4_2倍_
350
756
  0
ACDBDICTIONARYWDFLT
  5
563
102
{ACAD_REACTORS
330
C
102
}
330
C
100
AcDbDictionary
281
     1
  3
Normal
350
564
100
AcDbDictionaryWithDefault
340
564
  0
DICTIONARY
  5
15CB
102
{ACAD_REACTORS
330
C
102
}
330
C
100
AcDbDictionary
  3
CEPSNTYPE
350
15D5
  3
DIMSTYLEDATA
350
15D9
  3
FINGERPRINTGUID
350
15D6
  3
HYPERLINKBASE
350
15CE
  3
INSUNITS
350
15D4
  3
LAYOUTDICT
350
15D0
  3
LWETCUNION
350
15D3
  3
PLOTSETDICT
350
15D1
  3
PLOTSTYLNAMDICT
350
15D2
  3
PSVPSCALE
350
15D8
  3
PUCSBASE
350
15DC
  3
PUCSORGBACK
350
15E2
  3
PUCSORGBOTTOM
350
15DE
  3
PUCSORGFRONT
350
15E1
  3
PUCSORGLEFT
350
15DF
  3
PUCSORGRIGHT
350
15E0
  3
PUCSORGTOP
350
15DD
  3
PUCSORTHOREF
350
15DA
  3
PUCSORTHOVIEW
350
15DB
  3
STYLESHEET
350
15CF
  3
TSTACKALIGN
350
15CC
  3
TSTACKSIZE
350
15CD
  3
UCSBASE
350
15E5
  3
UCSORGBACK
350
15EB
  3
UCSORGBOTTOM
350
15E7
  3
UCSORGFRONT
350
15EA
  3
UCSORGLEFT
350
15E8
  3
UCSORGRIGHT
350
15E9
  3
UCSORGTOP
350
15E6
  3
UCSORTHOREF
350
15E3
  3
UCSORTHOVIEW
350
15E4
  3
VERSIONGUID
350
15D7
  0
DICTIONARY
  5
540
102
{ACAD_REACTORS
330
C
102
}
330
C
100
AcDbDictionary
  3
VERSION
350
560
  0
XRECORD
  5
A79
102
{ACAD_REACTORS
330
A78
102
}
330
A78
100
AcDbXrecord
102
MATERIAL
340
0
  0
XRECORD
  5
A7A
102
{ACAD_REACTORS
330
A78
102
}
330
A78
100
AcDbXrecord
290
     1
  0
XRECORD
  5
15ED
102
{ACAD_REACTORS
330
A19
102
}
330
A19
100
AcDbXrecord
340
1A
  0
XRECORD
  5
15EC
102
{ACAD_REACTORS
330
A17
102
}
330
A17
100
AcDbXrecord
340
17
  0
GROUP
  5
6C7
102
{ACAD_REACTORS
330
D
102
}
330
D
100
AcDbGroup
300

 70
     0
 71
     1
1001
GRPNAME
1000
DMA00
  0
GROUP
  5
6C8
102
{ACAD_REACTORS
330
D
102
}
330
D
100
AcDbGroup
300

 70
     0
 71
     1
1001
GRPNAME
1000
DMA00
  0
GROUP
  5
6D4
102
{ACAD_REACTORS
330
D
102
}
330
D
100
AcDbGroup
300

 70
     0
 71
     1
1001
GRPNAME
1000
DMA00
  0
GROUP
  5
6D5
102
{ACAD_REACTORS
330
D
102
}
330
D
100
AcDbGroup
300

 70
     0
 71
     1
1001
GRPNAME
1000
DMA00
  0
GROUP
  5
5FC
102
{ACAD_REACTORS
330
D
102
}
330
D
100
AcDbGroup
300

 70
     0
 71
     1
1001
GRPNAME
1000
DREC-
1001
GPARA
1000
xsiz
1000
44.182
1000
ysiz
1000
40.677
1000
angl
1000
0
1000
ctyp
1000
0
1000
csiz
1000
5
1000
lfnt
1000
cont
1000
hcnt
1000
hoff
1000
vcnt
1000
voff
1000
opnt
1000
4
1000
dxpt
1000
0
1000
dypt
1000
0
  0
GROUP
  5
654
102
{ACAD_REACTORS
330
D
102
}
330
D
100
AcDbGroup
300

 70
     0
 71
     1
1001
GRPNAME
1000
DREC-
1001
GPARA
1000
xsiz
1000
54.592
1000
ysiz
1000
53.036
1000
angl
1000
0
1000
ctyp
1000
0
1000
csiz
1000
5
1000
lfnt
1000
cont
1000
hcnt
1000
hoff
1000
vcnt
1000
voff
1000
opnt
1000
4
1000
dxpt
1000
0
1000
dypt
1000
0
  0
GROUP
  5
673
102
{ACAD_REACTORS
330
D
102
}
330
D
100
AcDbGroup
300

 70
     0
 71
     1
1001
GRPNAME
1000
DREC-
1001
GPARA
1000
xsiz
1000
30.363
1000
ysiz
1000
36.175
1000
angl
1000
0
1000
ctyp
1000
0
1000
csiz
1000
5
1000
lfnt
1000
cont
1000
hcnt
1000
hoff
1000
vcnt
1000
voff
1000
opnt
1000
4
1000
dxpt
1000
0
1000
dypt
1000
0
  0
MLINESTYLE
  5
13
102
{ACAD_REACTORS
330
E
102
}
330
E
100
AcDbMlineStyle
  2
STANDARD
 70
     0
  3

 62
     0
 51
90.0
 52
90.0
 71
     2
 49
0.5
 62
   256
  6
BYLAYER
 49
-0.5
 62
   256
  6
BYLAYER
  0
PLOTSETTINGS
  5
758
102
{ACAD_REACTORS
330
566
102
}
330
566
100
AcDbPlotSettings
  1
A3(0.5倍)
  2
\\AWTECPC05\HP DeskJet 1120C
  4
A3
  6

 40
5.95841646
 41
13.49375153
 42
6.04309082
 43
3.67242432
 44
296.92599487
 45
419.94665527
 46
89.96
 47
127.14
 48
0.0
 49
0.0
140
0.0
141
0.0
142
1.0
143
2.0
 70
  1716
 72
     1
 73
     1
 74
     2
  7
big.ctb
 75
    17
147
0.5
148
0.0
149
0.0
  0
PLOTSETTINGS
  5
757
102
{ACAD_REACTORS
330
566
102
}
330
566
100
AcDbPlotSettings
  1
A3(1倍)
  2
\\AWTECPC05\HP DeskJet 1120C
  4
A3
  6

 40
5.95841646
 41
13.49375153
 42
6.04309082
 43
3.67242432
 44
296.92599487
 45
419.94665527
 46
37.46
 47
52.89
 48
0.0
 49
0.0
140
0.0
141
0.0
142
1.0
143
1.0
 70
  1716
 72
     1
 73
     1
 74
     2
  7
big.ctb
 75
    16
147
1.0
148
0.0
149
0.0
  0
PLOTSETTINGS
  5
707
102
{ACAD_REACTORS
330
566
102
}
330
566
100
AcDbPlotSettings
  1
A3(1倍)(2000)
  2
SII LS-1300 (D-SCAN)
  4
User258
  6

 40
3.17499995
 41
3.17499995
 42
3.17498779
 43
3.17498779
 44
419.98898315
 45
296.98950195
 46
58.32
 47
40.32
 48
0.0
 49
0.0
140
0.0
141
0.0
142
1.0
143
1.0
 70
  1716
 72
     1
 73
     0
 74
     2
  7
big.ctb
 75
    16
147
1.0
148
0.0
149
0.0
  0
PLOTSETTINGS
  5
759
102
{ACAD_REACTORS
330
566
102
}
330
566
100
AcDbPlotSettings
  1
A3(2倍)
  2
\\AWTECPC05\HP DeskJet 1120C
  4
A3
  6

 40
5.95841646
 41
13.49375153
 42
6.04309082
 43
3.67242432
 44
296.92599487
 45
419.94665527
 46
-67.54
 47
-95.61
 48
0.0
 49
0.0
140
0.0
141
0.0
142
1.0
143
0.5
 70
  1716
 72
     1
 73
     1
 74
     2
  7
big.ctb
 75
    27
147
2.0
148
0.0
149
0.0
  0
PLOTSETTINGS
  5
755
102
{ACAD_REACTORS
330
566
102
}
330
566
100
AcDbPlotSettings
  1
A4(0.5倍)
  2
\\AWTECPC05\HP DeskJet 1120C
  4
A4
  6

 40
4.18041658
 41
13.49374962
 42
4.18040466
 43
3.92642212
 44
209.97332764
 45
296.92599487
 46
48.31
 47
65.5
 48
0.0
 49
0.0
140
0.0
141
0.0
142
1.0
143
2.0
 70
  1716
 72
     1
 73
     1
 74
     2
  7
big.ctb
 75
    17
147
0.5
148
0.0
149
0.0
  0
PLOTSETTINGS
  5
754
102
{ACAD_REACTORS
330
566
102
}
330
566
100
AcDbPlotSettings
  1
A4(1倍)
  2
\\AWTECPC05\HP DeskJet 1120C
  4
A4
  6

 40
4.18041658
 41
13.49374962
 42
4.18040466
 43
3.92642212
 44
209.97332764
 45
296.92599487
 46
-4.19
 47
-8.75
 48
0.0
 49
0.0
140
0.0
141
0.0
142
1.0
143
1.0
 70
  1716
 72
     1
 73
     1
 74
     2
  7
big.ctb
 75
    16
147
1.0
148
0.0
149
0.0
  0
PLOTSETTINGS
  5
708
102
{ACAD_REACTORS
330
566
102
}
330
566
100
AcDbPlotSettings
  1
A4(1倍)(2000)
  2
SII LS-1300 (D-SCAN)
  4
User259
  6

 40
3.17499995
 41
3.17499995
 42
3.17498779
 43
3.17500305
 44
296.98950195
 45
209.99449158
 46
-3.18
 47
-3.18
 48
0.0
 49
0.0
140
0.0
141
0.0
142
1.0
143
1.0
 70
  1716
 72
     1
 73
     0
 74
     2
  7
big.ctb
 75
    16
147
1.0
148
0.0
149
0.0
  0
PLOTSETTINGS
  5
756
102
{ACAD_REACTORS
330
566
102
}
330
566
100
AcDbPlotSettings
  1
A4(2倍)
  2
\\AWTECPC05\HP DeskJet 1120C
  4
A4
  6

 40
4.18041658
 41
13.49374962
 42
4.18040466
 43
3.92642212
 44
209.97332764
 45
296.92599487
 46
-109.19
 47
-157.25
 48
0.0
 49
0.0
140
0.0
141
0.0
142
1.0
143
0.5
 70
  1716
 72
     1
 73
     1
 74
     2
  7
big.ctb
 75
    27
147
2.0
148
0.0
149
0.0
  0
ACDBPLACEHOLDER
  5
564
102
{ACAD_REACTORS
330
563
102
}
330
563
100
AcDbPlaceHolder
280
     0
  0
XRECORD
  5
15D5
102
{ACAD_REACTORS
330
15CB
102
}
330
15CB
100
AcDbXrecord
 90
        0
  0
XRECORD
  5
15D9
102
{ACAD_REACTORS
330
15CB
102
}
330
15CB
100
AcDbXrecord
1000
DSTYLE
1002
{
1070
   341
340
594
1070
   343
340
594
1070
   344
340
594
1002
}
  0
XRECORD
  5
15D6
102
{ACAD_REACTORS
330
15CB
102
}
330
15CB
100
AcDbXrecord
  1
{51294030-9CB4-11D3-8E18-00A0C925D94D}
  0
XRECORD
  5
15CE
102
{ACAD_REACTORS
330
15CB
102
}
330
15CB
100
AcDbXrecord
  1

  0
XRECORD
  5
15D4
102
{ACAD_REACTORS
330
15CB
102
}
330
15CB
100
AcDbXrecord
 90
        0
  0
XRECORD
  5
15D0
102
{ACAD_REACTORS
330
15CB
102
}
330
15CB
100
AcDbXrecord
340
565
  0
XRECORD
  5
15D3
102
{ACAD_REACTORS
330
15CB
102
}
330
15CB
100
AcDbXrecord
 90
    10781
  0
XRECORD
  5
15D1
102
{ACAD_REACTORS
330
15CB
102
}
330
15CB
100
AcDbXrecord
340
566
  0
XRECORD
  5
15D2
102
{ACAD_REACTORS
330
15CB
102
}
330
15CB
100
AcDbXrecord
340
563
  0
XRECORD
  5
15D8
102
{ACAD_REACTORS
330
15CB
102
}
330
15CB
100
AcDbXrecord
 40
0.0
  0
XRECORD
  5
15DC
102
{ACAD_REACTORS
330
15CB
102
}
330
15CB
100
AcDbXrecord
340
0
  0
XRECORD
  5
15E2
102
{ACAD_REACTORS
330
15CB
102
}
330
15CB
100
AcDbXrecord
 10
0.0
 20
0.0
 30
0.0
  0
XRECORD
  5
15DE
102
{ACAD_REACTORS
330
15CB
102
}
330
15CB
100
AcDbXrecord
 10
0.0
 20
0.0
 30
0.0
  0
XRECORD
  5
15E1
102
{ACAD_REACTORS
330
15CB
102
}
330
15CB
100
AcDbXrecord
 10
0.0
 20
0.0
 30
0.0
  0
XRECORD
  5
15DF
102
{ACAD_REACTORS
330
15CB
102
}
330
15CB
100
AcDbXrecord
 10
0.0
 20
0.0
 30
0.0
  0
XRECORD
  5
15E0
102
{ACAD_REACTORS
330
15CB
102
}
330
15CB
100
AcDbXrecord
 10
0.0
 20
0.0
 30
0.0
  0
XRECORD
  5
15DD
102
{ACAD_REACTORS
330
15CB
102
}
330
15CB
100
AcDbXrecord
 10
0.0
 20
0.0
 30
0.0
  0
XRECORD
  5
15DA
102
{ACAD_REACTORS
330
15CB
102
}
330
15CB
100
AcDbXrecord
340
0
  0
XRECORD
  5
15DB
102
{ACAD_REACTORS
330
15CB
102
}
330
15CB
100
AcDbXrecord
 70
     0
  0
XRECORD
  5
15CF
102
{ACAD_REACTORS
330
15CB
102
}
330
15CB
100
AcDbXrecord
  1
big.ctb
  0
XRECORD
  5
15CC
102
{ACAD_REACTORS
330
15CB
102
}
330
15CB
100
AcDbXrecord
 90
        1
  0
XRECORD
  5
15CD
102
{ACAD_REACTORS
330
15CB
102
}
330
15CB
100
AcDbXrecord
 90
       70
  0
XRECORD
  5
15E5
102
{ACAD_REACTORS
330
15CB
102
}
330
15CB
100
AcDbXrecord
340
0
  0
XRECORD
  5
15EB
102
{ACAD_REACTORS
330
15CB
102
}
330
15CB
100
AcDbXrecord
 10
0.0
 20
0.0
 30
0.0
  0
XRECORD
  5
15E7
102
{ACAD_REACTORS
330
15CB
102
}
330
15CB
100
AcDbXrecord
 10
0.0
 20
0.0
 30
0.0
  0
XRECORD
  5
15EA
102
{ACAD_REACTORS
330
15CB
102
}
330
15CB
100
AcDbXrecord
 10
0.0
 20
0.0
 30
0.0
  0
XRECORD
  5
15E8
102
{ACAD_REACTORS
330
15CB
102
}
330
15CB
100
AcDbXrecord
 10
0.0
 20
0.0
 30
0.0
  0
XRECORD
  5
15E9
102
{ACAD_REACTORS
330
15CB
102
}
330
15CB
100
AcDbXrecord
 10
0.0
 20
0.0
 30
0.0
  0
XRECORD
  5
15E6
102
{ACAD_REACTORS
330
15CB
102
}
330
15CB
100
AcDbXrecord
 10
0.0
 20
0.0
 30
0.0
  0
XRECORD
  5
15E3
102
{ACAD_REACTORS
330
15CB
102
}
330
15CB
100
AcDbXrecord
340
0
  0
XRECORD
  5
15E4
102
{ACAD_REACTORS
330
15CB
102
}
330
15CB
100
AcDbXrecord
 70
     0
  0
XRECORD
  5
15D7
102
{ACAD_REACTORS
330
15CB
102
}
330
15CB
100
AcDbXrecord
  1
{C2F12244-537F-42D8-AFCA-70D66594CD3C}
  0
XRECORD
  5
560
102
{ACAD_REACTORS
330
540
102
}
330
540
100
AcDbXrecord
  1
2.0.0
  0
ENDSEC
  0
EOF
