  0
SECTION
  2
HEADER
  9
$ACADVER
  1
AC1014
  9
$ACADMAINTVER
 70
     9
  9
$DWGCODEPAGE
  3
ANSI_932
  9
$INSBASE
 10
0.0
 20
0.0
 30
0.0
  9
$EXTMIN
 10
-31.010009
 20
-24.99717078
 30
-0.00152582
  9
$EXTMAX
 10
102.52026421
 20
61.00495231
 30
0.00000003
  9
$LIMMIN
 10
0.0
 20
0.0
  9
$LIMMAX
 10
297.0
 20
210.0
  9
$ORTHOMODE
 70
     0
  9
$REGENMODE
 70
     1
  9
$FILLMODE
 70
     1
  9
$QTEXTMODE
 70
     0
  9
$MIRRTEXT
 70
     1
  9
$DRAGMODE
 70
     2
  9
$LTSCALE
 40
10.0
  9
$OSMODE
 70
   549
  9
$ATTMODE
 70
     1
  9
$TEXTSIZE
 40
3.0
  9
$TRACEWID
 40
1.0
  9
$TEXTSTYLE
  7
YOKO
  9
$CLAYER
  8
245
  9
$CELTYPE
  6
BYLAYER
  9
$CECOLOR
 62
   256
  9
$CELTSCALE
 40
1.0
  9
$DELOBJ
 70
     1
  9
$DISPSILH
 70
     0
  9
$DIMSCALE
 40
1.0
  9
$DIMASZ
 40
2.0
  9
$DIMEXO
 40
2.0
  9
$DIMDLI
 40
2.5
  9
$DIMRND
 40
0.0
  9
$DIMDLE
 40
0.0
  9
$DIMEXE
 40
2.0
  9
$DIMTP
 40
0.0
  9
$DIMTM
 40
0.0
  9
$DIMTXT
 40
4.0
  9
$DIMCEN
 40
0.0
  9
$DIMTSZ
 40
0.0
  9
$DIMTOL
 70
     0
  9
$DIMLIM
 70
     0
  9
$DIMTIH
 70
     0
  9
$DIMTOH
 70
     0
  9
$DIMSE1
 70
     0
  9
$DIMSE2
 70
     0
  9
$DIMTAD
 70
     3
  9
$DIMZIN
 70
     8
  9
$DIMBLK
  1

  9
$DIMASO
 70
     1
  9
$DIMSHO
 70
     1
  9
$DIMPOST
  1

  9
$DIMAPOST
  1

  9
$DIMALT
 70
     0
  9
$DIMALTD
 70
     2
  9
$DIMALTF
 40
25.4
  9
$DIMLFAC
 40
1.0
  9
$DIMTOFL
 70
     1
  9
$DIMTVP
 40
0.0
  9
$DIMTIX
 70
     1
  9
$DIMSOXD
 70
     0
  9
$DIMSAH
 70
     1
  9
$DIMBLK1
  1
OPEN
  9
$DIMBLK2
  1
OPEN
  9
$DIMSTYLE
  2
BIGT
  9
$DIMCLRD
 70
   256
  9
$DIMCLRE
 70
   256
  9
$DIMCLRT
 70
    40
  9
$DIMTFAC
 40
1.0
  9
$DIMGAP
 40
1.0
  9
$DIMJUST
 70
     0
  9
$DIMSD1
 70
     0
  9
$DIMSD2
 70
     0
  9
$DIMTOLJ
 70
     1
  9
$DIMTZIN
 70
     8
  9
$DIMALTZ
 70
     0
  9
$DIMALTTZ
 70
     0
  9
$DIMFIT
 70
     3
  9
$DIMUPT
 70
     0
  9
$DIMUNIT
 70
     2
  9
$DIMDEC
 70
     3
  9
$DIMTDEC
 70
     3
  9
$DIMALTU
 70
     2
  9
$DIMALTTD
 70
     2
  9
$DIMTXSTY
  7
STANDARD
  9
$DIMAUNIT
 70
     0
  9
$LUNITS
 70
     2
  9
$LUPREC
 70
     3
  9
$SKETCHINC
 40
1.0
  9
$FILLETRAD
 40
2.0
  9
$AUNITS
 70
     0
  9
$AUPREC
 70
     3
  9
$MENU
  1
.
  9
$ELEVATION
 40
0.0
  9
$PELEVATION
 40
0.0
  9
$THICKNESS
 40
0.0
  9
$LIMCHECK
 70
     0
  9
$BLIPMODE
 70
     0
  9
$CHAMFERA
 40
10.0
  9
$CHAMFERB
 40
10.0
  9
$CHAMFERC
 40
0.0
  9
$CHAMFERD
 40
0.0
  9
$SKPOLY
 70
     0
  9
$TDCREATE
 40
2454995.544720046
  9
$TDUPDATE
 40
2455370.682033599
  9
$TDINDWG
 40
0.0140576042
  9
$TDUSRTIMER
 40
0.0140576042
  9
$USRTIMER
 70
     1
  9
$ANGBASE
 50
0.0
  9
$ANGDIR
 70
     0
  9
$PDMODE
 70
     1
  9
$PDSIZE
 40
-5.0
  9
$PLINEWID
 40
0.0
  9
$COORDS
 70
     0
  9
$SPLFRAME
 70
     0
  9
$SPLINETYPE
 70
     6
  9
$SPLINESEGS
 70
     8
  9
$ATTDIA
 70
     0
  9
$ATTREQ
 70
     1
  9
$HANDLING
 70
-16383
  9
$HANDSEED
  5
23FF
  9
$SURFTAB1
 70
     6
  9
$SURFTAB2
 70
     6
  9
$SURFTYPE
 70
     6
  9
$SURFU
 70
     6
  9
$SURFV
 70
     6
  9
$UCSNAME
  2

  9
$UCSORG
 10
0.0
 20
0.0
 30
0.0
  9
$UCSXDIR
 10
1.0
 20
0.0
 30
0.0
  9
$UCSYDIR
 10
0.0
 20
1.0
 30
0.0
  9
$PUCSNAME
  2

  9
$PUCSORG
 10
0.0
 20
0.0
 30
0.0
  9
$PUCSXDIR
 10
1.0
 20
0.0
 30
0.0
  9
$PUCSYDIR
 10
0.0
 20
1.0
 30
0.0
  9
$USERI1
 70
     1
  9
$USERI2
 70
     0
  9
$USERI3
 70
     0
  9
$USERI4
 70
     0
  9
$USERI5
 70
     0
  9
$USERR1
 40
0.0
  9
$USERR2
 40
0.0
  9
$USERR3
 40
0.0
  9
$USERR4
 40
0.0
  9
$USERR5
 40
0.0
  9
$WORLDVIEW
 70
     1
  9
$SHADEDGE
 70
     3
  9
$SHADEDIF
 70
    70
  9
$TILEMODE
 70
     1
  9
$MAXACTVP
 70
    16
  9
$PINSBASE
 10
0.0
 20
0.0
 30
0.0
  9
$PLIMCHECK
 70
     0
  9
$PEXTMIN
 10
1.00000000E+20
 20
1.00000000E+20
 30
1.00000000E+20
  9
$PEXTMAX
 10
-1.00000000E+20
 20
-1.00000000E+20
 30
-1.00000000E+20
  9
$PLIMMIN
 10
0.0
 20
0.0
  9
$PLIMMAX
 10
420.0
 20
297.0
  9
$UNITMODE
 70
     0
  9
$VISRETAIN
 70
     0
  9
$PLINEGEN
 70
     0
  9
$PSLTSCALE
 70
     1
  9
$TREEDEPTH
 70
  3020
  9
$PICKSTYLE
 70
     0
  9
$CMLSTYLE
  2
STANDARD
  9
$CMLJUST
 70
     0
  9
$CMLSCALE
 40
1.0
  9
$PROXYGRAPHICS
 70
     1
  9
$MEASUREMENT
 70
     1
  0
ENDSEC
  0
SECTION
  2
CLASSES
  0
CLASS
  1
XRECORD
  2
AcDbXrecord
  3
AutoCAD 2000
 90
        0
280
     0
281
     0
  0
CLASS
  1
ACDBDICTIONARYWDFLT
  2
AcDbDictionaryWithDefault
  3
AutoCAD 2000
 90
        0
280
     0
281
     0
  0
CLASS
  1
ACDBPLACEHOLDER
  2
AcDbPlaceHolder
  3
AutoCAD 2000
 90
        0
280
     0
281
     0
  0
CLASS
  1
LAYOUT
  2
AcDbLayout
  3
AutoCAD 2000
 90
        0
280
     0
281
     0
  0
CLASS
  1
PLOTSETTINGS
  2
AcDbPlotSettings
  3
AutoCAD 2000
 90
        0
280
     0
281
     0
  0
CLASS
  1
LONG_TRANSACTION
  2
AcDbLongTransaction
  3
AutoCAD 2000
 90
        0
280
     0
281
     0
  0
CLASS
  1
LWPOLYLINE
  2
AcDbPolyline
  3
AutoCAD 2000
 90
        0
280
     0
281
     1
  0
CLASS
  1
HATCH
  2
AcDbHatch
  3
AutoCAD 2000
 90
        0
280
     0
281
     1
  0
CLASS
  1
XRECORD
  2
AcDbXrecord
  3
AutoCAD 2000
 90
        0
280
     0
281
     0
  0
CLASS
  1
LONG_TRANSACTION
  2
AcDbLongTransaction
  3
AutoCAD 2000
 90
        0
280
     0
281
     0
  0
CLASS
  1
LWPOLYLINE
  2
AcDbPolyline
  3
AutoCAD 2000
 90
        0
280
     0
281
     1
  0
CLASS
  1
HATCH
  2
AcDbHatch
  3
AutoCAD 2000
 90
        0
280
     0
281
     1
  0
CLASS
  1
XRECORD
  2
AcDbXrecord
  3
AutoCAD 2000
 90
        0
280
     0
281
     0
  0
CLASS
  1
LONG_TRANSACTION
  2
AcDbLongTransaction
  3
AutoCAD 2000
 90
        0
280
     0
281
     0
  0
CLASS
  1
LWPOLYLINE
  2
AcDbPolyline
  3
AutoCAD 2000
 90
        0
280
     0
281
     1
  0
CLASS
  1
HATCH
  2
AcDbHatch
  3
AutoCAD 2000
 90
        0
280
     0
281
     1
  0
CLASS
  1
XRECORD
  2
AcDbXrecord
  3
AutoCAD 2000
 90
        0
280
     0
281
     0
  0
CLASS
  1
LONG_TRANSACTION
  2
AcDbLongTransaction
  3
AutoCAD 2000
 90
        0
280
     0
281
     0
  0
CLASS
  1
LWPOLYLINE
  2
AcDbPolyline
  3
AutoCAD 2000
 90
        0
280
     0
281
     1
  0
CLASS
  1
HATCH
  2
AcDbHatch
  3
AutoCAD 2000
 90
        0
280
     0
281
     1
  0
CLASS
  1
XRECORD
  2
AcDbXrecord
  3
AutoCAD 2000
 90
        0
280
     0
281
     0
  0
CLASS
  1
LONG_TRANSACTION
  2
AcDbLongTransaction
  3
AutoCAD 2000
 90
        0
280
     0
281
     0
  0
CLASS
  1
LWPOLYLINE
  2
AcDbPolyline
  3
AutoCAD 2000
 90
        0
280
     0
281
     1
  0
CLASS
  1
HATCH
  2
AcDbHatch
  3
AutoCAD 2000
 90
        0
280
     0
281
     1
  0
CLASS
  1
XRECORD
  2
AcDbXrecord
  3
AutoCAD 2000
 90
        0
280
     0
281
     0
  0
ENDSEC
  0
SECTION
  2
TABLES
  0
TABLE
  2
VPORT
  5
8
330
0
100
AcDbSymbolTable
 70
     2
  0
VPORT
  5
23DA
330
8
100
AcDbSymbolTableRecord
100
AcDbViewportTableRecord
  2
*ACTIVE
 70
     0
 10
0.0
 20
0.0
 11
1.0
 21
1.0
 12
35.7551276
 22
18.00389076
 13
0.0
 23
0.0
 14
7.0
 24
7.0
 15
7.0
 25
7.0
 16
0.0
 26
0.0
 36
1.0
 17
0.0
 27
0.0
 37
0.0
 40
92.20190109
 41
1.45595855
 42
50.0
 43
0.0
 44
0.0
 50
0.0
 51
0.0
 71
     0
 72
  2000
 73
     1
 74
     0
 75
     0
 76
     0
 77
     0
 78
     0
  0
ENDTAB
  0
TABLE
  2
LTYPE
  5
5
330
0
100
AcDbSymbolTable
 70
     4
  0
LTYPE
  5
14
330
5
100
AcDbSymbolTableRecord
100
AcDbLinetypeTableRecord
  2
BYBLOCK
 70
     0
  3

 72
    65
 73
     0
 40
0.0
  0
LTYPE
  5
15
330
5
100
AcDbSymbolTableRecord
100
AcDbLinetypeTableRecord
  2
BYLAYER
 70
     0
  3

 72
    65
 73
     0
 40
0.0
  0
LTYPE
  5
16
330
5
100
AcDbSymbolTableRecord
100
AcDbLinetypeTableRecord
  2
CONTINUOUS
 70
     0
  3
Solid line
 72
    65
 73
     0
 40
0.0
  0
LTYPE
  5
258
330
5
100
AcDbSymbolTableRecord
100
AcDbLinetypeTableRecord
  2
CENTER2
 70
     0
  3
___ _ ___ _ ___ _ ___ _ ___ _ ___ _ ___ _ ___ _
 72
    65
 73
     4
 40
1.125
 49
0.75
 74
     0
 49
-0.125
 74
     0
 49
0.125
 74
     0
 49
-0.125
 74
     0
  0
LTYPE
  5
25D
330
5
100
AcDbSymbolTableRecord
100
AcDbLinetypeTableRecord
  2
PHANTOM2
 70
     0
  3
___ _ _ ___ _ _ ___ _ _ ___ _ _ ___ _ _ ___ _ _
 72
    65
 73
     6
 40
1.25
 49
0.625
 74
     0
 49
-0.125
 74
     0
 49
0.125
 74
     0
 49
-0.125
 74
     0
 49
0.125
 74
     0
 49
-0.125
 74
     0
  0
LTYPE
  5
FDD
330
5
100
AcDbSymbolTableRecord
100
AcDbLinetypeTableRecord
  2
HIDDEN2
 70
     0
  3
_ _ _ _ _ _ _ _ _ _ _ _ _ _ _ _ _ _ _ _ _ _ _ _
 72
    65
 73
     2
 40
0.1875
 49
0.125
 74
     0
 49
-0.0625
 74
     0
  0
ENDTAB
  0
TABLE
  2
LAYER
  5
2
330
0
100
AcDbSymbolTable
 70
    11
  0
LAYER
  5
F
330
2
100
AcDbSymbolTableRecord
100
AcDbLayerTableRecord
  2
0
 70
     0
 62
     7
  6
CONTINUOUS
  0
LAYER
  5
1AA
330
2
100
AcDbSymbolTableRecord
100
AcDbLayerTableRecord
  2
240
 70
     0
 62
     4
  6
CONTINUOUS
  0
LAYER
  5
1AB
330
2
100
AcDbSymbolTableRecord
100
AcDbLayerTableRecord
  2
241
 70
     0
 62
   211
  6
CONTINUOUS
  0
LAYER
  5
1AC
330
2
100
AcDbSymbolTableRecord
100
AcDbLayerTableRecord
  2
242
 70
     0
 62
     3
  6
CONTINUOUS
  0
LAYER
  5
1AF
330
2
100
AcDbSymbolTableRecord
100
AcDbLayerTableRecord
  2
245
 70
     0
 62
     2
  6
CENTER2
  0
LAYER
  5
21A
330
2
100
AcDbSymbolTableRecord
100
AcDbLayerTableRecord
  2
246
 70
     0
 62
     3
  6
PHANTOM2
  0
LAYER
  5
21B
330
2
100
AcDbSymbolTableRecord
100
AcDbLayerTableRecord
  2
247
 70
     0
 62
    60
  6
CONTINUOUS
  0
LAYER
  5
21E
330
2
100
AcDbSymbolTableRecord
100
AcDbLayerTableRecord
  2
250
 70
     0
 62
     3
  6
CONTINUOUS
  0
LAYER
  5
21F
330
2
100
AcDbSymbolTableRecord
100
AcDbLayerTableRecord
  2
251
 70
     0
 62
    40
  6
CONTINUOUS
  0
LAYER
  5
5C4
330
2
100
AcDbSymbolTableRecord
100
AcDbLayerTableRecord
  2
DEFPOINTS
 70
     0
 62
     7
  6
CONTINUOUS
  0
ENDTAB
  0
TABLE
  2
STYLE
  5
3
330
0
100
AcDbSymbolTable
 70
     2
  0
STYLE
  5
10
330
3
100
AcDbSymbolTableRecord
100
AcDbTextStyleTableRecord
  2
STANDARD
 70
     0
 40
0.0
 41
1.0
 50
0.0
 71
     0
 42
3.0
  3
romans.shx
  4
BIGFONT.SHX
  0
STYLE
  5
339
330
3
100
AcDbSymbolTableRecord
100
AcDbTextStyleTableRecord
  2
YOKO
 70
     0
 40
0.0
 41
1.0
 50
0.0
 71
     0
 42
3.0
  3
romans.shx
  4
extfont.shx
  0
ENDTAB
  0
TABLE
  2
VIEW
  5
6
330
0
100
AcDbSymbolTable
 70
     0
  0
ENDTAB
  0
TABLE
  2
UCS
  5
7
330
0
100
AcDbSymbolTable
 70
     0
  0
ENDTAB
  0
TABLE
  2
APPID
  5
9
330
0
100
AcDbSymbolTable
 70
     9
  0
APPID
  5
11
330
9
100
AcDbSymbolTableRecord
100
AcDbRegAppTableRecord
  2
ACAD
 70
     0
  0
APPID
  5
1B1
330
9
100
AcDbSymbolTableRecord
100
AcDbRegAppTableRecord
  2
GLOBAL
 70
     0
  0
APPID
  5
2A4
330
9
100
AcDbSymbolTableRecord
100
AcDbRegAppTableRecord
  2
DETAIL
 70
     0
  0
APPID
  5
5FD
330
9
100
AcDbSymbolTableRecord
100
AcDbRegAppTableRecord
  2
GRPNAME
 70
     0
  0
APPID
  5
5FE
330
9
100
AcDbSymbolTableRecord
100
AcDbRegAppTableRecord
  2
GPARA
 70
     0
  0
APPID
  5
6C4
330
9
100
AcDbSymbolTableRecord
100
AcDbRegAppTableRecord
  2
DCO15
 70
     0
  0
APPID
  5
6C5
330
9
100
AcDbSymbolTableRecord
100
AcDbRegAppTableRecord
  2
ITEMNAME
 70
     0
  0
APPID
  5
6C6
330
9
100
AcDbSymbolTableRecord
100
AcDbRegAppTableRecord
  2
GRADE_0
 70
     0
  0
APPID
  5
FD1
330
9
100
AcDbSymbolTableRecord
100
AcDbRegAppTableRecord
  2
CONTENTBLOCKICON
 70
     0
  0
ENDTAB
  0
TABLE
  2
DIMSTYLE
  5
A
330
0
100
AcDbSymbolTable
 70
     3
  0
DIMSTYLE
105
725
102
{ACAD_REACTORS
330
B8C
102
}
330
A
100
AcDbSymbolTableRecord
100
AcDbDimStyleTableRecord
  2
BIGT
 70
     0
  3

  4

  5

  6
OPEN
  7
OPEN
 40
1.0
 41
2.23
 42
0.5
 43
2.5
 44
1.0
 45
0.0
 46
0.0
 47
0.0
 48
0.0
140
2.8
141
0.0
142
0.0
143
25.4
144
1.0
145
0.0
146
1.0
147
1.0
 71
     0
 72
     0
 73
     0
 74
     0
 75
     0
 76
     0
 77
     3
 78
     8
170
     0
171
     2
172
     1
173
     1
174
     1
175
     0
176
   256
177
   256
178
    40
270
     2
271
     3
272
     3
273
     2
274
     2
340
10
275
     0
280
     0
281
     0
282
     0
283
     1
284
     8
285
     0
286
     0
287
     3
288
     0
  0
DIMSTYLE
105
87F
102
{ACAD_REACTORS
330
894
330
895
330
D72
102
}
330
A
100
AcDbSymbolTableRecord
100
AcDbDimStyleTableRecord
  2
BIGT$0
 70
     0
  3

  4
"
  5
OPEN
  6

  7

 40
1.0
 41
2.23
 42
0.5
 43
7.0
 44
1.0
 45
0.0
 46
0.0
 47
0.1
 48
0.1
140
3.0
141
0.0
142
0.0
143
0.0393701
144
1.0
145
0.0
146
0.71
147
1.0
 71
     0
 72
     0
 73
     0
 74
     0
 75
     0
 76
     0
 77
     3
 78
     8
170
     0
171
     2
172
     1
173
     0
174
     0
175
     0
176
     3
177
     3
178
    40
270
     2
271
     3
272
     3
273
     2
274
     2
340
10
275
     0
280
     0
281
     0
282
     0
283
     1
284
     8
285
     0
286
     0
287
     3
288
     0
  0
DIMSTYLE
105
880
330
A
100
AcDbSymbolTableRecord
100
AcDbDimStyleTableRecord
  2
BIGT$7
 70
     0
  3

  4
"
  5
OPEN
  6

  7

 40
1.0
 41
2.5
 42
0.5
 43
7.0
 44
1.0
 45
0.0
 46
0.0
 47
0.1
 48
0.1
140
5.0
141
0.0
142
0.0
143
0.0393701
144
1.0
145
0.0
146
0.71
147
1.5
 71
     0
 72
     0
 73
     0
 74
     0
 75
     0
 76
     0
 77
     3
 78
     8
170
     0
171
     2
172
     1
173
     0
174
     0
175
     0
176
     3
177
     3
178
    40
270
     2
271
     3
272
     3
273
     2
274
     2
340
10
275
     0
280
     0
281
     0
282
     0
283
     1
284
     8
285
     0
286
     0
287
     3
288
     0
  0
ENDTAB
  0
TABLE
  2
BLOCK_RECORD
  5
1
330
0
100
AcDbSymbolTable
 70
     7
  0
BLOCK_RECORD
  5
1A
102
{ACAD_XDICTIONARY
360
FCF
102
}
330
1
100
AcDbSymbolTableRecord
100
AcDbBlockTableRecord
  2
*MODEL_SPACE
  0
BLOCK_RECORD
  5
17
102
{ACAD_XDICTIONARY
360
FCD
102
}
330
1
100
AcDbSymbolTableRecord
100
AcDbBlockTableRecord
  2
*PAPER_SPACE
  0
BLOCK_RECORD
  5
594
330
1
100
AcDbSymbolTableRecord
100
AcDbBlockTableRecord
  2
_OPEN
  0
BLOCK_RECORD
  5
6E3
330
1
100
AcDbSymbolTableRecord
100
AcDbBlockTableRecord
  2
矢印なし
  0
BLOCK_RECORD
  5
79C
330
1
100
AcDbSymbolTableRecord
100
AcDbBlockTableRecord
  2
1
1001
CONTENTBLOCKICON
1071
        0
1004
2800000020000000200000000100080000000000000400000000000000000000000000000000000000000000000080000080000000808000800000008000800080800000C0C0C000C0DCC000F0CAA6000020400000206000002080000020A0000020C0000020E00000400000004020000040400000406000004080000040A0
1004
000040C0000040E00000600000006020000060400000606000006080000060A0000060C0000060E00000800000008020000080400000806000008080000080A0000080C0000080E00000A0000000A0200000A0400000A0600000A0800000A0A00000A0C00000A0E00000C0000000C0200000C0400000C0600000C0800000C0
1004
A00000C0C00000C0E00000E0000000E0200000E0400000E0600000E0800000E0A00000E0C00000E0E00040000000400020004000400040006000400080004000A0004000C0004000E00040200000402020004020400040206000402080004020A0004020C0004020E000404000004040200040404000404060004040800040
1004
40A0004040C0004040E00040600000406020004060400040606000406080004060A0004060C0004060E00040800000408020004080400040806000408080004080A0004080C0004080E00040A0000040A0200040A0400040A0600040A0800040A0A00040A0C00040A0E00040C0000040C0200040C0400040C0600040C08000
1004
40C0A00040C0C00040C0E00040E0000040E0200040E0400040E0600040E0800040E0A00040E0C00040E0E00080000000800020008000400080006000800080008000A0008000C0008000E00080200000802020008020400080206000802080008020A0008020C0008020E00080400000804020008040400080406000804080
1004
008040A0008040C0008040E00080600000806020008060400080606000806080008060A0008060C0008060E00080800000808020008080400080806000808080008080A0008080C0008080E00080A0000080A0200080A0400080A0600080A0800080A0A00080A0C00080A0E00080C0000080C0200080C0400080C0600080C0
1004
800080C0A00080C0C00080C0E00080E0000080E0200080E0400080E0600080E0800080E0A00080E0C00080E0E000C0000000C0002000C0004000C0006000C0008000C000A000C000C000C000E000C0200000C0202000C0204000C0206000C0208000C020A000C020C000C020E000C0400000C0402000C0404000C0406000C0
1004
408000C040A000C040C000C040E000C0600000C0602000C0604000C0606000C0608000C060A000C060C000C060E000C0800000C0802000C0804000C0806000C0808000C080A000C080C000C080E000C0A00000C0A02000C0A04000C0A06000C0A08000C0A0A000C0A0C000C0A0E000C0C00000C0C02000C0C04000C0C06000
1004
C0C08000C0C0A000F0FBFF00A4A0A000808080000000FF0000FF000000FFFF00FF000000FF00FF00FFFF0000FFFFFF0000000000000000000000000000000000000000000000000000000000000000000000000000000000000000000000000000000000000000000000000000000000000000000000000000000000000000
1004
00000000000000000000000000000000000000000000000000000000000000000000000000000000000000000000000000000000000000000000000000000000000000000000000000000000000000000000000000000000000000000000000000000000000000000000000000000000000000000000000000000000000000
1004
000000000000000000000000000000000000000000000000000000000000000000000000000000000000000000000000000000000000000000000000000000000000000000000000000000000000000000000000000000000000000000000000000000000000000000000000000000000000000000000000000000FEE7E7FE
1004
FE000000000000000000000000000000000000000000000000000000FEE7E7E7FEFE00000000000000000000000000000000000000FEFAFEFEFEFEFEFEE7E7E7E700FEFEFE00000000000000000000000000000000E70000000000E7E7E7E7E7E700000000FEFEFE00000000000000000000000000E70000000000E7E7E7E7
1004
00E700000000000000FEFEFEFEFEFEFEE7FE00000000E70000000000E7E7000000E7000000000000000000E700E700E7E7FE000000FBE7FBFBFBFBFBE7E7FBFBFBE7FBFBFBFBFBFBFBFBFBE7FBFBE7E7E7FEFB000000FE0000000000E7E7E7E700E700000000000000FEFEFEFEFEFEFEE7E700000000FE0000000000E7E7E7
1004
E7E7E700000000FEFEFE00000000000000000000000000FE0000000000E7E7E7E7E7E700FEFEFE00000000000000000000000000000000FEFEFEFEFEFEFEFEE7E7E7FEFE0000000000000000000000000000000000000000000000000000FEE7E7FEFE00000000000000000000000000000000000000000000000000000000
1004
00000000000000000000000000000000000000000000000000000000000000000000000000000000000000000000000000000000000000000000000000000000000000000000000000000000000000000000000000000000000000000000000000000000000000000000000000000000000000000000000000000000000000
1004
00000000000000000000000000000000000000000000000000000000000000000000000000000000000000000000000000000000000000000000000000000000000000000000000000000000000000000000000000000000000000000000000000000000000000000000000000000000000000000000000000000000000000
1004
0000000000000000000000000000000000000000000000000000000000000000000000000000000000000000000000000000000000000000
  0
BLOCK_RECORD
  5
8A3
330
1
100
AcDbSymbolTableRecord
100
AcDbBlockTableRecord
  2
*D3
  0
BLOCK_RECORD
  5
8AF
330
1
100
AcDbSymbolTableRecord
100
AcDbBlockTableRecord
  2
*D4
  0
BLOCK_RECORD
  5
D30
330
1
100
AcDbSymbolTableRecord
100
AcDbBlockTableRecord
  2
*D5
  0
BLOCK_RECORD
  5
D73
330
1
100
AcDbSymbolTableRecord
100
AcDbBlockTableRecord
  2
*D6
  0
ENDTAB
  0
ENDSEC
  0
SECTION
  2
BLOCKS
  0
BLOCK
  5
1B
330
1A
100
AcDbEntity
  8
0
100
AcDbBlockBegin
  2
*MODEL_SPACE
 70
     0
 10
0.0
 20
0.0
 30
0.0
  3
*MODEL_SPACE
  1

  0
ENDBLK
  5
1C
330
1A
100
AcDbEntity
  8
0
100
AcDbBlockEnd
  0
BLOCK
  5
18
330
17
100
AcDbEntity
 67
     1
  8
0
100
AcDbBlockBegin
  2
*PAPER_SPACE
 70
     0
 10
0.0
 20
0.0
 30
0.0
  3
*PAPER_SPACE
  1

  0
ENDBLK
  5
19
330
17
100
AcDbEntity
 67
     1
  8
0
100
AcDbBlockEnd
  0
BLOCK
  5
598
330
594
100
AcDbEntity
  8
0
100
AcDbBlockBegin
  2
_OPEN
 70
     0
 10
0.0
 20
0.0
 30
0.0
  3
_OPEN
  1

  0
LINE
  5
595
330
594
100
AcDbEntity
  8
0
  6
BYBLOCK
 62
     0
100
AcDbLine
 10
-1.0
 20
0.16666667
 30
0.0
 11
0.0
 21
0.0
 31
0.0
  0
LINE
  5
596
330
594
100
AcDbEntity
  8
0
  6
BYBLOCK
 62
     0
100
AcDbLine
 10
-1.0
 20
-0.16666667
 30
0.0
 11
0.0
 21
0.0
 31
0.0
  0
LINE
  5
597
330
594
100
AcDbEntity
  8
0
  6
BYBLOCK
 62
     0
100
AcDbLine
 10
0.0
 20
0.0
 30
0.0
 11
-1.0
 21
0.0
 31
0.0
  0
ENDBLK
  5
599
330
594
100
AcDbEntity
  8
0
100
AcDbBlockEnd
  0
BLOCK
  5
6E4
330
6E3
100
AcDbEntity
  8
0
100
AcDbBlockBegin
  2
矢印なし
 70
     0
 10
0.0
 20
0.0
 30
0.0
  3
矢印なし
  1

  0
ENDBLK
  5
6E5
330
6E3
100
AcDbEntity
  8
0
100
AcDbBlockEnd
  0
BLOCK
  5
87D
330
79C
100
AcDbEntity
  8
0
100
AcDbBlockBegin
  2
1
 70
     0
 10
0.0
 20
0.0
 30
0.0
  3
1
  1

  0
LINE
  5
228F
330
79C
100
AcDbEntity
  8
245
  6
CENTER2
100
AcDbLine
 10
-31.0
 20
0.0
 30
0.0
 11
90.5
 21
0.0
 31
0.0
1001
GRPNAME
1000
PASTMD0U
  0
ARC
  5
2290
330
79C
100
AcDbEntity
  8
240
  6
CONTINUOUS
100
AcDbCircle
 10
71.165542
 20
106.77469835
 30
0.0
 40
100.0
100
AcDbArc
 50
239.88818231
 51
262.83162505
1001
GRPNAME
1000
PASTMD02
  0
ARC
  5
2291
330
79C
100
AcDbEntity
  8
240
  6
CONTINUOUS
100
AcDbCircle
 10
71.165542
 20
-106.77469835
 30
0.0
 40
100.0
100
AcDbArc
 50
97.16837483
 51
120.11181991
1001
GRPNAME
1000
PASTMD02
  0
LINE
  5
2292
330
79C
100
AcDbEntity
  8
241
100
AcDbLine
 10
20.0
 20
22.0
 30
0.0
 11
20.0
 21
0.0
 31
0.0
  0
SPLINE
  5
2293
330
79C
100
AcDbEntity
  8
241
  6
CONTINUOUS
100
AcDbSpline
210
0.0
220
0.0
230
1.0
 70
     8
 71
     3
 72
     9
 73
     5
 74
     3
 42
0.0000000001
 43
0.0000000001
 44
0.0000000001
 40
0.0
 40
0.0
 40
0.0
 40
0.0
 40
8.630480605859938
 40
17.26096121171991
 40
17.26096121171991
 40
17.26096121171991
 40
17.26096121171991
 10
12.05
 20
23.93787947161734
 30
0.0
 10
13.07897345545482
 20
21.1440360416608
 30
0.0
 10
15.13692036636449
 20
15.5563491817477
 30
0.0
 10
13.07897345545483
 20
9.968662321834612
 30
0.0
 10
12.05
 20
7.174818891878061
 30
0.0
 11
12.05
 21
23.93787947161734
 31
0.0
 11
14.10794691090966
 21
15.55634918174772
 31
0.0
 11
12.05
 21
7.174818891878061
 31
0.0
  0
LINE
  5
2294
330
79C
100
AcDbEntity
  8
241
  6
CONTINUOUS
100
AcDbLine
 10
12.05
 20
7.1748189
 30
0.0
 11
12.05
 21
23.93787948
 31
0.0
  0
SPLINE
  5
2295
330
79C
100
AcDbEntity
  8
241
  6
CONTINUOUS
100
AcDbSpline
210
0.0
220
0.0
230
1.0
 70
     8
 71
     3
 72
     9
 73
     5
 74
     3
 42
0.0000000001
 43
0.0000000001
 44
0.0000000001
 40
0.0
 40
0.0
 40
0.0
 40
0.0
 40
8.637419212856821
 40
17.27483842571346
 40
17.27483842571346
 40
17.27483842571346
 40
17.27483842571346
 10
7.950000000000045
 20
7.174818891878004
 30
0.0
 10
6.906572875253826
 20
9.968662321834578
 30
0.0
 10
4.819718625761408
 20
15.55634918174766
 30
0.0
 10
6.9065728752538
 20
21.14403604166074
 30
0.0
 10
7.949999999999986
 20
23.93787947161726
 30
0.0
 11
7.950000000000045
 21
7.174818891878004
 31
0.0
 11
5.86314575050761
 21
15.55634918174772
 31
0.0
 11
7.949999999999986
 21
23.93787947161726
 31
0.0
  0
LINE
  5
2296
330
79C
100
AcDbEntity
  8
241
  6
CONTINUOUS
100
AcDbLine
 10
7.95
 20
7.1748189
 30
0.0
 11
7.95
 21
23.93787948
 31
0.0
  0
LINE
  5
2297
330
79C
100
AcDbEntity
  8
240
  6
CONTINUOUS
100
AcDbLine
 10
0.0
 20
24.99
 30
0.0
 11
0.0
 21
18.64266156
 31
0.0
  0
LINE
  5
2298
330
79C
100
AcDbEntity
  8
240
  6
CONTINUOUS
100
AcDbLine
 10
-2.19993752
 20
-16.40000332
 30
0.0
 11
-28.5
 21
-15.74244388
 31
0.0
  0
LINE
  5
2299
330
79C
100
AcDbEntity
  8
240
  6
CONTINUOUS
100
AcDbLine
 10
-28.5
 20
17.98244397
 30
0.0
 11
-2.09361726
 21
18.64266156
 31
0.0
  0
LINE
  5
229A
330
79C
100
AcDbEntity
  8
241
100
AcDbLine
 10
-28.5
 20
0.0
 30
0.0
 11
-28.5
 21
17.98244397
 31
0.0
  0
LINE
  5
229B
330
79C
100
AcDbEntity
  8
240
  6
CONTINUOUS
100
AcDbLine
 10
-30.0
 20
0.0
 30
0.0
 11
-30.0
 21
17.11641857
 31
0.0
  0
LINE
  5
229C
330
79C
100
AcDbEntity
  8
240
  6
CONTINUOUS
100
AcDbLine
 10
-30.0
 20
-14.87641848
 30
0.0
 11
-30.0
 21
0.0
 31
0.0
  0
LINE
  5
229D
330
79C
100
AcDbEntity
  8
241
100
AcDbLine
 10
-28.5
 20
-15.74244388
 30
0.0
 11
-28.5
 21
0.0
 31
0.0
  0
LINE
  5
229E
330
79C
100
AcDbEntity
  8
242
  6
HIDDEN2
100
AcDbLine
 10
-30.0
 20
-14.0
 30
0.0
 11
-24.7
 21
-14.0
 31
0.0
  0
LINE
  5
229F
330
79C
100
AcDbEntity
  8
240
  6
CONTINUOUS
100
AcDbLine
 10
-28.5
 20
-15.74244388
 30
0.0
 11
-30.0
 21
-14.87641848
 31
0.0
  0
LINE
  5
22A0
330
79C
100
AcDbEntity
  8
242
  6
HIDDEN2
100
AcDbLine
 10
-22.81542934
 20
-15.88457066
 30
0.0
 11
-24.7
 21
-14.0
 31
0.0
  0
LINE
  5
22A1
330
79C
100
AcDbEntity
  8
242
  6
HIDDEN2
100
AcDbLine
 10
-24.7
 20
-14.0
 30
0.0
 11
-24.7
 21
-15.83745224
 31
0.0
  0
LINE
  5
22A2
330
79C
100
AcDbEntity
  8
240
  6
CONTINUOUS
100
AcDbLine
 10
-30.0
 20
17.11641857
 30
0.0
 11
-28.5
 21
17.98244397
 31
0.0
  0
LINE
  5
22A3
330
79C
100
AcDbEntity
  8
241
100
AcDbLine
 10
20.0
 20
0.0
 30
0.0
 11
20.0
 21
-22.0
 31
0.0
  0
SPLINE
  5
22A4
330
79C
100
AcDbEntity
  8
241
  6
CONTINUOUS
100
AcDbSpline
210
0.0
220
0.0
230
1.0
 70
     8
 71
     3
 72
     9
 73
     5
 74
     3
 42
0.0000000001
 43
0.0000000001
 44
0.0000000001
 40
0.0
 40
0.0
 40
0.0
 40
0.0
 40
8.630480605859919
 40
17.26096121171992
 40
17.26096121171992
 40
17.26096121171992
 40
17.26096121171992
 10
12.05
 20
-23.93787948032985
 30
0.0
 10
13.07897345545482
 20
-21.14403605037331
 30
0.0
 10
15.13692036636449
 20
-15.55634919046022
 30
0.0
 10
13.07897345545483
 20
-9.968662330547125
 30
0.0
 10
12.05
 20
-7.174818900590564
 30
0.0
 11
12.05
 21
-23.93787948032985
 31
0.0
 11
14.10794691090966
 21
-15.55634919046025
 31
0.0
 11
12.05
 21
-7.174818900590564
 31
0.0
  0
LINE
  5
22A5
330
79C
100
AcDbEntity
  8
241
  6
CONTINUOUS
100
AcDbLine
 10
12.05
 20
-7.1748189
 30
0.0
 11
12.05
 21
-23.93787948
 31
0.0
  0
SPLINE
  5
22A6
330
79C
100
AcDbEntity
  8
241
  6
CONTINUOUS
100
AcDbSpline
210
0.0
220
0.0
230
1.0
 70
     8
 71
     3
 72
     9
 73
     5
 74
     3
 42
0.0000000001
 43
0.0000000001
 44
0.0000000001
 40
0.0
 40
0.0
 40
0.0
 40
0.0
 40
8.637419212856791
 40
17.27483842571348
 40
17.27483842571348
 40
17.27483842571348
 40
17.27483842571348
 10
7.950000000000045
 20
-7.174818900590536
 30
0.0
 10
6.906572875253829
 20
-9.968662330547097
 30
0.0
 10
4.819718625761408
 20
-15.55634919046018
 30
0.0
 10
6.906572875253798
 20
-21.14403605037328
 30
0.0
 10
7.949999999999986
 20
-23.93787948032982
 30
0.0
 11
7.950000000000045
 21
-7.174818900590536
 31
0.0
 11
5.86314575050761
 21
-15.55634919046022
 31
0.0
 11
7.949999999999986
 21
-23.93787948032982
 31
0.0
  0
LINE
  5
22A7
330
79C
100
AcDbEntity
  8
241
  6
CONTINUOUS
100
AcDbLine
 10
7.95
 20
-7.1748189
 30
0.0
 11
7.95
 21
-23.93787948
 31
0.0
  0
LINE
  5
22A8
330
79C
100
AcDbEntity
  8
240
  6
CONTINUOUS
100
AcDbLine
 10
0.0
 20
-24.99
 30
0.0
 11
0.0
 21
-16.40000332
 31
0.0
  0
LINE
  5
22A9
330
79C
100
AcDbEntity
  8
240
  6
CONTINUOUS
100
AcDbLine
 10
0.0
 20
-24.99
 30
0.0
 11
20.0
 21
-24.99
 31
0.0
  0
LINE
  5
22AA
330
79C
100
AcDbEntity
  8
241
  6
CONTINUOUS
100
AcDbLine
 10
7.95
 20
-23.93787948
 30
0.0
 11
12.05
 21
-23.93787948
 31
0.0
  0
LINE
  5
22AB
330
79C
100
AcDbEntity
  8
240
100
AcDbLine
 10
20.0
 20
-24.99
 30
0.0
 11
20.0
 21
-22.0
 31
0.0
  0
ARC
  5
22AC
330
79C
100
AcDbEntity
  8
240
  6
CONTINUOUS
100
AcDbCircle
 10
22.0
 20
-22.0
 30
0.0
 40
2.0
100
AcDbArc
 50
120.11170703
 51
180.00000001
1001
GRPNAME
1000
PASTMD02
  0
LINE
  5
22AD
330
79C
100
AcDbEntity
  8
241
100
AcDbLine
 10
0.0
 20
0.0
 30
0.0
 11
0.0
 21
18.64266156
 31
0.0
  0
LINE
  5
22AE
330
79C
100
AcDbEntity
  8
241
100
AcDbLine
 10
-2.19993752
 20
0.0
 30
0.0
 11
-2.19993752
 21
18.64000332
 31
0.0
  0
LINE
  5
22AF
330
79C
100
AcDbEntity
  8
241
100
AcDbLine
 10
-2.19993752
 20
-16.40000332
 30
0.0
 11
-2.19993752
 21
0.0
 31
0.0
  0
LINE
  5
22B0
330
79C
100
AcDbEntity
  8
241
100
AcDbLine
 10
0.0
 20
-16.40000332
 30
0.0
 11
0.0
 21
0.0
 31
0.0
  0
LINE
  5
22B1
330
79C
100
AcDbEntity
  8
240
100
AcDbLine
 10
-2.19993752
 20
-16.40000332
 30
0.0
 11
0.0
 21
-16.40000332
 31
0.0
  0
LINE
  5
22B2
330
79C
100
AcDbEntity
  8
240
100
AcDbLine
 10
-2.09361726
 20
18.64266156
 30
0.0
 11
0.0
 21
18.64266156
 31
0.0
  0
LINE
  5
22B3
330
79C
100
AcDbEntity
  8
241
  6
CONTINUOUS
100
AcDbLine
 10
7.95
 20
-7.1748189
 30
0.0
 11
12.05
 21
-7.1748189
 31
0.0
  0
LINE
  5
22B4
330
79C
100
AcDbEntity
  8
241
  6
CONTINUOUS
100
AcDbLine
 10
7.95
 20
7.1748189
 30
0.0
 11
12.05
 21
7.1748189
 31
0.0
  0
LINE
  5
22B5
330
79C
100
AcDbEntity
  8
240
  6
CONTINUOUS
100
AcDbLine
 10
0.0
 20
24.99
 30
0.0
 11
20.0
 21
24.99
 31
0.0
  0
LINE
  5
22B6
330
79C
100
AcDbEntity
  8
241
  6
CONTINUOUS
100
AcDbLine
 10
7.95
 20
23.93787948
 30
0.0
 11
12.05
 21
23.93787948
 31
0.0
  0
LINE
  5
22B7
330
79C
100
AcDbEntity
  8
240
100
AcDbLine
 10
20.0
 20
24.99
 30
0.0
 11
20.0
 21
22.0
 31
0.0
  0
ARC
  5
22B8
330
79C
100
AcDbEntity
  8
240
  6
CONTINUOUS
100
AcDbCircle
 10
22.0
 20
22.0
 30
0.0
 40
2.0
100
AcDbArc
 50
179.99999999
 51
239.88829297
1001
GRPNAME
1000
PASTMD02
  0
LINE
  5
22B9
330
79C
100
AcDbEntity
  8
241
100
AcDbLine
 10
78.86821946
 20
-0.05790774
 30
0.0
 11
89.5
 21
-3.66057103
 31
0.0
  0
LINE
  5
22BA
330
79C
100
AcDbEntity
  8
242
100
AcDbLine
 10
90.0
 20
8.0
 30
0.0
 11
81.0
 21
8.0
 31
0.0
  0
LINE
  5
22BB
330
79C
100
AcDbEntity
  8
242
100
AcDbLine
 10
90.0
 20
-8.0
 30
0.0
 11
81.0
 21
-8.0
 31
0.0
  0
LINE
  5
22BC
330
79C
100
AcDbEntity
  8
241
100
AcDbLine
 10
79.96190064
 20
2.18447099
 30
0.0
 11
89.5
 21
0.50264672
 31
0.0
  0
LINE
  5
22BD
330
79C
100
AcDbEntity
  8
240
100
AcDbLine
 10
89.5
 20
-7.3
 30
0.0
 11
80.00000001
 21
-7.6
 31
0.0
  0
LINE
  5
22BE
330
79C
100
AcDbEntity
  8
241
100
AcDbLine
 10
73.69962837
 20
-4.48958244
 30
0.0
 11
89.28181685
 21
-7.30689
 31
0.0
  0
LINE
  5
22BF
330
79C
100
AcDbEntity
  8
240
100
AcDbLine
 10
89.5
 20
7.3
 30
0.0
 11
80.00000001
 21
7.6
 31
0.0
  0
LINE
  5
22C0
330
79C
100
AcDbEntity
  8
241
  6
CONTINUOUS
100
AcDbLine
 10
60.0
 20
7.4
 30
0.0
 11
60.0
 21
0.0
 31
0.0
1001
GRPNAME
1000
PASTMD3D
  0
ARC
  5
22C1
330
79C
100
AcDbEntity
  8
241
100
AcDbCircle
 10
74.17568132
 20
-1.85659096
 30
0.0
 40
2.67568131511622
100
AcDbArc
 50
80.0
 51
260.0
  0
LINE
  5
22C2
330
79C
100
AcDbEntity
  8
241
100
AcDbLine
 10
74.6403085
 20
0.77844074
 30
0.0
 11
78.90902268
 21
0.02575126
 31
0.0
  0
LINE
  5
22C3
330
79C
100
AcDbEntity
  8
241
100
AcDbLine
 10
79.96190064
 20
2.18447099
 30
0.0
 11
78.86821946
 21
-0.05790774
 31
0.0
  0
LINE
  5
22C4
330
79C
100
AcDbEntity
  8
240
100
AcDbLine
 10
79.45050451
 20
-7.4
 30
0.0
 11
61.1826936
 21
-7.4
 31
0.0
  0
LINE
  5
22C5
330
79C
100
AcDbEntity
  8
241
  6
CONTINUOUS
100
AcDbLine
 10
60.0
 20
-7.4
 30
0.0
 11
60.0
 21
0.0
 31
0.0
1001
GRPNAME
1000
PASTMD3D
  0
ARC
  5
22C6
330
79C
100
AcDbEntity
  8
240
  6
CONTINUOUS
100
AcDbCircle
 10
61.1826936
 20
-27.4
 30
0.0
 40
20.0
100
AcDbArc
 50
90.0
 51
97.1683746
1001
GRPNAME
1000
PASTMD02
  0
LINE
  5
22C7
330
79C
100
AcDbEntity
  8
240
100
AcDbLine
 10
79.45050451
 20
-7.4
 30
0.0
 11
80.00000001
 21
-7.6
 31
0.0
  0
LINE
  5
22C8
330
79C
100
AcDbEntity
  8
240
100
AcDbLine
 10
79.45050451
 20
7.4
 30
0.0
 11
61.1826936
 21
7.4
 31
0.0
  0
ARC
  5
22C9
330
79C
100
AcDbEntity
  8
240
  6
CONTINUOUS
100
AcDbCircle
 10
61.1826936
 20
27.4
 30
0.0
 40
19.99999999999999
100
AcDbArc
 50
262.83162508
 51
269.99999998
1001
GRPNAME
1000
PASTMD02
  0
LINE
  5
22CA
330
79C
100
AcDbEntity
  8
240
100
AcDbLine
 10
80.00000001
 20
7.6
 30
0.0
 11
79.45050451
 21
7.4
 31
0.0
  0
LINE
  5
22CB
330
79C
100
AcDbEntity
  8
246
100
AcDbLine
 10
90.0
 20
-8.0
 30
0.0
 11
90.0
 21
8.0
 31
0.0
  0
LINE
  5
22CC
330
79C
100
AcDbEntity
  8
240
100
AcDbLine
 10
89.5
 20
7.3
 30
0.0
 11
89.5
 21
0.50445513
 31
0.0
  0
LINE
  5
22CD
330
79C
100
AcDbEntity
  8
240
100
AcDbLine
 10
89.5
 20
-7.3
 30
0.0
 11
89.5
 21
-3.66057103
 31
0.0
  0
LINE
  5
22CE
330
79C
100
AcDbEntity
  8
240
100
AcDbLine
 10
89.5
 20
-3.66057103
 30
0.0
 11
90.0
 21
-3.83
 31
0.0
  0
LINE
  5
22CF
330
79C
100
AcDbEntity
  8
240
100
AcDbLine
 10
89.99051309
 20
-2.97357041
 30
0.0
 11
90.0
 21
-3.83
 31
0.0
  0
LINE
  5
22D0
330
79C
100
AcDbEntity
  8
247
100
AcDbLine
 10
89.69544263
 20
-1.25512764
 30
0.0
 11
89.69454015
 21
-1.25484608
 31
0.0
  0
LINE
  5
22D1
330
79C
100
AcDbEntity
  8
240
100
AcDbLine
 10
89.60907584
 20
0.48341371
 30
0.0
 11
89.5
 21
0.50264672
 31
0.0
  0
LINE
  5
22D2
330
79C
100
AcDbEntity
  8
240
100
AcDbLine
 10
89.99051309
 20
-2.97357041
 30
0.0
 11
89.60907584
 21
0.48341371
 31
0.0
  0
POLYLINE
  5
22D3
330
79C
100
AcDbEntity
  8
241
100
AcDb3dPolyline
 66
     1
 10
0.0
 20
0.0
 30
0.0
 70
     8
  0
VERTEX
  5
22D4
330
22D3
100
AcDbEntity
  8
241
100
AcDbVertex
100
AcDb3dPolylineVertex
 10
83.9316
 20
5.98201
 30
0.0
 70
    32
  0
VERTEX
  5
22D5
330
22D3
100
AcDbEntity
  8
241
100
AcDbVertex
100
AcDb3dPolylineVertex
 10
83.9267
 20
5.95187
 30
0.0
 70
    32
  0
VERTEX
  5
22D6
330
22D3
100
AcDbEntity
  8
241
100
AcDbVertex
100
AcDb3dPolylineVertex
 10
83.9225
 20
5.92162
 30
0.0
 70
    32
  0
VERTEX
  5
22D7
330
22D3
100
AcDbEntity
  8
241
100
AcDbVertex
100
AcDb3dPolylineVertex
 10
83.9191
 20
5.89128
 30
0.0
 70
    32
  0
VERTEX
  5
22D8
330
22D3
100
AcDbEntity
  8
241
100
AcDbVertex
100
AcDb3dPolylineVertex
 10
83.9164
 20
5.86085
 30
0.0
 70
    32
  0
VERTEX
  5
22D9
330
22D3
100
AcDbEntity
  8
241
100
AcDbVertex
100
AcDb3dPolylineVertex
 10
83.9145
 20
5.83037
 30
0.0
 70
    32
  0
VERTEX
  5
22DA
330
22D3
100
AcDbEntity
  8
241
100
AcDbVertex
100
AcDb3dPolylineVertex
 10
83.9133
 20
5.79986
 30
0.0
 70
    32
  0
VERTEX
  5
22DB
330
22D3
100
AcDbEntity
  8
241
100
AcDbVertex
100
AcDb3dPolylineVertex
 10
83.9128
 20
5.76932
 30
0.0
 70
    32
  0
VERTEX
  5
22DC
330
22D3
100
AcDbEntity
  8
241
100
AcDbVertex
100
AcDb3dPolylineVertex
 10
83.9131
 20
5.73877
 30
0.0
 70
    32
  0
VERTEX
  5
22DD
330
22D3
100
AcDbEntity
  8
241
100
AcDbVertex
100
AcDb3dPolylineVertex
 10
83.9142
 20
5.70825
 30
0.0
 70
    32
  0
VERTEX
  5
22DE
330
22D3
100
AcDbEntity
  8
241
100
AcDbVertex
100
AcDb3dPolylineVertex
 10
83.916
 20
5.67775
 30
0.0
 70
    32
  0
VERTEX
  5
22DF
330
22D3
100
AcDbEntity
  8
241
100
AcDbVertex
100
AcDb3dPolylineVertex
 10
83.9186
 20
5.64731
 30
0.0
 70
    32
  0
VERTEX
  5
22E0
330
22D3
100
AcDbEntity
  8
241
100
AcDbVertex
100
AcDb3dPolylineVertex
 10
83.9219
 20
5.61694
 30
0.0
 70
    32
  0
VERTEX
  5
22E1
330
22D3
100
AcDbEntity
  8
241
100
AcDbVertex
100
AcDb3dPolylineVertex
 10
83.926
 20
5.58666
 30
0.0
 70
    32
  0
VERTEX
  5
22E2
330
22D3
100
AcDbEntity
  8
241
100
AcDbVertex
100
AcDb3dPolylineVertex
 10
83.9308
 20
5.55649
 30
0.0
 70
    32
  0
VERTEX
  5
22E3
330
22D3
100
AcDbEntity
  8
241
100
AcDbVertex
100
AcDb3dPolylineVertex
 10
83.9364
 20
5.52644
 30
0.0
 70
    32
  0
VERTEX
  5
22E4
330
22D3
100
AcDbEntity
  8
241
100
AcDbVertex
100
AcDb3dPolylineVertex
 10
83.9427
 20
5.49654
 30
0.0
 70
    32
  0
VERTEX
  5
22E5
330
22D3
100
AcDbEntity
  8
241
100
AcDbVertex
100
AcDb3dPolylineVertex
 10
83.9497
 20
5.4668
 30
0.0
 70
    32
  0
VERTEX
  5
22E6
330
22D3
100
AcDbEntity
  8
241
100
AcDbVertex
100
AcDb3dPolylineVertex
 10
83.9575
 20
5.43724
 30
0.0
 70
    32
  0
VERTEX
  5
22E7
330
22D3
100
AcDbEntity
  8
241
100
AcDbVertex
100
AcDb3dPolylineVertex
 10
83.9659
 20
5.40787
 30
0.0
 70
    32
  0
VERTEX
  5
22E8
330
22D3
100
AcDbEntity
  8
241
100
AcDbVertex
100
AcDb3dPolylineVertex
 10
83.9751
 20
5.37872
 30
0.0
 70
    32
  0
VERTEX
  5
22E9
330
22D3
100
AcDbEntity
  8
241
100
AcDbVertex
100
AcDb3dPolylineVertex
 10
83.9851
 20
5.3498
 30
0.0
 70
    32
  0
VERTEX
  5
22EA
330
22D3
100
AcDbEntity
  8
241
100
AcDbVertex
100
AcDb3dPolylineVertex
 10
83.9957
 20
5.32114
 30
0.0
 70
    32
  0
VERTEX
  5
22EB
330
22D3
100
AcDbEntity
  8
241
100
AcDbVertex
100
AcDb3dPolylineVertex
 10
84.007
 20
5.29274
 30
0.0
 70
    32
  0
VERTEX
  5
22EC
330
22D3
100
AcDbEntity
  8
241
100
AcDbVertex
100
AcDb3dPolylineVertex
 10
84.0191
 20
5.26462
 30
0.0
 70
    32
  0
VERTEX
  5
22ED
330
22D3
100
AcDbEntity
  8
241
100
AcDbVertex
100
AcDb3dPolylineVertex
 10
84.0318
 20
5.23681
 30
0.0
 70
    32
  0
VERTEX
  5
22EE
330
22D3
100
AcDbEntity
  8
241
100
AcDbVertex
100
AcDb3dPolylineVertex
 10
84.0452
 20
5.20931
 30
0.0
 70
    32
  0
VERTEX
  5
22EF
330
22D3
100
AcDbEntity
  8
241
100
AcDbVertex
100
AcDb3dPolylineVertex
 10
84.0593
 20
5.18215
 30
0.0
 70
    32
  0
VERTEX
  5
22F0
330
22D3
100
AcDbEntity
  8
241
100
AcDbVertex
100
AcDb3dPolylineVertex
 10
84.074
 20
5.15534
 30
0.0
 70
    32
  0
VERTEX
  5
22F1
330
22D3
100
AcDbEntity
  8
241
100
AcDbVertex
100
AcDb3dPolylineVertex
 10
84.0894
 20
5.1289
 30
0.0
 70
    32
  0
VERTEX
  5
22F2
330
22D3
100
AcDbEntity
  8
241
100
AcDbVertex
100
AcDb3dPolylineVertex
 10
84.1054
 20
5.10284
 30
0.0
 70
    32
  0
VERTEX
  5
22F3
330
22D3
100
AcDbEntity
  8
241
100
AcDbVertex
100
AcDb3dPolylineVertex
 10
84.1221
 20
5.07718
 30
0.0
 70
    32
  0
VERTEX
  5
22F4
330
22D3
100
AcDbEntity
  8
241
100
AcDbVertex
100
AcDb3dPolylineVertex
 10
84.1394
 20
5.05193
 30
0.0
 70
    32
  0
VERTEX
  5
22F5
330
22D3
100
AcDbEntity
  8
241
100
AcDbVertex
100
AcDb3dPolylineVertex
 10
84.1573
 20
5.02711
 30
0.0
 70
    32
  0
VERTEX
  5
22F6
330
22D3
100
AcDbEntity
  8
241
100
AcDbVertex
100
AcDb3dPolylineVertex
 10
84.1759
 20
5.00274
 30
0.0
 70
    32
  0
VERTEX
  5
22F7
330
22D3
100
AcDbEntity
  8
241
100
AcDbVertex
100
AcDb3dPolylineVertex
 10
84.195
 20
4.97883
 30
0.0
 70
    32
  0
VERTEX
  5
22F8
330
22D3
100
AcDbEntity
  8
241
100
AcDbVertex
100
AcDb3dPolylineVertex
 10
84.2147
 20
4.95539
 30
0.0
 70
    32
  0
VERTEX
  5
22F9
330
22D3
100
AcDbEntity
  8
241
100
AcDbVertex
100
AcDb3dPolylineVertex
 10
84.235
 20
4.93244
 30
0.0
 70
    32
  0
VERTEX
  5
22FA
330
22D3
100
AcDbEntity
  8
241
100
AcDbVertex
100
AcDb3dPolylineVertex
 10
84.2558
 20
4.90998
 30
0.0
 70
    32
  0
VERTEX
  5
22FB
330
22D3
100
AcDbEntity
  8
241
100
AcDbVertex
100
AcDb3dPolylineVertex
 10
84.2772
 20
4.88805
 30
0.0
 70
    32
  0
VERTEX
  5
22FC
330
22D3
100
AcDbEntity
  8
241
100
AcDbVertex
100
AcDb3dPolylineVertex
 10
84.2991
 20
4.86664
 30
0.0
 70
    32
  0
VERTEX
  5
22FD
330
22D3
100
AcDbEntity
  8
241
100
AcDbVertex
100
AcDb3dPolylineVertex
 10
84.3215
 20
4.84577
 30
0.0
 70
    32
  0
VERTEX
  5
22FE
330
22D3
100
AcDbEntity
  8
241
100
AcDbVertex
100
AcDb3dPolylineVertex
 10
84.3445
 20
4.82546
 30
0.0
 70
    32
  0
VERTEX
  5
22FF
330
22D3
100
AcDbEntity
  8
241
100
AcDbVertex
100
AcDb3dPolylineVertex
 10
84.3679
 20
4.80571
 30
0.0
 70
    32
  0
VERTEX
  5
2300
330
22D3
100
AcDbEntity
  8
241
100
AcDbVertex
100
AcDb3dPolylineVertex
 10
84.3918
 20
4.78655
 30
0.0
 70
    32
  0
VERTEX
  5
2301
330
22D3
100
AcDbEntity
  8
241
100
AcDbVertex
100
AcDb3dPolylineVertex
 10
84.4162
 20
4.76797
 30
0.0
 70
    32
  0
VERTEX
  5
2302
330
22D3
100
AcDbEntity
  8
241
100
AcDbVertex
100
AcDb3dPolylineVertex
 10
84.441
 20
4.74999
 30
0.0
 70
    32
  0
VERTEX
  5
2303
330
22D3
100
AcDbEntity
  8
241
100
AcDbVertex
100
AcDb3dPolylineVertex
 10
84.4663
 20
4.73262
 30
0.0
 70
    32
  0
VERTEX
  5
2304
330
22D3
100
AcDbEntity
  8
241
100
AcDbVertex
100
AcDb3dPolylineVertex
 10
84.4919
 20
4.71587
 30
0.0
 70
    32
  0
VERTEX
  5
2305
330
22D3
100
AcDbEntity
  8
241
100
AcDbVertex
100
AcDb3dPolylineVertex
 10
84.518
 20
4.69976
 30
0.0
 70
    32
  0
VERTEX
  5
2306
330
22D3
100
AcDbEntity
  8
241
100
AcDbVertex
100
AcDb3dPolylineVertex
 10
84.5445
 20
4.68429
 30
0.0
 70
    32
  0
VERTEX
  5
2307
330
22D3
100
AcDbEntity
  8
241
100
AcDbVertex
100
AcDb3dPolylineVertex
 10
84.5713
 20
4.66947
 30
0.0
 70
    32
  0
VERTEX
  5
2308
330
22D3
100
AcDbEntity
  8
241
100
AcDbVertex
100
AcDb3dPolylineVertex
 10
84.5985
 20
4.6553
 30
0.0
 70
    32
  0
VERTEX
  5
2309
330
22D3
100
AcDbEntity
  8
241
100
AcDbVertex
100
AcDb3dPolylineVertex
 10
84.6261
 20
4.64181
 30
0.0
 70
    32
  0
VERTEX
  5
230A
330
22D3
100
AcDbEntity
  8
241
100
AcDbVertex
100
AcDb3dPolylineVertex
 10
84.6539
 20
4.62899
 30
0.0
 70
    32
  0
VERTEX
  5
230B
330
22D3
100
AcDbEntity
  8
241
100
AcDbVertex
100
AcDb3dPolylineVertex
 10
84.6821
 20
4.61686
 30
0.0
 70
    32
  0
VERTEX
  5
230C
330
22D3
100
AcDbEntity
  8
241
100
AcDbVertex
100
AcDb3dPolylineVertex
 10
84.7106
 20
4.60542
 30
0.0
 70
    32
  0
VERTEX
  5
230D
330
22D3
100
AcDbEntity
  8
241
100
AcDbVertex
100
AcDb3dPolylineVertex
 10
84.7393
 20
4.59468
 30
0.0
 70
    32
  0
VERTEX
  5
230E
330
22D3
100
AcDbEntity
  8
241
100
AcDbVertex
100
AcDb3dPolylineVertex
 10
84.7683
 20
4.58464
 30
0.0
 70
    32
  0
VERTEX
  5
230F
330
22D3
100
AcDbEntity
  8
241
100
AcDbVertex
100
AcDb3dPolylineVertex
 10
84.7975
 20
4.57531
 30
0.0
 70
    32
  0
VERTEX
  5
2310
330
22D3
100
AcDbEntity
  8
241
100
AcDbVertex
100
AcDb3dPolylineVertex
 10
84.827
 20
4.5667
 30
0.0
 70
    32
  0
VERTEX
  5
2311
330
22D3
100
AcDbEntity
  8
241
100
AcDbVertex
100
AcDb3dPolylineVertex
 10
84.8566
 20
4.55882
 30
0.0
 70
    32
  0
VERTEX
  5
2312
330
22D3
100
AcDbEntity
  8
241
100
AcDbVertex
100
AcDb3dPolylineVertex
 10
84.8864
 20
4.55165
 30
0.0
 70
    32
  0
VERTEX
  5
2313
330
22D3
100
AcDbEntity
  8
241
100
AcDbVertex
100
AcDb3dPolylineVertex
 10
84.9164
 20
4.54522
 30
0.0
 70
    32
  0
VERTEX
  5
2314
330
22D3
100
AcDbEntity
  8
241
100
AcDbVertex
100
AcDb3dPolylineVertex
 10
84.9466
 20
4.53953
 30
0.0
 70
    32
  0
VERTEX
  5
2315
330
22D3
100
AcDbEntity
  8
241
100
AcDbVertex
100
AcDb3dPolylineVertex
 10
84.9769
 20
4.53457
 30
0.0
 70
    32
  0
VERTEX
  5
2316
330
22D3
100
AcDbEntity
  8
241
100
AcDbVertex
100
AcDb3dPolylineVertex
 10
85.0072
 20
4.53035
 30
0.0
 70
    32
  0
VERTEX
  5
2317
330
22D3
100
AcDbEntity
  8
241
100
AcDbVertex
100
AcDb3dPolylineVertex
 10
85.0377
 20
4.52688
 30
0.0
 70
    32
  0
VERTEX
  5
2318
330
22D3
100
AcDbEntity
  8
241
100
AcDbVertex
100
AcDb3dPolylineVertex
 10
85.0683
 20
4.52415
 30
0.0
 70
    32
  0
VERTEX
  5
2319
330
22D3
100
AcDbEntity
  8
241
100
AcDbVertex
100
AcDb3dPolylineVertex
 10
85.0989
 20
4.52217
 30
0.0
 70
    32
  0
VERTEX
  5
231A
330
22D3
100
AcDbEntity
  8
241
100
AcDbVertex
100
AcDb3dPolylineVertex
 10
85.1295
 20
4.52094
 30
0.0
 70
    32
  0
VERTEX
  5
231B
330
22D3
100
AcDbEntity
  8
241
100
AcDbVertex
100
AcDb3dPolylineVertex
 10
85.1602
 20
4.52046
 30
0.0
 70
    32
  0
VERTEX
  5
231C
330
22D3
100
AcDbEntity
  8
241
100
AcDbVertex
100
AcDb3dPolylineVertex
 10
85.1909
 20
4.52073
 30
0.0
 70
    32
  0
VERTEX
  5
231D
330
22D3
100
AcDbEntity
  8
241
100
AcDbVertex
100
AcDb3dPolylineVertex
 10
85.2215
 20
4.52174
 30
0.0
 70
    32
  0
VERTEX
  5
231E
330
22D3
100
AcDbEntity
  8
241
100
AcDbVertex
100
AcDb3dPolylineVertex
 10
85.2522
 20
4.52351
 30
0.0
 70
    32
  0
VERTEX
  5
231F
330
22D3
100
AcDbEntity
  8
241
100
AcDbVertex
100
AcDb3dPolylineVertex
 10
85.2827
 20
4.52602
 30
0.0
 70
    32
  0
VERTEX
  5
2320
330
22D3
100
AcDbEntity
  8
241
100
AcDbVertex
100
AcDb3dPolylineVertex
 10
85.3132
 20
4.52928
 30
0.0
 70
    32
  0
VERTEX
  5
2321
330
22D3
100
AcDbEntity
  8
241
100
AcDbVertex
100
AcDb3dPolylineVertex
 10
85.3436
 20
4.53329
 30
0.0
 70
    32
  0
VERTEX
  5
2322
330
22D3
100
AcDbEntity
  8
241
100
AcDbVertex
100
AcDb3dPolylineVertex
 10
85.3739
 20
4.53804
 30
0.0
 70
    32
  0
VERTEX
  5
2323
330
22D3
100
AcDbEntity
  8
241
100
AcDbVertex
100
AcDb3dPolylineVertex
 10
85.4041
 20
4.54352
 30
0.0
 70
    32
  0
VERTEX
  5
2324
330
22D3
100
AcDbEntity
  8
241
100
AcDbVertex
100
AcDb3dPolylineVertex
 10
85.4341
 20
4.54974
 30
0.0
 70
    32
  0
VERTEX
  5
2325
330
22D3
100
AcDbEntity
  8
241
100
AcDbVertex
100
AcDb3dPolylineVertex
 10
85.464
 20
4.5567
 30
0.0
 70
    32
  0
VERTEX
  5
2326
330
22D3
100
AcDbEntity
  8
241
100
AcDbVertex
100
AcDb3dPolylineVertex
 10
85.4937
 20
4.56438
 30
0.0
 70
    32
  0
VERTEX
  5
2327
330
22D3
100
AcDbEntity
  8
241
100
AcDbVertex
100
AcDb3dPolylineVertex
 10
85.5231
 20
4.57278
 30
0.0
 70
    32
  0
VERTEX
  5
2328
330
22D3
100
AcDbEntity
  8
241
100
AcDbVertex
100
AcDb3dPolylineVertex
 10
85.5524
 20
4.5819
 30
0.0
 70
    32
  0
VERTEX
  5
2329
330
22D3
100
AcDbEntity
  8
241
100
AcDbVertex
100
AcDb3dPolylineVertex
 10
85.5814
 20
4.59174
 30
0.0
 70
    32
  0
VERTEX
  5
232A
330
22D3
100
AcDbEntity
  8
241
100
AcDbVertex
100
AcDb3dPolylineVertex
 10
85.6102
 20
4.60228
 30
0.0
 70
    32
  0
VERTEX
  5
232B
330
22D3
100
AcDbEntity
  8
241
100
AcDbVertex
100
AcDb3dPolylineVertex
 10
85.6387
 20
4.61352
 30
0.0
 70
    32
  0
VERTEX
  5
232C
330
22D3
100
AcDbEntity
  8
241
100
AcDbVertex
100
AcDb3dPolylineVertex
 10
85.6669
 20
4.62546
 30
0.0
 70
    32
  0
VERTEX
  5
232D
330
22D3
100
AcDbEntity
  8
241
100
AcDbVertex
100
AcDb3dPolylineVertex
 10
85.6948
 20
4.63808
 30
0.0
 70
    32
  0
VERTEX
  5
232E
330
22D3
100
AcDbEntity
  8
241
100
AcDbVertex
100
AcDb3dPolylineVertex
 10
85.7224
 20
4.65138
 30
0.0
 70
    32
  0
VERTEX
  5
232F
330
22D3
100
AcDbEntity
  8
241
100
AcDbVertex
100
AcDb3dPolylineVertex
 10
85.7497
 20
4.66535
 30
0.0
 70
    32
  0
VERTEX
  5
2330
330
22D3
100
AcDbEntity
  8
241
100
AcDbVertex
100
AcDb3dPolylineVertex
 10
85.7766
 20
4.67998
 30
0.0
 70
    32
  0
VERTEX
  5
2331
330
22D3
100
AcDbEntity
  8
241
100
AcDbVertex
100
AcDb3dPolylineVertex
 10
85.8031
 20
4.69527
 30
0.0
 70
    32
  0
VERTEX
  5
2332
330
22D3
100
AcDbEntity
  8
241
100
AcDbVertex
100
AcDb3dPolylineVertex
 10
85.8292
 20
4.7112
 30
0.0
 70
    32
  0
VERTEX
  5
2333
330
22D3
100
AcDbEntity
  8
241
100
AcDbVertex
100
AcDb3dPolylineVertex
 10
85.855
 20
4.72777
 30
0.0
 70
    32
  0
VERTEX
  5
2334
330
22D3
100
AcDbEntity
  8
241
100
AcDbVertex
100
AcDb3dPolylineVertex
 10
85.8803
 20
4.74496
 30
0.0
 70
    32
  0
VERTEX
  5
2335
330
22D3
100
AcDbEntity
  8
241
100
AcDbVertex
100
AcDb3dPolylineVertex
 10
85.9052
 20
4.76277
 30
0.0
 70
    32
  0
VERTEX
  5
2336
330
22D3
100
AcDbEntity
  8
241
100
AcDbVertex
100
AcDb3dPolylineVertex
 10
85.9297
 20
4.78118
 30
0.0
 70
    32
  0
VERTEX
  5
2337
330
22D3
100
AcDbEntity
  8
241
100
AcDbVertex
100
AcDb3dPolylineVertex
 10
85.9537
 20
4.80018
 30
0.0
 70
    32
  0
VERTEX
  5
2338
330
22D3
100
AcDbEntity
  8
241
100
AcDbVertex
100
AcDb3dPolylineVertex
 10
85.9772
 20
4.81976
 30
0.0
 70
    32
  0
VERTEX
  5
2339
330
22D3
100
AcDbEntity
  8
241
100
AcDbVertex
100
AcDb3dPolylineVertex
 10
86.0002
 20
4.83991
 30
0.0
 70
    32
  0
VERTEX
  5
233A
330
22D3
100
AcDbEntity
  8
241
100
AcDbVertex
100
AcDb3dPolylineVertex
 10
86.0227
 20
4.86062
 30
0.0
 70
    32
  0
VERTEX
  5
233B
330
22D3
100
AcDbEntity
  8
241
100
AcDbVertex
100
AcDb3dPolylineVertex
 10
86.0447
 20
4.88188
 30
0.0
 70
    32
  0
VERTEX
  5
233C
330
22D3
100
AcDbEntity
  8
241
100
AcDbVertex
100
AcDb3dPolylineVertex
 10
86.0662
 20
4.90366
 30
0.0
 70
    32
  0
VERTEX
  5
233D
330
22D3
100
AcDbEntity
  8
241
100
AcDbVertex
100
AcDb3dPolylineVertex
 10
86.0871
 20
4.92597
 30
0.0
 70
    32
  0
VERTEX
  5
233E
330
22D3
100
AcDbEntity
  8
241
100
AcDbVertex
100
AcDb3dPolylineVertex
 10
86.1074
 20
4.94878
 30
0.0
 70
    32
  0
VERTEX
  5
233F
330
22D3
100
AcDbEntity
  8
241
100
AcDbVertex
100
AcDb3dPolylineVertex
 10
86.1272
 20
4.97208
 30
0.0
 70
    32
  0
VERTEX
  5
2340
330
22D3
100
AcDbEntity
  8
241
100
AcDbVertex
100
AcDb3dPolylineVertex
 10
86.1465
 20
4.99586
 30
0.0
 70
    32
  0
VERTEX
  5
2341
330
22D3
100
AcDbEntity
  8
241
100
AcDbVertex
100
AcDb3dPolylineVertex
 10
86.1651
 20
5.0201
 30
0.0
 70
    32
  0
VERTEX
  5
2342
330
22D3
100
AcDbEntity
  8
241
100
AcDbVertex
100
AcDb3dPolylineVertex
 10
86.1831
 20
5.0448
 30
0.0
 70
    32
  0
VERTEX
  5
2343
330
22D3
100
AcDbEntity
  8
241
100
AcDbVertex
100
AcDb3dPolylineVertex
 10
86.2005
 20
5.06992
 30
0.0
 70
    32
  0
VERTEX
  5
2344
330
22D3
100
AcDbEntity
  8
241
100
AcDbVertex
100
AcDb3dPolylineVertex
 10
86.2173
 20
5.09546
 30
0.0
 70
    32
  0
VERTEX
  5
2345
330
22D3
100
AcDbEntity
  8
241
100
AcDbVertex
100
AcDb3dPolylineVertex
 10
86.2334
 20
5.12141
 30
0.0
 70
    32
  0
VERTEX
  5
2346
330
22D3
100
AcDbEntity
  8
241
100
AcDbVertex
100
AcDb3dPolylineVertex
 10
86.2489
 20
5.14775
 30
0.0
 70
    32
  0
VERTEX
  5
2347
330
22D3
100
AcDbEntity
  8
241
100
AcDbVertex
100
AcDb3dPolylineVertex
 10
86.2638
 20
5.17445
 30
0.0
 70
    32
  0
VERTEX
  5
2348
330
22D3
100
AcDbEntity
  8
241
100
AcDbVertex
100
AcDb3dPolylineVertex
 10
86.2779
 20
5.20152
 30
0.0
 70
    32
  0
VERTEX
  5
2349
330
22D3
100
AcDbEntity
  8
241
100
AcDbVertex
100
AcDb3dPolylineVertex
 10
86.2914
 20
5.22892
 30
0.0
 70
    32
  0
VERTEX
  5
234A
330
22D3
100
AcDbEntity
  8
241
100
AcDbVertex
100
AcDb3dPolylineVertex
 10
86.3043
 20
5.25664
 30
0.0
 70
    32
  0
VERTEX
  5
234B
330
22D3
100
AcDbEntity
  8
241
100
AcDbVertex
100
AcDb3dPolylineVertex
 10
86.3164
 20
5.28467
 30
0.0
 70
    32
  0
VERTEX
  5
234C
330
22D3
100
AcDbEntity
  8
241
100
AcDbVertex
100
AcDb3dPolylineVertex
 10
86.3279
 20
5.31299
 30
0.0
 70
    32
  0
VERTEX
  5
234D
330
22D3
100
AcDbEntity
  8
241
100
AcDbVertex
100
AcDb3dPolylineVertex
 10
86.3386
 20
5.34159
 30
0.0
 70
    32
  0
VERTEX
  5
234E
330
22D3
100
AcDbEntity
  8
241
100
AcDbVertex
100
AcDb3dPolylineVertex
 10
86.3486
 20
5.37043
 30
0.0
 70
    32
  0
VERTEX
  5
234F
330
22D3
100
AcDbEntity
  8
241
100
AcDbVertex
100
AcDb3dPolylineVertex
 10
86.358
 20
5.39952
 30
0.0
 70
    32
  0
VERTEX
  5
2350
330
22D3
100
AcDbEntity
  8
241
100
AcDbVertex
100
AcDb3dPolylineVertex
 10
86.3666
 20
5.42882
 30
0.0
 70
    32
  0
VERTEX
  5
2351
330
22D3
100
AcDbEntity
  8
241
100
AcDbVertex
100
AcDb3dPolylineVertex
 10
86.3744
 20
5.45833
 30
0.0
 70
    32
  0
VERTEX
  5
2352
330
22D3
100
AcDbEntity
  8
241
100
AcDbVertex
100
AcDb3dPolylineVertex
 10
86.3816
 20
5.48802
 30
0.0
 70
    32
  0
VERTEX
  5
2353
330
22D3
100
AcDbEntity
  8
241
100
AcDbVertex
100
AcDb3dPolylineVertex
 10
86.388
 20
5.51788
 30
0.0
 70
    32
  0
VERTEX
  5
2354
330
22D3
100
AcDbEntity
  8
241
100
AcDbVertex
100
AcDb3dPolylineVertex
 10
86.3937
 20
5.54789
 30
0.0
 70
    32
  0
SEQEND
  5
2355
330
22D3
100
AcDbEntity
  8
241
  0
POLYLINE
  5
2356
330
79C
100
AcDbEntity
  8
241
100
AcDb3dPolyline
 66
     1
 10
0.0
 20
0.0
 30
0.0
 70
     8
  0
VERTEX
  5
2357
330
2356
100
AcDbEntity
  8
241
100
AcDbVertex
100
AcDb3dPolylineVertex
 10
86.3937
 20
5.54789
 30
0.0
 70
    32
  0
VERTEX
  5
2358
330
2356
100
AcDbEntity
  8
241
100
AcDbVertex
100
AcDb3dPolylineVertex
 10
86.3967
 20
5.56711
 30
0.0
 70
    32
  0
VERTEX
  5
2359
330
2356
100
AcDbEntity
  8
241
100
AcDbVertex
100
AcDb3dPolylineVertex
 10
86.3989
 20
5.58644
 30
0.0
 70
    32
  0
VERTEX
  5
235A
330
2356
100
AcDbEntity
  8
241
100
AcDbVertex
100
AcDb3dPolylineVertex
 10
86.4005
 20
5.60589
 30
0.0
 70
    32
  0
VERTEX
  5
235B
330
2356
100
AcDbEntity
  8
241
100
AcDbVertex
100
AcDb3dPolylineVertex
 10
86.4012
 20
5.62543
 30
0.0
 70
    32
  0
VERTEX
  5
235C
330
2356
100
AcDbEntity
  8
241
100
AcDbVertex
100
AcDb3dPolylineVertex
 10
86.4013
 20
5.64505
 30
0.0
 70
    32
  0
VERTEX
  5
235D
330
2356
100
AcDbEntity
  8
241
100
AcDbVertex
100
AcDb3dPolylineVertex
 10
86.4005
 20
5.66474
 30
0.0
 70
    32
  0
VERTEX
  5
235E
330
2356
100
AcDbEntity
  8
241
100
AcDbVertex
100
AcDb3dPolylineVertex
 10
86.3991
 20
5.6845
 30
0.0
 70
    32
  0
VERTEX
  5
235F
330
2356
100
AcDbEntity
  8
241
100
AcDbVertex
100
AcDb3dPolylineVertex
 10
86.3969
 20
5.7043
 30
0.0
 70
    32
  0
VERTEX
  5
2360
330
2356
100
AcDbEntity
  8
241
100
AcDbVertex
100
AcDb3dPolylineVertex
 10
86.3939
 20
5.72414
 30
0.0
 70
    32
  0
VERTEX
  5
2361
330
2356
100
AcDbEntity
  8
241
100
AcDbVertex
100
AcDb3dPolylineVertex
 10
86.3902
 20
5.74401
 30
0.0
 70
    32
  0
VERTEX
  5
2362
330
2356
100
AcDbEntity
  8
241
100
AcDbVertex
100
AcDb3dPolylineVertex
 10
86.3858
 20
5.76388
 30
0.0
 70
    32
  0
VERTEX
  5
2363
330
2356
100
AcDbEntity
  8
241
100
AcDbVertex
100
AcDb3dPolylineVertex
 10
86.3806
 20
5.78376
 30
0.0
 70
    32
  0
VERTEX
  5
2364
330
2356
100
AcDbEntity
  8
241
100
AcDbVertex
100
AcDb3dPolylineVertex
 10
86.3747
 20
5.80363
 30
0.0
 70
    32
  0
VERTEX
  5
2365
330
2356
100
AcDbEntity
  8
241
100
AcDbVertex
100
AcDb3dPolylineVertex
 10
86.3681
 20
5.82347
 30
0.0
 70
    32
  0
VERTEX
  5
2366
330
2356
100
AcDbEntity
  8
241
100
AcDbVertex
100
AcDb3dPolylineVertex
 10
86.3607
 20
5.84328
 30
0.0
 70
    32
  0
VERTEX
  5
2367
330
2356
100
AcDbEntity
  8
241
100
AcDbVertex
100
AcDb3dPolylineVertex
 10
86.3526
 20
5.86304
 30
0.0
 70
    32
  0
VERTEX
  5
2368
330
2356
100
AcDbEntity
  8
241
100
AcDbVertex
100
AcDb3dPolylineVertex
 10
86.3438
 20
5.88274
 30
0.0
 70
    32
  0
VERTEX
  5
2369
330
2356
100
AcDbEntity
  8
241
100
AcDbVertex
100
AcDb3dPolylineVertex
 10
86.3343
 20
5.90237
 30
0.0
 70
    32
  0
VERTEX
  5
236A
330
2356
100
AcDbEntity
  8
241
100
AcDbVertex
100
AcDb3dPolylineVertex
 10
86.3241
 20
5.92192
 30
0.0
 70
    32
  0
VERTEX
  5
236B
330
2356
100
AcDbEntity
  8
241
100
AcDbVertex
100
AcDb3dPolylineVertex
 10
86.3132
 20
5.94138
 30
0.0
 70
    32
  0
VERTEX
  5
236C
330
2356
100
AcDbEntity
  8
241
100
AcDbVertex
100
AcDb3dPolylineVertex
 10
86.3016
 20
5.96072
 30
0.0
 70
    32
  0
VERTEX
  5
236D
330
2356
100
AcDbEntity
  8
241
100
AcDbVertex
100
AcDb3dPolylineVertex
 10
86.2893
 20
5.97995
 30
0.0
 70
    32
  0
VERTEX
  5
236E
330
2356
100
AcDbEntity
  8
241
100
AcDbVertex
100
AcDb3dPolylineVertex
 10
86.2763
 20
5.99905
 30
0.0
 70
    32
  0
VERTEX
  5
236F
330
2356
100
AcDbEntity
  8
241
100
AcDbVertex
100
AcDb3dPolylineVertex
 10
86.2626
 20
6.01801
 30
0.0
 70
    32
  0
VERTEX
  5
2370
330
2356
100
AcDbEntity
  8
241
100
AcDbVertex
100
AcDb3dPolylineVertex
 10
86.2483
 20
6.03682
 30
0.0
 70
    32
  0
VERTEX
  5
2371
330
2356
100
AcDbEntity
  8
241
100
AcDbVertex
100
AcDb3dPolylineVertex
 10
86.2334
 20
6.05546
 30
0.0
 70
    32
  0
VERTEX
  5
2372
330
2356
100
AcDbEntity
  8
241
100
AcDbVertex
100
AcDb3dPolylineVertex
 10
86.2178
 20
6.07393
 30
0.0
 70
    32
  0
VERTEX
  5
2373
330
2356
100
AcDbEntity
  8
241
100
AcDbVertex
100
AcDb3dPolylineVertex
 10
86.2015
 20
6.09221
 30
0.0
 70
    32
  0
VERTEX
  5
2374
330
2356
100
AcDbEntity
  8
241
100
AcDbVertex
100
AcDb3dPolylineVertex
 10
86.1847
 20
6.1103
 30
0.0
 70
    32
  0
VERTEX
  5
2375
330
2356
100
AcDbEntity
  8
241
100
AcDbVertex
100
AcDb3dPolylineVertex
 10
86.1672
 20
6.12817
 30
0.0
 70
    32
  0
VERTEX
  5
2376
330
2356
100
AcDbEntity
  8
241
100
AcDbVertex
100
AcDb3dPolylineVertex
 10
86.1491
 20
6.14583
 30
0.0
 70
    32
  0
VERTEX
  5
2377
330
2356
100
AcDbEntity
  8
241
100
AcDbVertex
100
AcDb3dPolylineVertex
 10
86.1304
 20
6.16326
 30
0.0
 70
    32
  0
VERTEX
  5
2378
330
2356
100
AcDbEntity
  8
241
100
AcDbVertex
100
AcDb3dPolylineVertex
 10
86.1111
 20
6.18045
 30
0.0
 70
    32
  0
VERTEX
  5
2379
330
2356
100
AcDbEntity
  8
241
100
AcDbVertex
100
AcDb3dPolylineVertex
 10
86.0913
 20
6.19738
 30
0.0
 70
    32
  0
VERTEX
  5
237A
330
2356
100
AcDbEntity
  8
241
100
AcDbVertex
100
AcDb3dPolylineVertex
 10
86.0709
 20
6.21406
 30
0.0
 70
    32
  0
VERTEX
  5
237B
330
2356
100
AcDbEntity
  8
241
100
AcDbVertex
100
AcDb3dPolylineVertex
 10
86.05
 20
6.23047
 30
0.0
 70
    32
  0
VERTEX
  5
237C
330
2356
100
AcDbEntity
  8
241
100
AcDbVertex
100
AcDb3dPolylineVertex
 10
86.0285
 20
6.2466
 30
0.0
 70
    32
  0
VERTEX
  5
237D
330
2356
100
AcDbEntity
  8
241
100
AcDbVertex
100
AcDb3dPolylineVertex
 10
86.0065
 20
6.26243
 30
0.0
 70
    32
  0
VERTEX
  5
237E
330
2356
100
AcDbEntity
  8
241
100
AcDbVertex
100
AcDb3dPolylineVertex
 10
85.984
 20
6.27797
 30
0.0
 70
    32
  0
VERTEX
  5
237F
330
2356
100
AcDbEntity
  8
241
100
AcDbVertex
100
AcDb3dPolylineVertex
 10
85.961
 20
6.2932
 30
0.0
 70
    32
  0
VERTEX
  5
2380
330
2356
100
AcDbEntity
  8
241
100
AcDbVertex
100
AcDb3dPolylineVertex
 10
85.9375
 20
6.30811
 30
0.0
 70
    32
  0
VERTEX
  5
2381
330
2356
100
AcDbEntity
  8
241
100
AcDbVertex
100
AcDb3dPolylineVertex
 10
85.9135
 20
6.32269
 30
0.0
 70
    32
  0
VERTEX
  5
2382
330
2356
100
AcDbEntity
  8
241
100
AcDbVertex
100
AcDb3dPolylineVertex
 10
85.8891
 20
6.33694
 30
0.0
 70
    32
  0
VERTEX
  5
2383
330
2356
100
AcDbEntity
  8
241
100
AcDbVertex
100
AcDb3dPolylineVertex
 10
85.8643
 20
6.35084
 30
0.0
 70
    32
  0
VERTEX
  5
2384
330
2356
100
AcDbEntity
  8
241
100
AcDbVertex
100
AcDb3dPolylineVertex
 10
85.839
 20
6.36439
 30
0.0
 70
    32
  0
VERTEX
  5
2385
330
2356
100
AcDbEntity
  8
241
100
AcDbVertex
100
AcDb3dPolylineVertex
 10
85.8134
 20
6.37757
 30
0.0
 70
    32
  0
VERTEX
  5
2386
330
2356
100
AcDbEntity
  8
241
100
AcDbVertex
100
AcDb3dPolylineVertex
 10
85.7873
 20
6.39039
 30
0.0
 70
    32
  0
VERTEX
  5
2387
330
2356
100
AcDbEntity
  8
241
100
AcDbVertex
100
AcDb3dPolylineVertex
 10
85.7609
 20
6.40284
 30
0.0
 70
    32
  0
VERTEX
  5
2388
330
2356
100
AcDbEntity
  8
241
100
AcDbVertex
100
AcDb3dPolylineVertex
 10
85.7341
 20
6.41489
 30
0.0
 70
    32
  0
VERTEX
  5
2389
330
2356
100
AcDbEntity
  8
241
100
AcDbVertex
100
AcDb3dPolylineVertex
 10
85.7069
 20
6.42656
 30
0.0
 70
    32
  0
VERTEX
  5
238A
330
2356
100
AcDbEntity
  8
241
100
AcDbVertex
100
AcDb3dPolylineVertex
 10
85.6795
 20
6.43783
 30
0.0
 70
    32
  0
VERTEX
  5
238B
330
2356
100
AcDbEntity
  8
241
100
AcDbVertex
100
AcDb3dPolylineVertex
 10
85.6517
 20
6.44869
 30
0.0
 70
    32
  0
VERTEX
  5
238C
330
2356
100
AcDbEntity
  8
241
100
AcDbVertex
100
AcDb3dPolylineVertex
 10
85.6236
 20
6.45914
 30
0.0
 70
    32
  0
VERTEX
  5
238D
330
2356
100
AcDbEntity
  8
241
100
AcDbVertex
100
AcDb3dPolylineVertex
 10
85.5952
 20
6.46917
 30
0.0
 70
    32
  0
VERTEX
  5
238E
330
2356
100
AcDbEntity
  8
241
100
AcDbVertex
100
AcDb3dPolylineVertex
 10
85.5666
 20
6.47878
 30
0.0
 70
    32
  0
VERTEX
  5
238F
330
2356
100
AcDbEntity
  8
241
100
AcDbVertex
100
AcDb3dPolylineVertex
 10
85.5378
 20
6.48796
 30
0.0
 70
    32
  0
VERTEX
  5
2390
330
2356
100
AcDbEntity
  8
241
100
AcDbVertex
100
AcDb3dPolylineVertex
 10
85.5087
 20
6.4967
 30
0.0
 70
    32
  0
VERTEX
  5
2391
330
2356
100
AcDbEntity
  8
241
100
AcDbVertex
100
AcDb3dPolylineVertex
 10
85.4794
 20
6.50501
 30
0.0
 70
    32
  0
VERTEX
  5
2392
330
2356
100
AcDbEntity
  8
241
100
AcDbVertex
100
AcDb3dPolylineVertex
 10
85.4499
 20
6.51286
 30
0.0
 70
    32
  0
VERTEX
  5
2393
330
2356
100
AcDbEntity
  8
241
100
AcDbVertex
100
AcDb3dPolylineVertex
 10
85.4202
 20
6.52027
 30
0.0
 70
    32
  0
VERTEX
  5
2394
330
2356
100
AcDbEntity
  8
241
100
AcDbVertex
100
AcDb3dPolylineVertex
 10
85.3904
 20
6.52722
 30
0.0
 70
    32
  0
VERTEX
  5
2395
330
2356
100
AcDbEntity
  8
241
100
AcDbVertex
100
AcDb3dPolylineVertex
 10
85.3605
 20
6.53371
 30
0.0
 70
    32
  0
VERTEX
  5
2396
330
2356
100
AcDbEntity
  8
241
100
AcDbVertex
100
AcDb3dPolylineVertex
 10
85.3304
 20
6.53974
 30
0.0
 70
    32
  0
VERTEX
  5
2397
330
2356
100
AcDbEntity
  8
241
100
AcDbVertex
100
AcDb3dPolylineVertex
 10
85.3003
 20
6.5453
 30
0.0
 70
    32
  0
VERTEX
  5
2398
330
2356
100
AcDbEntity
  8
241
100
AcDbVertex
100
AcDb3dPolylineVertex
 10
85.27
 20
6.55039
 30
0.0
 70
    32
  0
VERTEX
  5
2399
330
2356
100
AcDbEntity
  8
241
100
AcDbVertex
100
AcDb3dPolylineVertex
 10
85.2397
 20
6.55501
 30
0.0
 70
    32
  0
VERTEX
  5
239A
330
2356
100
AcDbEntity
  8
241
100
AcDbVertex
100
AcDb3dPolylineVertex
 10
85.2093
 20
6.55915
 30
0.0
 70
    32
  0
VERTEX
  5
239B
330
2356
100
AcDbEntity
  8
241
100
AcDbVertex
100
AcDb3dPolylineVertex
 10
85.1789
 20
6.56282
 30
0.0
 70
    32
  0
VERTEX
  5
239C
330
2356
100
AcDbEntity
  8
241
100
AcDbVertex
100
AcDb3dPolylineVertex
 10
85.1485
 20
6.566
 30
0.0
 70
    32
  0
VERTEX
  5
239D
330
2356
100
AcDbEntity
  8
241
100
AcDbVertex
100
AcDb3dPolylineVertex
 10
85.1181
 20
6.5687
 30
0.0
 70
    32
  0
VERTEX
  5
239E
330
2356
100
AcDbEntity
  8
241
100
AcDbVertex
100
AcDb3dPolylineVertex
 10
85.0878
 20
6.57092
 30
0.0
 70
    32
  0
VERTEX
  5
239F
330
2356
100
AcDbEntity
  8
241
100
AcDbVertex
100
AcDb3dPolylineVertex
 10
85.0575
 20
6.57265
 30
0.0
 70
    32
  0
VERTEX
  5
23A0
330
2356
100
AcDbEntity
  8
241
100
AcDbVertex
100
AcDb3dPolylineVertex
 10
85.0272
 20
6.5739
 30
0.0
 70
    32
  0
VERTEX
  5
23A1
330
2356
100
AcDbEntity
  8
241
100
AcDbVertex
100
AcDb3dPolylineVertex
 10
84.997
 20
6.57466
 30
0.0
 70
    32
  0
VERTEX
  5
23A2
330
2356
100
AcDbEntity
  8
241
100
AcDbVertex
100
AcDb3dPolylineVertex
 10
84.9669
 20
6.57493
 30
0.0
 70
    32
  0
VERTEX
  5
23A3
330
2356
100
AcDbEntity
  8
241
100
AcDbVertex
100
AcDb3dPolylineVertex
 10
84.937
 20
6.57471
 30
0.0
 70
    32
  0
VERTEX
  5
23A4
330
2356
100
AcDbEntity
  8
241
100
AcDbVertex
100
AcDb3dPolylineVertex
 10
84.9072
 20
6.574
 30
0.0
 70
    32
  0
VERTEX
  5
23A5
330
2356
100
AcDbEntity
  8
241
100
AcDbVertex
100
AcDb3dPolylineVertex
 10
84.8775
 20
6.57281
 30
0.0
 70
    32
  0
VERTEX
  5
23A6
330
2356
100
AcDbEntity
  8
241
100
AcDbVertex
100
AcDb3dPolylineVertex
 10
84.848
 20
6.57113
 30
0.0
 70
    32
  0
VERTEX
  5
23A7
330
2356
100
AcDbEntity
  8
241
100
AcDbVertex
100
AcDb3dPolylineVertex
 10
84.8187
 20
6.56897
 30
0.0
 70
    32
  0
VERTEX
  5
23A8
330
2356
100
AcDbEntity
  8
241
100
AcDbVertex
100
AcDb3dPolylineVertex
 10
84.7896
 20
6.56632
 30
0.0
 70
    32
  0
VERTEX
  5
23A9
330
2356
100
AcDbEntity
  8
241
100
AcDbVertex
100
AcDb3dPolylineVertex
 10
84.7607
 20
6.56318
 30
0.0
 70
    32
  0
VERTEX
  5
23AA
330
2356
100
AcDbEntity
  8
241
100
AcDbVertex
100
AcDb3dPolylineVertex
 10
84.7321
 20
6.55957
 30
0.0
 70
    32
  0
VERTEX
  5
23AB
330
2356
100
AcDbEntity
  8
241
100
AcDbVertex
100
AcDb3dPolylineVertex
 10
84.7037
 20
6.55548
 30
0.0
 70
    32
  0
VERTEX
  5
23AC
330
2356
100
AcDbEntity
  8
241
100
AcDbVertex
100
AcDb3dPolylineVertex
 10
84.6756
 20
6.55091
 30
0.0
 70
    32
  0
VERTEX
  5
23AD
330
2356
100
AcDbEntity
  8
241
100
AcDbVertex
100
AcDb3dPolylineVertex
 10
84.6478
 20
6.54587
 30
0.0
 70
    32
  0
VERTEX
  5
23AE
330
2356
100
AcDbEntity
  8
241
100
AcDbVertex
100
AcDb3dPolylineVertex
 10
84.6203
 20
6.54036
 30
0.0
 70
    32
  0
VERTEX
  5
23AF
330
2356
100
AcDbEntity
  8
241
100
AcDbVertex
100
AcDb3dPolylineVertex
 10
84.5932
 20
6.53438
 30
0.0
 70
    32
  0
VERTEX
  5
23B0
330
2356
100
AcDbEntity
  8
241
100
AcDbVertex
100
AcDb3dPolylineVertex
 10
84.5663
 20
6.52794
 30
0.0
 70
    32
  0
VERTEX
  5
23B1
330
2356
100
AcDbEntity
  8
241
100
AcDbVertex
100
AcDb3dPolylineVertex
 10
84.5399
 20
6.52104
 30
0.0
 70
    32
  0
VERTEX
  5
23B2
330
2356
100
AcDbEntity
  8
241
100
AcDbVertex
100
AcDb3dPolylineVertex
 10
84.5138
 20
6.51368
 30
0.0
 70
    32
  0
VERTEX
  5
23B3
330
2356
100
AcDbEntity
  8
241
100
AcDbVertex
100
AcDb3dPolylineVertex
 10
84.4881
 20
6.50587
 30
0.0
 70
    32
  0
VERTEX
  5
23B4
330
2356
100
AcDbEntity
  8
241
100
AcDbVertex
100
AcDb3dPolylineVertex
 10
84.4628
 20
6.49762
 30
0.0
 70
    32
  0
VERTEX
  5
23B5
330
2356
100
AcDbEntity
  8
241
100
AcDbVertex
100
AcDb3dPolylineVertex
 10
84.4379
 20
6.48892
 30
0.0
 70
    32
  0
VERTEX
  5
23B6
330
2356
100
AcDbEntity
  8
241
100
AcDbVertex
100
AcDb3dPolylineVertex
 10
84.4135
 20
6.47979
 30
0.0
 70
    32
  0
VERTEX
  5
23B7
330
2356
100
AcDbEntity
  8
241
100
AcDbVertex
100
AcDb3dPolylineVertex
 10
84.3895
 20
6.47023
 30
0.0
 70
    32
  0
VERTEX
  5
23B8
330
2356
100
AcDbEntity
  8
241
100
AcDbVertex
100
AcDb3dPolylineVertex
 10
84.366
 20
6.46024
 30
0.0
 70
    32
  0
VERTEX
  5
23B9
330
2356
100
AcDbEntity
  8
241
100
AcDbVertex
100
AcDb3dPolylineVertex
 10
84.3429
 20
6.44983
 30
0.0
 70
    32
  0
VERTEX
  5
23BA
330
2356
100
AcDbEntity
  8
241
100
AcDbVertex
100
AcDb3dPolylineVertex
 10
84.3204
 20
6.43901
 30
0.0
 70
    32
  0
VERTEX
  5
23BB
330
2356
100
AcDbEntity
  8
241
100
AcDbVertex
100
AcDb3dPolylineVertex
 10
84.2984
 20
6.42779
 30
0.0
 70
    32
  0
VERTEX
  5
23BC
330
2356
100
AcDbEntity
  8
241
100
AcDbVertex
100
AcDb3dPolylineVertex
 10
84.2768
 20
6.41617
 30
0.0
 70
    32
  0
VERTEX
  5
23BD
330
2356
100
AcDbEntity
  8
241
100
AcDbVertex
100
AcDb3dPolylineVertex
 10
84.2559
 20
6.40415
 30
0.0
 70
    32
  0
VERTEX
  5
23BE
330
2356
100
AcDbEntity
  8
241
100
AcDbVertex
100
AcDb3dPolylineVertex
 10
84.2354
 20
6.39175
 30
0.0
 70
    32
  0
VERTEX
  5
23BF
330
2356
100
AcDbEntity
  8
241
100
AcDbVertex
100
AcDb3dPolylineVertex
 10
84.2156
 20
6.37897
 30
0.0
 70
    32
  0
VERTEX
  5
23C0
330
2356
100
AcDbEntity
  8
241
100
AcDbVertex
100
AcDb3dPolylineVertex
 10
84.1962
 20
6.36582
 30
0.0
 70
    32
  0
VERTEX
  5
23C1
330
2356
100
AcDbEntity
  8
241
100
AcDbVertex
100
AcDb3dPolylineVertex
 10
84.1775
 20
6.35231
 30
0.0
 70
    32
  0
VERTEX
  5
23C2
330
2356
100
AcDbEntity
  8
241
100
AcDbVertex
100
AcDb3dPolylineVertex
 10
84.1594
 20
6.33845
 30
0.0
 70
    32
  0
VERTEX
  5
23C3
330
2356
100
AcDbEntity
  8
241
100
AcDbVertex
100
AcDb3dPolylineVertex
 10
84.1419
 20
6.32424
 30
0.0
 70
    32
  0
VERTEX
  5
23C4
330
2356
100
AcDbEntity
  8
241
100
AcDbVertex
100
AcDb3dPolylineVertex
 10
84.125
 20
6.30969
 30
0.0
 70
    32
  0
VERTEX
  5
23C5
330
2356
100
AcDbEntity
  8
241
100
AcDbVertex
100
AcDb3dPolylineVertex
 10
84.1087
 20
6.29481
 30
0.0
 70
    32
  0
VERTEX
  5
23C6
330
2356
100
AcDbEntity
  8
241
100
AcDbVertex
100
AcDb3dPolylineVertex
 10
84.093
 20
6.27962
 30
0.0
 70
    32
  0
VERTEX
  5
23C7
330
2356
100
AcDbEntity
  8
241
100
AcDbVertex
100
AcDb3dPolylineVertex
 10
84.078
 20
6.26412
 30
0.0
 70
    32
  0
VERTEX
  5
23C8
330
2356
100
AcDbEntity
  8
241
100
AcDbVertex
100
AcDb3dPolylineVertex
 10
84.0637
 20
6.24831
 30
0.0
 70
    32
  0
VERTEX
  5
23C9
330
2356
100
AcDbEntity
  8
241
100
AcDbVertex
100
AcDb3dPolylineVertex
 10
84.05
 20
6.23222
 30
0.0
 70
    32
  0
VERTEX
  5
23CA
330
2356
100
AcDbEntity
  8
241
100
AcDbVertex
100
AcDb3dPolylineVertex
 10
84.0369
 20
6.21584
 30
0.0
 70
    32
  0
VERTEX
  5
23CB
330
2356
100
AcDbEntity
  8
241
100
AcDbVertex
100
AcDb3dPolylineVertex
 10
84.0246
 20
6.19919
 30
0.0
 70
    32
  0
VERTEX
  5
23CC
330
2356
100
AcDbEntity
  8
241
100
AcDbVertex
100
AcDb3dPolylineVertex
 10
84.0129
 20
6.18228
 30
0.0
 70
    32
  0
VERTEX
  5
23CD
330
2356
100
AcDbEntity
  8
241
100
AcDbVertex
100
AcDb3dPolylineVertex
 10
84.002
 20
6.16512
 30
0.0
 70
    32
  0
VERTEX
  5
23CE
330
2356
100
AcDbEntity
  8
241
100
AcDbVertex
100
AcDb3dPolylineVertex
 10
83.9917
 20
6.14771
 30
0.0
 70
    32
  0
VERTEX
  5
23CF
330
2356
100
AcDbEntity
  8
241
100
AcDbVertex
100
AcDb3dPolylineVertex
 10
83.9821
 20
6.13008
 30
0.0
 70
    32
  0
VERTEX
  5
23D0
330
2356
100
AcDbEntity
  8
241
100
AcDbVertex
100
AcDb3dPolylineVertex
 10
83.9733
 20
6.11223
 30
0.0
 70
    32
  0
VERTEX
  5
23D1
330
2356
100
AcDbEntity
  8
241
100
AcDbVertex
100
AcDb3dPolylineVertex
 10
83.9652
 20
6.09416
 30
0.0
 70
    32
  0
VERTEX
  5
23D2
330
2356
100
AcDbEntity
  8
241
100
AcDbVertex
100
AcDb3dPolylineVertex
 10
83.9577
 20
6.0759
 30
0.0
 70
    32
  0
VERTEX
  5
23D3
330
2356
100
AcDbEntity
  8
241
100
AcDbVertex
100
AcDb3dPolylineVertex
 10
83.9511
 20
6.05746
 30
0.0
 70
    32
  0
VERTEX
  5
23D4
330
2356
100
AcDbEntity
  8
241
100
AcDbVertex
100
AcDb3dPolylineVertex
 10
83.9451
 20
6.03883
 30
0.0
 70
    32
  0
VERTEX
  5
23D5
330
2356
100
AcDbEntity
  8
241
100
AcDbVertex
100
AcDb3dPolylineVertex
 10
83.9399
 20
6.02004
 30
0.0
 70
    32
  0
VERTEX
  5
23D6
330
2356
100
AcDbEntity
  8
241
100
AcDbVertex
100
AcDb3dPolylineVertex
 10
83.9354
 20
6.0011
 30
0.0
 70
    32
  0
VERTEX
  5
23D7
330
2356
100
AcDbEntity
  8
241
100
AcDbVertex
100
AcDb3dPolylineVertex
 10
83.9316
 20
5.98201
 30
0.0
 70
    32
  0
SEQEND
  5
23D8
330
2356
100
AcDbEntity
  8
241
  0
ENDBLK
  5
87E
330
79C
100
AcDbEntity
  8
0
100
AcDbBlockEnd
  0
BLOCK
  5
8AD
330
8A3
100
AcDbEntity
  8
0
100
AcDbBlockBegin
  2
*D3
 70
     1
 10
0.0
 20
0.0
 30
0.0
  3
*D3
  1

  0
LINE
  5
DAA
330
8A3
100
AcDbEntity
  8
250
  6
CONTINUOUS
 62
     3
100
AcDbLine
 10
60.0
 20
7.9
 30
0.0
 11
60.0
 21
36.0
 31
0.0
  0
LINE
  5
DAB
330
8A3
100
AcDbEntity
  8
250
  6
CONTINUOUS
 62
     3
100
AcDbLine
 10
90.0
 20
8.5
 30
0.0
 11
90.0
 21
36.0
 31
0.0
  0
LINE
  5
DAC
330
8A3
100
AcDbEntity
  8
250
  6
CONTINUOUS
 62
     3
100
AcDbLine
 10
62.23
 20
35.0
 30
0.0
 11
87.77
 21
35.0
 31
0.0
  0
INSERT
  5
DAD
330
8A3
100
AcDbEntity
  8
250
  6
CONTINUOUS
 62
     3
100
AcDbBlockReference
  2
_OPEN
 10
60.0
 20
35.0
 30
0.0
 41
2.23
 42
2.23
 43
2.23
 50
180.0
  0
INSERT
  5
DAE
330
8A3
100
AcDbEntity
  8
250
  6
CONTINUOUS
 62
     3
100
AcDbBlockReference
  2
_OPEN
 10
90.0
 20
35.0
 30
0.0
 41
2.23
 42
2.23
 43
2.23
  0
MTEXT
  5
DAF
330
8A3
100
AcDbEntity
  8
250
  6
CONTINUOUS
 62
    40
100
AcDbMText
 10
75.0
 20
37.5
 30
0.0
 40
3.0
 41
0.0
 71
     5
 72
     1
  1
\A1;30
1001
ACAD
1000
MTEXTBEGIN
1070
    73
1070
     1
1070
    44
1040
1.0
1070
    74
1070
     0
1000
MTEXTEND
1000
MTEXTBEGIN
1070
    73
1070
     1
1070
    44
1040
1.0
1070
    74
1070
     0
1000
MTEXTEND
1000
MTEXTBEGIN
1070
    73
1070
     1
1070
    44
1040
1.0
1070
    74
1070
     0
1000
MTEXTEND
1000
MTEXTBEGIN
1070
    73
1070
     1
1070
    44
1040
1.0
1070
    74
1070
     0
1000
MTEXTEND
1000
MTEXTBEGIN
1070
    73
1070
     1
1070
    44
1040
1.0
1070
    74
1070
     0
1000
MTEXTEND
  0
POINT
  5
DB0
330
8A3
100
AcDbEntity
  8
DEFPOINTS
  6
CONTINUOUS
 62
     0
100
AcDbPoint
 10
60.0
 20
7.4
 30
0.0
  0
POINT
  5
DB1
330
8A3
100
AcDbEntity
  8
DEFPOINTS
  6
CONTINUOUS
 62
     0
100
AcDbPoint
 10
90.0
 20
8.0
 30
0.0
  0
POINT
  5
DB2
330
8A3
100
AcDbEntity
  8
DEFPOINTS
  6
CONTINUOUS
 62
     0
100
AcDbPoint
 10
90.0
 20
35.0
 30
0.0
  0
ENDBLK
  5
8AE
330
8A3
100
AcDbEntity
  8
0
100
AcDbBlockEnd
  0
BLOCK
  5
8B9
330
8AF
100
AcDbEntity
  8
0
100
AcDbBlockBegin
  2
*D4
 70
     1
 10
0.0
 20
0.0
 30
0.0
  3
*D4
  1

  0
LINE
  5
DB3
330
8AF
100
AcDbEntity
  8
250
  6
CONTINUOUS
 62
     3
100
AcDbLine
 10
81.0
 20
8.5
 30
0.0
 11
81.0
 21
29.0
 31
0.0
  0
LINE
  5
DB4
330
8AF
100
AcDbEntity
  8
250
  6
CONTINUOUS
 62
     3
100
AcDbLine
 10
90.0
 20
8.5
 30
0.0
 11
90.0
 21
29.0
 31
0.0
  0
LINE
  5
DB5
330
8AF
100
AcDbEntity
  8
250
  6
CONTINUOUS
 62
     3
100
AcDbLine
 10
83.23
 20
28.0
 30
0.0
 11
87.77
 21
28.0
 31
0.0
  0
INSERT
  5
DB6
330
8AF
100
AcDbEntity
  8
250
  6
CONTINUOUS
 62
     3
100
AcDbBlockReference
  2
_OPEN
 10
81.0
 20
28.0
 30
0.0
 41
2.23
 42
2.23
 43
2.23
 50
180.0
  0
INSERT
  5
DB7
330
8AF
100
AcDbEntity
  8
250
  6
CONTINUOUS
 62
     3
100
AcDbBlockReference
  2
_OPEN
 10
90.0
 20
28.0
 30
0.0
 41
2.23
 42
2.23
 43
2.23
  0
MTEXT
  5
DB8
330
8AF
100
AcDbEntity
  8
250
  6
CONTINUOUS
 62
    40
100
AcDbMText
 10
85.5
 20
30.5
 30
0.0
 40
3.0
 41
0.0
 71
     5
 72
     1
  1
\A1;9
1001
ACAD
1000
MTEXTBEGIN
1070
    73
1070
     1
1070
    44
1040
1.0
1070
    74
1070
     0
1000
MTEXTEND
1000
MTEXTBEGIN
1070
    73
1070
     1
1070
    44
1040
1.0
1070
    74
1070
     0
1000
MTEXTEND
1000
MTEXTBEGIN
1070
    73
1070
     1
1070
    44
1040
1.0
1070
    74
1070
     0
1000
MTEXTEND
1000
MTEXTBEGIN
1070
    73
1070
     1
1070
    44
1040
1.0
1070
    74
1070
     0
1000
MTEXTEND
1000
MTEXTBEGIN
1070
    73
1070
     1
1070
    44
1040
1.0
1070
    74
1070
     0
1000
MTEXTEND
  0
POINT
  5
DB9
330
8AF
100
AcDbEntity
  8
DEFPOINTS
  6
CONTINUOUS
 62
     0
100
AcDbPoint
 10
81.0
 20
8.0
 30
0.0
  0
POINT
  5
DBA
330
8AF
100
AcDbEntity
  8
DEFPOINTS
  6
CONTINUOUS
 62
     0
100
AcDbPoint
 10
90.0
 20
8.0
 30
0.0
  0
POINT
  5
DBB
330
8AF
100
AcDbEntity
  8
DEFPOINTS
  6
CONTINUOUS
 62
     0
100
AcDbPoint
 10
90.0
 20
28.0
 30
0.0
  0
ENDBLK
  5
8BA
330
8AF
100
AcDbEntity
  8
0
100
AcDbBlockEnd
  0
BLOCK
  5
D3A
330
D30
100
AcDbEntity
  8
0
100
AcDbBlockBegin
  2
*D5
 70
     1
 10
0.0
 20
0.0
 30
0.0
  3
*D5
  1

  0
LINE
  5
16F7
330
D30
100
AcDbEntity
  8
250
  6
CONTINUOUS
100
AcDbLine
 10
90.5
 20
-8.0
 30
0.0
 11
102.5
 21
-8.0
 31
0.0
  0
LINE
  5
16F8
330
D30
100
AcDbEntity
  8
250
  6
CONTINUOUS
100
AcDbLine
 10
90.5
 20
8.0
 30
0.0
 11
102.5
 21
8.0
 31
0.0
  0
LINE
  5
16F9
330
D30
100
AcDbEntity
  8
250
  6
CONTINUOUS
100
AcDbLine
 10
101.5
 20
-5.77
 30
0.0
 11
101.5
 21
5.77
 31
0.0
  0
INSERT
  5
16FA
330
D30
100
AcDbEntity
  8
250
  6
CONTINUOUS
100
AcDbBlockReference
  2
_OPEN
 10
101.5
 20
-8.0
 30
0.0
 41
2.23
 42
2.23
 43
2.23
 50
270.0
  0
INSERT
  5
16FB
330
D30
100
AcDbEntity
  8
250
  6
CONTINUOUS
100
AcDbBlockReference
  2
_OPEN
 10
101.5
 20
8.0
 30
0.0
 41
2.23
 42
2.23
 43
2.23
 50
90.0
  0
MTEXT
  5
16FC
330
D30
100
AcDbEntity
  8
250
  6
CONTINUOUS
 62
    40
100
AcDbMText
 10
99.1
 20
0.0
 30
0.0
 40
2.8
 41
0.0
 71
     5
 72
     1
  1
\A1;{\H2.8;\U+2205}16
 11
0.0
 21
1.0
 31
0.0
1001
ACAD
1000
MTEXTBEGIN
1070
    73
1070
     1
1070
    44
1040
1.0
1070
    74
1070
     0
1000
MTEXTEND
1000
MTEXTBEGIN
1070
    73
1070
     1
1070
    44
1040
1.0
1070
    74
1070
     0
1000
MTEXTEND
1000
MTEXTBEGIN
1070
    73
1070
     1
1070
    44
1040
1.0
1070
    74
1070
     0
1000
MTEXTEND
  0
POINT
  5
16FD
330
D30
100
AcDbEntity
  8
DEFPOINTS
  6
CONTINUOUS
 62
     0
100
AcDbPoint
 10
90.0
 20
-8.0
 30
0.0
  0
POINT
  5
16FE
330
D30
100
AcDbEntity
  8
DEFPOINTS
  6
CONTINUOUS
 62
     0
100
AcDbPoint
 10
90.0
 20
8.0
 30
0.0
  0
POINT
  5
16FF
330
D30
100
AcDbEntity
  8
DEFPOINTS
  6
CONTINUOUS
 62
     0
100
AcDbPoint
 10
101.5
 20
8.0
 30
0.0
  0
ENDBLK
  5
D3B
330
D30
100
AcDbEntity
  8
0
100
AcDbBlockEnd
  0
BLOCK
  5
D7D
330
D73
100
AcDbEntity
  8
0
100
AcDbBlockBegin
  2
*D6
 70
     1
 10
0.0
 20
0.0
 30
0.0
  3
*D6
  1

  0
LINE
  5
1AD2
330
D73
100
AcDbEntity
  8
250
  6
CONTINUOUS
 62
     3
100
AcDbLine
 10
0.0
 20
25.49
 30
0.0
 11
0.0
 21
43.0
 31
0.0
  0
LINE
  5
1AD3
330
D73
100
AcDbEntity
  8
250
  6
CONTINUOUS
 62
     3
100
AcDbLine
 10
90.0
 20
8.5
 30
0.0
 11
90.0
 21
43.0
 31
0.0
  0
LINE
  5
1AD4
330
D73
100
AcDbEntity
  8
250
  6
CONTINUOUS
 62
     3
100
AcDbLine
 10
2.23
 20
42.0
 30
0.0
 11
87.77
 21
42.0
 31
0.0
  0
INSERT
  5
1AD5
330
D73
100
AcDbEntity
  8
250
  6
CONTINUOUS
 62
     3
100
AcDbBlockReference
  2
_OPEN
 10
0.0
 20
42.0
 30
0.0
 41
2.23
 42
2.23
 43
2.23
 50
180.0
  0
INSERT
  5
1AD6
330
D73
100
AcDbEntity
  8
250
  6
CONTINUOUS
 62
     3
100
AcDbBlockReference
  2
_OPEN
 10
90.0
 20
42.0
 30
0.0
 41
2.23
 42
2.23
 43
2.23
  0
MTEXT
  5
1AD7
330
D73
100
AcDbEntity
  8
250
  6
CONTINUOUS
 62
    40
100
AcDbMText
 10
45.0
 20
44.5
 30
0.0
 40
3.0
 41
0.0
 71
     5
 72
     1
  1
\A1;90
1001
ACAD
1000
MTEXTBEGIN
1070
    73
1070
     1
1070
    44
1040
1.0
1070
    74
1070
     0
1000
MTEXTEND
1000
MTEXTBEGIN
1070
    73
1070
     1
1070
    44
1040
1.0
1070
    74
1070
     0
1000
MTEXTEND
1000
MTEXTBEGIN
1070
    73
1070
     1
1070
    44
1040
1.0
1070
    74
1070
     0
1000
MTEXTEND
  0
POINT
  5
1AD8
330
D73
100
AcDbEntity
  8
DEFPOINTS
  6
CONTINUOUS
 62
     0
100
AcDbPoint
 10
0.0
 20
24.99
 30
0.0
  0
POINT
  5
1AD9
330
D73
100
AcDbEntity
  8
DEFPOINTS
  6
CONTINUOUS
 62
     0
100
AcDbPoint
 10
90.0
 20
8.0
 30
0.0
  0
POINT
  5
1ADA
330
D73
100
AcDbEntity
  8
DEFPOINTS
  6
CONTINUOUS
 62
     0
100
AcDbPoint
 10
90.0
 20
42.0
 30
0.0
  0
ENDBLK
  5
D7E
330
D73
100
AcDbEntity
  8
0
100
AcDbBlockEnd
  0
ENDSEC
  0
SECTION
  2
ENTITIES
  0
INSERT
  5
6E6
330
1A
100
AcDbEntity
  8
245
100
AcDbBlockReference
  2
矢印なし
 10
175.62382697
 20
90.55123572
 30
0.0
  0
TEXT
  5
893
330
1A
100
AcDbEntity
  8
241
100
AcDbText
 10
-30.0
 20
56.0
 30
0.0
 40
5.0
  1
C5-FCM16092-90
  7
YOKO
 11
-30.0
 21
56.0
 31
0.0
100
AcDbText
 73
     1
  0
DIMENSION
  5
894
330
1A
100
AcDbEntity
  8
250
  6
CONTINUOUS
100
AcDbDimension
  2
*D3
 10
90.0
 20
35.0
 30
0.0
 11
75.0
 21
37.5
 31
0.0
 70
    32
  3
BIGT$0
100
AcDbAlignedDimension
 13
60.0
 23
7.4
 33
0.0
 14
90.0
 24
8.0
 34
0.0
100
AcDbRotatedDimension
  0
DIMENSION
  5
895
330
1A
100
AcDbEntity
  8
250
  6
CONTINUOUS
100
AcDbDimension
  2
*D4
 10
90.0
 20
28.0
 30
0.0
 11
85.5
 21
30.5
 31
0.0
 70
    32
  3
BIGT$0
100
AcDbAlignedDimension
 13
81.0
 23
8.0
 33
0.0
 14
90.0
 24
8.0
 34
0.0
100
AcDbRotatedDimension
  0
DIMENSION
  5
B8C
330
1A
100
AcDbEntity
  8
250
  6
CONTINUOUS
100
AcDbDimension
  2
*D5
 10
101.5
 20
8.0
 30
0.0
 11
101.5
 21
0.0
 31
0.0
 70
   160
  1
{\H2.8;\U+2205}<>
  3
BIGT
100
AcDbAlignedDimension
 13
90.0
 23
-8.0
 33
0.0
 14
90.0
 24
8.0
 34
0.0
 50
90.0
100
AcDbRotatedDimension
  0
DIMENSION
  5
D72
330
1A
100
AcDbEntity
  8
250
  6
CONTINUOUS
100
AcDbDimension
  2
*D6
 10
90.0
 20
42.0
 30
0.0
 11
45.0
 21
44.5
 31
0.0
 70
    32
  3
BIGT$0
100
AcDbAlignedDimension
 13
0.0
 23
24.99
 33
0.0
 14
90.0
 24
8.0
 34
0.0
100
AcDbRotatedDimension
  0
MTEXT
  5
15AB
330
1A
100
AcDbEntity
  8
251
  6
CONTINUOUS
100
AcDbMText
 10
-25.91998082
 20
-23.62287576
 30
0.0
 40
2.8
 41
0.0
 71
     7
 72
     1
  1
C5
  7
YOKO
1001
ITEMNAME
1000
LNSP3
1001
ACAD
1000
MTEXTBEGIN
1070
    73
1070
     1
1070
    44
1040
1.0
1070
    74
1070
     0
1000
MTEXTEND
1000
MTEXTBEGIN
1070
    73
1070
     1
1070
    44
1040
1.0
1070
    74
1070
     0
1000
MTEXTEND
1000
MTEXTBEGIN
1070
    73
1070
     1
1070
    44
1040
1.0
1070
    74
1070
     0
1000
MTEXTEND
1000
MTEXTBEGIN
1070
    73
1070
     1
1070
    44
1040
1.0
1070
    74
1070
     0
1000
MTEXTEND
1000
MTEXTBEGIN
1070
    73
1070
     1
1070
    44
1040
1.0
1070
    74
1070
     0
1000
MTEXTEND
1000
MTEXTBEGIN
1070
    73
1070
     1
1070
    44
1040
1.0
1070
    74
1070
     0
1000
MTEXTEND
1000
MTEXTBEGIN
1070
    73
1070
     1
1070
    44
1040
1.0
1070
    74
1070
     0
1000
MTEXTEND
1000
MTEXTBEGIN
1070
    73
1070
     1
1070
    44
1040
1.0
1070
    74
1070
     0
1000
MTEXTEND
1000
MTEXTBEGIN
1070
    73
1070
     1
1070
    44
1040
1.0
1070
    74
1070
     0
1000
MTEXTEND
1000
MTEXTBEGIN
1070
    73
1070
     1
1070
    44
1040
1.0
1070
    74
1070
     0
1000
MTEXTEND
1000
MTEXTBEGIN
1070
    73
1070
     1
1070
    44
1040
1.0
1070
    74
1070
     0
1000
MTEXTEND
1000
MTEXTBEGIN
1070
    73
1070
     1
1070
    44
1040
1.0
1070
    74
1070
     0
1000
MTEXTEND
1000
MTEXTBEGIN
1070
    73
1070
     1
1070
    44
1040
1.0
1070
    74
1070
     0
1000
MTEXTEND
1000
MTEXTBEGIN
1070
    73
1070
     1
1070
    44
1040
1.0
1070
    74
1070
     0
1000
MTEXTEND
  0
LINE
  5
15AC
330
1A
100
AcDbEntity
  8
250
  6
CONTINUOUS
100
AcDbLine
 10
-18.45331416
 20
-24.62287576
 30
0.0
 11
-28.71998082
 21
-24.62287576
 31
0.0
1001
ITEMNAME
1000
LNSP2
  0
LEADER
  5
15B1
330
1A
100
AcDbEntity
  8
250
  6
CONTINUOUS
100
AcDbLeader
  3
BIGT$7
 76
     2
 10
-13.54211194
 20
-16.116424
 30
0.0
 10
-18.45331416
 20
-24.62287576
 30
0.0
1001
ACAD
1000
DSTYLE
1002
{
1070
     5
1000
OPEN
1070
    41
1040
2.0
1070
   342
1005
594
1002
}
  0
INSERT
  5
23D9
330
1A
100
AcDbEntity
  8
245
100
AcDbBlockReference
  2
1
 10
0.0
 20
0.0
 30
0.0
  0
VIEWPORT
  5
22
330
17
100
AcDbEntity
 67
     1
  8
0
100
AcDbViewport
 10
261.51769912
 20
148.5
 30
0.0
 40
523.03539823
 41
297.0
 68
     1
 69
     1
1001
ACAD
1000
MVIEW
1002
{
1070
    16
1010
0.0
1020
0.0
1030
0.0
1010
0.0
1020
0.0
1030
1.0
1040
0.0
1040
297.0
1040
261.51769912
1040
148.5
1040
50.0
1040
0.0
1040
0.0
1070
     0
1070
   100
1070
     1
1070
     1
1070
     0
1070
     0
1070
     0
1070
     0
1040
0.0
1040
0.0
1040
0.0
1040
1.0
1040
1.0
1040
10.0
1040
10.0
1070
     0
1002
{
1002
}
1002
}
  0
ENDSEC
  0
SECTION
  2
OBJECTS
  0
DICTIONARY
  5
C
330
0
100
AcDbDictionary
  3
ACAD_GROUP
350
D
  3
ACAD_LAYOUT
350
565
  3
ACAD_MLINESTYLE
350
E
  3
ACAD_PLOTSETTINGS
350
566
  3
ACAD_PLOTSTYLENAME
350
563
  3
ACDBHEADERROUNDTRIPXREC
350
23DB
  3
GRADE_DWG
350
540
  0
DICTIONARY
  5
FCF
330
1A
100
AcDbDictionary
280
     1
  3
ACAD_LAYOUTSELFREF
360
23FD
  0
DICTIONARY
  5
FCD
330
17
100
AcDbDictionary
280
     1
  3
ACAD_LAYOUTSELFREF
360
23FC
  0
DICTIONARY
  5
D
102
{ACAD_REACTORS
330
C
102
}
330
C
100
AcDbDictionary
  3
*A1
350
6C7
  3
*A2
350
6C8
  3
*A3
350
6D4
  3
*A4
350
6D5
  3
DREC-1
350
5FC
  3
DREC-2
350
654
  3
DREC-3
350
673
  0
DICTIONARY
  5
565
102
{ACAD_REACTORS
330
C
102
}
330
C
100
AcDbDictionary
  0
DICTIONARY
  5
E
102
{ACAD_REACTORS
330
C
102
}
330
C
100
AcDbDictionary
  3
STANDARD
350
13
  0
DICTIONARY
  5
566
102
{ACAD_REACTORS
330
C
102
}
330
C
100
AcDbDictionary
  3
A3_0_5倍_
350
758
  3
A3_1倍_
350
757
  3
A3_1倍__2000_
350
707
  3
A3_2倍_
350
759
  3
A4_0_5倍_
350
755
  3
A4_1倍_
350
754
  3
A4_1倍__2000_
350
708
  3
A4_2倍_
350
756
  0
ACDBDICTIONARYWDFLT
  5
563
102
{ACAD_REACTORS
330
C
102
}
330
C
100
AcDbDictionary
281
     1
  3
Normal
350
564
100
AcDbDictionaryWithDefault
340
564
  0
DICTIONARY
  5
23DB
102
{ACAD_REACTORS
330
C
102
}
330
C
100
AcDbDictionary
  3
CEPSNTYPE
350
23E5
  3
DIMSTYLEDATA
350
23E9
  3
FINGERPRINTGUID
350
23E6
  3
HYPERLINKBASE
350
23DE
  3
INSUNITS
350
23E4
  3
LAYOUTDICT
350
23E0
  3
LWETCUNION
350
23E3
  3
PLOTSETDICT
350
23E1
  3
PLOTSTYLNAMDICT
350
23E2
  3
PSVPSCALE
350
23E8
  3
PUCSBASE
350
23EC
  3
PUCSORGBACK
350
23F2
  3
PUCSORGBOTTOM
350
23EE
  3
PUCSORGFRONT
350
23F1
  3
PUCSORGLEFT
350
23EF
  3
PUCSORGRIGHT
350
23F0
  3
PUCSORGTOP
350
23ED
  3
PUCSORTHOREF
350
23EA
  3
PUCSORTHOVIEW
350
23EB
  3
STYLESHEET
350
23DF
  3
TSTACKALIGN
350
23DC
  3
TSTACKSIZE
350
23DD
  3
UCSBASE
350
23F5
  3
UCSORGBACK
350
23FB
  3
UCSORGBOTTOM
350
23F7
  3
UCSORGFRONT
350
23FA
  3
UCSORGLEFT
350
23F8
  3
UCSORGRIGHT
350
23F9
  3
UCSORGTOP
350
23F6
  3
UCSORTHOREF
350
23F3
  3
UCSORTHOVIEW
350
23F4
  3
VERSIONGUID
350
23E7
  0
DICTIONARY
  5
540
102
{ACAD_REACTORS
330
C
102
}
330
C
100
AcDbDictionary
  3
VERSION
350
560
  0
XRECORD
  5
23FD
102
{ACAD_REACTORS
330
FCF
102
}
330
FCF
100
AcDbXrecord
340
1A
  0
XRECORD
  5
23FC
102
{ACAD_REACTORS
330
FCD
102
}
330
FCD
100
AcDbXrecord
340
17
  0
GROUP
  5
6C7
102
{ACAD_REACTORS
330
D
102
}
330
D
100
AcDbGroup
300

 70
     0
 71
     1
1001
GRPNAME
1000
DMA00
  0
GROUP
  5
6C8
102
{ACAD_REACTORS
330
D
102
}
330
D
100
AcDbGroup
300

 70
     0
 71
     1
1001
GRPNAME
1000
DMA00
  0
GROUP
  5
6D4
102
{ACAD_REACTORS
330
D
102
}
330
D
100
AcDbGroup
300

 70
     0
 71
     1
1001
GRPNAME
1000
DMA00
  0
GROUP
  5
6D5
102
{ACAD_REACTORS
330
D
102
}
330
D
100
AcDbGroup
300

 70
     0
 71
     1
1001
GRPNAME
1000
DMA00
  0
GROUP
  5
5FC
102
{ACAD_REACTORS
330
D
102
}
330
D
100
AcDbGroup
300

 70
     0
 71
     1
1001
GRPNAME
1000
DREC-
1001
GPARA
1000
xsiz
1000
44.182
1000
ysiz
1000
40.677
1000
angl
1000
0
1000
ctyp
1000
0
1000
csiz
1000
5
1000
lfnt
1000
cont
1000
hcnt
1000
hoff
1000
vcnt
1000
voff
1000
opnt
1000
4
1000
dxpt
1000
0
1000
dypt
1000
0
  0
GROUP
  5
654
102
{ACAD_REACTORS
330
D
102
}
330
D
100
AcDbGroup
300

 70
     0
 71
     1
1001
GRPNAME
1000
DREC-
1001
GPARA
1000
xsiz
1000
54.592
1000
ysiz
1000
53.036
1000
angl
1000
0
1000
ctyp
1000
0
1000
csiz
1000
5
1000
lfnt
1000
cont
1000
hcnt
1000
hoff
1000
vcnt
1000
voff
1000
opnt
1000
4
1000
dxpt
1000
0
1000
dypt
1000
0
  0
GROUP
  5
673
102
{ACAD_REACTORS
330
D
102
}
330
D
100
AcDbGroup
300

 70
     0
 71
     1
1001
GRPNAME
1000
DREC-
1001
GPARA
1000
xsiz
1000
30.363
1000
ysiz
1000
36.175
1000
angl
1000
0
1000
ctyp
1000
0
1000
csiz
1000
5
1000
lfnt
1000
cont
1000
hcnt
1000
hoff
1000
vcnt
1000
voff
1000
opnt
1000
4
1000
dxpt
1000
0
1000
dypt
1000
0
  0
MLINESTYLE
  5
13
102
{ACAD_REACTORS
330
E
102
}
330
E
100
AcDbMlineStyle
  2
STANDARD
 70
     0
  3

 62
     0
 51
90.0
 52
90.0
 71
     2
 49
0.5
 62
   256
  6
BYLAYER
 49
-0.5
 62
   256
  6
BYLAYER
  0
PLOTSETTINGS
  5
758
102
{ACAD_REACTORS
330
566
102
}
330
566
100
AcDbPlotSettings
  1
A3(0.5倍)
  2
\\AWTECPC05\HP DeskJet 1120C
  4
A3
  6

 40
5.95841646
 41
13.49375153
 42
6.04309082
 43
3.67242432
 44
296.92599487
 45
419.94665527
 46
89.96
 47
127.14
 48
0.0
 49
0.0
140
0.0
141
0.0
142
1.0
143
2.0
 70
  1716
 72
     1
 73
     1
 74
     2
  7
big.ctb
 75
    17
147
0.5
148
0.0
149
0.0
  0
PLOTSETTINGS
  5
757
102
{ACAD_REACTORS
330
566
102
}
330
566
100
AcDbPlotSettings
  1
A3(1倍)
  2
\\AWTECPC05\HP DeskJet 1120C
  4
A3
  6

 40
5.95841646
 41
13.49375153
 42
6.04309082
 43
3.67242432
 44
296.92599487
 45
419.94665527
 46
37.46
 47
52.89
 48
0.0
 49
0.0
140
0.0
141
0.0
142
1.0
143
1.0
 70
  1716
 72
     1
 73
     1
 74
     2
  7
big.ctb
 75
    16
147
1.0
148
0.0
149
0.0
  0
PLOTSETTINGS
  5
707
102
{ACAD_REACTORS
330
566
102
}
330
566
100
AcDbPlotSettings
  1
A3(1倍)(2000)
  2
SII LS-1300 (D-SCAN)
  4
User258
  6

 40
3.17499995
 41
3.17499995
 42
3.17498779
 43
3.17498779
 44
419.98898315
 45
296.98950195
 46
58.32
 47
40.32
 48
0.0
 49
0.0
140
0.0
141
0.0
142
1.0
143
1.0
 70
  1716
 72
     1
 73
     0
 74
     2
  7
big.ctb
 75
    16
147
1.0
148
0.0
149
0.0
  0
PLOTSETTINGS
  5
759
102
{ACAD_REACTORS
330
566
102
}
330
566
100
AcDbPlotSettings
  1
A3(2倍)
  2
\\AWTECPC05\HP DeskJet 1120C
  4
A3
  6

 40
5.95841646
 41
13.49375153
 42
6.04309082
 43
3.67242432
 44
296.92599487
 45
419.94665527
 46
-67.54
 47
-95.61
 48
0.0
 49
0.0
140
0.0
141
0.0
142
1.0
143
0.5
 70
  1716
 72
     1
 73
     1
 74
     2
  7
big.ctb
 75
    27
147
2.0
148
0.0
149
0.0
  0
PLOTSETTINGS
  5
755
102
{ACAD_REACTORS
330
566
102
}
330
566
100
AcDbPlotSettings
  1
A4(0.5倍)
  2
\\AWTECPC05\HP DeskJet 1120C
  4
A4
  6

 40
4.18041658
 41
13.49374962
 42
4.18040466
 43
3.92642212
 44
209.97332764
 45
296.92599487
 46
48.31
 47
65.5
 48
0.0
 49
0.0
140
0.0
141
0.0
142
1.0
143
2.0
 70
  1716
 72
     1
 73
     1
 74
     2
  7
big.ctb
 75
    17
147
0.5
148
0.0
149
0.0
  0
PLOTSETTINGS
  5
754
102
{ACAD_REACTORS
330
566
102
}
330
566
100
AcDbPlotSettings
  1
A4(1倍)
  2
\\AWTECPC05\HP DeskJet 1120C
  4
A4
  6

 40
4.18041658
 41
13.49374962
 42
4.18040466
 43
3.92642212
 44
209.97332764
 45
296.92599487
 46
-4.19
 47
-8.75
 48
0.0
 49
0.0
140
0.0
141
0.0
142
1.0
143
1.0
 70
  1716
 72
     1
 73
     1
 74
     2
  7
big.ctb
 75
    16
147
1.0
148
0.0
149
0.0
  0
PLOTSETTINGS
  5
708
102
{ACAD_REACTORS
330
566
102
}
330
566
100
AcDbPlotSettings
  1
A4(1倍)(2000)
  2
SII LS-1300 (D-SCAN)
  4
User259
  6

 40
3.17499995
 41
3.17499995
 42
3.17498779
 43
3.17500305
 44
296.98950195
 45
209.99449158
 46
-3.18
 47
-3.18
 48
0.0
 49
0.0
140
0.0
141
0.0
142
1.0
143
1.0
 70
  1716
 72
     1
 73
     0
 74
     2
  7
big.ctb
 75
    16
147
1.0
148
0.0
149
0.0
  0
PLOTSETTINGS
  5
756
102
{ACAD_REACTORS
330
566
102
}
330
566
100
AcDbPlotSettings
  1
A4(2倍)
  2
\\AWTECPC05\HP DeskJet 1120C
  4
A4
  6

 40
4.18041658
 41
13.49374962
 42
4.18040466
 43
3.92642212
 44
209.97332764
 45
296.92599487
 46
-109.19
 47
-157.25
 48
0.0
 49
0.0
140
0.0
141
0.0
142
1.0
143
0.5
 70
  1716
 72
     1
 73
     1
 74
     2
  7
big.ctb
 75
    27
147
2.0
148
0.0
149
0.0
  0
ACDBPLACEHOLDER
  5
564
102
{ACAD_REACTORS
330
563
102
}
330
563
100
AcDbPlaceHolder
280
     0
  0
XRECORD
  5
23E5
102
{ACAD_REACTORS
330
23DB
102
}
330
23DB
100
AcDbXrecord
 90
        0
  0
XRECORD
  5
23E9
102
{ACAD_REACTORS
330
23DB
102
}
330
23DB
100
AcDbXrecord
1000
DSTYLE
1002
{
1070
    79
 70
     2
1070
   179
 70
     3
1070
   341
340
594
1070
   343
340
594
1070
   344
340
594
1070
   371
 70
    -1
1070
   372
 70
    -1
1002
}
  0
XRECORD
  5
23E6
102
{ACAD_REACTORS
330
23DB
102
}
330
23DB
100
AcDbXrecord
  1
{51294030-9CB4-11D3-8E18-00A0C925D94D}
  0
XRECORD
  5
23DE
102
{ACAD_REACTORS
330
23DB
102
}
330
23DB
100
AcDbXrecord
  1

  0
XRECORD
  5
23E4
102
{ACAD_REACTORS
330
23DB
102
}
330
23DB
100
AcDbXrecord
 90
        0
  0
XRECORD
  5
23E0
102
{ACAD_REACTORS
330
23DB
102
}
330
23DB
100
AcDbXrecord
340
565
  0
XRECORD
  5
23E3
102
{ACAD_REACTORS
330
23DB
102
}
330
23DB
100
AcDbXrecord
 90
    10781
  0
XRECORD
  5
23E1
102
{ACAD_REACTORS
330
23DB
102
}
330
23DB
100
AcDbXrecord
340
566
  0
XRECORD
  5
23E2
102
{ACAD_REACTORS
330
23DB
102
}
330
23DB
100
AcDbXrecord
340
563
  0
XRECORD
  5
23E8
102
{ACAD_REACTORS
330
23DB
102
}
330
23DB
100
AcDbXrecord
 40
0.0
  0
XRECORD
  5
23EC
102
{ACAD_REACTORS
330
23DB
102
}
330
23DB
100
AcDbXrecord
340
0
  0
XRECORD
  5
23F2
102
{ACAD_REACTORS
330
23DB
102
}
330
23DB
100
AcDbXrecord
 10
0.0
 20
0.0
 30
0.0
  0
XRECORD
  5
23EE
102
{ACAD_REACTORS
330
23DB
102
}
330
23DB
100
AcDbXrecord
 10
0.0
 20
0.0
 30
0.0
  0
XRECORD
  5
23F1
102
{ACAD_REACTORS
330
23DB
102
}
330
23DB
100
AcDbXrecord
 10
0.0
 20
0.0
 30
0.0
  0
XRECORD
  5
23EF
102
{ACAD_REACTORS
330
23DB
102
}
330
23DB
100
AcDbXrecord
 10
0.0
 20
0.0
 30
0.0
  0
XRECORD
  5
23F0
102
{ACAD_REACTORS
330
23DB
102
}
330
23DB
100
AcDbXrecord
 10
0.0
 20
0.0
 30
0.0
  0
XRECORD
  5
23ED
102
{ACAD_REACTORS
330
23DB
102
}
330
23DB
100
AcDbXrecord
 10
0.0
 20
0.0
 30
0.0
  0
XRECORD
  5
23EA
102
{ACAD_REACTORS
330
23DB
102
}
330
23DB
100
AcDbXrecord
340
0
  0
XRECORD
  5
23EB
102
{ACAD_REACTORS
330
23DB
102
}
330
23DB
100
AcDbXrecord
 70
     0
  0
XRECORD
  5
23DF
102
{ACAD_REACTORS
330
23DB
102
}
330
23DB
100
AcDbXrecord
  1
big.ctb
  0
XRECORD
  5
23DC
102
{ACAD_REACTORS
330
23DB
102
}
330
23DB
100
AcDbXrecord
 90
        1
  0
XRECORD
  5
23DD
102
{ACAD_REACTORS
330
23DB
102
}
330
23DB
100
AcDbXrecord
 90
       70
  0
XRECORD
  5
23F5
102
{ACAD_REACTORS
330
23DB
102
}
330
23DB
100
AcDbXrecord
340
0
  0
XRECORD
  5
23FB
102
{ACAD_REACTORS
330
23DB
102
}
330
23DB
100
AcDbXrecord
 10
0.0
 20
0.0
 30
0.0
  0
XRECORD
  5
23F7
102
{ACAD_REACTORS
330
23DB
102
}
330
23DB
100
AcDbXrecord
 10
0.0
 20
0.0
 30
0.0
  0
XRECORD
  5
23FA
102
{ACAD_REACTORS
330
23DB
102
}
330
23DB
100
AcDbXrecord
 10
0.0
 20
0.0
 30
0.0
  0
XRECORD
  5
23F8
102
{ACAD_REACTORS
330
23DB
102
}
330
23DB
100
AcDbXrecord
 10
0.0
 20
0.0
 30
0.0
  0
XRECORD
  5
23F9
102
{ACAD_REACTORS
330
23DB
102
}
330
23DB
100
AcDbXrecord
 10
0.0
 20
0.0
 30
0.0
  0
XRECORD
  5
23F6
102
{ACAD_REACTORS
330
23DB
102
}
330
23DB
100
AcDbXrecord
 10
0.0
 20
0.0
 30
0.0
  0
XRECORD
  5
23F3
102
{ACAD_REACTORS
330
23DB
102
}
330
23DB
100
AcDbXrecord
340
0
  0
XRECORD
  5
23F4
102
{ACAD_REACTORS
330
23DB
102
}
330
23DB
100
AcDbXrecord
 70
     0
  0
XRECORD
  5
23E7
102
{ACAD_REACTORS
330
23DB
102
}
330
23DB
100
AcDbXrecord
  1
{E8DC7697-0A75-49C6-865C-BF57FC3A739D}
  0
XRECORD
  5
560
102
{ACAD_REACTORS
330
540
102
}
330
540
100
AcDbXrecord
  1
2.0.0
  0
ENDSEC
  0
EOF
