  0
SECTION
  2
HEADER
  9
$ACADVER
  1
AC1014
  9
$ACADMAINTVER
 70
     9
  9
$DWGCODEPAGE
  3
ANSI_932
  9
$INSBASE
 10
0.0
 20
0.0
 30
0.0
  9
$EXTMIN
 10
-25.01357929
 20
-24.0097954
 30
-0.00152582
  9
$EXTMAX
 10
96.02104253
 20
61.02072191
 30
0.00000003
  9
$LIMMIN
 10
0.0
 20
0.0
  9
$LIMMAX
 10
420.0
 20
297.0
  9
$ORTHOMODE
 70
     1
  9
$REGENMODE
 70
     1
  9
$FILLMODE
 70
     1
  9
$QTEXTMODE
 70
     0
  9
$MIRRTEXT
 70
     1
  9
$DRAGMODE
 70
     2
  9
$LTSCALE
 40
10.0
  9
$OSMODE
 70
   549
  9
$ATTMODE
 70
     1
  9
$TEXTSIZE
 40
3.0
  9
$TRACEWID
 40
1.0
  9
$TEXTSTYLE
  7
YOKO
  9
$CLAYER
  8
245
  9
$CELTYPE
  6
BYLAYER
  9
$CECOLOR
 62
   256
  9
$CELTSCALE
 40
1.0
  9
$DELOBJ
 70
     1
  9
$DISPSILH
 70
     0
  9
$DIMSCALE
 40
1.0
  9
$DIMASZ
 40
2.23
  9
$DIMEXO
 40
0.5
  9
$DIMDLI
 40
2.5
  9
$DIMRND
 40
0.0
  9
$DIMDLE
 40
0.0
  9
$DIMEXE
 40
1.0
  9
$DIMTP
 40
0.0
  9
$DIMTM
 40
0.0
  9
$DIMTXT
 40
2.8
  9
$DIMCEN
 40
0.0
  9
$DIMTSZ
 40
0.0
  9
$DIMTOL
 70
     0
  9
$DIMLIM
 70
     0
  9
$DIMTIH
 70
     0
  9
$DIMTOH
 70
     0
  9
$DIMSE1
 70
     0
  9
$DIMSE2
 70
     0
  9
$DIMTAD
 70
     3
  9
$DIMZIN
 70
     8
  9
$DIMBLK
  1

  9
$DIMASO
 70
     1
  9
$DIMSHO
 70
     1
  9
$DIMPOST
  1
<>
  9
$DIMAPOST
  1

  9
$DIMALT
 70
     0
  9
$DIMALTD
 70
     2
  9
$DIMALTF
 40
25.4
  9
$DIMLFAC
 40
1.0
  9
$DIMTOFL
 70
     1
  9
$DIMTVP
 40
0.0
  9
$DIMTIX
 70
     1
  9
$DIMSOXD
 70
     0
  9
$DIMSAH
 70
     1
  9
$DIMBLK1
  1
OPEN
  9
$DIMBLK2
  1
OPEN
  9
$DIMSTYLE
  2
BIGT
  9
$DIMCLRD
 70
   256
  9
$DIMCLRE
 70
   256
  9
$DIMCLRT
 70
    40
  9
$DIMTFAC
 40
1.0
  9
$DIMGAP
 40
1.0
  9
$DIMJUST
 70
     0
  9
$DIMSD1
 70
     0
  9
$DIMSD2
 70
     0
  9
$DIMTOLJ
 70
     1
  9
$DIMTZIN
 70
     8
  9
$DIMALTZ
 70
     0
  9
$DIMALTTZ
 70
     0
  9
$DIMFIT
 70
     3
  9
$DIMUPT
 70
     1
  9
$DIMUNIT
 70
     2
  9
$DIMDEC
 70
     3
  9
$DIMTDEC
 70
     3
  9
$DIMALTU
 70
     2
  9
$DIMALTTD
 70
     2
  9
$DIMTXSTY
  7
STANDARD
  9
$DIMAUNIT
 70
     0
  9
$LUNITS
 70
     2
  9
$LUPREC
 70
     3
  9
$SKETCHINC
 40
1.0
  9
$FILLETRAD
 40
0.0
  9
$AUNITS
 70
     0
  9
$AUPREC
 70
     3
  9
$MENU
  1
.
  9
$ELEVATION
 40
0.0
  9
$PELEVATION
 40
0.0
  9
$THICKNESS
 40
0.0
  9
$LIMCHECK
 70
     0
  9
$BLIPMODE
 70
     0
  9
$CHAMFERA
 40
10.0
  9
$CHAMFERB
 40
10.0
  9
$CHAMFERC
 40
0.0
  9
$CHAMFERD
 40
0.0
  9
$SKPOLY
 70
     0
  9
$TDCREATE
 40
2455350.652819363
  9
$TDUPDATE
 40
2455355.690547592
  9
$TDINDWG
 40
0.0317026620
  9
$TDUSRTIMER
 40
0.0317024769
  9
$USRTIMER
 70
     1
  9
$ANGBASE
 50
0.0
  9
$ANGDIR
 70
     0
  9
$PDMODE
 70
     1
  9
$PDSIZE
 40
-5.0
  9
$PLINEWID
 40
0.0
  9
$COORDS
 70
     2
  9
$SPLFRAME
 70
     0
  9
$SPLINETYPE
 70
     6
  9
$SPLINESEGS
 70
     8
  9
$ATTDIA
 70
     0
  9
$ATTREQ
 70
     1
  9
$HANDLING
 70
-16383
  9
$HANDSEED
  5
12CF
  9
$SURFTAB1
 70
     6
  9
$SURFTAB2
 70
     6
  9
$SURFTYPE
 70
     6
  9
$SURFU
 70
     6
  9
$SURFV
 70
     6
  9
$UCSNAME
  2

  9
$UCSORG
 10
0.0
 20
0.0
 30
0.0
  9
$UCSXDIR
 10
1.0
 20
0.0
 30
0.0
  9
$UCSYDIR
 10
0.0
 20
1.0
 30
0.0
  9
$PUCSNAME
  2

  9
$PUCSORG
 10
0.0
 20
0.0
 30
0.0
  9
$PUCSXDIR
 10
1.0
 20
0.0
 30
0.0
  9
$PUCSYDIR
 10
0.0
 20
1.0
 30
0.0
  9
$USERI1
 70
     1
  9
$USERI2
 70
     0
  9
$USERI3
 70
     0
  9
$USERI4
 70
     0
  9
$USERI5
 70
     0
  9
$USERR1
 40
0.0
  9
$USERR2
 40
0.0
  9
$USERR3
 40
0.0
  9
$USERR4
 40
0.0
  9
$USERR5
 40
0.0
  9
$WORLDVIEW
 70
     1
  9
$SHADEDGE
 70
     3
  9
$SHADEDIF
 70
    70
  9
$TILEMODE
 70
     1
  9
$MAXACTVP
 70
    16
  9
$PINSBASE
 10
0.0
 20
0.0
 30
0.0
  9
$PLIMCHECK
 70
     0
  9
$PEXTMIN
 10
1.00000000E+20
 20
1.00000000E+20
 30
1.00000000E+20
  9
$PEXTMAX
 10
-1.00000000E+20
 20
-1.00000000E+20
 30
-1.00000000E+20
  9
$PLIMMIN
 10
0.0
 20
0.0
  9
$PLIMMAX
 10
420.0
 20
297.0
  9
$UNITMODE
 70
     0
  9
$VISRETAIN
 70
     0
  9
$PLINEGEN
 70
     0
  9
$PSLTSCALE
 70
     1
  9
$TREEDEPTH
 70
  3020
  9
$PICKSTYLE
 70
     0
  9
$CMLSTYLE
  2
STANDARD
  9
$CMLJUST
 70
     0
  9
$CMLSCALE
 40
1.0
  9
$PROXYGRAPHICS
 70
     1
  9
$MEASUREMENT
 70
     1
  0
ENDSEC
  0
SECTION
  2
CLASSES
  0
CLASS
  1
XRECORD
  2
AcDbXrecord
  3
AutoCAD 2000
 90
        0
280
     0
281
     0
  0
CLASS
  1
ACDBDICTIONARYWDFLT
  2
AcDbDictionaryWithDefault
  3
AutoCAD 2000
 90
        0
280
     0
281
     0
  0
CLASS
  1
ACDBPLACEHOLDER
  2
AcDbPlaceHolder
  3
AutoCAD 2000
 90
        0
280
     0
281
     0
  0
CLASS
  1
LAYOUT
  2
AcDbLayout
  3
AutoCAD 2000
 90
        0
280
     0
281
     0
  0
CLASS
  1
PLOTSETTINGS
  2
AcDbPlotSettings
  3
AutoCAD 2000
 90
        0
280
     0
281
     0
  0
CLASS
  1
DICTIONARYVAR
  2
AcDbDictionaryVar
  3
AutoCAD 2000
 90
        0
280
     0
281
     0
  0
CLASS
  1
LONG_TRANSACTION
  2
AcDbLongTransaction
  3
AutoCAD 2000
 90
        0
280
     0
281
     0
  0
CLASS
  1
LWPOLYLINE
  2
AcDbPolyline
  3
AutoCAD 2000
 90
        0
280
     0
281
     1
  0
CLASS
  1
HATCH
  2
AcDbHatch
  3
AutoCAD 2000
 90
        0
280
     0
281
     1
  0
CLASS
  1
XRECORD
  2
AcDbXrecord
  3
AutoCAD 2000
 90
        0
280
     0
281
     0
  0
CLASS
  1
LONG_TRANSACTION
  2
AcDbLongTransaction
  3
AutoCAD 2000
 90
        0
280
     0
281
     0
  0
CLASS
  1
LWPOLYLINE
  2
AcDbPolyline
  3
AutoCAD 2000
 90
        0
280
     0
281
     1
  0
CLASS
  1
HATCH
  2
AcDbHatch
  3
AutoCAD 2000
 90
        0
280
     0
281
     1
  0
CLASS
  1
XRECORD
  2
AcDbXrecord
  3
AutoCAD 2000
 90
        0
280
     0
281
     0
  0
CLASS
  1
LONG_TRANSACTION
  2
AcDbLongTransaction
  3
AutoCAD 2000
 90
        0
280
     0
281
     0
  0
CLASS
  1
LWPOLYLINE
  2
AcDbPolyline
  3
AutoCAD 2000
 90
        0
280
     0
281
     1
  0
CLASS
  1
HATCH
  2
AcDbHatch
  3
AutoCAD 2000
 90
        0
280
     0
281
     1
  0
CLASS
  1
XRECORD
  2
AcDbXrecord
  3
AutoCAD 2000
 90
        0
280
     0
281
     0
  0
CLASS
  1
LONG_TRANSACTION
  2
AcDbLongTransaction
  3
AutoCAD 2000
 90
        0
280
     0
281
     0
  0
CLASS
  1
LWPOLYLINE
  2
AcDbPolyline
  3
AutoCAD 2000
 90
        0
280
     0
281
     1
  0
CLASS
  1
HATCH
  2
AcDbHatch
  3
AutoCAD 2000
 90
        0
280
     0
281
     1
  0
CLASS
  1
XRECORD
  2
AcDbXrecord
  3
AutoCAD 2000
 90
        0
280
     0
281
     0
  0
ENDSEC
  0
SECTION
  2
TABLES
  0
TABLE
  2
VPORT
  5
8
330
0
100
AcDbSymbolTable
 70
     4
  0
VPORT
  5
1287
330
8
100
AcDbSymbolTableRecord
100
AcDbViewportTableRecord
  2
*ACTIVE
 70
     0
 10
0.0
 20
0.0
 11
1.0
 21
1.0
 12
35.50373162
 22
18.50546326
 13
0.0
 23
0.0
 14
7.0
 24
7.0
 15
7.0
 25
7.0
 16
0.0
 26
0.0
 36
1.0
 17
0.0
 27
0.0
 37
0.0
 40
85.69052132
 41
1.45595855
 42
50.0
 43
0.0
 44
0.0
 50
0.0
 51
0.0
 71
     0
 72
  2000
 73
     1
 74
     0
 75
     0
 76
     0
 77
     0
 78
     1
  0
ENDTAB
  0
TABLE
  2
LTYPE
  5
5
330
0
100
AcDbSymbolTable
 70
     3
  0
LTYPE
  5
14
330
5
100
AcDbSymbolTableRecord
100
AcDbLinetypeTableRecord
  2
BYBLOCK
 70
     0
  3

 72
    65
 73
     0
 40
0.0
  0
LTYPE
  5
15
330
5
100
AcDbSymbolTableRecord
100
AcDbLinetypeTableRecord
  2
BYLAYER
 70
     0
  3

 72
    65
 73
     0
 40
0.0
  0
LTYPE
  5
16
330
5
100
AcDbSymbolTableRecord
100
AcDbLinetypeTableRecord
  2
CONTINUOUS
 70
     0
  3
Solid line
 72
    65
 73
     0
 40
0.0
  0
LTYPE
  5
258
330
5
100
AcDbSymbolTableRecord
100
AcDbLinetypeTableRecord
  2
CENTER2
 70
     0
  3
___ _ ___ _ ___ _ ___ _ ___ _ ___ _ ___ _ ___ _
 72
    65
 73
     4
 40
1.125
 49
0.75
 74
     0
 49
-0.125
 74
     0
 49
0.125
 74
     0
 49
-0.125
 74
     0
  0
LTYPE
  5
25C
330
5
100
AcDbSymbolTableRecord
100
AcDbLinetypeTableRecord
  2
HIDDEN2
 70
     0
  3
_ _ _ _ _ _ _ _ _ _ _ _ _ _ _ _ _ _ _ _ _ _ _ _
 72
    65
 73
     2
 40
0.1875
 49
0.125
 74
     0
 49
-0.0625
 74
     0
  0
ENDTAB
  0
TABLE
  2
LAYER
  5
2
330
0
100
AcDbSymbolTable
 70
     9
  0
LAYER
  5
F
330
2
100
AcDbSymbolTableRecord
100
AcDbLayerTableRecord
  2
0
 70
     0
 62
     7
  6
CONTINUOUS
  0
LAYER
  5
1AA
330
2
100
AcDbSymbolTableRecord
100
AcDbLayerTableRecord
  2
240
 70
     0
 62
     4
  6
CONTINUOUS
  0
LAYER
  5
1AB
330
2
100
AcDbSymbolTableRecord
100
AcDbLayerTableRecord
  2
241
 70
     0
 62
   211
  6
CONTINUOUS
  0
LAYER
  5
1AC
330
2
100
AcDbSymbolTableRecord
100
AcDbLayerTableRecord
  2
242
 70
     0
 62
     3
  6
CONTINUOUS
  0
LAYER
  5
1AF
330
2
100
AcDbSymbolTableRecord
100
AcDbLayerTableRecord
  2
245
 70
     0
 62
     2
  6
CENTER2
  0
LAYER
  5
21E
330
2
100
AcDbSymbolTableRecord
100
AcDbLayerTableRecord
  2
250
 70
     0
 62
     3
  6
CONTINUOUS
  0
LAYER
  5
21F
330
2
100
AcDbSymbolTableRecord
100
AcDbLayerTableRecord
  2
251
 70
     0
 62
    40
  6
CONTINUOUS
  0
LAYER
  5
5C4
330
2
100
AcDbSymbolTableRecord
100
AcDbLayerTableRecord
  2
DEFPOINTS
 70
     0
 62
     7
  6
CONTINUOUS
  0
ENDTAB
  0
TABLE
  2
STYLE
  5
3
330
0
100
AcDbSymbolTable
 70
     2
  0
STYLE
  5
10
330
3
100
AcDbSymbolTableRecord
100
AcDbTextStyleTableRecord
  2
STANDARD
 70
     0
 40
0.0
 41
1.0
 50
0.0
 71
     0
 42
3.0
  3
romans.shx
  4
BIGFONT.SHX
  0
STYLE
  5
339
330
3
100
AcDbSymbolTableRecord
100
AcDbTextStyleTableRecord
  2
YOKO
 70
     0
 40
0.0
 41
1.0
 50
0.0
 71
     0
 42
3.0
  3
romans.shx
  4
extfont.shx
  0
ENDTAB
  0
TABLE
  2
VIEW
  5
6
330
0
100
AcDbSymbolTable
 70
     1
  0
VIEW
  5
1285
330
6
100
AcDbSymbolTableRecord
100
AcDbViewTableRecord
  2
OLE1
 70
     0
 40
85.69052132
 10
35.50373162
 20
18.50546326
 41
124.7618471
 11
0.0
 21
0.0
 31
1.0
 12
0.0
 22
0.0
 32
0.0
 42
50.0
 43
0.0
 44
0.0
 50
0.0
 71
     0
  0
ENDTAB
  0
TABLE
  2
UCS
  5
7
330
0
100
AcDbSymbolTable
 70
     0
  0
ENDTAB
  0
TABLE
  2
APPID
  5
9
330
0
100
AcDbSymbolTable
 70
    10
  0
APPID
  5
11
330
9
100
AcDbSymbolTableRecord
100
AcDbRegAppTableRecord
  2
ACAD
 70
     0
  0
APPID
  5
1B1
330
9
100
AcDbSymbolTableRecord
100
AcDbRegAppTableRecord
  2
GLOBAL
 70
     0
  0
APPID
  5
2A4
330
9
100
AcDbSymbolTableRecord
100
AcDbRegAppTableRecord
  2
DETAIL
 70
     0
  0
APPID
  5
5FD
330
9
100
AcDbSymbolTableRecord
100
AcDbRegAppTableRecord
  2
GRPNAME
 70
     0
  0
APPID
  5
5FE
330
9
100
AcDbSymbolTableRecord
100
AcDbRegAppTableRecord
  2
GPARA
 70
     0
  0
APPID
  5
6C4
330
9
100
AcDbSymbolTableRecord
100
AcDbRegAppTableRecord
  2
DCO15
 70
     0
  0
APPID
  5
6C5
330
9
100
AcDbSymbolTableRecord
100
AcDbRegAppTableRecord
  2
ITEMNAME
 70
     0
  0
APPID
  5
6C6
330
9
100
AcDbSymbolTableRecord
100
AcDbRegAppTableRecord
  2
GRADE_0
 70
     0
  0
APPID
  5
B88
330
9
100
AcDbSymbolTableRecord
100
AcDbRegAppTableRecord
  2
CONTENTBLOCKICON
 70
     0
  0
APPID
  5
ECD
330
9
100
AcDbSymbolTableRecord
100
AcDbRegAppTableRecord
  2
ACAD_PSEXT
 70
     0
  0
ENDTAB
  0
TABLE
  2
DIMSTYLE
  5
A
330
0
100
AcDbSymbolTable
 70
     1
  0
DIMSTYLE
105
725
102
{ACAD_REACTORS
330
A77
330
A86
330
1047
330
1056
102
}
330
A
100
AcDbSymbolTableRecord
100
AcDbDimStyleTableRecord
  2
BIGT
 70
     0
  3

  4

  5

  6
OPEN
  7
OPEN
 40
1.0
 41
2.23
 42
0.5
 43
2.5
 44
1.0
 45
0.0
 46
0.0
 47
0.0
 48
0.0
140
2.8
141
0.0
142
0.0
143
25.4
144
1.0
145
0.0
146
1.0
147
1.0
 71
     0
 72
     0
 73
     0
 74
     0
 75
     0
 76
     0
 77
     3
 78
     8
170
     0
171
     2
172
     1
173
     1
174
     1
175
     0
176
   256
177
   256
178
    40
270
     2
271
     3
272
     3
273
     2
274
     2
340
10
275
     0
280
     0
281
     0
282
     0
283
     1
284
     8
285
     0
286
     0
287
     3
288
     0
  0
ENDTAB
  0
TABLE
  2
BLOCK_RECORD
  5
1
330
0
100
AcDbSymbolTable
 70
     7
  0
BLOCK_RECORD
  5
1A
102
{ACAD_XDICTIONARY
360
B6C
102
}
330
1
100
AcDbSymbolTableRecord
100
AcDbBlockTableRecord
  2
*MODEL_SPACE
  0
BLOCK_RECORD
  5
17
102
{ACAD_XDICTIONARY
360
B6A
102
}
330
1
100
AcDbSymbolTableRecord
100
AcDbBlockTableRecord
  2
*PAPER_SPACE
  0
BLOCK_RECORD
  5
594
330
1
100
AcDbSymbolTableRecord
100
AcDbBlockTableRecord
  2
_OPEN
  0
BLOCK_RECORD
  5
6E3
330
1
100
AcDbSymbolTableRecord
100
AcDbBlockTableRecord
  2
矢印なし
  0
BLOCK_RECORD
  5
A78
330
1
100
AcDbSymbolTableRecord
100
AcDbBlockTableRecord
  2
*D2
  0
BLOCK_RECORD
  5
A87
330
1
100
AcDbSymbolTableRecord
100
AcDbBlockTableRecord
  2
*D3
  0
BLOCK_RECORD
  5
AEF
330
1
100
AcDbSymbolTableRecord
100
AcDbBlockTableRecord
  2
1
1001
CONTENTBLOCKICON
1071
        0
1004
2800000020000000200000000100080000000000000400000000000000000000000000000000000000000000000080000080000000808000800000008000800080800000C0C0C000C0DCC000F0CAA6000020400000206000002080000020A0000020C0000020E00000400000004020000040400000406000004080000040A0
1004
000040C0000040E00000600000006020000060400000606000006080000060A0000060C0000060E00000800000008020000080400000806000008080000080A0000080C0000080E00000A0000000A0200000A0400000A0600000A0800000A0A00000A0C00000A0E00000C0000000C0200000C0400000C0600000C0800000C0
1004
A00000C0C00000C0E00000E0000000E0200000E0400000E0600000E0800000E0A00000E0C00000E0E00040000000400020004000400040006000400080004000A0004000C0004000E00040200000402020004020400040206000402080004020A0004020C0004020E000404000004040200040404000404060004040800040
1004
40A0004040C0004040E00040600000406020004060400040606000406080004060A0004060C0004060E00040800000408020004080400040806000408080004080A0004080C0004080E00040A0000040A0200040A0400040A0600040A0800040A0A00040A0C00040A0E00040C0000040C0200040C0400040C0600040C08000
1004
40C0A00040C0C00040C0E00040E0000040E0200040E0400040E0600040E0800040E0A00040E0C00040E0E00080000000800020008000400080006000800080008000A0008000C0008000E00080200000802020008020400080206000802080008020A0008020C0008020E00080400000804020008040400080406000804080
1004
008040A0008040C0008040E00080600000806020008060400080606000806080008060A0008060C0008060E00080800000808020008080400080806000808080008080A0008080C0008080E00080A0000080A0200080A0400080A0600080A0800080A0A00080A0C00080A0E00080C0000080C0200080C0400080C0600080C0
1004
800080C0A00080C0C00080C0E00080E0000080E0200080E0400080E0600080E0800080E0A00080E0C00080E0E000C0000000C0002000C0004000C0006000C0008000C000A000C000C000C000E000C0200000C0202000C0204000C0206000C0208000C020A000C020C000C020E000C0400000C0402000C0404000C0406000C0
1004
408000C040A000C040C000C040E000C0600000C0602000C0604000C0606000C0608000C060A000C060C000C060E000C0800000C0802000C0804000C0806000C0808000C080A000C080C000C080E000C0A00000C0A02000C0A04000C0A06000C0A08000C0A0A000C0A0C000C0A0E000C0C00000C0C02000C0C04000C0C06000
1004
C0C08000C0C0A000F0FBFF00A4A0A000808080000000FF0000FF000000FFFF00FF000000FF00FF00FFFF0000FFFFFF0000000000000000000000000000000000000000000000000000000000000000000000000000000000000000000000000000000000000000000000000000000000000000000000000000000000000000
1004
00000000000000000000000000000000000000000000000000000000000000000000000000000000000000000000000000000000000000000000000000000000000000000000000000000000000000000000000000000000000000000000000000000000000000000000000000000000000000000000000000000000000000
1004
000000000000000000000000000000000000000000000000000000000000000000000000000000000000000000000000000000000000000000000000000000000000000000000000000000000000000000000000000000000000000000000000FEFEFEFEFEFEFEFEFEFEFEFEFEFEFEFE00000000000000000000FEFEE7E7FE
1004
FEFE00000000E7FAE70000E7FAE70000FE00000000000000000000FE00E7E70000E700000000E7FAE70000E7FAE70000E700000000FEFAFEFEFEFEFE00E7E70000E700000000E7FAE70000E7FAE70000E700000000E70000000000E700E7E70000E700000000E7E7E70000E7FAE70000E700000000E70000000000E700E7E7
1004
0000E7000000E7E7FAE7E7E7E7E7E7E700E700000000E70000000000E70000000000E7000000E7E700E7E7E7E700E7E700E7000000FBE7FBFBFBFBFBE7FBFBFBFBFBE7FBFBFBE7E7FBE7E7E7E7FBE7E7FBFEFB000000FE0000000000E700E7E70000E7000000E7E7FAE7E7E7E7E7E7E700FE00000000FE0000000000E700E7
1004
E70000E700000000E7E7E70000E7FAE70000FE00000000FEFEFE000000E700E7E70000E7E7E7E7E7E7FAE7E7E7E7FAE7E7E7FE00000000000000FEFEFEFE00E7E70000E700000000E7FAE70000E7FAE70000FE00000000000000000000FEFEE7E7FEFEFE00000000E7FAE70000E7FAE70000FE000000000000000000000000
1004
00000000FEFEFEFEFEFEFEFEFEFEFEFEFEFEFEFE0000000000000000000000000000000000000000000000000000000000000000000000000000000000000000000000000000000000000000000000000000000000000000000000000000000000000000000000000000000000000000000000000000000000000000000000
1004
00000000000000000000000000000000000000000000000000000000000000000000000000000000000000000000000000000000000000000000000000000000000000000000000000000000000000000000000000000000000000000000000000000000000000000000000000000000000000000000000000000000000000
1004
0000000000000000000000000000000000000000000000000000000000000000000000000000000000000000000000000000000000000000
  0
BLOCK_RECORD
  5
1048
330
1
100
AcDbSymbolTableRecord
100
AcDbBlockTableRecord
  2
*D5
  0
BLOCK_RECORD
  5
1057
330
1
100
AcDbSymbolTableRecord
100
AcDbBlockTableRecord
  2
*D6
  0
ENDTAB
  0
ENDSEC
  0
SECTION
  2
BLOCKS
  0
BLOCK
  5
1B
330
1A
100
AcDbEntity
  8
0
100
AcDbBlockBegin
  2
*MODEL_SPACE
 70
     0
 10
0.0
 20
0.0
 30
0.0
  3
*MODEL_SPACE
  1

  0
ENDBLK
  5
1C
330
1A
100
AcDbEntity
  8
0
100
AcDbBlockEnd
  0
BLOCK
  5
18
330
17
100
AcDbEntity
 67
     1
  8
0
100
AcDbBlockBegin
  2
*PAPER_SPACE
 70
     0
 10
0.0
 20
0.0
 30
0.0
  3
*PAPER_SPACE
  1

  0
ENDBLK
  5
19
330
17
100
AcDbEntity
 67
     1
  8
0
100
AcDbBlockEnd
  0
BLOCK
  5
598
330
594
100
AcDbEntity
  8
0
100
AcDbBlockBegin
  2
_OPEN
 70
     0
 10
0.0
 20
0.0
 30
0.0
  3
_OPEN
  1

  0
LINE
  5
595
330
594
100
AcDbEntity
  8
0
  6
BYBLOCK
 62
     0
100
AcDbLine
 10
-1.0
 20
0.16666667
 30
0.0
 11
0.0
 21
0.0
 31
0.0
  0
LINE
  5
596
330
594
100
AcDbEntity
  8
0
  6
BYBLOCK
 62
     0
100
AcDbLine
 10
-1.0
 20
-0.16666667
 30
0.0
 11
0.0
 21
0.0
 31
0.0
  0
LINE
  5
597
330
594
100
AcDbEntity
  8
0
  6
BYBLOCK
 62
     0
100
AcDbLine
 10
0.0
 20
0.0
 30
0.0
 11
-1.0
 21
0.0
 31
0.0
  0
ENDBLK
  5
599
330
594
100
AcDbEntity
  8
0
100
AcDbBlockEnd
  0
BLOCK
  5
6E4
330
6E3
100
AcDbEntity
  8
0
100
AcDbBlockBegin
  2
矢印なし
 70
     0
 10
0.0
 20
0.0
 30
0.0
  3
矢印なし
  1

  0
ENDBLK
  5
6E5
330
6E3
100
AcDbEntity
  8
0
100
AcDbBlockEnd
  0
BLOCK
  5
A82
330
A78
100
AcDbEntity
  8
0
100
AcDbBlockBegin
  2
*D2
 70
     1
 10
0.0
 20
0.0
 30
0.0
  3
*D2
  1

  0
LINE
  5
12AB
330
A78
100
AcDbEntity
  8
250
  6
CONTINUOUS
100
AcDbLine
 10
21.0
 20
13.0
 30
0.0
 11
21.0
 21
36.0
 31
0.0
  0
LINE
  5
12AC
330
A78
100
AcDbEntity
  8
250
  6
CONTINUOUS
100
AcDbLine
 10
77.0
 20
19.5
 30
0.0
 11
77.0
 21
36.0
 31
0.0
  0
LINE
  5
12AD
330
A78
100
AcDbEntity
  8
250
  6
CONTINUOUS
100
AcDbLine
 10
23.23
 20
35.0
 30
0.0
 11
74.77
 21
35.0
 31
0.0
  0
INSERT
  5
12AE
330
A78
100
AcDbEntity
  8
250
  6
CONTINUOUS
100
AcDbBlockReference
  2
_OPEN
 10
21.0
 20
35.0
 30
0.0
 41
2.23
 42
2.23
 43
2.23
 50
180.0
  0
INSERT
  5
12AF
330
A78
100
AcDbEntity
  8
250
  6
CONTINUOUS
100
AcDbBlockReference
  2
_OPEN
 10
77.0
 20
35.0
 30
0.0
 41
2.23
 42
2.23
 43
2.23
  0
MTEXT
  5
12B0
330
A78
100
AcDbEntity
  8
250
  6
CONTINUOUS
 62
    40
100
AcDbMText
 10
50.23955958
 20
37.4
 30
0.0
 40
2.8
 41
0.0
 71
     5
 72
     1
  1
\A1;（max.56）
  0
POINT
  5
12B1
330
A78
100
AcDbEntity
  8
DEFPOINTS
  6
CONTINUOUS
 62
     0
100
AcDbPoint
 10
21.0
 20
12.5
 30
0.0
  0
POINT
  5
12B2
330
A78
100
AcDbEntity
  8
DEFPOINTS
  6
CONTINUOUS
 62
     0
100
AcDbPoint
 10
77.0
 20
19.0
 30
0.0
  0
POINT
  5
12B3
330
A78
100
AcDbEntity
  8
DEFPOINTS
  6
CONTINUOUS
 62
     0
100
AcDbPoint
 10
77.0
 20
35.0
 30
0.0
  0
ENDBLK
  5
A83
330
A78
100
AcDbEntity
  8
0
100
AcDbBlockEnd
  0
BLOCK
  5
A91
330
A87
100
AcDbEntity
  8
0
100
AcDbBlockBegin
  2
*D3
 70
     1
 10
0.0
 20
0.0
 30
0.0
  3
*D3
  1

  0
LINE
  5
12B4
330
A87
100
AcDbEntity
  8
250
  6
CONTINUOUS
100
AcDbLine
 10
0.0
 20
20.49
 30
0.0
 11
0.0
 21
43.0
 31
0.0
  0
LINE
  5
12B5
330
A87
100
AcDbEntity
  8
250
  6
CONTINUOUS
100
AcDbLine
 10
77.0
 20
19.5
 30
0.0
 11
77.0
 21
43.0
 31
0.0
  0
LINE
  5
12B6
330
A87
100
AcDbEntity
  8
250
  6
CONTINUOUS
100
AcDbLine
 10
2.23
 20
42.0
 30
0.0
 11
74.77
 21
42.0
 31
0.0
  0
INSERT
  5
12B7
330
A87
100
AcDbEntity
  8
250
  6
CONTINUOUS
100
AcDbBlockReference
  2
_OPEN
 10
0.0
 20
42.0
 30
0.0
 41
2.23
 42
2.23
 43
2.23
 50
180.0
  0
INSERT
  5
12B8
330
A87
100
AcDbEntity
  8
250
  6
CONTINUOUS
100
AcDbBlockReference
  2
_OPEN
 10
77.0
 20
42.0
 30
0.0
 41
2.23
 42
2.23
 43
2.23
  0
MTEXT
  5
12B9
330
A87
100
AcDbEntity
  8
250
  6
CONTINUOUS
 62
    40
100
AcDbMText
 10
39.83284766
 20
44.4
 30
0.0
 40
2.8
 41
0.0
 71
     5
 72
     1
  1
\A1;77
  0
POINT
  5
12BA
330
A87
100
AcDbEntity
  8
DEFPOINTS
  6
CONTINUOUS
 62
     0
100
AcDbPoint
 10
0.0
 20
19.99
 30
0.0
  0
POINT
  5
12BB
330
A87
100
AcDbEntity
  8
DEFPOINTS
  6
CONTINUOUS
 62
     0
100
AcDbPoint
 10
77.0
 20
19.0
 30
0.0
  0
POINT
  5
12BC
330
A87
100
AcDbEntity
  8
DEFPOINTS
  6
CONTINUOUS
 62
     0
100
AcDbPoint
 10
77.0
 20
42.0
 30
0.0
  0
ENDBLK
  5
A92
330
A87
100
AcDbEntity
  8
0
100
AcDbBlockEnd
  0
BLOCK
  5
AF0
330
AEF
100
AcDbEntity
  8
0
100
AcDbBlockBegin
  2
1
 70
     0
 10
0.0
 20
0.0
 30
0.0
  3
1
  1

  0
LINE
  5
11E4
330
AEF
100
AcDbEntity
  8
245
  6
CENTER2
100
AcDbLine
 10
-25.0
 20
0.0
 30
0.0
 11
78.0
 21
0.0
 31
0.0
  0
CIRCLE
  5
11E5
330
AEF
100
AcDbEntity
  8
242
100
AcDbCircle
 10
62.0
 20
0.0
 30
0.0
 40
7.299999999999998
  0
LWPOLYLINE
  5
11E6
330
AEF
100
AcDbEntity
  8
241
100
AcDbPolyline
 90
        6
 70
     1
 43
0.0
 10
58.0
 20
-2.30940108
 10
62.0
 20
-4.61880215
 10
66.0
 20
-2.30940108
 10
66.0
 20
2.30940108
 10
62.0
 20
4.61880215
 10
58.0
 20
2.30940108
  0
LINE
  5
11E7
102
{ACAD_REACTORS
330
11EB
102
}
330
AEF
100
AcDbEntity
  8
240
  6
CONTINUOUS
100
AcDbLine
 10
58.5
 20
-24.0
 30
0.0
 11
58.0
 21
-23.5
 31
0.0
  0
CIRCLE
  5
11E8
102
{ACAD_REACTORS
330
11EB
102
}
330
AEF
100
AcDbEntity
  8
241
100
AcDbCircle
 10
62.0
 20
0.0
 30
0.0
 40
8.0
  0
LINE
  5
11E9
102
{ACAD_REACTORS
330
11EB
102
}
330
AEF
100
AcDbEntity
  8
240
  6
CONTINUOUS
100
AcDbLine
 10
58.5
 20
24.0
 30
0.0
 11
58.0
 21
23.5
 31
0.0
  0
LINE
  5
11EA
102
{ACAD_REACTORS
330
11EB
102
}
330
AEF
100
AcDbEntity
  8
241
  6
HIDDEN2
100
AcDbLine
 10
21.0
 20
12.5
 30
0.0
 11
77.0
 21
12.5
 31
0.0
  0
HATCH
  5
11EB
330
AEF
100
AcDbEntity
  8
242
100
AcDbHatch
 10
0.0
 20
0.0
 30
0.0
210
0.0
220
0.0
230
1.0
  2
ANSI37
 70
     0
 71
     1
 91
        6
 92
        7
 72
     0
 73
     1
 93
        6
 10
38.0
 20
12.5
 10
46.0
 20
12.5
 10
46.0
 20
23.5
 10
45.49999999999999
 20
24.0
 10
38.5
 20
24.0
 10
38.0
 20
23.49999999999999
 97
        6
330
1226
330
1223
330
1224
330
121F
330
11EA
330
121E
 92
        7
 72
     1
 73
     1
 93
        4
 10
46.0
 20
6.928203230275509
 42
0.0
 10
46.0
 20
12.5
 42
0.0
 10
37.99999999999999
 20
12.5
 42
0.0
 10
38.0
 20
6.928203230275508
 42
-0.2679491924311227
 97
        4
330
11EA
330
121F
330
1222
330
121E
 92
        7
 72
     1
 73
     1
 93
        6
 10
38.0
 20
-23.5
 42
0.0
 10
38.5
 20
-24.0
 42
0.0
 10
45.49999999999999
 20
-24.0
 42
0.0
 10
46.0
 20
-23.5
 42
0.0
 10
46.0
 20
-6.928203230275508
 42
-0.2679491924311227
 10
38.0
 20
-6.928203230275508
 42
0.0
 97
        6
330
1222
330
1200
330
1207
330
1205
330
1209
330
11FF
 92
        7
 72
     0
 73
     1
 93
        6
 10
66.0
 20
23.49999999999999
 10
65.50000000000001
 20
24.0
 10
58.49999999999999
 20
24.0
 10
58.0
 20
23.5
 10
58.0
 20
12.5
 10
66.0
 20
12.5
 97
        6
330
1237
330
1239
330
11E9
330
121D
330
11EA
330
1235
 92
        7
 72
     1
 73
     1
 93
        4
 10
66.0
 20
6.928203230275509
 42
0.0
 10
66.0
 20
12.5
 42
0.0
 10
58.0
 20
12.5
 42
0.0
 10
58.0
 20
6.928203230275509
 42
-0.2679491924311227
 97
        4
330
11EA
330
121D
330
11E8
330
1235
 92
        7
 72
     1
 73
     1
 93
        6
 10
66.0
 20
-6.928203230275508
 42
-0.2679491924311227
 10
58.0
 20
-6.928203230275508
 42
0.0
 10
58.0
 20
-23.5
 42
0.0
 10
58.5
 20
-24.0
 42
0.0
 10
65.5
 20
-24.0
 42
0.0
 10
66.0
 20
-23.49999999999999
 42
0.0
 97
        6
330
11E8
330
11FE
330
11E7
330
122E
330
122F
330
122B
 75
     0
 76
     1
 52
0.0
 41
0.5
 77
     0
 78
     2
 53
45.0
 43
0.0
 44
0.0
 45
-1.122532015133643
 46
1.122532015133643
 79
     0
 53
135.0
 43
0.0
 44
0.0
 45
-1.122532015133643
 46
-1.122532015133643
 79
     0
 47
0.19787907
 98
        6
 10
40.24423374346008
 20
15.90251360741335
 10
41.82790804544754
 20
9.966141584616252
 10
41.43198932413127
 20
-12.59207190170562
 10
63.60342721884513
 20
16.6940298103506
 10
63.9993456485226
 20
9.570383382994094
 10
62.41567163817393
 20
-12.19631390039057
  0
LINE
  5
11EC
330
AEF
100
AcDbEntity
  8
240
  6
CONTINUOUS
100
AcDbLine
 10
-22.5
 20
14.39995605
 30
0.0
 11
-1.8
 21
14.91750154
 31
0.0
  0
LINE
  5
11ED
330
AEF
100
AcDbEntity
  8
240
  6
CONTINUOUS
100
AcDbLine
 10
-1.8
 20
-13.11750154
 30
0.0
 11
-22.5
 21
-12.59995598
 31
0.0
  0
LINE
  5
11EE
330
AEF
100
AcDbEntity
  8
241
100
AcDbLine
 10
-22.5
 20
0.0
 30
0.0
 11
-22.5
 21
14.39995605
 31
0.0
  0
LINE
  5
11EF
330
AEF
100
AcDbEntity
  8
240
  6
CONTINUOUS
100
AcDbLine
 10
-24.0
 20
0.0
 30
0.0
 11
-24.0
 21
13.53393065
 31
0.0
  0
LINE
  5
11F0
330
AEF
100
AcDbEntity
  8
240
  6
CONTINUOUS
100
AcDbLine
 10
-24.0
 20
-11.73393058
 30
0.0
 11
-24.0
 21
0.0
 31
0.0
  0
LINE
  5
11F1
330
AEF
100
AcDbEntity
  8
241
100
AcDbLine
 10
-22.5
 20
-12.59995598
 30
0.0
 11
-22.5
 21
0.0
 31
0.0
  0
LINE
  5
11F2
330
AEF
100
AcDbEntity
  8
242
  6
HIDDEN2
100
AcDbLine
 10
-18.29490745
 20
-12.70509255
 30
0.0
 11
-20.0
 21
-11.0
 31
0.0
  0
LINE
  5
11F3
330
AEF
100
AcDbEntity
  8
242
  6
HIDDEN2
100
AcDbLine
 10
-20.0
 20
-12.66246149
 30
0.0
 11
-20.0
 21
-11.0
 31
0.0
  0
LINE
  5
11F4
330
AEF
100
AcDbEntity
  8
242
  6
HIDDEN2
100
AcDbLine
 10
-24.0
 20
-11.0
 30
0.0
 11
-20.0
 21
-11.0
 31
0.0
  0
LINE
  5
11F5
330
AEF
100
AcDbEntity
  8
240
  6
CONTINUOUS
100
AcDbLine
 10
-22.5
 20
-12.59995598
 30
0.0
 11
-24.0
 21
-11.73393058
 31
0.0
  0
LINE
  5
11F6
330
AEF
100
AcDbEntity
  8
240
  6
CONTINUOUS
100
AcDbLine
 10
-24.0
 20
13.53393065
 30
0.0
 11
-22.5
 21
14.39995605
 31
0.0
  0
LINE
  5
11F7
330
AEF
100
AcDbEntity
  8
241
  6
CONTINUOUS
100
AcDbLine
 10
9.3
 20
-5.44344954
 30
0.0
 11
9.3
 21
-19.23457712
 31
0.0
  0
SPLINE
  5
11F8
330
AEF
100
AcDbEntity
  8
241
  6
CONTINUOUS
100
AcDbSpline
210
0.0
220
0.0
230
1.0
 70
     8
 71
     3
 72
     9
 73
     5
 74
     3
 42
0.0000000001
 43
0.0000000001
 44
0.0000000001
 40
0.0
 40
0.0
 40
0.0
 40
0.0
 40
7.11804763847405
 40
14.23609527694817
 40
14.23609527694817
 40
14.23609527694817
 40
14.23609527694817
 10
9.299999999999895
 20
-19.23457712301494
 30
0.0
 10
10.18286496469834
 20
-16.93605585924512
 30
0.0
 10
11.94859489409525
 20
-12.33901333170547
 30
0.0
 10
10.18286496469839
 20
-7.741970804165798
 30
0.0
 10
9.299999999999952
 20
-5.443449540395951
 30
0.0
 11
9.299999999999895
 21
-19.23457712301494
 31
0.0
 11
11.06572992939681
 21
-12.33901333170549
 31
0.0
 11
9.299999999999952
 21
-5.443449540395951
 31
0.0
  0
LINE
  5
11F9
330
AEF
100
AcDbEntity
  8
240
  6
CONTINUOUS
100
AcDbLine
 10
0.0
 20
-13.11750154
 30
0.0
 11
0.0
 21
-19.99
 31
0.0
  0
SPLINE
  5
11FA
330
AEF
100
AcDbEntity
  8
241
  6
CONTINUOUS
100
AcDbSpline
210
0.0
220
0.0
230
1.0
 70
     8
 71
     3
 72
     9
 73
     5
 74
     3
 42
0.0000000001
 43
0.0000000001
 44
0.0000000001
 40
0.0
 40
0.0
 40
0.0
 40
0.0
 40
7.118047638474106
 40
14.2360952769482
 40
14.2360952769482
 40
14.2360952769482
 40
14.2360952769482
 10
6.699999999999874
 20
-5.443449540395951
 30
0.0
 10
5.817135035301411
 20
-7.741970804165788
 30
0.0
 10
4.051405105904493
 20
-12.33901333170546
 30
0.0
 10
5.817135035301453
 20
-16.93605585924511
 30
0.0
 10
6.699999999999931
 20
-19.23457712301494
 30
0.0
 11
6.699999999999874
 21
-5.443449540395951
 31
0.0
 11
4.934270070602963
 21
-12.33901333170546
 31
0.0
 11
6.699999999999931
 21
-19.23457712301494
 31
0.0
  0
LINE
  5
11FB
330
AEF
100
AcDbEntity
  8
241
  6
CONTINUOUS
100
AcDbLine
 10
6.7
 20
-5.44344954
 30
0.0
 11
6.7
 21
-19.23457712
 31
0.0
  0
LINE
  5
11FC
330
AEF
100
AcDbEntity
  8
241
  6
CONTINUOUS
100
AcDbLine
 10
22.1419695
 20
-22.94948974
 30
0.0
 11
22.1419695
 21
0.0
 31
0.0
  0
LINE
  5
11FD
330
AEF
100
AcDbEntity
  8
241
100
AcDbLine
 10
20.11547005
 20
-19.99
 30
0.0
 11
20.11547005
 21
0.0
 31
0.0
  0
LINE
  5
11FE
102
{ACAD_REACTORS
330
11EB
102
}
330
AEF
100
AcDbEntity
  8
241
  6
CONTINUOUS
100
AcDbLine
 10
58.0
 20
-23.5
 30
0.0
 11
58.0
 21
-6.92820323
 31
0.0
  0
LINE
  5
11FF
102
{ACAD_REACTORS
330
11EB
102
}
330
AEF
100
AcDbEntity
  8
241
  6
CONTINUOUS
100
AcDbLine
 10
46.0
 20
-23.5
 30
0.0
 11
46.0
 21
-6.92820323
 31
0.0
  0
LINE
  5
1200
102
{ACAD_REACTORS
330
11EB
102
}
330
AEF
100
AcDbEntity
  8
241
  6
CONTINUOUS
100
AcDbLine
 10
38.0
 20
-23.5
 30
0.0
 11
38.0
 21
-6.92820323
 31
0.0
  0
ARC
  5
1201
330
AEF
100
AcDbEntity
  8
240
  6
CONTINUOUS
100
AcDbCircle
 10
23.87402031
 20
-20.5
 30
0.0
 40
3.0
100
AcDbArc
 50
210.0
 51
270.0
  0
LINE
  5
1202
330
AEF
100
AcDbEntity
  8
240
  6
CONTINUOUS
100
AcDbLine
 10
0.0
 20
-19.99
 30
0.0
 11
20.11547005
 21
-19.99
 31
0.0
  0
LINE
  5
1203
330
AEF
100
AcDbEntity
  8
241
  6
CONTINUOUS
100
AcDbLine
 10
6.7
 20
-19.23457712
 30
0.0
 11
9.3
 21
-19.23457712
 31
0.0
  0
LINE
  5
1204
330
AEF
100
AcDbEntity
  8
240
  6
CONTINUOUS
100
AcDbLine
 10
21.27594409
 20
-22.0
 30
0.0
 11
20.11547005
 21
-19.99
 31
0.0
  0
LINE
  5
1205
102
{ACAD_REACTORS
330
11EB
102
}
330
AEF
100
AcDbEntity
  8
240
  6
CONTINUOUS
100
AcDbLine
 10
38.5
 20
-24.0
 30
0.0
 11
45.5
 21
-24.0
 31
0.0
  0
LINE
  5
1206
330
AEF
100
AcDbEntity
  8
240
  6
CONTINUOUS
100
AcDbLine
 10
38.0
 20
-23.5
 30
0.0
 11
23.87402031
 21
-23.5
 31
0.0
  0
LINE
  5
1207
102
{ACAD_REACTORS
330
11EB
102
}
330
AEF
100
AcDbEntity
  8
240
  6
CONTINUOUS
100
AcDbLine
 10
38.5
 20
-24.0
 30
0.0
 11
38.0
 21
-23.5
 31
0.0
  0
LINE
  5
1208
330
AEF
100
AcDbEntity
  8
240
  6
CONTINUOUS
100
AcDbLine
 10
46.0
 20
-23.5
 30
0.0
 11
58.0
 21
-23.5
 31
0.0
  0
LINE
  5
1209
102
{ACAD_REACTORS
330
11EB
102
}
330
AEF
100
AcDbEntity
  8
240
  6
CONTINUOUS
100
AcDbLine
 10
45.5
 20
-24.0
 30
0.0
 11
46.0
 21
-23.5
 31
0.0
  0
ARC
  5
120A
330
AEF
100
AcDbEntity
  8
240
  6
CONTINUOUS
100
AcDbCircle
 10
23.87402031
 20
20.5
 30
0.0
 40
3.0
100
AcDbArc
 50
90.0
 51
150.0
  0
LINE
  5
120B
330
AEF
100
AcDbEntity
  8
241
  6
CONTINUOUS
100
AcDbLine
 10
9.3
 20
5.44344954
 30
0.0
 11
9.3
 21
19.23457712
 31
0.0
  0
SPLINE
  5
120C
330
AEF
100
AcDbEntity
  8
241
  6
CONTINUOUS
100
AcDbSpline
210
0.0
220
0.0
230
1.0
 70
     8
 71
     3
 72
     9
 73
     5
 74
     3
 42
0.0000000001
 43
0.0000000001
 44
0.0000000001
 40
0.0
 40
0.0
 40
0.0
 40
0.0
 40
7.118047638474036
 40
14.23609527694814
 40
14.23609527694814
 40
14.23609527694814
 40
14.23609527694814
 10
9.299999999999867
 20
19.23457712301471
 30
0.0
 10
10.18286496469831
 20
16.93605585924489
 30
0.0
 10
11.9485948940952
 20
12.33901333170525
 30
0.0
 10
10.18286496469835
 20
7.741970804165584
 30
0.0
 10
9.299999999999926
 20
5.443449540395741
 30
0.0
 11
9.299999999999867
 21
19.23457712301471
 31
0.0
 11
11.06572992939677
 21
12.33901333170527
 31
0.0
 11
9.299999999999926
 21
5.443449540395741
 31
0.0
  0
LINE
  5
120D
330
AEF
100
AcDbEntity
  8
241
  6
CONTINUOUS
100
AcDbLine
 10
6.7
 20
5.44344954
 30
0.0
 11
6.7
 21
19.23457712
 31
0.0
  0
SPLINE
  5
120E
330
AEF
100
AcDbEntity
  8
241
  6
CONTINUOUS
100
AcDbSpline
210
0.0
220
0.0
230
1.0
 70
     8
 71
     3
 72
     9
 73
     5
 74
     3
 42
0.0000000001
 43
0.0000000001
 44
0.0000000001
 40
0.0
 40
0.0
 40
0.0
 40
0.0
 40
7.118047638474066
 40
14.23609527694817
 40
14.23609527694817
 40
14.23609527694817
 40
14.23609527694817
 10
6.699999999999846
 20
5.443449540395741
 30
0.0
 10
5.817135035301386
 20
7.741970804165565
 30
0.0
 10
4.051405105904462
 20
12.33901333170522
 30
0.0
 10
5.81713503530142
 20
16.93605585924487
 30
0.0
 10
6.699999999999902
 20
19.23457712301471
 30
0.0
 11
6.699999999999846
 21
5.443449540395741
 31
0.0
 11
4.934270070602933
 21
12.33901333170521
 31
0.0
 11
6.699999999999902
 21
19.23457712301471
 31
0.0
  0
LINE
  5
120F
330
AEF
100
AcDbEntity
  8
241
100
AcDbLine
 10
0.0
 20
0.0
 30
0.0
 11
0.0
 21
14.91750154
 31
0.0
  0
LINE
  5
1210
330
AEF
100
AcDbEntity
  8
241
100
AcDbLine
 10
-1.8
 20
0.0
 30
0.0
 11
-1.8
 21
14.91750154
 31
0.0
  0
LINE
  5
1211
330
AEF
100
AcDbEntity
  8
241
100
AcDbLine
 10
20.11547005
 20
19.99
 30
0.0
 11
20.11547005
 21
0.0
 31
0.0
  0
LINE
  5
1212
330
AEF
100
AcDbEntity
  8
241
  6
CONTINUOUS
100
AcDbLine
 10
22.1419695
 20
22.94948974
 30
0.0
 11
22.1419695
 21
0.0
 31
0.0
  0
LINE
  5
1213
330
AEF
100
AcDbEntity
  8
241
100
AcDbLine
 10
-1.8
 20
-13.11750154
 30
0.0
 11
-1.8
 21
0.0
 31
0.0
  0
LINE
  5
1214
330
AEF
100
AcDbEntity
  8
241
100
AcDbLine
 10
0.0
 20
-13.11750154
 30
0.0
 11
0.0
 21
0.0
 31
0.0
  0
LINE
  5
1215
330
AEF
100
AcDbEntity
  8
240
100
AcDbLine
 10
-1.8
 20
-13.11750154
 30
0.0
 11
0.0
 21
-13.11750154
 31
0.0
  0
LINE
  5
1216
330
AEF
100
AcDbEntity
  8
241
  6
CONTINUOUS
100
AcDbLine
 10
6.7
 20
-5.44344954
 30
0.0
 11
9.3
 21
-5.44344954
 31
0.0
  0
LINE
  5
1217
330
AEF
100
AcDbEntity
  8
241
  6
CONTINUOUS
100
AcDbLine
 10
6.7
 20
5.44344954
 30
0.0
 11
9.3
 21
5.44344954
 31
0.0
  0
LINE
  5
1218
330
AEF
100
AcDbEntity
  8
240
  6
CONTINUOUS
100
AcDbLine
 10
0.0
 20
19.99
 30
0.0
 11
20.11547005
 21
19.99
 31
0.0
  0
LINE
  5
1219
330
AEF
100
AcDbEntity
  8
240
  6
CONTINUOUS
100
AcDbLine
 10
0.0
 20
14.91750154
 30
0.0
 11
0.0
 21
19.99
 31
0.0
  0
LINE
  5
121A
330
AEF
100
AcDbEntity
  8
240
100
AcDbLine
 10
-1.8
 20
14.91750154
 30
0.0
 11
0.0
 21
14.91750154
 31
0.0
  0
LINE
  5
121B
330
AEF
100
AcDbEntity
  8
241
  6
CONTINUOUS
100
AcDbLine
 10
6.7
 20
19.23457712
 30
0.0
 11
9.3
 21
19.23457712
 31
0.0
  0
LINE
  5
121C
330
AEF
100
AcDbEntity
  8
240
  6
CONTINUOUS
100
AcDbLine
 10
21.27594409
 20
22.0
 30
0.0
 11
20.11547005
 21
19.99
 31
0.0
  0
LINE
  5
121D
102
{ACAD_REACTORS
330
11EB
102
}
330
AEF
100
AcDbEntity
  8
241
  6
CONTINUOUS
100
AcDbLine
 10
58.0
 20
23.5
 30
0.0
 11
58.0
 21
6.92820323
 31
0.0
  0
LINE
  5
121E
102
{ACAD_REACTORS
330
11EB
102
}
330
AEF
100
AcDbEntity
  8
241
  6
CONTINUOUS
100
AcDbLine
 10
46.0
 20
23.5
 30
0.0
 11
46.0
 21
6.92820323
 31
0.0
  0
LINE
  5
121F
102
{ACAD_REACTORS
330
11EB
102
}
330
AEF
100
AcDbEntity
  8
241
  6
CONTINUOUS
100
AcDbLine
 10
38.0
 20
23.5
 30
0.0
 11
38.0
 21
6.92820323
 31
0.0
  0
LWPOLYLINE
  5
1220
330
AEF
100
AcDbEntity
  8
241
100
AcDbPolyline
 90
        6
 70
     1
 43
0.0
 10
38.0
 20
-2.30940108
 10
42.0
 20
-4.61880215
 10
46.0
 20
-2.30940108
 10
46.0
 20
2.30940108
 10
42.0
 20
4.61880215
 10
38.0
 20
2.30940108
  0
CIRCLE
  5
1221
330
AEF
100
AcDbEntity
  8
242
100
AcDbCircle
 10
42.0
 20
0.0
 30
0.0
 40
7.299999999999998
  0
CIRCLE
  5
1222
102
{ACAD_REACTORS
330
11EB
102
}
330
AEF
100
AcDbEntity
  8
241
100
AcDbCircle
 10
42.0
 20
0.0
 30
0.0
 40
8.0
  0
LINE
  5
1223
102
{ACAD_REACTORS
330
11EB
102
}
330
AEF
100
AcDbEntity
  8
240
  6
CONTINUOUS
100
AcDbLine
 10
38.5
 20
24.0
 30
0.0
 11
45.5
 21
24.0
 31
0.0
  0
LINE
  5
1224
102
{ACAD_REACTORS
330
11EB
102
}
330
AEF
100
AcDbEntity
  8
240
  6
CONTINUOUS
100
AcDbLine
 10
38.5
 20
24.0
 30
0.0
 11
38.0
 21
23.5
 31
0.0
  0
LINE
  5
1225
330
AEF
100
AcDbEntity
  8
240
  6
CONTINUOUS
100
AcDbLine
 10
38.0
 20
23.5
 30
0.0
 11
23.87402031
 21
23.5
 31
0.0
  0
LINE
  5
1226
102
{ACAD_REACTORS
330
11EB
102
}
330
AEF
100
AcDbEntity
  8
240
  6
CONTINUOUS
100
AcDbLine
 10
45.5
 20
24.0
 30
0.0
 11
46.0
 21
23.5
 31
0.0
  0
LINE
  5
1227
330
AEF
100
AcDbEntity
  8
240
  6
CONTINUOUS
100
AcDbLine
 10
46.0
 20
23.5
 30
0.0
 11
58.0
 21
23.5
 31
0.0
  0
LINE
  5
1228
330
AEF
100
AcDbEntity
  8
241
100
AcDbLine
 10
74.5
 20
-23.5
 30
0.0
 11
74.5
 21
0.0
 31
0.0
  0
LINE
  5
1229
330
AEF
100
AcDbEntity
  8
240
  6
CONTINUOUS
100
AcDbLine
 10
77.0
 20
-19.0
 30
0.0
 11
77.0
 21
0.0
 31
0.0
  0
LINE
  5
122A
330
AEF
100
AcDbEntity
  8
241
100
AcDbLine
 10
76.5
 20
-19.8660254
 30
0.0
 11
76.5
 21
0.0
 31
0.0
  0
LINE
  5
122B
102
{ACAD_REACTORS
330
11EB
102
}
330
AEF
100
AcDbEntity
  8
241
  6
CONTINUOUS
100
AcDbLine
 10
66.0
 20
-23.5
 30
0.0
 11
66.0
 21
-6.92820323
 31
0.0
  0
ARC
  5
122C
330
AEF
100
AcDbEntity
  8
240
  6
CONTINUOUS
100
AcDbCircle
 10
74.5
 20
-21.5
 30
0.0
 40
2.0
100
AcDbArc
 50
270.0
 51
0.0
  0
LINE
  5
122D
330
AEF
100
AcDbEntity
  8
240
  6
CONTINUOUS
100
AcDbLine
 10
66.0
 20
-23.5
 30
0.0
 11
74.5
 21
-23.5
 31
0.0
  0
LINE
  5
122E
102
{ACAD_REACTORS
330
11EB
102
}
330
AEF
100
AcDbEntity
  8
240
  6
CONTINUOUS
100
AcDbLine
 10
58.5
 20
-24.0
 30
0.0
 11
65.5
 21
-24.0
 31
0.0
  0
LINE
  5
122F
102
{ACAD_REACTORS
330
11EB
102
}
330
AEF
100
AcDbEntity
  8
240
  6
CONTINUOUS
100
AcDbLine
 10
65.5
 20
-24.0
 30
0.0
 11
66.0
 21
-23.5
 31
0.0
  0
LINE
  5
1230
330
AEF
100
AcDbEntity
  8
240
  6
CONTINUOUS
100
AcDbLine
 10
76.5
 20
-19.8660254
 30
0.0
 11
76.5
 21
-21.5
 31
0.0
  0
LINE
  5
1231
330
AEF
100
AcDbEntity
  8
240
100
AcDbLine
 10
77.0
 20
-19.0
 30
0.0
 11
76.5
 21
-19.8660254
 31
0.0
  0
LINE
  5
1232
330
AEF
100
AcDbEntity
  8
241
100
AcDbLine
 10
74.5
 20
23.5
 30
0.0
 11
74.5
 21
0.0
 31
0.0
  0
LINE
  5
1233
330
AEF
100
AcDbEntity
  8
241
100
AcDbLine
 10
76.5
 20
19.8660254
 30
0.0
 11
76.5
 21
0.0
 31
0.0
  0
LINE
  5
1234
330
AEF
100
AcDbEntity
  8
240
  6
CONTINUOUS
100
AcDbLine
 10
77.0
 20
19.0
 30
0.0
 11
77.0
 21
0.0
 31
0.0
  0
LINE
  5
1235
102
{ACAD_REACTORS
330
11EB
102
}
330
AEF
100
AcDbEntity
  8
241
  6
CONTINUOUS
100
AcDbLine
 10
66.0
 20
23.5
 30
0.0
 11
66.0
 21
6.92820323
 31
0.0
  0
ARC
  5
1236
330
AEF
100
AcDbEntity
  8
240
  6
CONTINUOUS
100
AcDbCircle
 10
74.5
 20
21.5
 30
0.0
 40
2.0
100
AcDbArc
 50
0.0
 51
90.0
  0
LINE
  5
1237
102
{ACAD_REACTORS
330
11EB
102
}
330
AEF
100
AcDbEntity
  8
240
  6
CONTINUOUS
100
AcDbLine
 10
65.5
 20
24.0
 30
0.0
 11
66.0
 21
23.5
 31
0.0
  0
LINE
  5
1238
330
AEF
100
AcDbEntity
  8
240
  6
CONTINUOUS
100
AcDbLine
 10
66.0
 20
23.5
 30
0.0
 11
74.5
 21
23.5
 31
0.0
  0
LINE
  5
1239
102
{ACAD_REACTORS
330
11EB
102
}
330
AEF
100
AcDbEntity
  8
240
  6
CONTINUOUS
100
AcDbLine
 10
58.5
 20
24.0
 30
0.0
 11
65.5
 21
24.0
 31
0.0
  0
LINE
  5
123A
330
AEF
100
AcDbEntity
  8
240
  6
CONTINUOUS
100
AcDbLine
 10
76.5
 20
21.5
 30
0.0
 11
76.5
 21
19.8660254
 31
0.0
  0
LINE
  5
123B
330
AEF
100
AcDbEntity
  8
240
100
AcDbLine
 10
77.0
 20
19.0
 30
0.0
 11
76.5
 21
19.8660254
 31
0.0
  0
ENDBLK
  5
AF1
330
AEF
100
AcDbEntity
  8
0
100
AcDbBlockEnd
  0
BLOCK
  5
1052
330
1048
100
AcDbEntity
  8
0
100
AcDbBlockBegin
  2
*D5
 70
     1
 10
0.0
 20
0.0
 30
0.0
  3
*D5
  1

  0
LINE
  5
12BE
330
1048
100
AcDbEntity
  8
250
  6
CONTINUOUS
100
AcDbLine
 10
77.5
 20
12.5
 30
0.0
 11
89.0
 21
12.5
 31
0.0
  0
LINE
  5
12BF
330
1048
100
AcDbEntity
  8
250
  6
CONTINUOUS
100
AcDbLine
 10
88.0
 20
-10.27
 30
0.0
 11
88.0
 21
10.27
 31
0.0
  0
INSERT
  5
12C0
330
1048
100
AcDbEntity
  8
250
  6
CONTINUOUS
100
AcDbBlockReference
  2
矢印なし
 10
88.0
 20
-12.5
 30
0.0
 41
2.23
 42
2.23
 43
2.23
 50
270.0
  0
INSERT
  5
12C1
330
1048
100
AcDbEntity
  8
250
  6
CONTINUOUS
100
AcDbBlockReference
  2
_OPEN
 10
88.0
 20
12.5
 30
0.0
 41
2.23
 42
2.23
 43
2.23
 50
90.0
  0
MTEXT
  5
12C2
330
1048
100
AcDbEntity
  8
250
  6
CONTINUOUS
 62
    40
100
AcDbMText
 10
85.6
 20
0.0
 30
0.0
 40
2.8
 41
0.0
 71
     5
 72
     1
  1
\A1;{\H2.8;\U+2205}25
 11
0.0
 21
1.0
 31
0.0
  0
POINT
  5
12C3
330
1048
100
AcDbEntity
  8
DEFPOINTS
  6
CONTINUOUS
 62
     0
100
AcDbPoint
 10
77.0
 20
-12.5
 30
0.0
  0
POINT
  5
12C4
330
1048
100
AcDbEntity
  8
DEFPOINTS
  6
CONTINUOUS
 62
     0
100
AcDbPoint
 10
77.0
 20
12.5
 30
0.0
  0
POINT
  5
12C5
330
1048
100
AcDbEntity
  8
DEFPOINTS
  6
CONTINUOUS
 62
     0
100
AcDbPoint
 10
88.0
 20
12.5
 30
0.0
  0
ENDBLK
  5
1053
330
1048
100
AcDbEntity
  8
0
100
AcDbBlockEnd
  0
BLOCK
  5
1061
330
1057
100
AcDbEntity
  8
0
100
AcDbBlockBegin
  2
*D6
 70
     1
 10
0.0
 20
0.0
 30
0.0
  3
*D6
  1

  0
LINE
  5
12C6
330
1057
100
AcDbEntity
  8
250
  6
CONTINUOUS
100
AcDbLine
 10
66.0
 20
-24.0
 30
0.0
 11
96.0
 21
-24.0
 31
0.0
  0
LINE
  5
12C7
330
1057
100
AcDbEntity
  8
250
  6
CONTINUOUS
100
AcDbLine
 10
66.0
 20
24.0
 30
0.0
 11
96.0
 21
24.0
 31
0.0
  0
LINE
  5
12C8
330
1057
100
AcDbEntity
  8
250
  6
CONTINUOUS
100
AcDbLine
 10
95.0
 20
-21.77
 30
0.0
 11
95.0
 21
21.77
 31
0.0
  0
INSERT
  5
12C9
330
1057
100
AcDbEntity
  8
250
  6
CONTINUOUS
100
AcDbBlockReference
  2
_OPEN
 10
95.0
 20
-24.0
 30
0.0
 41
2.23
 42
2.23
 43
2.23
 50
270.0
  0
INSERT
  5
12CA
330
1057
100
AcDbEntity
  8
250
  6
CONTINUOUS
100
AcDbBlockReference
  2
_OPEN
 10
95.0
 20
24.0
 30
0.0
 41
2.23
 42
2.23
 43
2.23
 50
90.0
  0
MTEXT
  5
12CB
330
1057
100
AcDbEntity
  8
250
  6
CONTINUOUS
 62
    40
100
AcDbMText
 10
92.6
 20
0.0
 30
0.0
 40
2.8
 41
0.0
 71
     5
 72
     1
  1
\A1;{\H2.8;\U+2205}48
 11
0.0
 21
1.0
 31
0.0
  0
POINT
  5
12CC
330
1057
100
AcDbEntity
  8
DEFPOINTS
  6
CONTINUOUS
 62
     0
100
AcDbPoint
 10
65.5
 20
-24.0
 30
0.0
  0
POINT
  5
12CD
330
1057
100
AcDbEntity
  8
DEFPOINTS
  6
CONTINUOUS
 62
     0
100
AcDbPoint
 10
65.5
 20
24.0
 30
0.0
  0
POINT
  5
12CE
330
1057
100
AcDbEntity
  8
DEFPOINTS
  6
CONTINUOUS
 62
     0
100
AcDbPoint
 10
95.0
 20
24.0
 30
0.0
  0
ENDBLK
  5
1062
330
1057
100
AcDbEntity
  8
0
100
AcDbBlockEnd
  0
ENDSEC
  0
SECTION
  2
ENTITIES
  0
INSERT
  5
6E6
330
1A
100
AcDbEntity
  8
245
100
AcDbBlockReference
  2
矢印なし
 10
175.62382697
 20
90.55123572
 30
0.0
  0
LINE
  5
98E
330
1A
100
AcDbEntity
  8
250
  6
CONTINUOUS
100
AcDbLine
 10
-14.0
 20
-21.0
 30
0.0
 11
-24.4
 21
-21.0
 31
0.0
1001
ITEMNAME
1000
LNSP2
  0
LEADER
  5
98F
330
1A
100
AcDbEntity
  8
250
  6
CONTINUOUS
100
AcDbLeader
  3
BIGT
 76
     2
 10
-9.34019448
 20
-12.92898008
 30
0.0
 10
-14.0
 20
-21.0
 30
0.0
1001
ACAD
1000
DSTYLE
1002
{
1070
     6
1000
OPEN
1070
    41
1040
2.0
1070
    42
1040
2.0
1070
    44
1040
2.0
1070
   140
1040
4.0
1070
   343
1005
594
1002
}
  0
MTEXT
  5
990
330
1A
100
AcDbEntity
  8
251
  6
CONTINUOUS
100
AcDbMText
 10
-21.6
 20
-20.0
 30
0.0
 40
2.8
 41
0.0
 71
     7
 72
     1
  1
C4
  7
YOKO
1001
ITEMNAME
1000
LNSP3
1001
ACAD
1000
MTEXTBEGIN
1070
    73
1070
     1
1070
    44
1040
1.0
1070
    74
1070
     0
1000
MTEXTEND
1000
MTEXTBEGIN
1070
    73
1070
     1
1070
    44
1040
1.0
1070
    74
1070
     0
1000
MTEXTEND
1000
MTEXTBEGIN
1070
    73
1070
     1
1070
    44
1040
1.0
1070
    74
1070
     0
1000
MTEXTEND
1000
MTEXTBEGIN
1070
    73
1070
     1
1070
    44
1040
1.0
1070
    74
1070
     0
1000
MTEXTEND
1000
MTEXTBEGIN
1070
    73
1070
     1
1070
    44
1040
1.0
1070
    74
1070
     0
1000
MTEXTEND
1000
MTEXTBEGIN
1070
    73
1070
     1
1070
    44
1040
1.0
1070
    74
1070
     0
1000
MTEXTEND
1000
MTEXTBEGIN
1070
    73
1070
     1
1070
    44
1040
1.0
1070
    74
1070
     0
1000
MTEXTEND
1000
MTEXTBEGIN
1070
    73
1070
     1
1070
    44
1040
1.0
1070
    74
1070
     0
1000
MTEXTEND
1000
MTEXTBEGIN
1070
    73
1070
     1
1070
    44
1040
1.0
1070
    74
1070
     0
1000
MTEXTEND
  0
DIMENSION
  5
A77
330
1A
100
AcDbEntity
  8
250
  6
CONTINUOUS
100
AcDbDimension
  2
*D2
 10
77.0
 20
35.0
 30
0.0
 11
50.23955958
 21
35.0
 31
0.0
 70
   160
  1
（max.<>）
  3
BIGT
100
AcDbAlignedDimension
 13
21.0
 23
12.5
 33
0.0
 14
77.0
 24
19.0
 34
0.0
100
AcDbRotatedDimension
1001
ACAD
1000
DSTYLE
1002
{
1070
   287
1070
     0
1070
   287
1070
     0
1070
   287
1070
     0
1070
   287
1070
     0
1070
     3
1000
<>
1070
   288
1070
     1
1070
   289
1070
     0
1002
}
  0
DIMENSION
  5
A86
330
1A
100
AcDbEntity
  8
250
  6
CONTINUOUS
100
AcDbDimension
  2
*D3
 10
77.0
 20
42.0
 30
0.0
 11
39.83284766
 21
42.0
 31
0.0
 70
   160
  3
BIGT
100
AcDbAlignedDimension
 13
0.0
 23
19.99
 33
0.0
 14
77.0
 24
19.0
 34
0.0
100
AcDbRotatedDimension
1001
ACAD
1000
DSTYLE
1002
{
1070
   287
1070
     0
1070
   287
1070
     0
1070
   287
1070
     0
1070
   287
1070
     0
1070
     3
1000
<>
1070
   288
1070
     1
1070
   289
1070
     0
1002
}
  0
TEXT
  5
AA7
330
1A
100
AcDbEntity
  8
241
100
AcDbText
 10
-24.0
 20
56.0
 30
0.0
 40
5.0
  1
C4-TSL25-77
  7
YOKO
 11
-24.0
 21
56.0
 31
0.0
100
AcDbText
 73
     1
  0
DIMENSION
  5
1047
330
1A
100
AcDbEntity
  8
250
  6
CONTINUOUS
100
AcDbDimension
  2
*D5
 10
88.0
 20
12.5
 30
0.0
 11
88.0
 21
0.0
 31
0.0
 70
   160
  1
{\H2.8;\U+2205}<>
  3
BIGT
100
AcDbAlignedDimension
 13
77.0
 23
-12.5
 33
0.0
 14
77.0
 24
12.5
 34
0.0
 50
90.0
100
AcDbRotatedDimension
1001
ACAD
1000
DSTYLE
1002
{
1070
   287
1070
     0
1070
   287
1070
     0
1070
     3
1000
<>
1070
    75
1070
     1
1070
    79
1070
     2
1070
   179
1070
     3
1070
   288
1070
     1
1070
   289
1070
     0
1070
     6
1000
矢印なし
1070
   371
1070
    -1
1070
   372
1070
    -1
1002
}
  0
DIMENSION
  5
1056
330
1A
100
AcDbEntity
  8
250
  6
CONTINUOUS
100
AcDbDimension
  2
*D6
 10
95.0
 20
24.0
 30
0.0
 11
95.0
 21
0.0
 31
0.0
 70
   160
  1
{\H2.8;\U+2205}<>
  3
BIGT
100
AcDbAlignedDimension
 13
65.5
 23
-24.0
 33
0.0
 14
65.5
 24
24.0
 34
0.0
 50
90.0
100
AcDbRotatedDimension
1001
ACAD
1000
DSTYLE
1002
{
1070
   287
1070
     0
1070
   287
1070
     0
1070
     3
1000
<>
1070
    79
1070
     2
1070
   179
1070
     3
1070
   288
1070
     1
1070
   289
1070
     0
1070
   371
1070
    -1
1070
   372
1070
    -1
1002
}
  0
INSERT
  5
123C
330
1A
100
AcDbEntity
  8
245
100
AcDbBlockReference
  2
1
 10
0.0
 20
0.0
 30
0.0
  0
VIEWPORT
  5
22
330
17
100
AcDbEntity
 67
     1
  8
0
100
AcDbViewport
 10
261.51769912
 20
148.5
 30
0.0
 40
523.03539823
 41
297.0
 68
     1
 69
     1
1001
ACAD
1000
MVIEW
1002
{
1070
    16
1010
0.0
1020
0.0
1030
0.0
1010
0.0
1020
0.0
1030
1.0
1040
0.0
1040
297.0
1040
261.51769912
1040
148.5
1040
50.0
1040
0.0
1040
0.0
1070
     0
1070
   100
1070
     1
1070
     1
1070
     0
1070
     0
1070
     0
1070
     0
1040
0.0
1040
0.0
1040
0.0
1040
1.0
1040
1.0
1040
10.0
1040
10.0
1070
     0
1002
{
1002
}
1002
}
  0
ENDSEC
  0
SECTION
  2
OBJECTS
  0
DICTIONARY
  5
C
330
0
100
AcDbDictionary
  3
ACAD_GROUP
350
D
  3
ACAD_LAYOUT
350
565
  3
ACAD_MLINESTYLE
350
E
  3
ACAD_PLOTSETTINGS
350
566
  3
ACAD_PLOTSTYLENAME
350
563
  3
ACDBHEADERROUNDTRIPXREC
350
1288
  3
ACDBVARIABLEDICTIONARY
350
A4C
  3
GRADE_DWG
350
540
  0
DICTIONARY
  5
B6C
330
1A
100
AcDbDictionary
280
     1
  3
ACAD_LAYOUTSELFREF
360
12AA
  0
DICTIONARY
  5
B6A
330
17
100
AcDbDictionary
280
     1
  3
ACAD_LAYOUTSELFREF
360
12A9
  0
DICTIONARY
  5
D
102
{ACAD_REACTORS
330
C
102
}
330
C
100
AcDbDictionary
  3
*A1
350
6C7
  3
*A2
350
6C8
  3
*A3
350
6D4
  3
*A4
350
6D5
  3
DREC-1
350
5FC
  3
DREC-2
350
654
  3
DREC-3
350
673
  0
DICTIONARY
  5
565
102
{ACAD_REACTORS
330
C
102
}
330
C
100
AcDbDictionary
  0
DICTIONARY
  5
E
102
{ACAD_REACTORS
330
C
102
}
330
C
100
AcDbDictionary
  3
STANDARD
350
13
  0
DICTIONARY
  5
566
102
{ACAD_REACTORS
330
C
102
}
330
C
100
AcDbDictionary
  3
A3_0_5倍_
350
758
  3
A3_1倍_
350
757
  3
A3_1倍__2000_
350
707
  3
A3_2倍_
350
759
  3
A4_0_5倍_
350
755
  3
A4_1倍_
350
754
  3
A4_1倍__2000_
350
708
  3
A4_2倍_
350
756
  0
ACDBDICTIONARYWDFLT
  5
563
102
{ACAD_REACTORS
330
C
102
}
330
C
100
AcDbDictionary
281
     1
  3
Normal
350
564
100
AcDbDictionaryWithDefault
340
564
  0
DICTIONARY
  5
1288
102
{ACAD_REACTORS
330
C
102
}
330
C
100
AcDbDictionary
  3
CEPSNTYPE
350
1292
  3
DIMSTYLEDATA
350
1296
  3
FINGERPRINTGUID
350
1293
  3
HYPERLINKBASE
350
128B
  3
INSUNITS
350
1291
  3
LAYOUTDICT
350
128D
  3
LWETCUNION
350
1290
  3
PLOTSETDICT
350
128E
  3
PLOTSTYLNAMDICT
350
128F
  3
PSVPSCALE
350
1295
  3
PUCSBASE
350
1299
  3
PUCSORGBACK
350
129F
  3
PUCSORGBOTTOM
350
129B
  3
PUCSORGFRONT
350
129E
  3
PUCSORGLEFT
350
129C
  3
PUCSORGRIGHT
350
129D
  3
PUCSORGTOP
350
129A
  3
PUCSORTHOREF
350
1297
  3
PUCSORTHOVIEW
350
1298
  3
STYLESHEET
350
128C
  3
TSTACKALIGN
350
1289
  3
TSTACKSIZE
350
128A
  3
UCSBASE
350
12A2
  3
UCSORGBACK
350
12A8
  3
UCSORGBOTTOM
350
12A4
  3
UCSORGFRONT
350
12A7
  3
UCSORGLEFT
350
12A5
  3
UCSORGRIGHT
350
12A6
  3
UCSORGTOP
350
12A3
  3
UCSORTHOREF
350
12A0
  3
UCSORTHOVIEW
350
12A1
  3
VERSIONGUID
350
1294
  0
DICTIONARY
  5
A4C
102
{ACAD_REACTORS
330
C
102
}
330
C
100
AcDbDictionary
  3
SORTENTS
350
A4D
  0
DICTIONARY
  5
540
102
{ACAD_REACTORS
330
C
102
}
330
C
100
AcDbDictionary
  3
VERSION
350
560
  0
XRECORD
  5
12AA
102
{ACAD_REACTORS
330
B6C
102
}
330
B6C
100
AcDbXrecord
340
1A
  0
XRECORD
  5
12A9
102
{ACAD_REACTORS
330
B6A
102
}
330
B6A
100
AcDbXrecord
340
17
  0
GROUP
  5
6C7
102
{ACAD_REACTORS
330
D
102
}
330
D
100
AcDbGroup
300

 70
     0
 71
     1
1001
GRPNAME
1000
DMA00
  0
GROUP
  5
6C8
102
{ACAD_REACTORS
330
D
102
}
330
D
100
AcDbGroup
300

 70
     0
 71
     1
1001
GRPNAME
1000
DMA00
  0
GROUP
  5
6D4
102
{ACAD_REACTORS
330
D
102
}
330
D
100
AcDbGroup
300

 70
     0
 71
     1
1001
GRPNAME
1000
DMA00
  0
GROUP
  5
6D5
102
{ACAD_REACTORS
330
D
102
}
330
D
100
AcDbGroup
300

 70
     0
 71
     1
1001
GRPNAME
1000
DMA00
  0
GROUP
  5
5FC
102
{ACAD_REACTORS
330
D
102
}
330
D
100
AcDbGroup
300

 70
     0
 71
     1
1001
GRPNAME
1000
DREC-
1001
GPARA
1000
xsiz
1000
44.182
1000
ysiz
1000
40.677
1000
angl
1000
0
1000
ctyp
1000
0
1000
csiz
1000
5
1000
lfnt
1000
cont
1000
hcnt
1000
hoff
1000
vcnt
1000
voff
1000
opnt
1000
4
1000
dxpt
1000
0
1000
dypt
1000
0
  0
GROUP
  5
654
102
{ACAD_REACTORS
330
D
102
}
330
D
100
AcDbGroup
300

 70
     0
 71
     1
1001
GRPNAME
1000
DREC-
1001
GPARA
1000
xsiz
1000
54.592
1000
ysiz
1000
53.036
1000
angl
1000
0
1000
ctyp
1000
0
1000
csiz
1000
5
1000
lfnt
1000
cont
1000
hcnt
1000
hoff
1000
vcnt
1000
voff
1000
opnt
1000
4
1000
dxpt
1000
0
1000
dypt
1000
0
  0
GROUP
  5
673
102
{ACAD_REACTORS
330
D
102
}
330
D
100
AcDbGroup
300

 70
     0
 71
     1
1001
GRPNAME
1000
DREC-
1001
GPARA
1000
xsiz
1000
30.363
1000
ysiz
1000
36.175
1000
angl
1000
0
1000
ctyp
1000
0
1000
csiz
1000
5
1000
lfnt
1000
cont
1000
hcnt
1000
hoff
1000
vcnt
1000
voff
1000
opnt
1000
4
1000
dxpt
1000
0
1000
dypt
1000
0
  0
MLINESTYLE
  5
13
102
{ACAD_REACTORS
330
E
102
}
330
E
100
AcDbMlineStyle
  2
STANDARD
 70
     0
  3

 62
     0
 51
90.0
 52
90.0
 71
     2
 49
0.5
 62
   256
  6
BYLAYER
 49
-0.5
 62
   256
  6
BYLAYER
  0
PLOTSETTINGS
  5
758
102
{ACAD_REACTORS
330
566
102
}
330
566
100
AcDbPlotSettings
  1
A3(0.5倍)
  2
\\AWTECPC05\HP DeskJet 1120C
  4
A3
  6

 40
5.95841646
 41
13.49375153
 42
6.04309082
 43
3.67242432
 44
296.92599487
 45
419.94665527
 46
89.96
 47
127.14
 48
0.0
 49
0.0
140
0.0
141
0.0
142
1.0
143
2.0
 70
  1716
 72
     1
 73
     1
 74
     2
  7
big.ctb
 75
    17
147
0.5
148
0.0
149
0.0
  0
PLOTSETTINGS
  5
757
102
{ACAD_REACTORS
330
566
102
}
330
566
100
AcDbPlotSettings
  1
A3(1倍)
  2
\\AWTECPC05\HP DeskJet 1120C
  4
A3
  6

 40
5.95841646
 41
13.49375153
 42
6.04309082
 43
3.67242432
 44
296.92599487
 45
419.94665527
 46
37.46
 47
52.89
 48
0.0
 49
0.0
140
0.0
141
0.0
142
1.0
143
1.0
 70
  1716
 72
     1
 73
     1
 74
     2
  7
big.ctb
 75
    16
147
1.0
148
0.0
149
0.0
  0
PLOTSETTINGS
  5
707
102
{ACAD_REACTORS
330
566
102
}
330
566
100
AcDbPlotSettings
  1
A3(1倍)(2000)
  2
SII LS-1300 (D-SCAN)
  4
User258
  6

 40
3.17499995
 41
3.17499995
 42
3.17498779
 43
3.17498779
 44
419.98898315
 45
296.98950195
 46
58.32
 47
40.32
 48
0.0
 49
0.0
140
0.0
141
0.0
142
1.0
143
1.0
 70
  1716
 72
     1
 73
     0
 74
     2
  7
big.ctb
 75
    16
147
1.0
148
0.0
149
0.0
  0
PLOTSETTINGS
  5
759
102
{ACAD_REACTORS
330
566
102
}
330
566
100
AcDbPlotSettings
  1
A3(2倍)
  2
\\AWTECPC05\HP DeskJet 1120C
  4
A3
  6

 40
5.95841646
 41
13.49375153
 42
6.04309082
 43
3.67242432
 44
296.92599487
 45
419.94665527
 46
-67.54
 47
-95.61
 48
0.0
 49
0.0
140
0.0
141
0.0
142
1.0
143
0.5
 70
  1716
 72
     1
 73
     1
 74
     2
  7
big.ctb
 75
    27
147
2.0
148
0.0
149
0.0
  0
PLOTSETTINGS
  5
755
102
{ACAD_REACTORS
330
566
102
}
330
566
100
AcDbPlotSettings
  1
A4(0.5倍)
  2
\\AWTECPC05\HP DeskJet 1120C
  4
A4
  6

 40
4.18041658
 41
13.49374962
 42
4.18040466
 43
3.92642212
 44
209.97332764
 45
296.92599487
 46
48.31
 47
65.5
 48
0.0
 49
0.0
140
0.0
141
0.0
142
1.0
143
2.0
 70
  1716
 72
     1
 73
     1
 74
     2
  7
big.ctb
 75
    17
147
0.5
148
0.0
149
0.0
  0
PLOTSETTINGS
  5
754
102
{ACAD_REACTORS
330
566
102
}
330
566
100
AcDbPlotSettings
  1
A4(1倍)
  2
\\AWTECPC05\HP DeskJet 1120C
  4
A4
  6

 40
4.18041658
 41
13.49374962
 42
4.18040466
 43
3.92642212
 44
209.97332764
 45
296.92599487
 46
-4.19
 47
-8.75
 48
0.0
 49
0.0
140
0.0
141
0.0
142
1.0
143
1.0
 70
  1716
 72
     1
 73
     1
 74
     2
  7
big.ctb
 75
    16
147
1.0
148
0.0
149
0.0
  0
PLOTSETTINGS
  5
708
102
{ACAD_REACTORS
330
566
102
}
330
566
100
AcDbPlotSettings
  1
A4(1倍)(2000)
  2
SII LS-1300 (D-SCAN)
  4
User259
  6

 40
3.17499995
 41
3.17499995
 42
3.17498779
 43
3.17500305
 44
296.98950195
 45
209.99449158
 46
-3.18
 47
-3.18
 48
0.0
 49
0.0
140
0.0
141
0.0
142
1.0
143
1.0
 70
  1716
 72
     1
 73
     0
 74
     2
  7
big.ctb
 75
    16
147
1.0
148
0.0
149
0.0
  0
PLOTSETTINGS
  5
756
102
{ACAD_REACTORS
330
566
102
}
330
566
100
AcDbPlotSettings
  1
A4(2倍)
  2
\\AWTECPC05\HP DeskJet 1120C
  4
A4
  6

 40
4.18041658
 41
13.49374962
 42
4.18040466
 43
3.92642212
 44
209.97332764
 45
296.92599487
 46
-109.19
 47
-157.25
 48
0.0
 49
0.0
140
0.0
141
0.0
142
1.0
143
0.5
 70
  1716
 72
     1
 73
     1
 74
     2
  7
big.ctb
 75
    27
147
2.0
148
0.0
149
0.0
  0
ACDBPLACEHOLDER
  5
564
102
{ACAD_REACTORS
330
563
102
}
330
563
100
AcDbPlaceHolder
280
     0
  0
XRECORD
  5
1292
102
{ACAD_REACTORS
330
1288
102
}
330
1288
100
AcDbXrecord
 90
        0
  0
XRECORD
  5
1296
102
{ACAD_REACTORS
330
1288
102
}
330
1288
100
AcDbXrecord
1000
DSTYLE
1002
{
1070
    79
 70
     2
1070
   179
 70
     3
1070
   341
340
594
1070
   343
340
594
1070
   344
340
594
1070
   371
 70
    -1
1070
   372
 70
    -1
1002
}
  0
XRECORD
  5
1293
102
{ACAD_REACTORS
330
1288
102
}
330
1288
100
AcDbXrecord
  1
{51294030-9CB4-11D3-8E18-00A0C925D94D}
  0
XRECORD
  5
128B
102
{ACAD_REACTORS
330
1288
102
}
330
1288
100
AcDbXrecord
  1

  0
XRECORD
  5
1291
102
{ACAD_REACTORS
330
1288
102
}
330
1288
100
AcDbXrecord
 90
        0
  0
XRECORD
  5
128D
102
{ACAD_REACTORS
330
1288
102
}
330
1288
100
AcDbXrecord
340
565
  0
XRECORD
  5
1290
102
{ACAD_REACTORS
330
1288
102
}
330
1288
100
AcDbXrecord
 90
    10781
  0
XRECORD
  5
128E
102
{ACAD_REACTORS
330
1288
102
}
330
1288
100
AcDbXrecord
340
566
  0
XRECORD
  5
128F
102
{ACAD_REACTORS
330
1288
102
}
330
1288
100
AcDbXrecord
340
563
  0
XRECORD
  5
1295
102
{ACAD_REACTORS
330
1288
102
}
330
1288
100
AcDbXrecord
 40
0.0
  0
XRECORD
  5
1299
102
{ACAD_REACTORS
330
1288
102
}
330
1288
100
AcDbXrecord
340
0
  0
XRECORD
  5
129F
102
{ACAD_REACTORS
330
1288
102
}
330
1288
100
AcDbXrecord
 10
0.0
 20
0.0
 30
0.0
  0
XRECORD
  5
129B
102
{ACAD_REACTORS
330
1288
102
}
330
1288
100
AcDbXrecord
 10
0.0
 20
0.0
 30
0.0
  0
XRECORD
  5
129E
102
{ACAD_REACTORS
330
1288
102
}
330
1288
100
AcDbXrecord
 10
0.0
 20
0.0
 30
0.0
  0
XRECORD
  5
129C
102
{ACAD_REACTORS
330
1288
102
}
330
1288
100
AcDbXrecord
 10
0.0
 20
0.0
 30
0.0
  0
XRECORD
  5
129D
102
{ACAD_REACTORS
330
1288
102
}
330
1288
100
AcDbXrecord
 10
0.0
 20
0.0
 30
0.0
  0
XRECORD
  5
129A
102
{ACAD_REACTORS
330
1288
102
}
330
1288
100
AcDbXrecord
 10
0.0
 20
0.0
 30
0.0
  0
XRECORD
  5
1297
102
{ACAD_REACTORS
330
1288
102
}
330
1288
100
AcDbXrecord
340
0
  0
XRECORD
  5
1298
102
{ACAD_REACTORS
330
1288
102
}
330
1288
100
AcDbXrecord
 70
     0
  0
XRECORD
  5
128C
102
{ACAD_REACTORS
330
1288
102
}
330
1288
100
AcDbXrecord
  1
big.ctb
  0
XRECORD
  5
1289
102
{ACAD_REACTORS
330
1288
102
}
330
1288
100
AcDbXrecord
 90
        1
  0
XRECORD
  5
128A
102
{ACAD_REACTORS
330
1288
102
}
330
1288
100
AcDbXrecord
 90
       70
  0
XRECORD
  5
12A2
102
{ACAD_REACTORS
330
1288
102
}
330
1288
100
AcDbXrecord
340
0
  0
XRECORD
  5
12A8
102
{ACAD_REACTORS
330
1288
102
}
330
1288
100
AcDbXrecord
 10
0.0
 20
0.0
 30
0.0
  0
XRECORD
  5
12A4
102
{ACAD_REACTORS
330
1288
102
}
330
1288
100
AcDbXrecord
 10
0.0
 20
0.0
 30
0.0
  0
XRECORD
  5
12A7
102
{ACAD_REACTORS
330
1288
102
}
330
1288
100
AcDbXrecord
 10
0.0
 20
0.0
 30
0.0
  0
XRECORD
  5
12A5
102
{ACAD_REACTORS
330
1288
102
}
330
1288
100
AcDbXrecord
 10
0.0
 20
0.0
 30
0.0
  0
XRECORD
  5
12A6
102
{ACAD_REACTORS
330
1288
102
}
330
1288
100
AcDbXrecord
 10
0.0
 20
0.0
 30
0.0
  0
XRECORD
  5
12A3
102
{ACAD_REACTORS
330
1288
102
}
330
1288
100
AcDbXrecord
 10
0.0
 20
0.0
 30
0.0
  0
XRECORD
  5
12A0
102
{ACAD_REACTORS
330
1288
102
}
330
1288
100
AcDbXrecord
340
0
  0
XRECORD
  5
12A1
102
{ACAD_REACTORS
330
1288
102
}
330
1288
100
AcDbXrecord
 70
     0
  0
XRECORD
  5
1294
102
{ACAD_REACTORS
330
1288
102
}
330
1288
100
AcDbXrecord
  1
{7BA4F85C-1C70-48D5-B2C1-E97EF1E8716C}
  0
DICTIONARYVAR
  5
A4D
102
{ACAD_REACTORS
330
A4C
102
}
330
A4C
100
DictionaryVariables
280
     0
  1
96
  0
XRECORD
  5
560
102
{ACAD_REACTORS
330
540
102
}
330
540
100
AcDbXrecord
  1
2.0.0
  0
ENDSEC
  0
EOF
