  0
SECTION
  2
HEADER
  9
$ACADVER
  1
AC1014
  9
$ACADMAINTVER
 70
     9
  9
$DWGCODEPAGE
  3
ANSI_932
  9
$INSBASE
 10
0.0
 20
0.0
 30
0.0
  9
$EXTMIN
 10
-25.01357929
 20
-21.00970385
 30
-0.00152582
  9
$EXTMAX
 10
67.02705446
 20
57.50042771
 30
0.00000003
  9
$LIMMIN
 10
0.0
 20
0.0
  9
$LIMMAX
 10
420.0
 20
297.0
  9
$ORTHOMODE
 70
     1
  9
$REGENMODE
 70
     1
  9
$FILLMODE
 70
     1
  9
$QTEXTMODE
 70
     0
  9
$MIRRTEXT
 70
     1
  9
$DRAGMODE
 70
     2
  9
$LTSCALE
 40
10.0
  9
$OSMODE
 70
   549
  9
$ATTMODE
 70
     1
  9
$TEXTSIZE
 40
3.0
  9
$TRACEWID
 40
1.0
  9
$TEXTSTYLE
  7
YOKO
  9
$CLAYER
  8
245
  9
$CELTYPE
  6
BYLAYER
  9
$CECOLOR
 62
   256
  9
$CELTSCALE
 40
1.0
  9
$DELOBJ
 70
     1
  9
$DISPSILH
 70
     0
  9
$DIMSCALE
 40
1.0
  9
$DIMASZ
 40
2.0
  9
$DIMEXO
 40
2.0
  9
$DIMDLI
 40
2.5
  9
$DIMRND
 40
0.0
  9
$DIMDLE
 40
0.0
  9
$DIMEXE
 40
2.0
  9
$DIMTP
 40
0.0
  9
$DIMTM
 40
0.0
  9
$DIMTXT
 40
4.0
  9
$DIMCEN
 40
0.0
  9
$DIMTSZ
 40
0.0
  9
$DIMTOL
 70
     0
  9
$DIMLIM
 70
     0
  9
$DIMTIH
 70
     0
  9
$DIMTOH
 70
     0
  9
$DIMSE1
 70
     0
  9
$DIMSE2
 70
     0
  9
$DIMTAD
 70
     3
  9
$DIMZIN
 70
     8
  9
$DIMBLK
  1

  9
$DIMASO
 70
     1
  9
$DIMSHO
 70
     1
  9
$DIMPOST
  1

  9
$DIMAPOST
  1

  9
$DIMALT
 70
     0
  9
$DIMALTD
 70
     2
  9
$DIMALTF
 40
25.4
  9
$DIMLFAC
 40
1.0
  9
$DIMTOFL
 70
     1
  9
$DIMTVP
 40
0.0
  9
$DIMTIX
 70
     1
  9
$DIMSOXD
 70
     0
  9
$DIMSAH
 70
     1
  9
$DIMBLK1
  1
OPEN
  9
$DIMBLK2
  1
OPEN
  9
$DIMSTYLE
  2
BIGT
  9
$DIMCLRD
 70
   256
  9
$DIMCLRE
 70
   256
  9
$DIMCLRT
 70
    40
  9
$DIMTFAC
 40
1.0
  9
$DIMGAP
 40
1.0
  9
$DIMJUST
 70
     0
  9
$DIMSD1
 70
     0
  9
$DIMSD2
 70
     0
  9
$DIMTOLJ
 70
     1
  9
$DIMTZIN
 70
     8
  9
$DIMALTZ
 70
     0
  9
$DIMALTTZ
 70
     0
  9
$DIMFIT
 70
     3
  9
$DIMUPT
 70
     0
  9
$DIMUNIT
 70
     2
  9
$DIMDEC
 70
     3
  9
$DIMTDEC
 70
     3
  9
$DIMALTU
 70
     2
  9
$DIMALTTD
 70
     2
  9
$DIMTXSTY
  7
STANDARD
  9
$DIMAUNIT
 70
     0
  9
$LUNITS
 70
     2
  9
$LUPREC
 70
     3
  9
$SKETCHINC
 40
1.0
  9
$FILLETRAD
 40
1.5
  9
$AUNITS
 70
     0
  9
$AUPREC
 70
     3
  9
$MENU
  1
.
  9
$ELEVATION
 40
0.0
  9
$PELEVATION
 40
0.0
  9
$THICKNESS
 40
0.0
  9
$LIMCHECK
 70
     0
  9
$BLIPMODE
 70
     0
  9
$CHAMFERA
 40
10.0
  9
$CHAMFERB
 40
10.0
  9
$CHAMFERC
 40
0.0
  9
$CHAMFERD
 40
0.0
  9
$SKPOLY
 70
     0
  9
$TDCREATE
 40
2454966.437148067
  9
$TDUPDATE
 40
2455209.378481435
  9
$TDINDWG
 40
0.0397451968
  9
$TDUSRTIMER
 40
0.0397451968
  9
$USRTIMER
 70
     1
  9
$ANGBASE
 50
0.0
  9
$ANGDIR
 70
     0
  9
$PDMODE
 70
    35
  9
$PDSIZE
 40
-5.0
  9
$PLINEWID
 40
0.0
  9
$COORDS
 70
     2
  9
$SPLFRAME
 70
     0
  9
$SPLINETYPE
 70
     6
  9
$SPLINESEGS
 70
     8
  9
$ATTDIA
 70
     0
  9
$ATTREQ
 70
     1
  9
$HANDLING
 70
-16383
  9
$HANDSEED
  5
11DF
  9
$SURFTAB1
 70
     6
  9
$SURFTAB2
 70
     6
  9
$SURFTYPE
 70
     6
  9
$SURFU
 70
     6
  9
$SURFV
 70
     6
  9
$UCSNAME
  2

  9
$UCSORG
 10
0.0
 20
0.0
 30
0.0
  9
$UCSXDIR
 10
1.0
 20
0.0
 30
0.0
  9
$UCSYDIR
 10
0.0
 20
1.0
 30
0.0
  9
$PUCSNAME
  2

  9
$PUCSORG
 10
0.0
 20
0.0
 30
0.0
  9
$PUCSXDIR
 10
1.0
 20
0.0
 30
0.0
  9
$PUCSYDIR
 10
0.0
 20
1.0
 30
0.0
  9
$USERI1
 70
     1
  9
$USERI2
 70
     0
  9
$USERI3
 70
     0
  9
$USERI4
 70
     0
  9
$USERI5
 70
     0
  9
$USERR1
 40
0.0
  9
$USERR2
 40
0.0
  9
$USERR3
 40
0.0
  9
$USERR4
 40
0.0
  9
$USERR5
 40
0.0
  9
$WORLDVIEW
 70
     1
  9
$SHADEDGE
 70
     3
  9
$SHADEDIF
 70
    70
  9
$TILEMODE
 70
     1
  9
$MAXACTVP
 70
    16
  9
$PINSBASE
 10
0.0
 20
0.0
 30
0.0
  9
$PLIMCHECK
 70
     0
  9
$PEXTMIN
 10
1.00000000E+20
 20
1.00000000E+20
 30
1.00000000E+20
  9
$PEXTMAX
 10
-1.00000000E+20
 20
-1.00000000E+20
 30
-1.00000000E+20
  9
$PLIMMIN
 10
0.0
 20
0.0
  9
$PLIMMAX
 10
420.0
 20
297.0
  9
$UNITMODE
 70
     0
  9
$VISRETAIN
 70
     0
  9
$PLINEGEN
 70
     0
  9
$PSLTSCALE
 70
     1
  9
$TREEDEPTH
 70
  3020
  9
$PICKSTYLE
 70
     0
  9
$CMLSTYLE
  2
STANDARD
  9
$CMLJUST
 70
     0
  9
$CMLSCALE
 40
1.0
  9
$PROXYGRAPHICS
 70
     1
  9
$MEASUREMENT
 70
     1
  0
ENDSEC
  0
SECTION
  2
CLASSES
  0
CLASS
  1
XRECORD
  2
AcDbXrecord
  3
AutoCAD 2000
 90
        0
280
     0
281
     0
  0
CLASS
  1
ACDBDICTIONARYWDFLT
  2
AcDbDictionaryWithDefault
  3
AutoCAD 2000
 90
        0
280
     0
281
     0
  0
CLASS
  1
ACDBPLACEHOLDER
  2
AcDbPlaceHolder
  3
AutoCAD 2000
 90
        0
280
     0
281
     0
  0
CLASS
  1
LAYOUT
  2
AcDbLayout
  3
AutoCAD 2000
 90
        0
280
     0
281
     0
  0
CLASS
  1
PLOTSETTINGS
  2
AcDbPlotSettings
  3
AutoCAD 2000
 90
        0
280
     0
281
     0
  0
CLASS
  1
LONG_TRANSACTION
  2
AcDbLongTransaction
  3
AutoCAD 2000
 90
        0
280
     0
281
     0
  0
CLASS
  1
LWPOLYLINE
  2
AcDbPolyline
  3
AutoCAD 2000
 90
        0
280
     0
281
     1
  0
CLASS
  1
HATCH
  2
AcDbHatch
  3
AutoCAD 2000
 90
        0
280
     0
281
     1
  0
CLASS
  1
XRECORD
  2
AcDbXrecord
  3
AutoCAD 2000
 90
        0
280
     0
281
     0
  0
CLASS
  1
LONG_TRANSACTION
  2
AcDbLongTransaction
  3
AutoCAD 2000
 90
        0
280
     0
281
     0
  0
CLASS
  1
LWPOLYLINE
  2
AcDbPolyline
  3
AutoCAD 2000
 90
        0
280
     0
281
     1
  0
CLASS
  1
HATCH
  2
AcDbHatch
  3
AutoCAD 2000
 90
        0
280
     0
281
     1
  0
CLASS
  1
XRECORD
  2
AcDbXrecord
  3
AutoCAD 2000
 90
        0
280
     0
281
     0
  0
CLASS
  1
LONG_TRANSACTION
  2
AcDbLongTransaction
  3
AutoCAD 2000
 90
        0
280
     0
281
     0
  0
CLASS
  1
LWPOLYLINE
  2
AcDbPolyline
  3
AutoCAD 2000
 90
        0
280
     0
281
     1
  0
CLASS
  1
HATCH
  2
AcDbHatch
  3
AutoCAD 2000
 90
        0
280
     0
281
     1
  0
CLASS
  1
XRECORD
  2
AcDbXrecord
  3
AutoCAD 2000
 90
        0
280
     0
281
     0
  0
CLASS
  1
LONG_TRANSACTION
  2
AcDbLongTransaction
  3
AutoCAD 2000
 90
        0
280
     0
281
     0
  0
CLASS
  1
LWPOLYLINE
  2
AcDbPolyline
  3
AutoCAD 2000
 90
        0
280
     0
281
     1
  0
CLASS
  1
HATCH
  2
AcDbHatch
  3
AutoCAD 2000
 90
        0
280
     0
281
     1
  0
CLASS
  1
XRECORD
  2
AcDbXrecord
  3
AutoCAD 2000
 90
        0
280
     0
281
     0
  0
CLASS
  1
LONG_TRANSACTION
  2
AcDbLongTransaction
  3
AutoCAD 2000
 90
        0
280
     0
281
     0
  0
CLASS
  1
LWPOLYLINE
  2
AcDbPolyline
  3
AutoCAD 2000
 90
        0
280
     0
281
     1
  0
CLASS
  1
HATCH
  2
AcDbHatch
  3
AutoCAD 2000
 90
        0
280
     0
281
     1
  0
CLASS
  1
XRECORD
  2
AcDbXrecord
  3
AutoCAD 2000
 90
        0
280
     0
281
     0
  0
CLASS
  1
LONG_TRANSACTION
  2
AcDbLongTransaction
  3
AutoCAD 2000
 90
        0
280
     0
281
     0
  0
CLASS
  1
LWPOLYLINE
  2
AcDbPolyline
  3
AutoCAD 2000
 90
        0
280
     0
281
     1
  0
CLASS
  1
HATCH
  2
AcDbHatch
  3
AutoCAD 2000
 90
        0
280
     0
281
     1
  0
CLASS
  1
XRECORD
  2
AcDbXrecord
  3
AutoCAD 2000
 90
        0
280
     0
281
     0
  0
CLASS
  1
LONG_TRANSACTION
  2
AcDbLongTransaction
  3
AutoCAD 2000
 90
        0
280
     0
281
     0
  0
CLASS
  1
LWPOLYLINE
  2
AcDbPolyline
  3
AutoCAD 2000
 90
        0
280
     0
281
     1
  0
CLASS
  1
HATCH
  2
AcDbHatch
  3
AutoCAD 2000
 90
        0
280
     0
281
     1
  0
CLASS
  1
XRECORD
  2
AcDbXrecord
  3
AutoCAD 2000
 90
        0
280
     0
281
     0
  0
CLASS
  1
LONG_TRANSACTION
  2
AcDbLongTransaction
  3
AutoCAD 2000
 90
        0
280
     0
281
     0
  0
CLASS
  1
LWPOLYLINE
  2
AcDbPolyline
  3
AutoCAD 2000
 90
        0
280
     0
281
     1
  0
CLASS
  1
HATCH
  2
AcDbHatch
  3
AutoCAD 2000
 90
        0
280
     0
281
     1
  0
CLASS
  1
XRECORD
  2
AcDbXrecord
  3
AutoCAD 2000
 90
        0
280
     0
281
     0
  0
ENDSEC
  0
SECTION
  2
TABLES
  0
TABLE
  2
VPORT
  5
8
330
0
100
AcDbSymbolTable
 70
     2
  0
VPORT
  5
11BA
330
8
100
AcDbSymbolTableRecord
100
AcDbViewportTableRecord
  2
*ACTIVE
 70
     0
 10
0.0
 20
0.0
 11
1.0
 21
1.0
 12
21.00673759
 22
18.24536193
 13
0.0
 23
0.0
 14
7.0
 24
7.0
 15
7.0
 25
7.0
 16
0.0
 26
0.0
 36
1.0
 17
0.0
 27
0.0
 37
0.0
 40
79.10944554
 41
1.43184713
 42
50.0
 43
0.0
 44
0.0
 50
0.0
 51
0.0
 71
     0
 72
  2000
 73
     1
 74
     0
 75
     0
 76
     0
 77
     0
 78
     0
  0
ENDTAB
  0
TABLE
  2
LTYPE
  5
5
330
0
100
AcDbSymbolTable
 70
     3
  0
LTYPE
  5
14
330
5
100
AcDbSymbolTableRecord
100
AcDbLinetypeTableRecord
  2
BYBLOCK
 70
     0
  3

 72
    65
 73
     0
 40
0.0
  0
LTYPE
  5
15
330
5
100
AcDbSymbolTableRecord
100
AcDbLinetypeTableRecord
  2
BYLAYER
 70
     0
  3

 72
    65
 73
     0
 40
0.0
  0
LTYPE
  5
16
330
5
100
AcDbSymbolTableRecord
100
AcDbLinetypeTableRecord
  2
CONTINUOUS
 70
     0
  3
Solid line
 72
    65
 73
     0
 40
0.0
  0
LTYPE
  5
258
330
5
100
AcDbSymbolTableRecord
100
AcDbLinetypeTableRecord
  2
CENTER2
 70
     0
  3
___ _ ___ _ ___ _ ___ _ ___ _ ___ _ ___ _ ___ _
 72
    65
 73
     4
 40
1.125
 49
0.75
 74
     0
 49
-0.125
 74
     0
 49
0.125
 74
     0
 49
-0.125
 74
     0
  0
LTYPE
  5
25C
330
5
100
AcDbSymbolTableRecord
100
AcDbLinetypeTableRecord
  2
HIDDEN2
 70
     0
  3
_ _ _ _ _ _ _ _ _ _ _ _ _ _ _ _ _ _ _ _ _ _ _ _
 72
    65
 73
     2
 40
0.1875
 49
0.125
 74
     0
 49
-0.0625
 74
     0
  0
ENDTAB
  0
TABLE
  2
LAYER
  5
2
330
0
100
AcDbSymbolTable
 70
    10
  0
LAYER
  5
F
330
2
100
AcDbSymbolTableRecord
100
AcDbLayerTableRecord
  2
0
 70
     0
 62
     7
  6
CONTINUOUS
  0
LAYER
  5
1AA
330
2
100
AcDbSymbolTableRecord
100
AcDbLayerTableRecord
  2
240
 70
     0
 62
     4
  6
CONTINUOUS
  0
LAYER
  5
1AB
330
2
100
AcDbSymbolTableRecord
100
AcDbLayerTableRecord
  2
241
 70
     0
 62
   211
  6
CONTINUOUS
  0
LAYER
  5
1AF
330
2
100
AcDbSymbolTableRecord
100
AcDbLayerTableRecord
  2
245
 70
     0
 62
     2
  6
CENTER2
  0
LAYER
  5
21E
330
2
100
AcDbSymbolTableRecord
100
AcDbLayerTableRecord
  2
250
 70
     0
 62
     3
  6
CONTINUOUS
  0
LAYER
  5
21F
330
2
100
AcDbSymbolTableRecord
100
AcDbLayerTableRecord
  2
251
 70
     0
 62
    40
  6
CONTINUOUS
  0
LAYER
  5
5C4
330
2
100
AcDbSymbolTableRecord
100
AcDbLayerTableRecord
  2
DEFPOINTS
 70
     0
 62
     7
  6
CONTINUOUS
  0
LAYER
  5
AF9
330
2
100
AcDbSymbolTableRecord
100
AcDbLayerTableRecord
  2
242
 70
     0
 62
     3
  6
CONTINUOUS
  0
ENDTAB
  0
TABLE
  2
STYLE
  5
3
330
0
100
AcDbSymbolTable
 70
     2
  0
STYLE
  5
10
330
3
100
AcDbSymbolTableRecord
100
AcDbTextStyleTableRecord
  2
STANDARD
 70
     0
 40
0.0
 41
1.0
 50
0.0
 71
     0
 42
3.0
  3
romans.shx
  4
BIGFONT.SHX
  0
STYLE
  5
339
330
3
100
AcDbSymbolTableRecord
100
AcDbTextStyleTableRecord
  2
YOKO
 70
     0
 40
0.0
 41
1.0
 50
0.0
 71
     0
 42
3.0
  3
romans.shx
  4
extfont.shx
  0
ENDTAB
  0
TABLE
  2
VIEW
  5
6
330
0
100
AcDbSymbolTable
 70
     1
  0
VIEW
  5
B6D
330
6
100
AcDbSymbolTableRecord
100
AcDbViewTableRecord
  2
OLE1
 70
     0
 40
82.65421366
 10
22.00828635
 20
20.00431884
 41
118.34819893
 11
0.0
 21
0.0
 31
1.0
 12
0.0
 22
0.0
 32
0.0
 42
50.0
 43
0.0
 44
0.0
 50
0.0
 71
     0
  0
ENDTAB
  0
TABLE
  2
UCS
  5
7
330
0
100
AcDbSymbolTable
 70
     0
  0
ENDTAB
  0
TABLE
  2
APPID
  5
9
330
0
100
AcDbSymbolTable
 70
     9
  0
APPID
  5
11
330
9
100
AcDbSymbolTableRecord
100
AcDbRegAppTableRecord
  2
ACAD
 70
     0
  0
APPID
  5
1B1
330
9
100
AcDbSymbolTableRecord
100
AcDbRegAppTableRecord
  2
GLOBAL
 70
     0
  0
APPID
  5
2A4
330
9
100
AcDbSymbolTableRecord
100
AcDbRegAppTableRecord
  2
DETAIL
 70
     0
  0
APPID
  5
5FD
330
9
100
AcDbSymbolTableRecord
100
AcDbRegAppTableRecord
  2
GRPNAME
 70
     0
  0
APPID
  5
5FE
330
9
100
AcDbSymbolTableRecord
100
AcDbRegAppTableRecord
  2
GPARA
 70
     0
  0
APPID
  5
6C4
330
9
100
AcDbSymbolTableRecord
100
AcDbRegAppTableRecord
  2
DCO15
 70
     0
  0
APPID
  5
6C5
330
9
100
AcDbSymbolTableRecord
100
AcDbRegAppTableRecord
  2
ITEMNAME
 70
     0
  0
APPID
  5
6C6
330
9
100
AcDbSymbolTableRecord
100
AcDbRegAppTableRecord
  2
GRADE_0
 70
     0
  0
APPID
  5
953
330
9
100
AcDbSymbolTableRecord
100
AcDbRegAppTableRecord
  2
CONTENTBLOCKICON
 70
     0
  0
ENDTAB
  0
TABLE
  2
DIMSTYLE
  5
A
330
0
100
AcDbSymbolTable
 70
     5
  0
DIMSTYLE
105
725
330
A
100
AcDbSymbolTableRecord
100
AcDbDimStyleTableRecord
  2
BIGT
 70
     0
  3

  4

  5

  6
OPEN
  7
OPEN
 40
1.0
 41
2.23
 42
0.5
 43
2.5
 44
1.0
 45
0.0
 46
0.0
 47
0.0
 48
0.0
140
2.8
141
0.0
142
0.0
143
25.4
144
1.0
145
0.0
146
1.0
147
1.0
 71
     0
 72
     0
 73
     0
 74
     0
 75
     0
 76
     0
 77
     3
 78
     8
170
     0
171
     2
172
     1
173
     1
174
     1
175
     0
176
   256
177
   256
178
    40
270
     2
271
     3
272
     3
273
     2
274
     2
340
10
275
     0
280
     0
281
     0
282
     0
283
     1
284
     8
285
     0
286
     0
287
     3
288
     0
  0
DIMSTYLE
105
791
102
{ACAD_REACTORS
330
7E2
330
9CF
330
ADF
330
10E3
330
1107
102
}
330
A
100
AcDbSymbolTableRecord
100
AcDbDimStyleTableRecord
  2
BIGT$0
 70
     0
  3

  4
"
  5
OPEN
  6

  7

 40
1.0
 41
2.23
 42
0.5
 43
7.0
 44
1.0
 45
0.0
 46
0.0
 47
0.1
 48
0.1
140
3.0
141
0.0
142
0.0
143
0.0393701
144
1.0
145
0.0
146
0.71
147
1.0
 71
     0
 72
     0
 73
     0
 74
     0
 75
     0
 76
     0
 77
     3
 78
     8
170
     0
171
     2
172
     1
173
     0
174
     0
175
     0
176
     3
177
     3
178
    40
270
     2
271
     3
272
     3
273
     2
274
     2
340
10
275
     0
280
     0
281
     0
282
     0
283
     1
284
     8
285
     0
286
     0
287
     3
288
     0
  0
ENDTAB
  0
TABLE
  2
BLOCK_RECORD
  5
1
330
0
100
AcDbSymbolTable
 70
    16
  0
BLOCK_RECORD
  5
1A
102
{ACAD_XDICTIONARY
360
951
102
}
330
1
100
AcDbSymbolTableRecord
100
AcDbBlockTableRecord
  2
*MODEL_SPACE
  0
BLOCK_RECORD
  5
17
102
{ACAD_XDICTIONARY
360
94F
102
}
330
1
100
AcDbSymbolTableRecord
100
AcDbBlockTableRecord
  2
*PAPER_SPACE
  0
BLOCK_RECORD
  5
594
330
1
100
AcDbSymbolTableRecord
100
AcDbBlockTableRecord
  2
_OPEN
  0
BLOCK_RECORD
  5
6E3
330
1
100
AcDbSymbolTableRecord
100
AcDbBlockTableRecord
  2
矢印なし
  0
BLOCK_RECORD
  5
76C
330
1
100
AcDbSymbolTableRecord
100
AcDbBlockTableRecord
  2
_NONE
  0
BLOCK_RECORD
  5
824
330
1
100
AcDbSymbolTableRecord
100
AcDbBlockTableRecord
  2
*D3
  0
BLOCK_RECORD
  5
8C2
330
1
100
AcDbSymbolTableRecord
100
AcDbBlockTableRecord
  2
1
1001
CONTENTBLOCKICON
1071
        0
1004
2800000020000000200000000100080000000000000400000000000000000000000000000000000000000000000080000080000000808000800000008000800080800000C0C0C000C0DCC000F0CAA6000020400000206000002080000020A0000020C0000020E00000400000004020000040400000406000004080000040A0
1004
000040C0000040E00000600000006020000060400000606000006080000060A0000060C0000060E00000800000008020000080400000806000008080000080A0000080C0000080E00000A0000000A0200000A0400000A0600000A0800000A0A00000A0C00000A0E00000C0000000C0200000C0400000C0600000C0800000C0
1004
A00000C0C00000C0E00000E0000000E0200000E0400000E0600000E0800000E0A00000E0C00000E0E00040000000400020004000400040006000400080004000A0004000C0004000E00040200000402020004020400040206000402080004020A0004020C0004020E000404000004040200040404000404060004040800040
1004
40A0004040C0004040E00040600000406020004060400040606000406080004060A0004060C0004060E00040800000408020004080400040806000408080004080A0004080C0004080E00040A0000040A0200040A0400040A0600040A0800040A0A00040A0C00040A0E00040C0000040C0200040C0400040C0600040C08000
1004
40C0A00040C0C00040C0E00040E0000040E0200040E0400040E0600040E0800040E0A00040E0C00040E0E00080000000800020008000400080006000800080008000A0008000C0008000E00080200000802020008020400080206000802080008020A0008020C0008020E00080400000804020008040400080406000804080
1004
008040A0008040C0008040E00080600000806020008060400080606000806080008060A0008060C0008060E00080800000808020008080400080806000808080008080A0008080C0008080E00080A0000080A0200080A0400080A0600080A0800080A0A00080A0C00080A0E00080C0000080C0200080C0400080C0600080C0
1004
800080C0A00080C0C00080C0E00080E0000080E0200080E0400080E0600080E0800080E0A00080E0C00080E0E000C0000000C0002000C0004000C0006000C0008000C000A000C000C000C000E000C0200000C0202000C0204000C0206000C0208000C020A000C020C000C020E000C0400000C0402000C0404000C0406000C0
1004
408000C040A000C040C000C040E000C0600000C0602000C0604000C0606000C0608000C060A000C060C000C060E000C0800000C0802000C0804000C0806000C0808000C080A000C080C000C080E000C0A00000C0A02000C0A04000C0A06000C0A08000C0A0A000C0A0C000C0A0E000C0C00000C0C02000C0C04000C0C06000
1004
C0C08000C0C0A000F0FBFF00A4A0A000808080000000FF0000FF000000FFFF00FF000000FF00FF00FFFF0000FFFFFF0000000000000000000000000000000000000000000000000000000000000000000000000000000000000000000000000000000000000000000000000000000000000000000000000000000000000000
1004
00000000000000000000000000000000000000000000000000000000000000000000000000000000000000000000000000000000000000000000000000000000000000000000000000000000000000000000000000000000000000000000000000000000000000000000000000000000000000000000000000000000000000
1004
00000000000000000000000000000000000000000000000000000000000000000000000000000000000000000000000000000000000000000000000000FEFEE7E7FEFEFEFE000000000000000000000000000000000000000000000000FE00E7E7E70000FE000000000000000000000000000000000000000000000000FE00
1004
E7E7E70000FEFEFEFEFEFEFEFEFEFEFEFE00000000FAFAFAFEFEFEFEFEFEFE00E7E7E70000E7FEFEE7E7000000000000FE00000000E700000000000000E7E700E7E7E70000E7E7E7E7E7000000000000FE00000000E700000000000000E7E700E7E7000000E7E7E7E7E7000000000000FE00000000E700000000000000E7E7
1004
000000000000E7E7E7E7E7000000000000FE00000000E700000000000000E7E7000000000000E7E7E7E7E7000000000000FE000000FBFEFBFBFBFBFBFBFBE7E7FBFBFBFBFBFBE7E7E7E7E7FBFBFBFBFBE7FEFB000000FE00000000000000E7E7000000000000E7E7E7E7E7E7E7E7E7E7E7FE00000000FE00000000000000E7
1004
E700E7E7E7E7E7E7E7E7E7E7000000E7E7E7E700000000FE00000000000000E7E700E7E7E70000E7E7E7E7FAFAFAFAE7E700FE00000000FE00000000000000E7E700E7E7E70000E7E7E7E7E7E7E7E7000000FE00000000FEFEFEFEFEFEFEFEFEFE00E7E7E70000FEFEFEFEFEFEFEFEFEFEFEFE000000000000000000000000
1004
00FE00E7E7E70000FE000000000000000000000000000000000000000000000000FEFEE7E7FEFEFEFE0000000000000000000000000000000000000000000000000000000000000000000000000000000000000000000000000000000000000000000000000000000000000000000000000000000000000000000000000000
1004
00000000000000000000000000000000000000000000000000000000000000000000000000000000000000000000000000000000000000000000000000000000000000000000000000000000000000000000000000000000000000000000000000000000000000000000000000000000000000000000000000000000000000
1004
0000000000000000000000000000000000000000000000000000000000000000000000000000000000000000000000000000000000000000
  0
BLOCK_RECORD
  5
9D0
330
1
100
AcDbSymbolTableRecord
100
AcDbBlockTableRecord
  2
*D5
  0
BLOCK_RECORD
  5
AE0
330
1
100
AcDbSymbolTableRecord
100
AcDbBlockTableRecord
  2
*D6
  0
BLOCK_RECORD
  5
1117
330
1
100
AcDbSymbolTableRecord
100
AcDbBlockTableRecord
  2
*D13
  0
BLOCK_RECORD
  5
1123
330
1
100
AcDbSymbolTableRecord
100
AcDbBlockTableRecord
  2
*D14
  0
ENDTAB
  0
ENDSEC
  0
SECTION
  2
BLOCKS
  0
BLOCK
  5
1B
330
1A
100
AcDbEntity
  8
0
100
AcDbBlockBegin
  2
*MODEL_SPACE
 70
     0
 10
0.0
 20
0.0
 30
0.0
  3
*MODEL_SPACE
  1

  0
ENDBLK
  5
1C
330
1A
100
AcDbEntity
  8
0
100
AcDbBlockEnd
  0
BLOCK
  5
18
330
17
100
AcDbEntity
 67
     1
  8
0
100
AcDbBlockBegin
  2
*PAPER_SPACE
 70
     0
 10
0.0
 20
0.0
 30
0.0
  3
*PAPER_SPACE
  1

  0
ENDBLK
  5
19
330
17
100
AcDbEntity
 67
     1
  8
0
100
AcDbBlockEnd
  0
BLOCK
  5
598
330
594
100
AcDbEntity
  8
0
100
AcDbBlockBegin
  2
_OPEN
 70
     0
 10
0.0
 20
0.0
 30
0.0
  3
_OPEN
  1

  0
LINE
  5
595
330
594
100
AcDbEntity
  8
0
  6
BYBLOCK
 62
     0
100
AcDbLine
 10
-1.0
 20
0.16666667
 30
0.0
 11
0.0
 21
0.0
 31
0.0
  0
LINE
  5
596
330
594
100
AcDbEntity
  8
0
  6
BYBLOCK
 62
     0
100
AcDbLine
 10
-1.0
 20
-0.16666667
 30
0.0
 11
0.0
 21
0.0
 31
0.0
  0
LINE
  5
597
330
594
100
AcDbEntity
  8
0
  6
BYBLOCK
 62
     0
100
AcDbLine
 10
0.0
 20
0.0
 30
0.0
 11
-1.0
 21
0.0
 31
0.0
  0
ENDBLK
  5
599
330
594
100
AcDbEntity
  8
0
100
AcDbBlockEnd
  0
BLOCK
  5
6E4
330
6E3
100
AcDbEntity
  8
0
100
AcDbBlockBegin
  2
矢印なし
 70
     0
 10
0.0
 20
0.0
 30
0.0
  3
矢印なし
  1

  0
ENDBLK
  5
6E5
330
6E3
100
AcDbEntity
  8
0
100
AcDbBlockEnd
  0
BLOCK
  5
76D
330
76C
100
AcDbEntity
  8
0
100
AcDbBlockBegin
  2
_NONE
 70
     0
 10
0.0
 20
0.0
 30
0.0
  3
_NONE
  1

  0
ENDBLK
  5
76E
330
76C
100
AcDbEntity
  8
0
100
AcDbBlockEnd
  0
BLOCK
  5
82E
330
824
100
AcDbEntity
  8
0
100
AcDbBlockBegin
  2
*D3
 70
     1
 10
0.0
 20
0.0
 30
0.0
  3
*D3
  1

  0
LINE
  5
E47
330
824
100
AcDbEntity
  8
250
  6
CONTINUOUS
 62
     3
100
AcDbLine
 10
6.0
 20
7.75
 30
0.0
 11
6.0
 21
32.5
 31
0.0
  0
LINE
  5
E48
330
824
100
AcDbEntity
  8
250
  6
CONTINUOUS
 62
     3
100
AcDbLine
 10
50.0
 20
14.79999659
 30
0.0
 11
50.0
 21
32.5
 31
0.0
  0
LINE
  5
E49
330
824
100
AcDbEntity
  8
250
  6
CONTINUOUS
 62
     3
100
AcDbLine
 10
8.23
 20
31.5
 30
0.0
 11
47.77
 21
31.5
 31
0.0
  0
INSERT
  5
E4A
330
824
100
AcDbEntity
  8
250
  6
CONTINUOUS
 62
     3
100
AcDbBlockReference
  2
_OPEN
 10
6.0
 20
31.5
 30
0.0
 41
2.23
 42
2.23
 43
2.23
 50
180.0
  0
INSERT
  5
E4B
330
824
100
AcDbEntity
  8
250
  6
CONTINUOUS
 62
     3
100
AcDbBlockReference
  2
_OPEN
 10
50.0
 20
31.5
 30
0.0
 41
2.23
 42
2.23
 43
2.23
  0
MTEXT
  5
E4C
330
824
100
AcDbEntity
  8
250
  6
CONTINUOUS
 62
    40
100
AcDbMText
 10
28.0
 20
34.0
 30
0.0
 40
3.0
 41
0.0
 71
     5
 72
     1
  1
\A1;（max.44）
1001
ACAD
1000
MTEXTBEGIN
1070
    73
1070
     1
1070
    44
1040
1.0
1070
    74
1070
     0
1000
MTEXTEND
1000
MTEXTBEGIN
1070
    73
1070
     1
1070
    44
1040
1.0
1070
    74
1070
     0
1000
MTEXTEND
1000
MTEXTBEGIN
1070
    73
1070
     1
1070
    44
1040
1.0
1070
    74
1070
     0
1000
MTEXTEND
  0
POINT
  5
E4D
330
824
100
AcDbEntity
  8
DEFPOINTS
  6
CONTINUOUS
 62
     0
100
AcDbPoint
 10
6.0
 20
7.25
 30
0.0
  0
POINT
  5
E4E
330
824
100
AcDbEntity
  8
DEFPOINTS
  6
CONTINUOUS
 62
     0
100
AcDbPoint
 10
50.0
 20
14.29999659
 30
0.0
  0
POINT
  5
E4F
330
824
100
AcDbEntity
  8
DEFPOINTS
  6
CONTINUOUS
 62
     0
100
AcDbPoint
 10
50.0
 20
31.5
 30
0.0
  0
ENDBLK
  5
82F
330
824
100
AcDbEntity
  8
0
100
AcDbBlockEnd
  0
BLOCK
  5
8C3
330
8C2
100
AcDbEntity
  8
0
100
AcDbBlockBegin
  2
1
 70
     0
 10
0.0
 20
0.0
 30
0.0
  3
1
  1

  0
LINE
  5
1157
330
8C2
100
AcDbEntity
  8
240
  6
CONTINUOUS
100
AcDbLine
 10
-22.5
 20
14.39995605
 30
0.0
 11
-1.8
 21
14.91750154
 31
0.0
  0
LINE
  5
1158
330
8C2
100
AcDbEntity
  8
240
  6
CONTINUOUS
100
AcDbLine
 10
-1.8
 20
-13.11750154
 30
0.0
 11
-22.5
 21
-12.59995598
 31
0.0
  0
LINE
  5
1159
330
8C2
100
AcDbEntity
  8
245
  6
CENTER2
100
AcDbLine
 10
51.0
 20
0.0
 30
0.0
 11
-25.0
 21
0.0
 31
0.0
  0
LINE
  5
115A
330
8C2
100
AcDbEntity
  8
242
  6
HIDDEN2
100
AcDbLine
 10
-20.0
 20
-12.66246149
 30
0.0
 11
-20.0
 21
-11.0
 31
0.0
  0
LINE
  5
115B
330
8C2
100
AcDbEntity
  8
242
  6
HIDDEN2
100
AcDbLine
 10
-18.29490745
 20
-12.70509255
 30
0.0
 11
-20.0
 21
-11.0
 31
0.0
  0
LINE
  5
115C
330
8C2
100
AcDbEntity
  8
240
  6
CONTINUOUS
100
AcDbLine
 10
-24.0
 20
-11.73393058
 30
0.0
 11
-24.0
 21
0.0
 31
0.0
  0
LINE
  5
115D
330
8C2
100
AcDbEntity
  8
241
100
AcDbLine
 10
-22.5
 20
-12.59995598
 30
0.0
 11
-22.5
 21
0.0
 31
0.0
  0
LINE
  5
115E
330
8C2
100
AcDbEntity
  8
240
  6
CONTINUOUS
100
AcDbLine
 10
-22.5
 20
-12.59995598
 30
0.0
 11
-24.0
 21
-11.73393058
 31
0.0
  0
LINE
  5
115F
330
8C2
100
AcDbEntity
  8
241
100
AcDbLine
 10
-22.5
 20
0.0
 30
0.0
 11
-22.5
 21
14.39995605
 31
0.0
  0
LINE
  5
1160
330
8C2
100
AcDbEntity
  8
240
  6
CONTINUOUS
100
AcDbLine
 10
-24.0
 20
13.53393065
 30
0.0
 11
-22.5
 21
14.39995605
 31
0.0
  0
LINE
  5
1161
330
8C2
100
AcDbEntity
  8
240
  6
CONTINUOUS
100
AcDbLine
 10
-24.0
 20
0.0
 30
0.0
 11
-24.0
 21
13.53393065
 31
0.0
  0
LINE
  5
1162
330
8C2
100
AcDbEntity
  8
242
  6
HIDDEN2
100
AcDbLine
 10
-24.0
 20
-11.0
 30
0.0
 11
-20.0
 21
-11.0
 31
0.0
  0
LINE
  5
1163
330
8C2
100
AcDbEntity
  8
241
100
AcDbLine
 10
20.0
 20
0.0
 30
0.0
 11
20.0
 21
-16.24999635
 31
0.0
  0
LINE
  5
1164
330
8C2
100
AcDbEntity
  8
240
  6
CONTINUOUS
100
AcDbLine
 10
50.0
 20
-14.29999984
 30
0.0
 11
50.0
 21
0.0
 31
0.0
1001
GRPNAME
1000
PASTMD0K
  0
LINE
  5
1165
330
8C2
100
AcDbEntity
  8
241
100
AcDbLine
 10
26.20000544
 20
-12.49999221
 30
0.0
 11
26.20000544
 21
0.0
 31
0.0
  0
LINE
  5
1166
330
8C2
100
AcDbEntity
  8
241
100
AcDbLine
 10
23.11802683
 20
-12.49999221
 30
0.0
 11
23.11802683
 21
0.0
 31
0.0
  0
LINE
  5
1167
330
8C2
100
AcDbEntity
  8
241
  6
CONTINUOUS
100
AcDbLine
 10
28.20000544
 20
-15.14999984
 30
0.0
 11
28.20000544
 21
0.0
 31
0.0
1001
GRPNAME
1000
PASTMD0P
  0
LINE
  5
1168
330
8C2
100
AcDbEntity
  8
241
  6
CONTINUOUS
100
AcDbLine
 10
29.55993964
 20
-14.99999984
 30
0.0
 11
29.55993964
 21
0.0
 31
0.0
1001
GRPNAME
1000
PASTMD0P
  0
LINE
  5
1169
330
8C2
100
AcDbEntity
  8
241
  6
CONTINUOUS
100
AcDbLine
 10
9.3
 20
-5.44344954
 30
0.0
 11
9.3
 21
-19.23457712
 31
0.0
  0
SPLINE
  5
116A
330
8C2
100
AcDbEntity
  8
241
  6
CONTINUOUS
100
AcDbSpline
210
0.0
220
0.0
230
1.0
 70
     8
 71
     3
 72
     9
 73
     5
 74
     3
 42
0.0000000001
 43
0.0000000001
 44
0.0000000001
 40
0.0
 40
0.0
 40
0.0
 40
0.0
 40
7.118047638474109
 40
14.2360952769482
 40
14.2360952769482
 40
14.2360952769482
 40
14.2360952769482
 10
6.699999999999874
 20
-5.443449540395874
 30
0.0
 10
5.817135035301413
 20
-7.741970804165713
 30
0.0
 10
4.051405105904493
 20
-12.33901333170538
 30
0.0
 10
5.817135035301452
 20
-16.93605585924504
 30
0.0
 10
6.699999999999931
 20
-19.23457712301487
 30
0.0
 11
6.699999999999874
 21
-5.443449540395874
 31
0.0
 11
4.934270070602963
 21
-12.33901333170538
 31
0.0
 11
6.699999999999931
 21
-19.23457712301487
 31
0.0
  0
LINE
  5
116B
330
8C2
100
AcDbEntity
  8
241
  6
CONTINUOUS
100
AcDbLine
 10
6.7
 20
-5.44344954
 30
0.0
 11
6.7
 21
-19.23457712
 31
0.0
  0
SPLINE
  5
116C
330
8C2
100
AcDbEntity
  8
241
  6
CONTINUOUS
100
AcDbSpline
210
0.0
220
0.0
230
1.0
 70
     8
 71
     3
 72
     9
 73
     5
 74
     3
 42
0.0000000001
 43
0.0000000001
 44
0.0000000001
 40
0.0
 40
0.0
 40
0.0
 40
0.0
 40
7.118047638474054
 40
14.23609527694817
 40
14.23609527694817
 40
14.23609527694817
 40
14.23609527694817
 10
9.299999999999897
 20
-19.23457712301487
 30
0.0
 10
10.18286496469834
 20
-16.93605585924505
 30
0.0
 10
11.94859489409525
 20
-12.33901333170539
 30
0.0
 10
10.18286496469838
 20
-7.741970804165722
 30
0.0
 10
9.299999999999954
 20
-5.443449540395874
 30
0.0
 11
9.299999999999897
 21
-19.23457712301487
 31
0.0
 11
11.06572992939681
 21
-12.33901333170541
 31
0.0
 11
9.299999999999954
 21
-5.443449540395874
 31
0.0
  0
LINE
  5
116D
330
8C2
100
AcDbEntity
  8
241
100
AcDbLine
 10
-1.8
 20
-13.11750154
 30
0.0
 11
-1.8
 21
0.0
 31
0.0
  0
LINE
  5
116E
330
8C2
100
AcDbEntity
  8
241
100
AcDbLine
 10
0.0
 20
-13.11750154
 30
0.0
 11
0.0
 21
0.0
 31
0.0
  0
LINE
  5
116F
330
8C2
100
AcDbEntity
  8
240
  6
CONTINUOUS
100
AcDbLine
 10
23.11802683
 20
-12.49999221
 30
0.0
 11
26.20000544
 21
-12.49999221
 31
0.0
1001
GRPNAME
1000
PASTMD0K
  0
LINE
  5
1170
330
8C2
100
AcDbEntity
  8
240
  6
CONTINUOUS
100
AcDbLine
 10
0.3
 20
-19.99
 30
0.0
 11
19.0
 21
-19.99
 31
0.0
  0
LINE
  5
1171
330
8C2
100
AcDbEntity
  8
240
  6
CONTINUOUS
100
AcDbLine
 10
0.0
 20
-13.11750154
 30
0.0
 11
0.0
 21
-19.69
 31
0.0
  0
ARC
  5
1172
330
8C2
100
AcDbEntity
  8
240
  6
CONTINUOUS
100
AcDbCircle
 10
0.3
 20
-19.69
 30
0.0
 40
0.3
100
AcDbArc
 50
180.0
 51
270.0
  0
LINE
  5
1173
330
8C2
100
AcDbEntity
  8
240
100
AcDbLine
 10
-1.8
 20
-13.11750154
 30
0.0
 11
0.0
 21
-13.11750154
 31
0.0
  0
LINE
  5
1174
330
8C2
100
AcDbEntity
  8
241
  6
CONTINUOUS
100
AcDbLine
 10
6.7
 20
-19.23457712
 30
0.0
 11
9.3
 21
-19.23457712
 31
0.0
  0
LINE
  5
1175
330
8C2
100
AcDbEntity
  8
240
100
AcDbLine
 10
20.0
 20
-18.99
 30
0.0
 11
20.0
 21
-16.24999635
 31
0.0
  0
ARC
  5
1176
330
8C2
100
AcDbEntity
  8
240
100
AcDbCircle
 10
19.0
 20
-18.99
 30
0.0
 40
1.0
100
AcDbArc
 50
270.0
 51
0.0
  0
LINE
  5
1177
330
8C2
100
AcDbEntity
  8
240
  6
CONTINUOUS
100
AcDbLine
 10
21.50323304
 20
-14.74999983
 30
0.0
 11
22.61802683
 21
-14.74999983
 31
0.0
1001
GRPNAME
1000
PASTMD0R
  0
ARC
  5
1178
330
8C2
100
AcDbEntity
  8
240
  6
CONTINUOUS
100
AcDbCircle
 10
22.61802683
 20
-14.24999983
 30
0.0
 40
0.5
100
AcDbArc
 50
270.0
 51
0.0
1001
GRPNAME
1000
PASTMD0R
  0
LINE
  5
1179
330
8C2
100
AcDbEntity
  8
240
  6
CONTINUOUS
100
AcDbLine
 10
23.11802683
 20
-14.24999983
 30
0.0
 11
23.11802683
 21
-12.49999221
 31
0.0
1001
GRPNAME
1000
PASTMD0K
  0
ARC
  5
117A
330
8C2
100
AcDbEntity
  8
240
100
AcDbCircle
 10
21.5
 20
-16.24999635
 30
0.0
 40
1.5
100
AcDbArc
 50
89.8765067
 51
180.0
  0
LINE
  5
117B
330
8C2
100
AcDbEntity
  8
240
  6
CONTINUOUS
100
AcDbLine
 10
28.35000544
 20
-14.99999984
 30
0.0
 11
49.3
 21
-14.99999984
 31
0.0
1001
GRPNAME
1000
PASTMD0K
  0
LINE
  5
117C
330
8C2
100
AcDbEntity
  8
240
  6
CONTINUOUS
100
AcDbLine
 10
26.70000544
 20
-15.14999984
 30
0.0
 11
28.20000544
 21
-15.14999984
 31
0.0
1001
GRPNAME
1000
PASTMD0P
  0
ARC
  5
117D
330
8C2
100
AcDbEntity
  8
240
  6
CONTINUOUS
100
AcDbCircle
 10
26.70000544
 20
-14.64999984
 30
0.0
 40
0.5
100
AcDbArc
 50
180.00000008
 51
270.00000008
1001
GRPNAME
1000
PASTMD0L
  0
LINE
  5
117E
330
8C2
100
AcDbEntity
  8
240
  6
CONTINUOUS
100
AcDbLine
 10
26.20000544
 20
-14.65000747
 30
0.0
 11
26.20000544
 21
-12.49999253
 31
0.0
1001
GRPNAME
1000
PASTMD0K
  0
LINE
  5
117F
330
8C2
100
AcDbEntity
  8
240
100
AcDbLine
 10
28.35000544
 20
-14.99999984
 30
0.0
 11
28.20000544
 21
-15.14999984
 31
0.0
  0
ARC
  5
1180
330
8C2
100
AcDbEntity
  8
240
  6
CONTINUOUS
100
AcDbCircle
 10
49.3
 20
-14.29999984
 30
0.0
 40
0.6999999999999887
100
AcDbArc
 50
269.99999997
 51
359.99999997
1001
GRPNAME
1000
PASTMD0L
  0
LINE
  5
1181
330
8C2
100
AcDbEntity
  8
240
  6
CONTINUOUS
100
AcDbLine
 10
23.11802683
 20
12.49999253
 30
0.0
 11
26.20000544
 21
12.49999253
 31
0.0
1001
GRPNAME
1000
PASTMD0K
  0
LINE
  5
1182
330
8C2
100
AcDbEntity
  8
241
  6
HIDDEN2
100
AcDbLine
 10
19.9963769
 20
5.89566056
 30
0.0
 11
42.39637747
 21
8.25000016
 31
0.0
1001
GRPNAME
1000
PASTMD0K
  0
LINE
  5
1183
330
8C2
100
AcDbEntity
  8
241
  6
HIDDEN2
100
AcDbLine
 10
19.9963769
 20
5.00000381
 30
0.0
 11
46.99637594
 21
5.00000381
 31
0.0
1001
GRPNAME
1000
PASTMD0R
  0
LINE
  5
1184
330
8C2
100
AcDbEntity
  8
241
100
AcDbLine
 10
20.0
 20
0.0
 30
0.0
 11
20.0
 21
16.24999635
 31
0.0
  0
LINE
  5
1185
330
8C2
100
AcDbEntity
  8
240
  6
CONTINUOUS
100
AcDbLine
 10
23.11802683
 20
14.24999983
 30
0.0
 11
23.11802683
 21
12.49999253
 31
0.0
1001
GRPNAME
1000
PASTMD0K
  0
LINE
  5
1186
330
8C2
100
AcDbEntity
  8
241
100
AcDbLine
 10
0.0
 20
0.0
 30
0.0
 11
0.0
 21
14.91750154
 31
0.0
  0
LINE
  5
1187
330
8C2
100
AcDbEntity
  8
241
100
AcDbLine
 10
-1.8
 20
0.0
 30
0.0
 11
-1.8
 21
14.91750154
 31
0.0
  0
LINE
  5
1188
330
8C2
100
AcDbEntity
  8
241
  6
CONTINUOUS
100
AcDbLine
 10
9.3
 20
5.44344954
 30
0.0
 11
9.3
 21
19.23457712
 31
0.0
  0
LINE
  5
1189
330
8C2
100
AcDbEntity
  8
241
  6
CONTINUOUS
100
AcDbLine
 10
6.7
 20
5.44344954
 30
0.0
 11
6.7
 21
19.23457712
 31
0.0
  0
SPLINE
  5
118A
330
8C2
100
AcDbEntity
  8
241
  6
CONTINUOUS
100
AcDbSpline
210
0.0
220
0.0
230
1.0
 70
     8
 71
     3
 72
     9
 73
     5
 74
     3
 42
0.0000000001
 43
0.0000000001
 44
0.0000000001
 40
0.0
 40
0.0
 40
0.0
 40
0.0
 40
7.118047638474082
 40
14.23609527694817
 40
14.23609527694817
 40
14.23609527694817
 40
14.23609527694817
 10
6.699999999999846
 20
5.443449540395818
 30
0.0
 10
5.817135035301386
 20
7.741970804165646
 30
0.0
 10
4.051405105904464
 20
12.3390133317053
 30
0.0
 10
5.817135035301422
 20
16.93605585924496
 30
0.0
 10
6.699999999999903
 20
19.23457712301478
 30
0.0
 11
6.699999999999846
 21
5.443449540395818
 31
0.0
 11
4.934270070602934
 21
12.3390133317053
 31
0.0
 11
6.699999999999903
 21
19.23457712301478
 31
0.0
  0
SPLINE
  5
118B
330
8C2
100
AcDbEntity
  8
241
  6
CONTINUOUS
100
AcDbSpline
210
0.0
220
0.0
230
1.0
 70
     8
 71
     3
 72
     9
 73
     5
 74
     3
 42
0.0000000001
 43
0.0000000001
 44
0.0000000001
 40
0.0
 40
0.0
 40
0.0
 40
0.0
 40
7.118047638474027
 40
14.23609527694815
 40
14.23609527694815
 40
14.23609527694815
 40
14.23609527694815
 10
9.299999999999869
 20
19.23457712301478
 30
0.0
 10
10.18286496469831
 20
16.93605585924498
 30
0.0
 10
11.94859489409522
 20
12.33901333170533
 30
0.0
 10
10.18286496469836
 20
7.741970804165668
 30
0.0
 10
9.299999999999926
 20
5.443449540395818
 30
0.0
 11
9.299999999999869
 21
19.23457712301478
 31
0.0
 11
11.06572992939678
 21
12.33901333170535
 31
0.0
 11
9.299999999999926
 21
5.443449540395818
 31
0.0
  0
LINE
  5
118C
330
8C2
100
AcDbEntity
  8
241
  6
HIDDEN2
100
AcDbLine
 10
19.9963769
 20
0.0
 30
0.0
 11
19.9963769
 21
5.89566056
 31
0.0
1001
GRPNAME
1000
PASTMD0K
  0
LINE
  5
118D
330
8C2
100
AcDbEntity
  8
241
100
AcDbLine
 10
23.11802683
 20
12.49999221
 30
0.0
 11
23.11802683
 21
0.0
 31
0.0
  0
LINE
  5
118E
330
8C2
100
AcDbEntity
  8
241
  6
CONTINUOUS
100
AcDbLine
 10
6.7
 20
-5.44344954
 30
0.0
 11
9.3
 21
-5.44344954
 31
0.0
  0
LINE
  5
118F
330
8C2
100
AcDbEntity
  8
241
  6
HIDDEN2
100
AcDbLine
 10
11.02524441
 20
6.25
 30
0.0
 11
20.21809092
 21
6.25
 31
0.0
  0
LINE
  5
1190
330
8C2
100
AcDbEntity
  8
241
  6
CONTINUOUS
100
AcDbLine
 10
6.7
 20
5.44344954
 30
0.0
 11
9.3
 21
5.44344954
 31
0.0
  0
LINE
  5
1191
330
8C2
100
AcDbEntity
  8
241
  6
HIDDEN2
100
AcDbLine
 10
20.21809092
 20
6.25
 30
0.0
 11
20.21809092
 21
5.91896455
 31
0.0
1001
GRPNAME
1000
PASTMD0K
  0
LINE
  5
1192
330
8C2
100
AcDbEntity
  8
240
  6
CONTINUOUS
100
AcDbLine
 10
0.3
 20
19.99
 30
0.0
 11
19.0
 21
19.99
 31
0.0
  0
ARC
  5
1193
330
8C2
100
AcDbEntity
  8
240
  6
CONTINUOUS
100
AcDbCircle
 10
0.3
 20
19.69
 30
0.0
 40
0.3
100
AcDbArc
 50
90.0
 51
180.0
  0
LINE
  5
1194
330
8C2
100
AcDbEntity
  8
240
100
AcDbLine
 10
-1.8
 20
14.91750154
 30
0.0
 11
0.0
 21
14.91750154
 31
0.0
  0
LINE
  5
1195
330
8C2
100
AcDbEntity
  8
240
  6
CONTINUOUS
100
AcDbLine
 10
0.0
 20
14.91750154
 30
0.0
 11
0.0
 21
19.69
 31
0.0
  0
LINE
  5
1196
330
8C2
100
AcDbEntity
  8
241
  6
CONTINUOUS
100
AcDbLine
 10
6.7
 20
19.23457712
 30
0.0
 11
9.3
 21
19.23457712
 31
0.0
  0
ARC
  5
1197
330
8C2
100
AcDbEntity
  8
240
  6
CONTINUOUS
100
AcDbCircle
 10
19.0
 20
18.99
 30
0.0
 40
1.0
100
AcDbArc
 50
0.0
 51
90.0
  0
LINE
  5
1198
330
8C2
100
AcDbEntity
  8
240
100
AcDbLine
 10
20.0
 20
18.99
 30
0.0
 11
20.0
 21
16.24999635
 31
0.0
  0
LINE
  5
1199
330
8C2
100
AcDbEntity
  8
240
  6
CONTINUOUS
100
AcDbLine
 10
21.50338116
 20
14.75000016
 30
0.0
 11
22.61802683
 21
14.75000016
 31
0.0
1001
GRPNAME
1000
PASTMD0R
  0
ARC
  5
119A
330
8C2
100
AcDbEntity
  8
240
  6
CONTINUOUS
100
AcDbCircle
 10
22.61802683
 20
14.25000016
 30
0.0
 40
0.5
100
AcDbArc
 50
0.0
 51
90.0
1001
GRPNAME
1000
PASTMD0R
  0
ARC
  5
119B
330
8C2
100
AcDbEntity
  8
240
100
AcDbCircle
 10
21.5
 20
16.24999635
 30
0.0
 40
1.5
100
AcDbArc
 50
180.0
 51
270.12913332
  0
LINE
  5
119C
330
8C2
100
AcDbEntity
  8
240
  6
CONTINUOUS
100
AcDbLine
 10
26.20000544
 20
14.65000747
 30
0.0
 11
26.20000544
 21
12.49999253
 31
0.0
1001
GRPNAME
1000
PASTMD0K
  0
LINE
  5
119D
330
8C2
100
AcDbEntity
  8
240
  6
CONTINUOUS
100
AcDbLine
 10
50.0
 20
14.29999984
 30
0.0
 11
50.0
 21
0.0
 31
0.0
1001
GRPNAME
1000
PASTMD0K
  0
LINE
  5
119E
330
8C2
100
AcDbEntity
  8
241
  6
CONTINUOUS
100
AcDbLine
 10
29.55993964
 20
14.99999984
 30
0.0
 11
29.55993964
 21
0.0
 31
0.0
1001
GRPNAME
1000
PASTMD0P
  0
LINE
  5
119F
330
8C2
100
AcDbEntity
  8
241
  6
CONTINUOUS
100
AcDbLine
 10
28.20000544
 20
15.14999984
 30
0.0
 11
28.20000544
 21
0.0
 31
0.0
1001
GRPNAME
1000
PASTMD0P
  0
LINE
  5
11A0
330
8C2
100
AcDbEntity
  8
241
100
AcDbLine
 10
26.20000544
 20
12.49999221
 30
0.0
 11
26.20000544
 21
0.0
 31
0.0
  0
LINE
  5
11A1
330
8C2
100
AcDbEntity
  8
242
  6
HIDDEN2
100
AcDbLine
 10
39.53578939
 20
10.50000016
 30
0.0
 11
31.31800165
 21
10.50000016
 31
0.0
1001
GRPNAME
1000
PASTMD0K
  0
LINE
  5
11A2
330
8C2
100
AcDbEntity
  8
241
  6
HIDDEN2
100
AcDbLine
 10
39.03578939
 20
11.00000016
 30
0.0
 11
29.31800165
 21
11.00000016
 31
0.0
1001
GRPNAME
1000
PASTMD0K
  0
LINE
  5
11A3
330
8C2
100
AcDbEntity
  8
241
  6
HIDDEN2
100
AcDbLine
 10
27.21800318
 20
11.54999177
 30
0.0
 11
28.31800165
 21
11.54999177
 31
0.0
1001
GRPNAME
1000
PASTMD0K
  0
LINE
  5
11A4
330
8C2
100
AcDbEntity
  8
241
  6
HIDDEN2
100
AcDbLine
 10
26.20000544
 20
12.49999253
 30
0.0
 11
27.21800318
 21
12.49999253
 31
0.0
1001
GRPNAME
1000
PASTMD0K
  0
LINE
  5
11A5
330
8C2
100
AcDbEntity
  8
241
  6
HIDDEN2
100
AcDbLine
 10
27.21800318
 20
11.54999177
 30
0.0
 11
27.21800318
 21
12.49999253
 31
0.0
1001
GRPNAME
1000
PASTMD0K
  0
LINE
  5
11A6
330
8C2
100
AcDbEntity
  8
241
  6
HIDDEN2
100
AcDbLine
 10
28.31800165
 20
12.49999253
 30
0.0
 11
29.31800165
 21
12.49999253
 31
0.0
1001
GRPNAME
1000
PASTMD0K
  0
LINE
  5
11A7
330
8C2
100
AcDbEntity
  8
242
  6
HIDDEN2
100
AcDbLine
 10
30.45197382
 20
11.00000016
 30
0.0
 11
31.31800165
 21
10.50000016
 31
0.0
1001
GRPNAME
1000
PASTMD0K
  0
LINE
  5
11A8
330
8C2
100
AcDbEntity
  8
241
  6
HIDDEN2
100
AcDbLine
 10
28.31800165
 20
11.54999177
 30
0.0
 11
28.31800165
 21
12.49999253
 31
0.0
1001
GRPNAME
1000
PASTMD0K
  0
LINE
  5
11A9
330
8C2
100
AcDbEntity
  8
241
  6
HIDDEN2
100
AcDbLine
 10
29.31800165
 20
11.00000016
 30
0.0
 11
29.31800165
 21
12.49999253
 31
0.0
1001
GRPNAME
1000
PASTMD0K
  0
LINE
  5
11AA
330
8C2
100
AcDbEntity
  8
241
  6
HIDDEN2
100
AcDbLine
 10
40.21809378
 20
9.81769578
 30
0.0
 11
40.21809378
 21
8.02105287
 31
0.0
1001
GRPNAME
1000
PASTMD0K
  0
LINE
  5
11AB
330
8C2
100
AcDbEntity
  8
241
  6
HIDDEN2
100
AcDbLine
 10
39.03578176
 20
11.00000398
 30
0.0
 11
40.21809378
 21
9.81769578
 31
0.0
1001
GRPNAME
1000
PASTMD0K
  0
LINE
  5
11AC
330
8C2
100
AcDbEntity
  8
241
  6
HIDDEN2
100
AcDbLine
 10
46.99637594
 20
0.0
 30
0.0
 11
46.99637594
 21
6.92208878
 31
0.0
1001
GRPNAME
1000
PASTMD0K
  0
LINE
  5
11AD
330
8C2
100
AcDbEntity
  8
241
  6
HIDDEN2
100
AcDbLine
 10
48.00000426
 20
6.91999833
 30
0.0
 11
50.0
 21
8.07471041
 31
0.0
1001
GRPNAME
1000
PASTMD0K
  0
LINE
  5
11AE
330
8C2
100
AcDbEntity
  8
241
  6
HIDDEN2
100
AcDbLine
 10
42.39637747
 20
7.00000016
 30
0.0
 11
42.39637747
 21
8.25000016
 31
0.0
1001
GRPNAME
1000
PASTMD0K
  0
LINE
  5
11AF
330
8C2
100
AcDbEntity
  8
241
  6
HIDDEN2
100
AcDbLine
 10
44.49637594
 20
7.00000016
 30
0.0
 11
44.49637594
 21
8.25000016
 31
0.0
1001
GRPNAME
1000
PASTMD0K
  0
LINE
  5
11B0
330
8C2
100
AcDbEntity
  8
241
  6
HIDDEN2
100
AcDbLine
 10
46.99637594
 20
6.92208878
 30
0.0
 11
44.69638052
 21
8.25000016
 31
0.0
1001
GRPNAME
1000
PASTMD0K
  0
LINE
  5
11B1
330
8C2
100
AcDbEntity
  8
241
  6
HIDDEN2
100
AcDbLine
 10
42.39637747
 20
7.00000016
 30
0.0
 11
44.49637594
 21
7.00000016
 31
0.0
1001
GRPNAME
1000
PASTMD0K
  0
LINE
  5
11B2
330
8C2
100
AcDbEntity
  8
241
  6
HIDDEN2
100
AcDbLine
 10
48.00000426
 20
6.91999833
 30
0.0
 11
46.9999999
 21
6.91999833
 31
0.0
1001
GRPNAME
1000
PASTMD0K
  0
LINE
  5
11B3
330
8C2
100
AcDbEntity
  8
241
  6
HIDDEN2
100
AcDbLine
 10
44.49637594
 20
8.25000016
 30
0.0
 11
44.69638052
 21
8.25000016
 31
0.0
1001
GRPNAME
1000
PASTMD0K
  0
LINE
  5
11B4
330
8C2
100
AcDbEntity
  8
240
  6
CONTINUOUS
100
AcDbLine
 10
28.35000511
 20
15.00000016
 30
0.0
 11
49.3
 21
15.00000016
 31
0.0
1001
GRPNAME
1000
PASTMD0K
  0
LINE
  5
11B5
330
8C2
100
AcDbEntity
  8
240
  6
CONTINUOUS
100
AcDbLine
 10
26.70000544
 20
15.15000747
 30
0.0
 11
28.20000544
 21
15.15000747
 31
0.0
1001
GRPNAME
1000
PASTMD0P
  0
ARC
  5
11B6
330
8C2
100
AcDbEntity
  8
240
  6
CONTINUOUS
100
AcDbCircle
 10
26.70000544
 20
14.65000747
 30
0.0
 40
0.5
100
AcDbArc
 50
89.99999999
 51
179.99999999
1001
GRPNAME
1000
PASTMD0L
  0
LINE
  5
11B7
330
8C2
100
AcDbEntity
  8
240
100
AcDbLine
 10
28.35000511
 20
15.00000016
 30
0.0
 11
28.20000544
 21
15.14999984
 31
0.0
  0
ARC
  5
11B8
330
8C2
100
AcDbEntity
  8
240
  6
CONTINUOUS
100
AcDbCircle
 10
49.3
 20
14.30000016
 30
0.0
 40
0.7000000000000455
100
AcDbArc
 50
0.00000009
 51
90.00000009
1001
GRPNAME
1000
PASTMD0L
  0
ENDBLK
  5
8C4
330
8C2
100
AcDbEntity
  8
0
100
AcDbBlockEnd
  0
BLOCK
  5
9DA
330
9D0
100
AcDbEntity
  8
0
100
AcDbBlockBegin
  2
*D5
 70
     1
 10
0.0
 20
0.0
 30
0.0
  3
*D5
  1

  0
LINE
  5
E50
330
9D0
100
AcDbEntity
  8
250
  6
CONTINUOUS
 62
     3
100
AcDbLine
 10
0.0
 20
20.19
 30
0.0
 11
0.0
 21
39.5
 31
0.0
  0
LINE
  5
E51
330
9D0
100
AcDbEntity
  8
250
  6
CONTINUOUS
 62
     3
100
AcDbLine
 10
50.0
 20
14.79999635
 30
0.0
 11
50.0
 21
39.5
 31
0.0
  0
LINE
  5
E52
330
9D0
100
AcDbEntity
  8
250
  6
CONTINUOUS
 62
     3
100
AcDbLine
 10
2.23
 20
38.5
 30
0.0
 11
47.77
 21
38.5
 31
0.0
  0
INSERT
  5
E53
330
9D0
100
AcDbEntity
  8
250
  6
CONTINUOUS
 62
     3
100
AcDbBlockReference
  2
_OPEN
 10
0.0
 20
38.5
 30
0.0
 41
2.23
 42
2.23
 43
2.23
 50
180.0
  0
INSERT
  5
E54
330
9D0
100
AcDbEntity
  8
250
  6
CONTINUOUS
 62
     3
100
AcDbBlockReference
  2
_OPEN
 10
50.0
 20
38.5
 30
0.0
 41
2.23
 42
2.23
 43
2.23
  0
MTEXT
  5
E55
330
9D0
100
AcDbEntity
  8
250
  6
CONTINUOUS
 62
    40
100
AcDbMText
 10
25.0
 20
41.0
 30
0.0
 40
3.0
 41
0.0
 71
     5
 72
     1
  1
\A1;50
1001
ACAD
1000
MTEXTBEGIN
1070
    73
1070
     1
1070
    44
1040
1.0
1070
    74
1070
     0
1000
MTEXTEND
1000
MTEXTBEGIN
1070
    73
1070
     1
1070
    44
1040
1.0
1070
    74
1070
     0
1000
MTEXTEND
1000
MTEXTBEGIN
1070
    73
1070
     1
1070
    44
1040
1.0
1070
    74
1070
     0
1000
MTEXTEND
  0
POINT
  5
E56
330
9D0
100
AcDbEntity
  8
DEFPOINTS
  6
CONTINUOUS
 62
     0
100
AcDbPoint
 10
0.0
 20
19.69
 30
0.0
  0
POINT
  5
E57
330
9D0
100
AcDbEntity
  8
DEFPOINTS
  6
CONTINUOUS
 62
     0
100
AcDbPoint
 10
50.0
 20
14.29999635
 30
0.0
  0
POINT
  5
E58
330
9D0
100
AcDbEntity
  8
DEFPOINTS
  6
CONTINUOUS
 62
     0
100
AcDbPoint
 10
50.0
 20
38.5
 30
0.0
  0
ENDBLK
  5
9DB
330
9D0
100
AcDbEntity
  8
0
100
AcDbBlockEnd
  0
BLOCK
  5
AEA
330
AE0
100
AcDbEntity
  8
0
100
AcDbBlockBegin
  2
*D6
 70
     1
 10
0.0
 20
0.0
 30
0.0
  3
*D6
  1

  0
LINE
  5
E59
330
AE0
100
AcDbEntity
  8
250
  6
CONTINUOUS
 62
     3
100
AcDbLine
 10
20.0
 20
19.49
 30
0.0
 11
20.0
 21
25.5
 31
0.0
  0
LINE
  5
E5A
330
AE0
100
AcDbEntity
  8
250
  6
CONTINUOUS
 62
     3
100
AcDbLine
 10
50.0
 20
14.79999635
 30
0.0
 11
50.0
 21
25.5
 31
0.0
  0
LINE
  5
E5B
330
AE0
100
AcDbEntity
  8
250
  6
CONTINUOUS
 62
     3
100
AcDbLine
 10
22.23
 20
24.5
 30
0.0
 11
47.77
 21
24.5
 31
0.0
  0
INSERT
  5
E5C
330
AE0
100
AcDbEntity
  8
250
  6
CONTINUOUS
 62
     3
100
AcDbBlockReference
  2
_OPEN
 10
20.0
 20
24.5
 30
0.0
 41
2.23
 42
2.23
 43
2.23
 50
180.0
  0
INSERT
  5
E5D
330
AE0
100
AcDbEntity
  8
250
  6
CONTINUOUS
 62
     3
100
AcDbBlockReference
  2
_OPEN
 10
50.0
 20
24.5
 30
0.0
 41
2.23
 42
2.23
 43
2.23
  0
MTEXT
  5
E5E
330
AE0
100
AcDbEntity
  8
250
  6
CONTINUOUS
 62
    40
100
AcDbMText
 10
35.0
 20
27.0
 30
0.0
 40
3.0
 41
0.0
 71
     5
 72
     1
  1
\A1;30
1001
ACAD
1000
MTEXTBEGIN
1070
    73
1070
     1
1070
    44
1040
1.0
1070
    74
1070
     0
1000
MTEXTEND
1000
MTEXTBEGIN
1070
    73
1070
     1
1070
    44
1040
1.0
1070
    74
1070
     0
1000
MTEXTEND
1000
MTEXTBEGIN
1070
    73
1070
     1
1070
    44
1040
1.0
1070
    74
1070
     0
1000
MTEXTEND
  0
POINT
  5
E5F
330
AE0
100
AcDbEntity
  8
DEFPOINTS
  6
CONTINUOUS
 62
     0
100
AcDbPoint
 10
20.0
 20
18.99
 30
0.0
  0
POINT
  5
E60
330
AE0
100
AcDbEntity
  8
DEFPOINTS
  6
CONTINUOUS
 62
     0
100
AcDbPoint
 10
50.0
 20
14.29999635
 30
0.0
  0
POINT
  5
E61
330
AE0
100
AcDbEntity
  8
DEFPOINTS
  6
CONTINUOUS
 62
     0
100
AcDbPoint
 10
50.0
 20
24.5
 30
0.0
  0
ENDBLK
  5
AEB
330
AE0
100
AcDbEntity
  8
0
100
AcDbBlockEnd
  0
BLOCK
  5
1121
330
1117
100
AcDbEntity
  8
0
100
AcDbBlockBegin
  2
*D13
 70
     1
 10
0.0
 20
0.0
 30
0.0
  3
*D13
  1

  0
LINE
  5
112D
330
1117
100
AcDbEntity
  8
250
  6
CONTINUOUS
 62
     3
100
AcDbLine
 10
49.8
 20
-15.00000365
 30
0.0
 11
67.0
 21
-15.00000365
 31
0.0
  0
LINE
  5
112E
330
1117
100
AcDbEntity
  8
250
  6
CONTINUOUS
 62
     3
100
AcDbLine
 10
49.8
 20
14.99999635
 30
0.0
 11
67.0
 21
14.99999635
 31
0.0
  0
LINE
  5
112F
330
1117
100
AcDbEntity
  8
250
  6
CONTINUOUS
 62
     3
100
AcDbLine
 10
66.0
 20
-12.77000365
 30
0.0
 11
66.0
 21
12.76999635
 31
0.0
  0
INSERT
  5
1130
330
1117
100
AcDbEntity
  8
250
  6
CONTINUOUS
 62
     3
100
AcDbBlockReference
  2
_OPEN
 10
66.0
 20
-15.00000365
 30
0.0
 41
2.23
 42
2.23
 43
2.23
 50
270.0
  0
INSERT
  5
1131
330
1117
100
AcDbEntity
  8
250
  6
CONTINUOUS
 62
     3
100
AcDbBlockReference
  2
_OPEN
 10
66.0
 20
14.99999635
 30
0.0
 41
2.23
 42
2.23
 43
2.23
 50
90.0
  0
MTEXT
  5
1132
330
1117
100
AcDbEntity
  8
250
  6
CONTINUOUS
 62
    40
100
AcDbMText
 10
63.5
 20
0.0
 30
0.0
 40
3.0
 41
0.0
 71
     5
 72
     1
  1
\A1;{\H3;\U+2205}30
 11
0.0
 21
1.0
 31
0.0
1001
ACAD
1000
MTEXTBEGIN
1070
    73
1070
     1
1070
    44
1040
1.0
1070
    74
1070
     0
1000
MTEXTEND
  0
POINT
  5
1133
330
1117
100
AcDbEntity
  8
DEFPOINTS
  6
CONTINUOUS
 62
     0
100
AcDbPoint
 10
49.3
 20
-15.00000365
 30
0.0
  0
POINT
  5
1134
330
1117
100
AcDbEntity
  8
DEFPOINTS
  6
CONTINUOUS
 62
     0
100
AcDbPoint
 10
49.3
 20
14.99999635
 30
0.0
  0
POINT
  5
1135
330
1117
100
AcDbEntity
  8
DEFPOINTS
  6
CONTINUOUS
 62
     0
100
AcDbPoint
 10
66.0
 20
14.99999635
 30
0.0
  0
ENDBLK
  5
1122
330
1117
100
AcDbEntity
  8
0
100
AcDbBlockEnd
  0
BLOCK
  5
112B
330
1123
100
AcDbEntity
  8
0
100
AcDbBlockBegin
  2
*D14
 70
     1
 10
0.0
 20
0.0
 30
0.0
  3
*D14
  1

  0
LINE
  5
1136
330
1123
100
AcDbEntity
  8
250
  6
CONTINUOUS
 62
     3
100
AcDbLine
 10
47.49637594
 20
5.0
 30
0.0
 11
60.0
 21
5.0
 31
0.0
  0
LINE
  5
1137
330
1123
100
AcDbEntity
  8
250
  6
CONTINUOUS
 62
     3
100
AcDbLine
 10
59.0
 20
-5.0
 30
0.0
 11
59.0
 21
2.77
 31
0.0
  0
INSERT
  5
1138
330
1123
100
AcDbEntity
  8
250
  6
CONTINUOUS
 62
     3
100
AcDbBlockReference
  2
_OPEN
 10
59.0
 20
5.0
 30
0.0
 41
2.23
 42
2.23
 43
2.23
 50
90.0
  0
MTEXT
  5
1139
330
1123
100
AcDbEntity
  8
250
  6
CONTINUOUS
 62
    40
100
AcDbMText
 10
56.5
 20
-1.115
 30
0.0
 40
3.0
 41
0.0
 71
     5
 72
     1
  1
\A1;max.{\H3;\U+2205}10
 11
0.0
 21
1.0
 31
0.0
1001
ACAD
1000
MTEXTBEGIN
1070
    73
1070
     1
1070
    44
1040
1.0
1070
    74
1070
     0
1000
MTEXTEND
  0
POINT
  5
113A
330
1123
100
AcDbEntity
  8
DEFPOINTS
  6
CONTINUOUS
 62
     0
100
AcDbPoint
 10
46.99637594
 20
-5.0
 30
0.0
  0
POINT
  5
113B
330
1123
100
AcDbEntity
  8
DEFPOINTS
  6
CONTINUOUS
 62
     0
100
AcDbPoint
 10
46.99637594
 20
5.0
 30
0.0
  0
POINT
  5
113C
330
1123
100
AcDbEntity
  8
DEFPOINTS
  6
CONTINUOUS
 62
     0
100
AcDbPoint
 10
59.0
 20
5.0
 30
0.0
  0
ENDBLK
  5
112C
330
1123
100
AcDbEntity
  8
0
100
AcDbBlockEnd
  0
ENDSEC
  0
SECTION
  2
ENTITIES
  0
INSERT
  5
6E6
330
1A
100
AcDbEntity
  8
245
100
AcDbBlockReference
  2
矢印なし
 10
175.62382697
 20
90.55123572
 30
0.0
  0
DIMENSION
  5
7E2
330
1A
100
AcDbEntity
  8
250
  6
CONTINUOUS
100
AcDbDimension
  2
*D3
 10
50.0
 20
31.5
 30
0.0
 11
28.0
 21
34.0
 31
0.0
 70
    32
  1
（max.<>）
  3
BIGT$0
100
AcDbAlignedDimension
 13
6.0
 23
7.25
 33
0.0
 14
50.0
 24
14.29999659
 34
0.0
100
AcDbRotatedDimension
  0
TEXT
  5
80A
330
1A
100
AcDbEntity
  8
241
100
AcDbText
 10
-24.0
 20
52.5
 30
0.0
 40
5.0
  1
C4-MEGA10N-50
  7
YOKO
 11
-24.0
 21
52.5
 31
0.0
100
AcDbText
 73
     1
  0
DIMENSION
  5
9CF
330
1A
100
AcDbEntity
  8
250
  6
CONTINUOUS
100
AcDbDimension
  2
*D5
 10
50.0
 20
38.5
 30
0.0
 11
25.0
 21
41.0
 31
0.0
 70
    32
  3
BIGT$0
100
AcDbAlignedDimension
 13
0.0
 23
19.69
 33
0.0
 14
50.0
 24
14.29999635
 34
0.0
100
AcDbRotatedDimension
  0
DIMENSION
  5
ADF
330
1A
100
AcDbEntity
  8
250
  6
CONTINUOUS
100
AcDbDimension
  2
*D6
 10
50.0
 20
24.5
 30
0.0
 11
35.0
 21
27.0
 31
0.0
 70
    32
  3
BIGT$0
100
AcDbAlignedDimension
 13
20.0
 23
18.99
 33
0.0
 14
50.0
 24
14.29999635
 34
0.0
100
AcDbRotatedDimension
  0
LINE
  5
105B
330
1A
100
AcDbEntity
  8
250
  6
CONTINUOUS
100
AcDbLine
 10
-14.0
 20
-21.0
 30
0.0
 11
-24.4
 21
-21.0
 31
0.0
1001
ITEMNAME
1000
LNSP2
  0
LEADER
  5
105C
330
1A
100
AcDbEntity
  8
250
  6
CONTINUOUS
100
AcDbLeader
  3
BIGT
 76
     2
 10
-9.34019448
 20
-12.92898008
 30
0.0
 10
-14.0
 20
-21.0
 30
0.0
1001
ACAD
1000
DSTYLE
1002
{
1070
     6
1000
OPEN
1070
    41
1040
2.0
1070
    42
1040
2.0
1070
    44
1040
2.0
1070
   140
1040
4.0
1070
   343
1005
594
1002
}
  0
MTEXT
  5
105D
330
1A
100
AcDbEntity
  8
251
  6
CONTINUOUS
100
AcDbMText
 10
-21.6
 20
-20.0
 30
0.0
 40
2.8
 41
0.0
 71
     7
 72
     1
  1
C4
  7
YOKO
1001
ITEMNAME
1000
LNSP3
1001
ACAD
1000
MTEXTBEGIN
1070
    73
1070
     1
1070
    44
1040
1.0
1070
    74
1070
     0
1000
MTEXTEND
1000
MTEXTBEGIN
1070
    73
1070
     1
1070
    44
1040
1.0
1070
    74
1070
     0
1000
MTEXTEND
1000
MTEXTBEGIN
1070
    73
1070
     1
1070
    44
1040
1.0
1070
    74
1070
     0
1000
MTEXTEND
1000
MTEXTBEGIN
1070
    73
1070
     1
1070
    44
1040
1.0
1070
    74
1070
     0
1000
MTEXTEND
1000
MTEXTBEGIN
1070
    73
1070
     1
1070
    44
1040
1.0
1070
    74
1070
     0
1000
MTEXTEND
1000
MTEXTBEGIN
1070
    73
1070
     1
1070
    44
1040
1.0
1070
    74
1070
     0
1000
MTEXTEND
  0
DIMENSION
  5
10E3
330
1A
100
AcDbEntity
  8
250
  6
CONTINUOUS
100
AcDbDimension
  2
*D13
 10
66.0
 20
14.99999635
 30
0.0
 11
66.0
 21
0.0
 31
0.0
 70
   160
  1
{\H3;\U+2205}<>
  3
BIGT$0
100
AcDbAlignedDimension
 13
49.3
 23
-15.00000365
 33
0.0
 14
49.3
 24
14.99999635
 34
0.0
 50
90.0
100
AcDbRotatedDimension
  0
DIMENSION
  5
1107
330
1A
100
AcDbEntity
  8
250
  6
CONTINUOUS
100
AcDbDimension
  2
*D14
 10
59.0
 20
5.0
 30
0.0
 11
59.0
 21
-1.115
 31
0.0
 70
   160
  1
max.{\H3;\U+2205}<>
  3
BIGT$0
100
AcDbAlignedDimension
 13
46.99637594
 23
-5.0
 33
0.0
 14
46.99637594
 24
5.0
 34
0.0
 50
90.0
100
AcDbRotatedDimension
1001
ACAD
1000
DSTYLE
1002
{
1070
     5
1000

1070
   173
1070
     1
1070
     7
1000
OPEN
1070
    75
1070
     1
1070
     6
1000
NONE
1002
}
  0
INSERT
  5
11B9
330
1A
100
AcDbEntity
  8
245
100
AcDbBlockReference
  2
1
 10
0.0
 20
0.0
 30
0.0
  0
VIEWPORT
  5
22
330
17
100
AcDbEntity
 67
     1
  8
0
100
AcDbViewport
 10
261.51769912
 20
148.5
 30
0.0
 40
523.03539823
 41
297.0
 68
     1
 69
     1
1001
ACAD
1000
MVIEW
1002
{
1070
    16
1010
0.0
1020
0.0
1030
0.0
1010
0.0
1020
0.0
1030
1.0
1040
0.0
1040
9.0
1040
6.4433121
1040
4.5
1040
50.0
1040
0.0
1040
0.0
1070
     0
1070
   100
1070
     1
1070
     3
1070
     0
1070
     0
1070
     0
1070
     0
1040
0.0
1040
0.0
1040
0.0
1040
1.0
1040
1.0
1040
0.0
1040
0.0
1070
     0
1002
{
1002
}
1002
}
  0
ENDSEC
  0
SECTION
  2
OBJECTS
  0
DICTIONARY
  5
C
330
0
100
AcDbDictionary
  3
ACAD_GROUP
350
D
  3
ACAD_LAYOUT
350
565
  3
ACAD_MLINESTYLE
350
E
  3
ACAD_PLOTSETTINGS
350
566
  3
ACAD_PLOTSTYLENAME
350
563
  3
ACDBHEADERROUNDTRIPXREC
350
11BB
  3
GRADE_DWG
350
540
  0
DICTIONARY
  5
951
330
1A
100
AcDbDictionary
280
     1
  3
ACAD_LAYOUTSELFREF
360
11DD
  0
DICTIONARY
  5
94F
330
17
100
AcDbDictionary
280
     1
  3
ACAD_LAYOUTSELFREF
360
11DC
  0
DICTIONARY
  5
D
102
{ACAD_REACTORS
330
C
102
}
330
C
100
AcDbDictionary
  3
*A1
350
6C7
  3
*A2
350
6C8
  3
*A3
350
6D4
  3
*A4
350
6D5
  3
DREC-1
350
5FC
  3
DREC-2
350
654
  3
DREC-3
350
673
  0
DICTIONARY
  5
565
102
{ACAD_REACTORS
330
C
102
}
330
C
100
AcDbDictionary
  0
DICTIONARY
  5
E
102
{ACAD_REACTORS
330
C
102
}
330
C
100
AcDbDictionary
  3
STANDARD
350
13
  0
DICTIONARY
  5
566
102
{ACAD_REACTORS
330
C
102
}
330
C
100
AcDbDictionary
  3
A3_0_5倍_
350
758
  3
A3_1倍_
350
757
  3
A3_1倍__2000_
350
707
  3
A3_2倍_
350
759
  3
A4_0_5倍_
350
755
  3
A4_1倍_
350
754
  3
A4_1倍__2000_
350
708
  3
A4_2倍_
350
756
  0
ACDBDICTIONARYWDFLT
  5
563
102
{ACAD_REACTORS
330
C
102
}
330
C
100
AcDbDictionary
281
     1
  3
Normal
350
564
100
AcDbDictionaryWithDefault
340
564
  0
DICTIONARY
  5
11BB
102
{ACAD_REACTORS
330
C
102
}
330
C
100
AcDbDictionary
  3
CEPSNTYPE
350
11C5
  3
DIMSTYLEDATA
350
11C9
  3
FINGERPRINTGUID
350
11C6
  3
HYPERLINKBASE
350
11BE
  3
INSUNITS
350
11C4
  3
LAYOUTDICT
350
11C0
  3
LWETCUNION
350
11C3
  3
PLOTSETDICT
350
11C1
  3
PLOTSTYLNAMDICT
350
11C2
  3
PSVPSCALE
350
11C8
  3
PUCSBASE
350
11CC
  3
PUCSORGBACK
350
11D2
  3
PUCSORGBOTTOM
350
11CE
  3
PUCSORGFRONT
350
11D1
  3
PUCSORGLEFT
350
11CF
  3
PUCSORGRIGHT
350
11D0
  3
PUCSORGTOP
350
11CD
  3
PUCSORTHOREF
350
11CA
  3
PUCSORTHOVIEW
350
11CB
  3
STYLESHEET
350
11BF
  3
TSTACKALIGN
350
11BC
  3
TSTACKSIZE
350
11BD
  3
UCSBASE
350
11D5
  3
UCSORGBACK
350
11DB
  3
UCSORGBOTTOM
350
11D7
  3
UCSORGFRONT
350
11DA
  3
UCSORGLEFT
350
11D8
  3
UCSORGRIGHT
350
11D9
  3
UCSORGTOP
350
11D6
  3
UCSORTHOREF
350
11D3
  3
UCSORTHOVIEW
350
11D4
  3
VERSIONGUID
350
11C7
  0
DICTIONARY
  5
540
102
{ACAD_REACTORS
330
C
102
}
330
C
100
AcDbDictionary
  3
VERSION
350
560
  0
XRECORD
  5
11DD
102
{ACAD_REACTORS
330
951
102
}
330
951
100
AcDbXrecord
340
1A
  0
XRECORD
  5
11DC
102
{ACAD_REACTORS
330
94F
102
}
330
94F
100
AcDbXrecord
340
17
  0
GROUP
  5
6C7
102
{ACAD_REACTORS
330
D
102
}
330
D
100
AcDbGroup
300

 70
     0
 71
     1
1001
GRPNAME
1000
DMA00
  0
GROUP
  5
6C8
102
{ACAD_REACTORS
330
D
102
}
330
D
100
AcDbGroup
300

 70
     0
 71
     1
1001
GRPNAME
1000
DMA00
  0
GROUP
  5
6D4
102
{ACAD_REACTORS
330
D
102
}
330
D
100
AcDbGroup
300

 70
     0
 71
     1
1001
GRPNAME
1000
DMA00
  0
GROUP
  5
6D5
102
{ACAD_REACTORS
330
D
102
}
330
D
100
AcDbGroup
300

 70
     0
 71
     1
1001
GRPNAME
1000
DMA00
  0
GROUP
  5
5FC
102
{ACAD_REACTORS
330
D
102
}
330
D
100
AcDbGroup
300

 70
     0
 71
     1
1001
GRPNAME
1000
DREC-
1001
GPARA
1000
xsiz
1000
44.182
1000
ysiz
1000
40.677
1000
angl
1000
0
1000
ctyp
1000
0
1000
csiz
1000
5
1000
lfnt
1000
cont
1000
hcnt
1000
hoff
1000
vcnt
1000
voff
1000
opnt
1000
4
1000
dxpt
1000
0
1000
dypt
1000
0
  0
GROUP
  5
654
102
{ACAD_REACTORS
330
D
102
}
330
D
100
AcDbGroup
300

 70
     0
 71
     1
1001
GRPNAME
1000
DREC-
1001
GPARA
1000
xsiz
1000
54.592
1000
ysiz
1000
53.036
1000
angl
1000
0
1000
ctyp
1000
0
1000
csiz
1000
5
1000
lfnt
1000
cont
1000
hcnt
1000
hoff
1000
vcnt
1000
voff
1000
opnt
1000
4
1000
dxpt
1000
0
1000
dypt
1000
0
  0
GROUP
  5
673
102
{ACAD_REACTORS
330
D
102
}
330
D
100
AcDbGroup
300

 70
     0
 71
     1
1001
GRPNAME
1000
DREC-
1001
GPARA
1000
xsiz
1000
30.363
1000
ysiz
1000
36.175
1000
angl
1000
0
1000
ctyp
1000
0
1000
csiz
1000
5
1000
lfnt
1000
cont
1000
hcnt
1000
hoff
1000
vcnt
1000
voff
1000
opnt
1000
4
1000
dxpt
1000
0
1000
dypt
1000
0
  0
MLINESTYLE
  5
13
102
{ACAD_REACTORS
330
E
102
}
330
E
100
AcDbMlineStyle
  2
STANDARD
 70
     0
  3

 62
     0
 51
90.0
 52
90.0
 71
     2
 49
0.5
 62
   256
  6
BYLAYER
 49
-0.5
 62
   256
  6
BYLAYER
  0
PLOTSETTINGS
  5
758
102
{ACAD_REACTORS
330
566
102
}
330
566
100
AcDbPlotSettings
  1
A3(0.5倍)
  2
\\AWTECPC05\HP DeskJet 1120C
  4
A3
  6

 40
5.95841646
 41
13.49375153
 42
6.04309082
 43
3.67242432
 44
296.92599487
 45
419.94665527
 46
89.96
 47
127.14
 48
0.0
 49
0.0
140
0.0
141
0.0
142
1.0
143
2.0
 70
  1716
 72
     1
 73
     1
 74
     2
  7
big.ctb
 75
    17
147
0.5
148
0.0
149
0.0
  0
PLOTSETTINGS
  5
757
102
{ACAD_REACTORS
330
566
102
}
330
566
100
AcDbPlotSettings
  1
A3(1倍)
  2
\\AWTECPC05\HP DeskJet 1120C
  4
A3
  6

 40
5.95841646
 41
13.49375153
 42
6.04309082
 43
3.67242432
 44
296.92599487
 45
419.94665527
 46
37.46
 47
52.89
 48
0.0
 49
0.0
140
0.0
141
0.0
142
1.0
143
1.0
 70
  1716
 72
     1
 73
     1
 74
     2
  7
big.ctb
 75
    16
147
1.0
148
0.0
149
0.0
  0
PLOTSETTINGS
  5
707
102
{ACAD_REACTORS
330
566
102
}
330
566
100
AcDbPlotSettings
  1
A3(1倍)(2000)
  2
SII LS-1300 (D-SCAN)
  4
User258
  6

 40
3.17499995
 41
3.17499995
 42
3.17498779
 43
3.17498779
 44
419.98898315
 45
296.98950195
 46
58.32
 47
40.32
 48
0.0
 49
0.0
140
0.0
141
0.0
142
1.0
143
1.0
 70
  1716
 72
     1
 73
     0
 74
     2
  7
big.ctb
 75
    16
147
1.0
148
0.0
149
0.0
  0
PLOTSETTINGS
  5
759
102
{ACAD_REACTORS
330
566
102
}
330
566
100
AcDbPlotSettings
  1
A3(2倍)
  2
\\AWTECPC05\HP DeskJet 1120C
  4
A3
  6

 40
5.95841646
 41
13.49375153
 42
6.04309082
 43
3.67242432
 44
296.92599487
 45
419.94665527
 46
-67.54
 47
-95.61
 48
0.0
 49
0.0
140
0.0
141
0.0
142
1.0
143
0.5
 70
  1716
 72
     1
 73
     1
 74
     2
  7
big.ctb
 75
    27
147
2.0
148
0.0
149
0.0
  0
PLOTSETTINGS
  5
755
102
{ACAD_REACTORS
330
566
102
}
330
566
100
AcDbPlotSettings
  1
A4(0.5倍)
  2
\\AWTECPC05\HP DeskJet 1120C
  4
A4
  6

 40
4.18041658
 41
13.49374962
 42
4.18040466
 43
3.92642212
 44
209.97332764
 45
296.92599487
 46
48.31
 47
65.5
 48
0.0
 49
0.0
140
0.0
141
0.0
142
1.0
143
2.0
 70
  1716
 72
     1
 73
     1
 74
     2
  7
big.ctb
 75
    17
147
0.5
148
0.0
149
0.0
  0
PLOTSETTINGS
  5
754
102
{ACAD_REACTORS
330
566
102
}
330
566
100
AcDbPlotSettings
  1
A4(1倍)
  2
\\AWTECPC05\HP DeskJet 1120C
  4
A4
  6

 40
4.18041658
 41
13.49374962
 42
4.18040466
 43
3.92642212
 44
209.97332764
 45
296.92599487
 46
-4.19
 47
-8.75
 48
0.0
 49
0.0
140
0.0
141
0.0
142
1.0
143
1.0
 70
  1716
 72
     1
 73
     1
 74
     2
  7
big.ctb
 75
    16
147
1.0
148
0.0
149
0.0
  0
PLOTSETTINGS
  5
708
102
{ACAD_REACTORS
330
566
102
}
330
566
100
AcDbPlotSettings
  1
A4(1倍)(2000)
  2
SII LS-1300 (D-SCAN)
  4
User259
  6

 40
3.17499995
 41
3.17499995
 42
3.17498779
 43
3.17500305
 44
296.98950195
 45
209.99449158
 46
-3.18
 47
-3.18
 48
0.0
 49
0.0
140
0.0
141
0.0
142
1.0
143
1.0
 70
  1716
 72
     1
 73
     0
 74
     2
  7
big.ctb
 75
    16
147
1.0
148
0.0
149
0.0
  0
PLOTSETTINGS
  5
756
102
{ACAD_REACTORS
330
566
102
}
330
566
100
AcDbPlotSettings
  1
A4(2倍)
  2
\\AWTECPC05\HP DeskJet 1120C
  4
A4
  6

 40
4.18041658
 41
13.49374962
 42
4.18040466
 43
3.92642212
 44
209.97332764
 45
296.92599487
 46
-109.19
 47
-157.25
 48
0.0
 49
0.0
140
0.0
141
0.0
142
1.0
143
0.5
 70
  1716
 72
     1
 73
     1
 74
     2
  7
big.ctb
 75
    27
147
2.0
148
0.0
149
0.0
  0
ACDBPLACEHOLDER
  5
564
102
{ACAD_REACTORS
330
563
102
}
330
563
100
AcDbPlaceHolder
280
     0
  0
XRECORD
  5
11C5
102
{ACAD_REACTORS
330
11BB
102
}
330
11BB
100
AcDbXrecord
 90
        0
  0
XRECORD
  5
11C9
102
{ACAD_REACTORS
330
11BB
102
}
330
11BB
100
AcDbXrecord
1000
DSTYLE
1002
{
1070
   341
340
594
1070
   343
340
594
1070
   344
340
594
1002
}
  0
XRECORD
  5
11C6
102
{ACAD_REACTORS
330
11BB
102
}
330
11BB
100
AcDbXrecord
  1
{51294030-9CB4-11D3-8E18-00A0C925D94D}
  0
XRECORD
  5
11BE
102
{ACAD_REACTORS
330
11BB
102
}
330
11BB
100
AcDbXrecord
  1

  0
XRECORD
  5
11C4
102
{ACAD_REACTORS
330
11BB
102
}
330
11BB
100
AcDbXrecord
 90
        0
  0
XRECORD
  5
11C0
102
{ACAD_REACTORS
330
11BB
102
}
330
11BB
100
AcDbXrecord
340
565
  0
XRECORD
  5
11C3
102
{ACAD_REACTORS
330
11BB
102
}
330
11BB
100
AcDbXrecord
 90
    10781
  0
XRECORD
  5
11C1
102
{ACAD_REACTORS
330
11BB
102
}
330
11BB
100
AcDbXrecord
340
566
  0
XRECORD
  5
11C2
102
{ACAD_REACTORS
330
11BB
102
}
330
11BB
100
AcDbXrecord
340
563
  0
XRECORD
  5
11C8
102
{ACAD_REACTORS
330
11BB
102
}
330
11BB
100
AcDbXrecord
 40
0.0
  0
XRECORD
  5
11CC
102
{ACAD_REACTORS
330
11BB
102
}
330
11BB
100
AcDbXrecord
340
0
  0
XRECORD
  5
11D2
102
{ACAD_REACTORS
330
11BB
102
}
330
11BB
100
AcDbXrecord
 10
0.0
 20
0.0
 30
0.0
  0
XRECORD
  5
11CE
102
{ACAD_REACTORS
330
11BB
102
}
330
11BB
100
AcDbXrecord
 10
0.0
 20
0.0
 30
0.0
  0
XRECORD
  5
11D1
102
{ACAD_REACTORS
330
11BB
102
}
330
11BB
100
AcDbXrecord
 10
0.0
 20
0.0
 30
0.0
  0
XRECORD
  5
11CF
102
{ACAD_REACTORS
330
11BB
102
}
330
11BB
100
AcDbXrecord
 10
0.0
 20
0.0
 30
0.0
  0
XRECORD
  5
11D0
102
{ACAD_REACTORS
330
11BB
102
}
330
11BB
100
AcDbXrecord
 10
0.0
 20
0.0
 30
0.0
  0
XRECORD
  5
11CD
102
{ACAD_REACTORS
330
11BB
102
}
330
11BB
100
AcDbXrecord
 10
0.0
 20
0.0
 30
0.0
  0
XRECORD
  5
11CA
102
{ACAD_REACTORS
330
11BB
102
}
330
11BB
100
AcDbXrecord
340
0
  0
XRECORD
  5
11CB
102
{ACAD_REACTORS
330
11BB
102
}
330
11BB
100
AcDbXrecord
 70
     0
  0
XRECORD
  5
11BF
102
{ACAD_REACTORS
330
11BB
102
}
330
11BB
100
AcDbXrecord
  1
big.ctb
  0
XRECORD
  5
11BC
102
{ACAD_REACTORS
330
11BB
102
}
330
11BB
100
AcDbXrecord
 90
        1
  0
XRECORD
  5
11BD
102
{ACAD_REACTORS
330
11BB
102
}
330
11BB
100
AcDbXrecord
 90
       70
  0
XRECORD
  5
11D5
102
{ACAD_REACTORS
330
11BB
102
}
330
11BB
100
AcDbXrecord
340
0
  0
XRECORD
  5
11DB
102
{ACAD_REACTORS
330
11BB
102
}
330
11BB
100
AcDbXrecord
 10
0.0
 20
0.0
 30
0.0
  0
XRECORD
  5
11D7
102
{ACAD_REACTORS
330
11BB
102
}
330
11BB
100
AcDbXrecord
 10
0.0
 20
0.0
 30
0.0
  0
XRECORD
  5
11DA
102
{ACAD_REACTORS
330
11BB
102
}
330
11BB
100
AcDbXrecord
 10
0.0
 20
0.0
 30
0.0
  0
XRECORD
  5
11D8
102
{ACAD_REACTORS
330
11BB
102
}
330
11BB
100
AcDbXrecord
 10
0.0
 20
0.0
 30
0.0
  0
XRECORD
  5
11D9
102
{ACAD_REACTORS
330
11BB
102
}
330
11BB
100
AcDbXrecord
 10
0.0
 20
0.0
 30
0.0
  0
XRECORD
  5
11D6
102
{ACAD_REACTORS
330
11BB
102
}
330
11BB
100
AcDbXrecord
 10
0.0
 20
0.0
 30
0.0
  0
XRECORD
  5
11D3
102
{ACAD_REACTORS
330
11BB
102
}
330
11BB
100
AcDbXrecord
340
0
  0
XRECORD
  5
11D4
102
{ACAD_REACTORS
330
11BB
102
}
330
11BB
100
AcDbXrecord
 70
     0
  0
XRECORD
  5
11C7
102
{ACAD_REACTORS
330
11BB
102
}
330
11BB
100
AcDbXrecord
  1
{28FDC026-38EC-4500-9B20-01B3B8A8F642}
  0
XRECORD
  5
560
102
{ACAD_REACTORS
330
540
102
}
330
540
100
AcDbXrecord
  1
2.0.0
  0
ENDSEC
  0
EOF
