  0
SECTION
  2
HEADER
  9
$ACADVER
  1
AC1014
  9
$ACADMAINTVER
 70
     9
  9
$DWGCODEPAGE
  3
ANSI_932
  9
$INSBASE
 10
0.0
 20
0.0
 30
0.0
  9
$EXTMIN
 10
-25.01357929
 20
-21.00970385
 30
-0.00152582
  9
$EXTMAX
 10
72.0178229
 20
60.99408006
 30
0.00000003
  9
$LIMMIN
 10
0.0
 20
0.0
  9
$LIMMAX
 10
420.0
 20
297.0
  9
$ORTHOMODE
 70
     0
  9
$REGENMODE
 70
     1
  9
$FILLMODE
 70
     1
  9
$QTEXTMODE
 70
     0
  9
$MIRRTEXT
 70
     1
  9
$DRAGMODE
 70
     2
  9
$LTSCALE
 40
10.0
  9
$OSMODE
 70
   549
  9
$ATTMODE
 70
     1
  9
$TEXTSIZE
 40
3.0
  9
$TRACEWID
 40
1.0
  9
$TEXTSTYLE
  7
YOKO
  9
$CLAYER
  8
245
  9
$CELTYPE
  6
BYLAYER
  9
$CECOLOR
 62
   256
  9
$CELTSCALE
 40
1.0
  9
$DELOBJ
 70
     1
  9
$DISPSILH
 70
     0
  9
$DIMSCALE
 40
1.0
  9
$DIMASZ
 40
2.0
  9
$DIMEXO
 40
2.0
  9
$DIMDLI
 40
2.5
  9
$DIMRND
 40
0.0
  9
$DIMDLE
 40
0.0
  9
$DIMEXE
 40
2.0
  9
$DIMTP
 40
0.0
  9
$DIMTM
 40
0.0
  9
$DIMTXT
 40
4.0
  9
$DIMCEN
 40
0.0
  9
$DIMTSZ
 40
0.0
  9
$DIMTOL
 70
     0
  9
$DIMLIM
 70
     0
  9
$DIMTIH
 70
     0
  9
$DIMTOH
 70
     0
  9
$DIMSE1
 70
     0
  9
$DIMSE2
 70
     0
  9
$DIMTAD
 70
     3
  9
$DIMZIN
 70
     8
  9
$DIMBLK
  1

  9
$DIMASO
 70
     1
  9
$DIMSHO
 70
     1
  9
$DIMPOST
  1

  9
$DIMAPOST
  1

  9
$DIMALT
 70
     0
  9
$DIMALTD
 70
     2
  9
$DIMALTF
 40
25.4
  9
$DIMLFAC
 40
1.0
  9
$DIMTOFL
 70
     1
  9
$DIMTVP
 40
0.0
  9
$DIMTIX
 70
     1
  9
$DIMSOXD
 70
     0
  9
$DIMSAH
 70
     1
  9
$DIMBLK1
  1
OPEN
  9
$DIMBLK2
  1
OPEN
  9
$DIMSTYLE
  2
BIGT
  9
$DIMCLRD
 70
   256
  9
$DIMCLRE
 70
   256
  9
$DIMCLRT
 70
    40
  9
$DIMTFAC
 40
1.0
  9
$DIMGAP
 40
1.0
  9
$DIMJUST
 70
     0
  9
$DIMSD1
 70
     0
  9
$DIMSD2
 70
     0
  9
$DIMTOLJ
 70
     1
  9
$DIMTZIN
 70
     8
  9
$DIMALTZ
 70
     0
  9
$DIMALTTZ
 70
     0
  9
$DIMFIT
 70
     3
  9
$DIMUPT
 70
     0
  9
$DIMUNIT
 70
     2
  9
$DIMDEC
 70
     3
  9
$DIMTDEC
 70
     3
  9
$DIMALTU
 70
     2
  9
$DIMALTTD
 70
     2
  9
$DIMTXSTY
  7
STANDARD
  9
$DIMAUNIT
 70
     0
  9
$LUNITS
 70
     2
  9
$LUPREC
 70
     3
  9
$SKETCHINC
 40
1.0
  9
$FILLETRAD
 40
0.8
  9
$AUNITS
 70
     0
  9
$AUPREC
 70
     3
  9
$MENU
  1
.
  9
$ELEVATION
 40
0.0
  9
$PELEVATION
 40
0.0
  9
$THICKNESS
 40
0.0
  9
$LIMCHECK
 70
     0
  9
$BLIPMODE
 70
     0
  9
$CHAMFERA
 40
10.0
  9
$CHAMFERB
 40
10.0
  9
$CHAMFERC
 40
0.0
  9
$CHAMFERD
 40
0.0
  9
$SKPOLY
 70
     0
  9
$TDCREATE
 40
2454966.458763553
  9
$TDUPDATE
 40
2455223.391234803
  9
$TDINDWG
 40
0.0299821065
  9
$TDUSRTIMER
 40
0.0299819213
  9
$USRTIMER
 70
     1
  9
$ANGBASE
 50
0.0
  9
$ANGDIR
 70
     0
  9
$PDMODE
 70
     1
  9
$PDSIZE
 40
-5.0
  9
$PLINEWID
 40
0.0
  9
$COORDS
 70
     2
  9
$SPLFRAME
 70
     0
  9
$SPLINETYPE
 70
     6
  9
$SPLINESEGS
 70
     8
  9
$ATTDIA
 70
     0
  9
$ATTREQ
 70
     1
  9
$HANDLING
 70
-16383
  9
$HANDSEED
  5
137F
  9
$SURFTAB1
 70
     6
  9
$SURFTAB2
 70
     6
  9
$SURFTYPE
 70
     6
  9
$SURFU
 70
     6
  9
$SURFV
 70
     6
  9
$UCSNAME
  2

  9
$UCSORG
 10
0.0
 20
0.0
 30
0.0
  9
$UCSXDIR
 10
1.0
 20
0.0
 30
0.0
  9
$UCSYDIR
 10
0.0
 20
1.0
 30
0.0
  9
$PUCSNAME
  2

  9
$PUCSORG
 10
0.0
 20
0.0
 30
0.0
  9
$PUCSXDIR
 10
1.0
 20
0.0
 30
0.0
  9
$PUCSYDIR
 10
0.0
 20
1.0
 30
0.0
  9
$USERI1
 70
     1
  9
$USERI2
 70
     0
  9
$USERI3
 70
     0
  9
$USERI4
 70
     0
  9
$USERI5
 70
     0
  9
$USERR1
 40
0.0
  9
$USERR2
 40
0.0
  9
$USERR3
 40
0.0
  9
$USERR4
 40
0.0
  9
$USERR5
 40
0.0
  9
$WORLDVIEW
 70
     1
  9
$SHADEDGE
 70
     3
  9
$SHADEDIF
 70
    70
  9
$TILEMODE
 70
     1
  9
$MAXACTVP
 70
    16
  9
$PINSBASE
 10
0.0
 20
0.0
 30
0.0
  9
$PLIMCHECK
 70
     0
  9
$PEXTMIN
 10
1.00000000E+20
 20
1.00000000E+20
 30
1.00000000E+20
  9
$PEXTMAX
 10
-1.00000000E+20
 20
-1.00000000E+20
 30
-1.00000000E+20
  9
$PLIMMIN
 10
0.0
 20
0.0
  9
$PLIMMAX
 10
420.0
 20
297.0
  9
$UNITMODE
 70
     0
  9
$VISRETAIN
 70
     0
  9
$PLINEGEN
 70
     0
  9
$PSLTSCALE
 70
     1
  9
$TREEDEPTH
 70
  3020
  9
$PICKSTYLE
 70
     0
  9
$CMLSTYLE
  2
STANDARD
  9
$CMLJUST
 70
     0
  9
$CMLSCALE
 40
1.0
  9
$PROXYGRAPHICS
 70
     1
  9
$MEASUREMENT
 70
     1
  0
ENDSEC
  0
SECTION
  2
CLASSES
  0
CLASS
  1
XRECORD
  2
AcDbXrecord
  3
AutoCAD 2000
 90
        0
280
     0
281
     0
  0
CLASS
  1
ACDBDICTIONARYWDFLT
  2
AcDbDictionaryWithDefault
  3
AutoCAD 2000
 90
        0
280
     0
281
     0
  0
CLASS
  1
ACDBPLACEHOLDER
  2
AcDbPlaceHolder
  3
AutoCAD 2000
 90
        0
280
     0
281
     0
  0
CLASS
  1
LAYOUT
  2
AcDbLayout
  3
AutoCAD 2000
 90
        0
280
     0
281
     0
  0
CLASS
  1
PLOTSETTINGS
  2
AcDbPlotSettings
  3
AutoCAD 2000
 90
        0
280
     0
281
     0
  0
CLASS
  1
LONG_TRANSACTION
  2
AcDbLongTransaction
  3
AutoCAD 2000
 90
        0
280
     0
281
     0
  0
CLASS
  1
LWPOLYLINE
  2
AcDbPolyline
  3
AutoCAD 2000
 90
        0
280
     0
281
     1
  0
CLASS
  1
HATCH
  2
AcDbHatch
  3
AutoCAD 2000
 90
        0
280
     0
281
     1
  0
CLASS
  1
XRECORD
  2
AcDbXrecord
  3
AutoCAD 2000
 90
        0
280
     0
281
     0
  0
CLASS
  1
LONG_TRANSACTION
  2
AcDbLongTransaction
  3
AutoCAD 2000
 90
        0
280
     0
281
     0
  0
CLASS
  1
LWPOLYLINE
  2
AcDbPolyline
  3
AutoCAD 2000
 90
        0
280
     0
281
     1
  0
CLASS
  1
HATCH
  2
AcDbHatch
  3
AutoCAD 2000
 90
        0
280
     0
281
     1
  0
CLASS
  1
XRECORD
  2
AcDbXrecord
  3
AutoCAD 2000
 90
        0
280
     0
281
     0
  0
CLASS
  1
LONG_TRANSACTION
  2
AcDbLongTransaction
  3
AutoCAD 2000
 90
        0
280
     0
281
     0
  0
CLASS
  1
LWPOLYLINE
  2
AcDbPolyline
  3
AutoCAD 2000
 90
        0
280
     0
281
     1
  0
CLASS
  1
HATCH
  2
AcDbHatch
  3
AutoCAD 2000
 90
        0
280
     0
281
     1
  0
CLASS
  1
XRECORD
  2
AcDbXrecord
  3
AutoCAD 2000
 90
        0
280
     0
281
     0
  0
CLASS
  1
LONG_TRANSACTION
  2
AcDbLongTransaction
  3
AutoCAD 2000
 90
        0
280
     0
281
     0
  0
CLASS
  1
LWPOLYLINE
  2
AcDbPolyline
  3
AutoCAD 2000
 90
        0
280
     0
281
     1
  0
CLASS
  1
HATCH
  2
AcDbHatch
  3
AutoCAD 2000
 90
        0
280
     0
281
     1
  0
CLASS
  1
XRECORD
  2
AcDbXrecord
  3
AutoCAD 2000
 90
        0
280
     0
281
     0
  0
CLASS
  1
LONG_TRANSACTION
  2
AcDbLongTransaction
  3
AutoCAD 2000
 90
        0
280
     0
281
     0
  0
CLASS
  1
LWPOLYLINE
  2
AcDbPolyline
  3
AutoCAD 2000
 90
        0
280
     0
281
     1
  0
CLASS
  1
HATCH
  2
AcDbHatch
  3
AutoCAD 2000
 90
        0
280
     0
281
     1
  0
CLASS
  1
XRECORD
  2
AcDbXrecord
  3
AutoCAD 2000
 90
        0
280
     0
281
     0
  0
CLASS
  1
LONG_TRANSACTION
  2
AcDbLongTransaction
  3
AutoCAD 2000
 90
        0
280
     0
281
     0
  0
CLASS
  1
LWPOLYLINE
  2
AcDbPolyline
  3
AutoCAD 2000
 90
        0
280
     0
281
     1
  0
CLASS
  1
HATCH
  2
AcDbHatch
  3
AutoCAD 2000
 90
        0
280
     0
281
     1
  0
CLASS
  1
XRECORD
  2
AcDbXrecord
  3
AutoCAD 2000
 90
        0
280
     0
281
     0
  0
CLASS
  1
LONG_TRANSACTION
  2
AcDbLongTransaction
  3
AutoCAD 2000
 90
        0
280
     0
281
     0
  0
CLASS
  1
LWPOLYLINE
  2
AcDbPolyline
  3
AutoCAD 2000
 90
        0
280
     0
281
     1
  0
CLASS
  1
HATCH
  2
AcDbHatch
  3
AutoCAD 2000
 90
        0
280
     0
281
     1
  0
CLASS
  1
XRECORD
  2
AcDbXrecord
  3
AutoCAD 2000
 90
        0
280
     0
281
     0
  0
CLASS
  1
LONG_TRANSACTION
  2
AcDbLongTransaction
  3
AutoCAD 2000
 90
        0
280
     0
281
     0
  0
CLASS
  1
LWPOLYLINE
  2
AcDbPolyline
  3
AutoCAD 2000
 90
        0
280
     0
281
     1
  0
CLASS
  1
HATCH
  2
AcDbHatch
  3
AutoCAD 2000
 90
        0
280
     0
281
     1
  0
CLASS
  1
XRECORD
  2
AcDbXrecord
  3
AutoCAD 2000
 90
        0
280
     0
281
     0
  0
ENDSEC
  0
SECTION
  2
TABLES
  0
TABLE
  2
VPORT
  5
8
330
0
100
AcDbSymbolTable
 70
     4
  0
VPORT
  5
135A
330
8
100
AcDbSymbolTableRecord
100
AcDbViewportTableRecord
  2
*ACTIVE
 70
     0
 10
0.0
 20
0.0
 11
1.0
 21
1.0
 12
23.50212181
 22
19.9921881
 13
0.0
 23
0.0
 14
7.0
 24
7.0
 15
7.0
 25
7.0
 16
0.0
 26
0.0
 36
1.0
 17
0.0
 27
0.0
 37
0.0
 40
82.62976699
 41
1.43184713
 42
50.0
 43
0.0
 44
0.0
 50
0.0
 51
0.0
 71
     0
 72
  2000
 73
     1
 74
     0
 75
     0
 76
     0
 77
     0
 78
     0
  0
ENDTAB
  0
TABLE
  2
LTYPE
  5
5
330
0
100
AcDbSymbolTable
 70
     3
  0
LTYPE
  5
14
330
5
100
AcDbSymbolTableRecord
100
AcDbLinetypeTableRecord
  2
BYBLOCK
 70
     0
  3

 72
    65
 73
     0
 40
0.0
  0
LTYPE
  5
15
330
5
100
AcDbSymbolTableRecord
100
AcDbLinetypeTableRecord
  2
BYLAYER
 70
     0
  3

 72
    65
 73
     0
 40
0.0
  0
LTYPE
  5
16
330
5
100
AcDbSymbolTableRecord
100
AcDbLinetypeTableRecord
  2
CONTINUOUS
 70
     0
  3
Solid line
 72
    65
 73
     0
 40
0.0
  0
LTYPE
  5
258
330
5
100
AcDbSymbolTableRecord
100
AcDbLinetypeTableRecord
  2
CENTER2
 70
     0
  3
___ _ ___ _ ___ _ ___ _ ___ _ ___ _ ___ _ ___ _
 72
    65
 73
     4
 40
1.125
 49
0.75
 74
     0
 49
-0.125
 74
     0
 49
0.125
 74
     0
 49
-0.125
 74
     0
  0
LTYPE
  5
25C
330
5
100
AcDbSymbolTableRecord
100
AcDbLinetypeTableRecord
  2
HIDDEN2
 70
     0
  3
_ _ _ _ _ _ _ _ _ _ _ _ _ _ _ _ _ _ _ _ _ _ _ _
 72
    65
 73
     2
 40
0.1875
 49
0.125
 74
     0
 49
-0.0625
 74
     0
  0
ENDTAB
  0
TABLE
  2
LAYER
  5
2
330
0
100
AcDbSymbolTable
 70
     9
  0
LAYER
  5
F
330
2
100
AcDbSymbolTableRecord
100
AcDbLayerTableRecord
  2
0
 70
     0
 62
     7
  6
CONTINUOUS
  0
LAYER
  5
1AA
330
2
100
AcDbSymbolTableRecord
100
AcDbLayerTableRecord
  2
240
 70
     0
 62
     4
  6
CONTINUOUS
  0
LAYER
  5
1AB
330
2
100
AcDbSymbolTableRecord
100
AcDbLayerTableRecord
  2
241
 70
     0
 62
   211
  6
CONTINUOUS
  0
LAYER
  5
1AF
330
2
100
AcDbSymbolTableRecord
100
AcDbLayerTableRecord
  2
245
 70
     0
 62
     2
  6
CENTER2
  0
LAYER
  5
21E
330
2
100
AcDbSymbolTableRecord
100
AcDbLayerTableRecord
  2
250
 70
     0
 62
     3
  6
CONTINUOUS
  0
LAYER
  5
21F
330
2
100
AcDbSymbolTableRecord
100
AcDbLayerTableRecord
  2
251
 70
     0
 62
    40
  6
CONTINUOUS
  0
LAYER
  5
5C4
330
2
100
AcDbSymbolTableRecord
100
AcDbLayerTableRecord
  2
DEFPOINTS
 70
     0
 62
     7
  6
CONTINUOUS
  0
LAYER
  5
993
330
2
100
AcDbSymbolTableRecord
100
AcDbLayerTableRecord
  2
242
 70
     0
 62
     3
  6
CONTINUOUS
  0
ENDTAB
  0
TABLE
  2
STYLE
  5
3
330
0
100
AcDbSymbolTable
 70
     2
  0
STYLE
  5
10
330
3
100
AcDbSymbolTableRecord
100
AcDbTextStyleTableRecord
  2
STANDARD
 70
     0
 40
0.0
 41
1.0
 50
0.0
 71
     0
 42
3.0
  3
romans.shx
  4
BIGFONT.SHX
  0
STYLE
  5
339
330
3
100
AcDbSymbolTableRecord
100
AcDbTextStyleTableRecord
  2
YOKO
 70
     0
 40
0.0
 41
1.0
 50
0.0
 71
     0
 42
3.0
  3
romans.shx
  4
extfont.shx
  0
ENDTAB
  0
TABLE
  2
VIEW
  5
6
330
0
100
AcDbSymbolTable
 70
     1
  0
VIEW
  5
1358
330
6
100
AcDbSymbolTableRecord
100
AcDbViewTableRecord
  2
OLE1
 70
     0
 40
82.62976699
 10
23.50212181
 20
19.9921881
 41
118.31319503
 11
0.0
 21
0.0
 31
1.0
 12
0.0
 22
0.0
 32
0.0
 42
50.0
 43
0.0
 44
0.0
 50
0.0
 71
     0
  0
ENDTAB
  0
TABLE
  2
UCS
  5
7
330
0
100
AcDbSymbolTable
 70
     0
  0
ENDTAB
  0
TABLE
  2
APPID
  5
9
330
0
100
AcDbSymbolTable
 70
     9
  0
APPID
  5
11
330
9
100
AcDbSymbolTableRecord
100
AcDbRegAppTableRecord
  2
ACAD
 70
     0
  0
APPID
  5
1B1
330
9
100
AcDbSymbolTableRecord
100
AcDbRegAppTableRecord
  2
GLOBAL
 70
     0
  0
APPID
  5
2A4
330
9
100
AcDbSymbolTableRecord
100
AcDbRegAppTableRecord
  2
DETAIL
 70
     0
  0
APPID
  5
5FD
330
9
100
AcDbSymbolTableRecord
100
AcDbRegAppTableRecord
  2
GRPNAME
 70
     0
  0
APPID
  5
5FE
330
9
100
AcDbSymbolTableRecord
100
AcDbRegAppTableRecord
  2
GPARA
 70
     0
  0
APPID
  5
6C4
330
9
100
AcDbSymbolTableRecord
100
AcDbRegAppTableRecord
  2
DCO15
 70
     0
  0
APPID
  5
6C5
330
9
100
AcDbSymbolTableRecord
100
AcDbRegAppTableRecord
  2
ITEMNAME
 70
     0
  0
APPID
  5
6C6
330
9
100
AcDbSymbolTableRecord
100
AcDbRegAppTableRecord
  2
GRADE_0
 70
     0
  0
APPID
  5
986
330
9
100
AcDbSymbolTableRecord
100
AcDbRegAppTableRecord
  2
CONTENTBLOCKICON
 70
     0
  0
ENDTAB
  0
TABLE
  2
DIMSTYLE
  5
A
330
0
100
AcDbSymbolTable
 70
     5
  0
DIMSTYLE
105
725
330
A
100
AcDbSymbolTableRecord
100
AcDbDimStyleTableRecord
  2
BIGT
 70
     0
  3

  4

  5

  6
OPEN
  7
OPEN
 40
1.0
 41
2.23
 42
0.5
 43
2.5
 44
1.0
 45
0.0
 46
0.0
 47
0.0
 48
0.0
140
2.8
141
0.0
142
0.0
143
25.4
144
1.0
145
0.0
146
1.0
147
1.0
 71
     0
 72
     0
 73
     0
 74
     0
 75
     0
 76
     0
 77
     3
 78
     8
170
     0
171
     2
172
     1
173
     1
174
     1
175
     0
176
   256
177
   256
178
    40
270
     2
271
     3
272
     3
273
     2
274
     2
340
10
275
     0
280
     0
281
     0
282
     0
283
     1
284
     8
285
     0
286
     0
287
     3
288
     0
  0
DIMSTYLE
105
791
102
{ACAD_REACTORS
330
7F8
330
A26
330
A59
330
104A
330
104B
102
}
330
A
100
AcDbSymbolTableRecord
100
AcDbDimStyleTableRecord
  2
BIGT$0
 70
     0
  3

  4
"
  5
OPEN
  6

  7

 40
1.0
 41
2.23
 42
0.5
 43
7.0
 44
1.0
 45
0.0
 46
0.0
 47
0.1
 48
0.1
140
3.0
141
0.0
142
0.0
143
0.0393701
144
1.0
145
0.0
146
0.71
147
1.0
 71
     0
 72
     0
 73
     0
 74
     0
 75
     0
 76
     0
 77
     3
 78
     8
170
     0
171
     2
172
     1
173
     0
174
     0
175
     0
176
     3
177
     3
178
    40
270
     2
271
     3
272
     3
273
     2
274
     2
340
10
275
     0
280
     0
281
     0
282
     0
283
     1
284
     8
285
     0
286
     0
287
     3
288
     0
  0
ENDTAB
  0
TABLE
  2
BLOCK_RECORD
  5
1
330
0
100
AcDbSymbolTable
 70
    10
  0
BLOCK_RECORD
  5
1A
102
{ACAD_XDICTIONARY
360
984
102
}
330
1
100
AcDbSymbolTableRecord
100
AcDbBlockTableRecord
  2
*MODEL_SPACE
  0
BLOCK_RECORD
  5
17
102
{ACAD_XDICTIONARY
360
982
102
}
330
1
100
AcDbSymbolTableRecord
100
AcDbBlockTableRecord
  2
*PAPER_SPACE
  0
BLOCK_RECORD
  5
594
330
1
100
AcDbSymbolTableRecord
100
AcDbBlockTableRecord
  2
_OPEN
  0
BLOCK_RECORD
  5
6E3
330
1
100
AcDbSymbolTableRecord
100
AcDbBlockTableRecord
  2
矢印なし
  0
BLOCK_RECORD
  5
76C
330
1
100
AcDbSymbolTableRecord
100
AcDbBlockTableRecord
  2
_NONE
  0
BLOCK_RECORD
  5
850
330
1
100
AcDbSymbolTableRecord
100
AcDbBlockTableRecord
  2
*D3
  0
BLOCK_RECORD
  5
8E2
330
1
100
AcDbSymbolTableRecord
100
AcDbBlockTableRecord
  2
1
1001
CONTENTBLOCKICON
1071
        0
1004
2800000020000000200000000100080000000000000400000000000000000000000000000000000000000000000080000080000000808000800000008000800080800000C0C0C000C0DCC000F0CAA6000020400000206000002080000020A0000020C0000020E00000400000004020000040400000406000004080000040A0
1004
000040C0000040E00000600000006020000060400000606000006080000060A0000060C0000060E00000800000008020000080400000806000008080000080A0000080C0000080E00000A0000000A0200000A0400000A0600000A0800000A0A00000A0C00000A0E00000C0000000C0200000C0400000C0600000C0800000C0
1004
A00000C0C00000C0E00000E0000000E0200000E0400000E0600000E0800000E0A00000E0C00000E0E00040000000400020004000400040006000400080004000A0004000C0004000E00040200000402020004020400040206000402080004020A0004020C0004020E000404000004040200040404000404060004040800040
1004
40A0004040C0004040E00040600000406020004060400040606000406080004060A0004060C0004060E00040800000408020004080400040806000408080004080A0004080C0004080E00040A0000040A0200040A0400040A0600040A0800040A0A00040A0C00040A0E00040C0000040C0200040C0400040C0600040C08000
1004
40C0A00040C0C00040C0E00040E0000040E0200040E0400040E0600040E0800040E0A00040E0C00040E0E00080000000800020008000400080006000800080008000A0008000C0008000E00080200000802020008020400080206000802080008020A0008020C0008020E00080400000804020008040400080406000804080
1004
008040A0008040C0008040E00080600000806020008060400080606000806080008060A0008060C0008060E00080800000808020008080400080806000808080008080A0008080C0008080E00080A0000080A0200080A0400080A0600080A0800080A0A00080A0C00080A0E00080C0000080C0200080C0400080C0600080C0
1004
800080C0A00080C0C00080C0E00080E0000080E0200080E0400080E0600080E0800080E0A00080E0C00080E0E000C0000000C0002000C0004000C0006000C0008000C000A000C000C000C000E000C0200000C0202000C0204000C0206000C0208000C020A000C020C000C020E000C0400000C0402000C0404000C0406000C0
1004
408000C040A000C040C000C040E000C0600000C0602000C0604000C0606000C0608000C060A000C060C000C060E000C0800000C0802000C0804000C0806000C0808000C080A000C080C000C080E000C0A00000C0A02000C0A04000C0A06000C0A08000C0A0A000C0A0C000C0A0E000C0C00000C0C02000C0C04000C0C06000
1004
C0C08000C0C0A000F0FBFF00A4A0A000808080000000FF0000FF000000FFFF00FF000000FF00FF00FFFF0000FFFFFF0000000000000000000000000000000000000000000000000000000000000000000000000000000000000000000000000000000000000000000000000000000000000000000000000000000000000000
1004
00000000000000000000000000000000000000000000000000000000000000000000000000000000000000000000000000000000000000000000000000000000000000000000000000000000000000000000000000000000000000000000000000000000000000000000000000000000000000000000000000000000000000
1004
0000000000000000000000000000000000000000000000000000000000000000000000000000000000000000000000000000000000000000000000000000000000000000000000000000000000000000000000000000000000000000FEFEE7E7FEFEFEFEFEFEFEFEFEFEFEFEFEFEFEFE000000000000000000000000FE00E7
1004
E7E70000E7000000FEE7E70000000000FE00000000FEFAFAFEFEFEFEFEFE00E7E7E70000E7000000FEE7E70000000000FE00000000FAFA0000000000E7E700E7E7E70000E7000000E7E7E70000000000FE00000000E7000000000000E7E700E7E7E70000E7000000E7E7E70000000000FE00000000E7000000000000E7E700
1004
E7E7000000E7000000E7E7E70000000000FE00000000E7000000000000E7E7000000000000E7000000E7E7E70000000000FE000000FBFEFBFBFBFBFBFBE7E7FBFBE7FBFBE7E7FBFBFBE7E7E7FBFBFBFBFBFEFB000000FE000000000000E7E700E7E7E7E7E7E7E7E7E7E7E7E7E7E7E7E7E7FE00000000FE000000000000E7E7
1004
00E7E7E7E7E7E7E7E7E7E7E7E7E7E7E7E7E7E700000000FE000000000000E7E700E7E7E70000E7000000E7E7E7000000E700FE00000000FE000000000000E7E700E7E7E70000E7000000E7E7E7E7FAFAE700FE00000000FEFEFEFEFEFEFEFEFE00E7E7E70000E7000000FEE7E70000000000FE000000000000000000000000
1004
FEFEE7E7FEFEFEFEFEFEFEFEFEFEFEFEFEFEFEFE0000000000000000000000000000000000000000000000000000000000000000000000000000000000000000000000000000000000000000000000000000000000000000000000000000000000000000000000000000000000000000000000000000000000000000000000
1004
00000000000000000000000000000000000000000000000000000000000000000000000000000000000000000000000000000000000000000000000000000000000000000000000000000000000000000000000000000000000000000000000000000000000000000000000000000000000000000000000000000000000000
1004
0000000000000000000000000000000000000000000000000000000000000000000000000000000000000000000000000000000000000000
  0
BLOCK_RECORD
  5
A27
330
1
100
AcDbSymbolTableRecord
100
AcDbBlockTableRecord
  2
*D5
  0
BLOCK_RECORD
  5
A5A
330
1
100
AcDbSymbolTableRecord
100
AcDbBlockTableRecord
  2
*D6
  0
BLOCK_RECORD
  5
1078
330
1
100
AcDbSymbolTableRecord
100
AcDbBlockTableRecord
  2
*D7
  0
BLOCK_RECORD
  5
1084
330
1
100
AcDbSymbolTableRecord
100
AcDbBlockTableRecord
  2
*D8
  0
ENDTAB
  0
ENDSEC
  0
SECTION
  2
BLOCKS
  0
BLOCK
  5
1B
330
1A
100
AcDbEntity
  8
0
100
AcDbBlockBegin
  2
*MODEL_SPACE
 70
     0
 10
0.0
 20
0.0
 30
0.0
  3
*MODEL_SPACE
  1

  0
ENDBLK
  5
1C
330
1A
100
AcDbEntity
  8
0
100
AcDbBlockEnd
  0
BLOCK
  5
18
330
17
100
AcDbEntity
 67
     1
  8
0
100
AcDbBlockBegin
  2
*PAPER_SPACE
 70
     0
 10
0.0
 20
0.0
 30
0.0
  3
*PAPER_SPACE
  1

  0
ENDBLK
  5
19
330
17
100
AcDbEntity
 67
     1
  8
0
100
AcDbBlockEnd
  0
BLOCK
  5
598
330
594
100
AcDbEntity
  8
0
100
AcDbBlockBegin
  2
_OPEN
 70
     0
 10
0.0
 20
0.0
 30
0.0
  3
_OPEN
  1

  0
LINE
  5
595
330
594
100
AcDbEntity
  8
0
  6
BYBLOCK
 62
     0
100
AcDbLine
 10
-1.0
 20
0.16666667
 30
0.0
 11
0.0
 21
0.0
 31
0.0
  0
LINE
  5
596
330
594
100
AcDbEntity
  8
0
  6
BYBLOCK
 62
     0
100
AcDbLine
 10
-1.0
 20
-0.16666667
 30
0.0
 11
0.0
 21
0.0
 31
0.0
  0
LINE
  5
597
330
594
100
AcDbEntity
  8
0
  6
BYBLOCK
 62
     0
100
AcDbLine
 10
0.0
 20
0.0
 30
0.0
 11
-1.0
 21
0.0
 31
0.0
  0
ENDBLK
  5
599
330
594
100
AcDbEntity
  8
0
100
AcDbBlockEnd
  0
BLOCK
  5
6E4
330
6E3
100
AcDbEntity
  8
0
100
AcDbBlockBegin
  2
矢印なし
 70
     0
 10
0.0
 20
0.0
 30
0.0
  3
矢印なし
  1

  0
ENDBLK
  5
6E5
330
6E3
100
AcDbEntity
  8
0
100
AcDbBlockEnd
  0
BLOCK
  5
76D
330
76C
100
AcDbEntity
  8
0
100
AcDbBlockBegin
  2
_NONE
 70
     0
 10
0.0
 20
0.0
 30
0.0
  3
_NONE
  1

  0
ENDBLK
  5
76E
330
76C
100
AcDbEntity
  8
0
100
AcDbBlockEnd
  0
BLOCK
  5
85A
330
850
100
AcDbEntity
  8
0
100
AcDbBlockBegin
  2
*D3
 70
     1
 10
0.0
 20
0.0
 30
0.0
  3
*D3
  1

  0
LINE
  5
A66
330
850
100
AcDbEntity
  8
250
  6
CONTINUOUS
 62
     3
100
AcDbLine
 10
0.0
 20
20.19
 30
0.0
 11
0.0
 21
42.993
 31
0.0
  0
LINE
  5
A67
330
850
100
AcDbEntity
  8
250
  6
CONTINUOUS
 62
     3
100
AcDbLine
 10
55.0
 20
17.305322
 30
0.0
 11
55.0
 21
42.993
 31
0.0
  0
LINE
  5
A68
330
850
100
AcDbEntity
  8
250
  6
CONTINUOUS
 62
     3
100
AcDbLine
 10
2.23
 20
41.993
 30
0.0
 11
52.77
 21
41.993
 31
0.0
  0
INSERT
  5
A69
330
850
100
AcDbEntity
  8
250
  6
CONTINUOUS
 62
     3
100
AcDbBlockReference
  2
_OPEN
 10
0.0
 20
41.993
 30
0.0
 41
2.23
 42
2.23
 43
2.23
 50
180.0
  0
INSERT
  5
A6A
330
850
100
AcDbEntity
  8
250
  6
CONTINUOUS
 62
     3
100
AcDbBlockReference
  2
_OPEN
 10
55.0
 20
41.993
 30
0.0
 41
2.23
 42
2.23
 43
2.23
  0
MTEXT
  5
A6B
330
850
100
AcDbEntity
  8
250
  6
CONTINUOUS
 62
    40
100
AcDbMText
 10
27.5
 20
44.493
 30
0.0
 40
3.0
 41
0.0
 71
     5
 72
     1
  1
\A1;55
1001
ACAD
1000
MTEXTBEGIN
1070
    73
1070
     1
1070
    44
1040
1.0
1070
    74
1070
     0
1000
MTEXTEND
1000
MTEXTBEGIN
1070
    73
1070
     1
1070
    44
1040
1.0
1070
    74
1070
     0
1000
MTEXTEND
1000
MTEXTBEGIN
1070
    73
1070
     1
1070
    44
1040
1.0
1070
    74
1070
     0
1000
MTEXTEND
1000
MTEXTBEGIN
1070
    73
1070
     1
1070
    44
1040
1.0
1070
    74
1070
     0
1000
MTEXTEND
1000
MTEXTBEGIN
1070
    73
1070
     1
1070
    44
1040
1.0
1070
    74
1070
     0
1000
MTEXTEND
1000
MTEXTBEGIN
1070
    73
1070
     1
1070
    44
1040
1.0
1070
    74
1070
     0
1000
MTEXTEND
1000
MTEXTBEGIN
1070
    73
1070
     1
1070
    44
1040
1.0
1070
    74
1070
     0
1000
MTEXTEND
  0
POINT
  5
A6C
330
850
100
AcDbEntity
  8
DEFPOINTS
  6
CONTINUOUS
 62
     0
100
AcDbPoint
 10
0.0
 20
19.69
 30
0.0
  0
POINT
  5
A6D
330
850
100
AcDbEntity
  8
DEFPOINTS
  6
CONTINUOUS
 62
     0
100
AcDbPoint
 10
55.0
 20
16.805322
 30
0.0
  0
POINT
  5
A6E
330
850
100
AcDbEntity
  8
DEFPOINTS
  6
CONTINUOUS
 62
     0
100
AcDbPoint
 10
55.0
 20
41.993
 30
0.0
  0
ENDBLK
  5
85B
330
850
100
AcDbEntity
  8
0
100
AcDbBlockEnd
  0
BLOCK
  5
8E3
330
8E2
100
AcDbEntity
  8
0
100
AcDbBlockBegin
  2
1
 70
     0
 10
0.0
 20
0.0
 30
0.0
  3
1
  1

  0
LINE
  5
12D0
330
8E2
100
AcDbEntity
  8
240
  6
CONTINUOUS
100
AcDbLine
 10
-22.5
 20
14.39995605
 30
0.0
 11
-1.8
 21
14.91750154
 31
0.0
  0
LINE
  5
12D1
330
8E2
100
AcDbEntity
  8
240
  6
CONTINUOUS
100
AcDbLine
 10
-1.8
 20
-13.11750154
 30
0.0
 11
-22.5
 21
-12.59995598
 31
0.0
  0
LINE
  5
12D2
330
8E2
100
AcDbEntity
  8
245
  6
CENTER2
100
AcDbLine
 10
-25.0
 20
0.0
 30
0.0
 11
56.0
 21
0.0
 31
0.0
  0
LINE
  5
12D3
330
8E2
100
AcDbEntity
  8
240
  6
CONTINUOUS
100
AcDbLine
 10
-24.0
 20
-11.73393058
 30
0.0
 11
-24.0
 21
0.0
 31
0.0
  0
LINE
  5
12D4
330
8E2
100
AcDbEntity
  8
241
100
AcDbLine
 10
-22.5
 20
-12.59995598
 30
0.0
 11
-22.5
 21
0.0
 31
0.0
  0
LINE
  5
12D5
330
8E2
100
AcDbEntity
  8
242
  6
HIDDEN2
100
AcDbLine
 10
-20.0
 20
-12.66246149
 30
0.0
 11
-20.0
 21
-11.0
 31
0.0
  0
LINE
  5
12D6
330
8E2
100
AcDbEntity
  8
242
  6
HIDDEN2
100
AcDbLine
 10
-18.29490745
 20
-12.70509255
 30
0.0
 11
-20.0
 21
-11.0
 31
0.0
  0
LINE
  5
12D7
330
8E2
100
AcDbEntity
  8
240
  6
CONTINUOUS
100
AcDbLine
 10
-22.5
 20
-12.59995598
 30
0.0
 11
-24.0
 21
-11.73393058
 31
0.0
  0
LINE
  5
12D8
330
8E2
100
AcDbEntity
  8
241
100
AcDbLine
 10
-22.5
 20
0.0
 30
0.0
 11
-22.5
 21
14.39995605
 31
0.0
  0
LINE
  5
12D9
330
8E2
100
AcDbEntity
  8
240
  6
CONTINUOUS
100
AcDbLine
 10
-24.0
 20
13.53393065
 30
0.0
 11
-22.5
 21
14.39995605
 31
0.0
  0
LINE
  5
12DA
330
8E2
100
AcDbEntity
  8
240
  6
CONTINUOUS
100
AcDbLine
 10
-24.0
 20
0.0
 30
0.0
 11
-24.0
 21
13.53393065
 31
0.0
  0
LINE
  5
12DB
330
8E2
100
AcDbEntity
  8
242
  6
HIDDEN2
100
AcDbLine
 10
-24.0
 20
-11.0
 30
0.0
 11
-20.0
 21
-11.0
 31
0.0
  0
LINE
  5
12DC
330
8E2
100
AcDbEntity
  8
241
100
AcDbLine
 10
20.0
 20
-18.52360047
 30
0.0
 11
20.0
 21
0.0
 31
0.0
  0
LINE
  5
12DD
330
8E2
100
AcDbEntity
  8
241
  6
CONTINUOUS
100
AcDbLine
 10
35.6999892
 20
-17.5
 30
0.0
 11
35.6999892
 21
0.0
 31
0.0
1001
GRPNAME
1000
PASTMD1S
  0
LINE
  5
12DE
330
8E2
100
AcDbEntity
  8
241
  6
CONTINUOUS
100
AcDbLine
 10
34.4999892
 20
-17.65
 30
0.0
 11
34.4999892
 21
0.0
 31
0.0
1001
GRPNAME
1000
PASTMD1S
  0
LINE
  5
12DF
330
8E2
100
AcDbEntity
  8
241
100
AcDbLine
 10
32.4999892
 20
0.0
 30
0.0
 11
32.4999892
 21
-13.7
 31
0.0
  0
LINE
  5
12E0
330
8E2
100
AcDbEntity
  8
241
100
AcDbLine
 10
31.6999892
 20
0.0
 30
0.0
 11
31.6999892
 21
-13.7
 31
0.0
  0
LINE
  5
12E1
330
8E2
100
AcDbEntity
  8
241
  6
CONTINUOUS
100
AcDbLine
 10
9.3
 20
-5.44344954
 30
0.0
 11
9.3
 21
-19.23457712
 31
0.0
  0
SPLINE
  5
12E2
330
8E2
100
AcDbEntity
  8
241
  6
CONTINUOUS
100
AcDbSpline
210
0.0
220
0.0
230
1.0
 70
     8
 71
     3
 72
     9
 73
     5
 74
     3
 42
0.0000000001
 43
0.0000000001
 44
0.0000000001
 40
0.0
 40
0.0
 40
0.0
 40
0.0
 40
7.118047638474105
 40
14.2360952769482
 40
14.2360952769482
 40
14.2360952769482
 40
14.2360952769482
 10
6.699999999999874
 20
-5.443449540395874
 30
0.0
 10
5.817135035301413
 20
-7.741970804165712
 30
0.0
 10
4.051405105904493
 20
-12.33901333170538
 30
0.0
 10
5.817135035301452
 20
-16.93605585924504
 30
0.0
 10
6.699999999999931
 20
-19.23457712301487
 30
0.0
 11
6.699999999999874
 21
-5.443449540395874
 31
0.0
 11
4.934270070602963
 21
-12.33901333170538
 31
0.0
 11
6.699999999999931
 21
-19.23457712301487
 31
0.0
  0
LINE
  5
12E3
330
8E2
100
AcDbEntity
  8
241
  6
CONTINUOUS
100
AcDbLine
 10
6.7
 20
-5.44344954
 30
0.0
 11
6.7
 21
-19.23457712
 31
0.0
  0
SPLINE
  5
12E4
330
8E2
100
AcDbEntity
  8
241
  6
CONTINUOUS
100
AcDbSpline
210
0.0
220
0.0
230
1.0
 70
     8
 71
     3
 72
     9
 73
     5
 74
     3
 42
0.0000000001
 43
0.0000000001
 44
0.0000000001
 40
0.0
 40
0.0
 40
0.0
 40
0.0
 40
7.11804763847406
 40
14.23609527694818
 40
14.23609527694818
 40
14.23609527694818
 40
14.23609527694818
 10
9.299999999999895
 20
-19.23457712301487
 30
0.0
 10
10.18286496469834
 20
-16.93605585924505
 30
0.0
 10
11.94859489409525
 20
-12.33901333170539
 30
0.0
 10
10.18286496469839
 20
-7.74197080416572
 30
0.0
 10
9.299999999999952
 20
-5.443449540395874
 30
0.0
 11
9.299999999999895
 21
-19.23457712301487
 31
0.0
 11
11.06572992939681
 21
-12.33901333170541
 31
0.0
 11
9.299999999999952
 21
-5.443449540395874
 31
0.0
  0
LINE
  5
12E5
330
8E2
100
AcDbEntity
  8
241
100
AcDbLine
 10
-1.8
 20
-13.11750154
 30
0.0
 11
-1.8
 21
0.0
 31
0.0
  0
LINE
  5
12E6
330
8E2
100
AcDbEntity
  8
241
100
AcDbLine
 10
0.0
 20
-13.11750154
 30
0.0
 11
0.0
 21
0.0
 31
0.0
  0
LINE
  5
12E7
330
8E2
100
AcDbEntity
  8
240
  6
CONTINUOUS
100
AcDbLine
 10
55.0
 20
-16.7
 30
0.0
 11
55.0
 21
0.0
 31
0.0
1001
GRPNAME
1000
PASTMD1S
  0
LINE
  5
12E8
330
8E2
100
AcDbEntity
  8
240
  6
CONTINUOUS
100
AcDbLine
 10
20.0
 20
-18.52360047
 30
0.0
 11
31.24356707
 21
-17.53991582
 31
0.0
1001
GRPNAME
1000
PASTMD02
  0
LINE
  5
12E9
330
8E2
100
AcDbEntity
  8
240
  6
CONTINUOUS
100
AcDbLine
 10
0.3
 20
-19.99
 30
0.0
 11
19.0
 21
-19.99
 31
0.0
  0
LINE
  5
12EA
330
8E2
100
AcDbEntity
  8
240
  6
CONTINUOUS
100
AcDbLine
 10
0.0
 20
-13.11750154
 30
0.0
 11
0.0
 21
-19.69
 31
0.0
  0
ARC
  5
12EB
330
8E2
100
AcDbEntity
  8
240
  6
CONTINUOUS
100
AcDbCircle
 10
0.3
 20
-19.69
 30
0.0
 40
0.3
100
AcDbArc
 50
180.0
 51
270.0
  0
LINE
  5
12EC
330
8E2
100
AcDbEntity
  8
240
100
AcDbLine
 10
-1.8
 20
-13.11750154
 30
0.0
 11
0.0
 21
-13.11750154
 31
0.0
  0
LINE
  5
12ED
330
8E2
100
AcDbEntity
  8
241
  6
CONTINUOUS
100
AcDbLine
 10
6.7
 20
-19.23457712
 30
0.0
 11
9.3
 21
-19.23457712
 31
0.0
  0
ARC
  5
12EE
330
8E2
100
AcDbEntity
  8
240
100
AcDbCircle
 10
19.0
 20
-18.99
 30
0.0
 40
1.0
100
AcDbArc
 50
270.0
 51
0.0
  0
LINE
  5
12EF
330
8E2
100
AcDbEntity
  8
240
100
AcDbLine
 10
20.0
 20
-18.99
 30
0.0
 11
20.0
 21
-18.52360047
 31
0.0
  0
LINE
  5
12F0
330
8E2
100
AcDbEntity
  8
240
  6
CONTINUOUS
100
AcDbLine
 10
54.2
 20
-17.5
 30
0.0
 11
34.75979682
 21
-17.5
 31
0.0
1001
GRPNAME
1000
PASTMD1S
  0
LINE
  5
12F1
330
8E2
100
AcDbEntity
  8
240
  6
CONTINUOUS
100
AcDbLine
 10
31.6999892
 20
-13.7
 30
0.0
 11
32.4999892
 21
-13.7
 31
0.0
1001
GRPNAME
1000
PASTMD1B
  0
ARC
  5
12F2
330
8E2
100
AcDbEntity
  8
240
  6
CONTINUOUS
100
AcDbCircle
 10
31.1999892
 20
-17.04181847
 30
0.0
 40
0.4999999999999958
100
AcDbArc
 50
274.99999999
 51
359.99999999
1001
GRPNAME
1000
PASTMD02
  0
LINE
  5
12F3
330
8E2
100
AcDbEntity
  8
240
  6
CONTINUOUS
100
AcDbLine
 10
31.6999892
 20
-17.04181847
 30
0.0
 11
31.6999892
 21
-13.7
 31
0.0
1001
GRPNAME
1000
PASTMD06
  0
ARC
  5
12F4
330
8E2
100
AcDbEntity
  8
240
  6
CONTINUOUS
100
AcDbCircle
 10
32.9999892
 20
-17.15
 30
0.0
 40
0.5
100
AcDbArc
 50
179.99999998
 51
269.99999998
1001
GRPNAME
1000
PASTMD1S
  0
LINE
  5
12F5
330
8E2
100
AcDbEntity
  8
240
  6
CONTINUOUS
100
AcDbLine
 10
32.9999892
 20
-17.65
 30
0.0
 11
34.4999892
 21
-17.65
 31
0.0
1001
GRPNAME
1000
PASTMD1S
  0
LINE
  5
12F6
330
8E2
100
AcDbEntity
  8
240
100
AcDbLine
 10
34.75979682
 20
-17.5
 30
0.0
 11
34.4999892
 21
-17.65
 31
0.0
  0
LINE
  5
12F7
330
8E2
100
AcDbEntity
  8
240
  6
CONTINUOUS
100
AcDbLine
 10
32.4999892
 20
-17.15
 30
0.0
 11
32.4999892
 21
-13.7
 31
0.0
1001
GRPNAME
1000
PASTMD1S
  0
ARC
  5
12F8
330
8E2
100
AcDbEntity
  8
240
  6
CONTINUOUS
100
AcDbCircle
 10
54.2
 20
-16.7
 30
0.0
 40
0.8
100
AcDbArc
 50
270.0
 51
0.0
1001
GRPNAME
1000
PASTMD1S
  0
LINE
  5
12F9
330
8E2
100
AcDbEntity
  8
240
  6
CONTINUOUS
100
AcDbLine
 10
31.24356707
 20
17.53991582
 30
0.0
 11
20.0
 21
18.52360047
 31
0.0
1001
GRPNAME
1000
PASTMD02
  0
LINE
  5
12FA
330
8E2
100
AcDbEntity
  8
241
  6
HIDDEN2
100
AcDbLine
 10
21.84350753
 20
6.65
 30
0.0
 11
48.9999892
 21
8.54896619
 31
0.0
1001
GRPNAME
1000
PASTMD6S
  0
LINE
  5
12FB
330
8E2
100
AcDbEntity
  8
241
  6
HIDDEN2
100
AcDbLine
 10
17.91819964
 20
5.0
 30
0.0
 11
55.0
 21
5.0
 31
0.0
1001
GRPNAME
1000
PASTMD1P
  0
LINE
  5
12FC
330
8E2
100
AcDbEntity
  8
241
100
AcDbLine
 10
20.0
 20
18.52360047
 30
0.0
 11
20.0
 21
0.0
 31
0.0
  0
LINE
  5
12FD
330
8E2
100
AcDbEntity
  8
241
100
AcDbLine
 10
0.0
 20
0.0
 30
0.0
 11
0.0
 21
14.91750154
 31
0.0
  0
LINE
  5
12FE
330
8E2
100
AcDbEntity
  8
241
100
AcDbLine
 10
-1.8
 20
0.0
 30
0.0
 11
-1.8
 21
14.91750154
 31
0.0
  0
LINE
  5
12FF
330
8E2
100
AcDbEntity
  8
241
  6
CONTINUOUS
100
AcDbLine
 10
9.3
 20
5.44344954
 30
0.0
 11
9.3
 21
19.23457712
 31
0.0
  0
LINE
  5
1300
330
8E2
100
AcDbEntity
  8
241
  6
CONTINUOUS
100
AcDbLine
 10
6.7
 20
5.44344954
 30
0.0
 11
6.7
 21
19.23457712
 31
0.0
  0
SPLINE
  5
1301
330
8E2
100
AcDbEntity
  8
241
  6
CONTINUOUS
100
AcDbSpline
210
0.0
220
0.0
230
1.0
 70
     8
 71
     3
 72
     9
 73
     5
 74
     3
 42
0.0000000001
 43
0.0000000001
 44
0.0000000001
 40
0.0
 40
0.0
 40
0.0
 40
0.0
 40
7.118047638474079
 40
14.23609527694817
 40
14.23609527694817
 40
14.23609527694817
 40
14.23609527694817
 10
6.699999999999846
 20
5.443449540395818
 30
0.0
 10
5.817135035301385
 20
7.741970804165646
 30
0.0
 10
4.051405105904462
 20
12.3390133317053
 30
0.0
 10
5.817135035301423
 20
16.93605585924495
 30
0.0
 10
6.699999999999902
 20
19.23457712301478
 30
0.0
 11
6.699999999999846
 21
5.443449540395818
 31
0.0
 11
4.934270070602933
 21
12.3390133317053
 31
0.0
 11
6.699999999999902
 21
19.23457712301478
 31
0.0
  0
SPLINE
  5
1302
330
8E2
100
AcDbEntity
  8
241
  6
CONTINUOUS
100
AcDbSpline
210
0.0
220
0.0
230
1.0
 70
     8
 71
     3
 72
     9
 73
     5
 74
     3
 42
0.0000000001
 43
0.0000000001
 44
0.0000000001
 40
0.0
 40
0.0
 40
0.0
 40
0.0
 40
7.118047638474028
 40
14.23609527694813
 40
14.23609527694813
 40
14.23609527694813
 40
14.23609527694813
 10
9.299999999999867
 20
19.23457712301478
 30
0.0
 10
10.18286496469831
 20
16.93605585924497
 30
0.0
 10
11.9485948940952
 20
12.33901333170532
 30
0.0
 10
10.18286496469835
 20
7.741970804165664
 30
0.0
 10
9.299999999999926
 20
5.443449540395818
 30
0.0
 11
9.299999999999867
 21
19.23457712301478
 31
0.0
 11
11.06572992939677
 21
12.33901333170535
 31
0.0
 11
9.299999999999926
 21
5.443449540395818
 31
0.0
  0
LINE
  5
1303
330
8E2
100
AcDbEntity
  8
241
  6
HIDDEN2
100
AcDbLine
 10
17.91819964
 20
0.0
 30
0.0
 11
17.91819964
 21
5.20000116
 31
0.0
1001
GRPNAME
1000
PASTMD1P
  0
LINE
  5
1304
330
8E2
100
AcDbEntity
  8
241
  6
HIDDEN2
100
AcDbLine
 10
6.9999847
 20
6.95
 30
0.0
 11
6.9999847
 21
0.0
 31
0.0
1001
GRPNAME
1000
PASTMD1B
  0
LINE
  5
1305
330
8E2
100
AcDbEntity
  8
241
  6
HIDDEN2
100
AcDbLine
 10
9.2999847
 20
6.65
 30
0.0
 11
9.2999847
 21
0.0
 31
0.0
1001
GRPNAME
1000
PASTMD6V
  0
LINE
  5
1306
330
8E2
100
AcDbEntity
  8
241
  6
CONTINUOUS
100
AcDbLine
 10
6.7
 20
-5.44344954
 30
0.0
 11
9.3
 21
-5.44344954
 31
0.0
  0
LINE
  5
1307
330
8E2
100
AcDbEntity
  8
241
  6
HIDDEN2
100
AcDbLine
 10
17.91819964
 20
5.20000116
 30
0.0
 11
9.2999847
 21
5.20000116
 31
0.0
1001
GRPNAME
1000
PASTMD6S
  0
LINE
  5
1308
330
8E2
100
AcDbEntity
  8
241
  6
HIDDEN2
100
AcDbLine
 10
9.2999847
 20
6.65
 30
0.0
 11
21.84350753
 21
6.65
 31
0.0
1001
GRPNAME
1000
PASTMD1B
  0
LINE
  5
1309
330
8E2
100
AcDbEntity
  8
241
  6
HIDDEN2
100
AcDbLine
 10
6.9999847
 20
6.95
 30
0.0
 11
10.6999847
 21
6.95
 31
0.0
1001
GRPNAME
1000
PASTMD1B
  0
LINE
  5
130A
330
8E2
100
AcDbEntity
  8
241
  6
CONTINUOUS
100
AcDbLine
 10
6.7
 20
5.44344954
 30
0.0
 11
9.3
 21
5.44344954
 31
0.0
  0
LINE
  5
130B
330
8E2
100
AcDbEntity
  8
241
  6
HIDDEN2
100
AcDbLine
 10
10.6999847
 20
6.65
 30
0.0
 11
10.6999847
 21
6.95
 31
0.0
1001
GRPNAME
1000
PASTMD06
  0
LINE
  5
130C
330
8E2
100
AcDbEntity
  8
240
  6
CONTINUOUS
100
AcDbLine
 10
0.3
 20
19.99
 30
0.0
 11
19.0
 21
19.99
 31
0.0
  0
ARC
  5
130D
330
8E2
100
AcDbEntity
  8
240
  6
CONTINUOUS
100
AcDbCircle
 10
0.3
 20
19.69
 30
0.0
 40
0.3
100
AcDbArc
 50
90.0
 51
180.0
  0
LINE
  5
130E
330
8E2
100
AcDbEntity
  8
240
100
AcDbLine
 10
-1.8
 20
14.91750154
 30
0.0
 11
0.0
 21
14.91750154
 31
0.0
  0
LINE
  5
130F
330
8E2
100
AcDbEntity
  8
240
  6
CONTINUOUS
100
AcDbLine
 10
0.0
 20
14.91750154
 30
0.0
 11
0.0
 21
19.69
 31
0.0
  0
LINE
  5
1310
330
8E2
100
AcDbEntity
  8
241
  6
CONTINUOUS
100
AcDbLine
 10
6.7
 20
19.23457712
 30
0.0
 11
9.3
 21
19.23457712
 31
0.0
  0
ARC
  5
1311
330
8E2
100
AcDbEntity
  8
240
  6
CONTINUOUS
100
AcDbCircle
 10
19.0
 20
18.99
 30
0.0
 40
1.0
100
AcDbArc
 50
0.0
 51
90.0
  0
LINE
  5
1312
330
8E2
100
AcDbEntity
  8
240
100
AcDbLine
 10
20.0
 20
18.52360047
 30
0.0
 11
20.0
 21
18.99
 31
0.0
  0
LINE
  5
1313
330
8E2
100
AcDbEntity
  8
240
  6
CONTINUOUS
100
AcDbLine
 10
31.6999892
 20
17.04181847
 30
0.0
 11
31.6999892
 21
13.7
 31
0.0
1001
GRPNAME
1000
PASTMD06
  0
LINE
  5
1314
330
8E2
100
AcDbEntity
  8
240
  6
CONTINUOUS
100
AcDbLine
 10
32.4999892
 20
17.15
 30
0.0
 11
32.4999892
 21
13.7
 31
0.0
1001
GRPNAME
1000
PASTMD1S
  0
LINE
  5
1315
330
8E2
100
AcDbEntity
  8
241
  6
CONTINUOUS
100
AcDbLine
 10
34.4999892
 20
17.65
 30
0.0
 11
34.4999892
 21
0.0
 31
0.0
1001
GRPNAME
1000
PASTMD1S
  0
LINE
  5
1316
330
8E2
100
AcDbEntity
  8
241
  6
CONTINUOUS
100
AcDbLine
 10
35.6999892
 20
17.5
 30
0.0
 11
35.6999892
 21
0.0
 31
0.0
1001
GRPNAME
1000
PASTMD1S
  0
LINE
  5
1317
330
8E2
100
AcDbEntity
  8
240
  6
CONTINUOUS
100
AcDbLine
 10
55.0
 20
16.7
 30
0.0
 11
55.0
 21
0.0
 31
0.0
1001
GRPNAME
1000
PASTMD1S
  0
LINE
  5
1318
330
8E2
100
AcDbEntity
  8
241
  6
HIDDEN2
100
AcDbLine
 10
47.5999892
 20
13.5
 30
0.0
 11
38.5499892
 21
13.5
 31
0.0
1001
GRPNAME
1000
PASTMD1B
  0
LINE
  5
1319
330
8E2
100
AcDbEntity
  8
242
  6
HIDDEN2
100
AcDbLine
 10
48.0999892
 20
13.0
 30
0.0
 11
39.0499892
 21
13.0
 31
0.0
1001
GRPNAME
1000
PASTMD1B
  0
LINE
  5
131A
330
8E2
100
AcDbEntity
  8
241
100
AcDbLine
 10
32.4999892
 20
0.0
 30
0.0
 11
32.4999892
 21
13.7
 31
0.0
  0
LINE
  5
131B
330
8E2
100
AcDbEntity
  8
241
100
AcDbLine
 10
31.6999892
 20
0.0
 30
0.0
 11
31.6999892
 21
13.7
 31
0.0
  0
LINE
  5
131C
330
8E2
100
AcDbEntity
  8
240
  6
CONTINUOUS
100
AcDbLine
 10
31.6999892
 20
13.7
 30
0.0
 11
32.4999892
 21
13.7
 31
0.0
1001
GRPNAME
1000
PASTMD1B
  0
LINE
  5
131D
330
8E2
100
AcDbEntity
  8
241
100
AcDbLine
 10
36.1999892
 20
12.76967746
 30
0.0
 11
37.2999892
 21
12.76967746
 31
0.0
  0
LINE
  5
131E
330
8E2
100
AcDbEntity
  8
241
  6
HIDDEN2
100
AcDbLine
 10
36.1999892
 20
12.76967746
 30
0.0
 11
36.1999892
 21
13.7
 31
0.0
1001
GRPNAME
1000
PASTMD1B
  0
LINE
  5
131F
330
8E2
100
AcDbEntity
  8
241
  6
HIDDEN2
100
AcDbLine
 10
32.4999892
 20
13.7
 30
0.0
 11
36.1999892
 21
13.7
 31
0.0
1001
GRPNAME
1000
PASTMD1B
  0
LINE
  5
1320
330
8E2
100
AcDbEntity
  8
242
  6
HIDDEN2
100
AcDbLine
 10
39.0499892
 20
13.0
 30
0.0
 11
38.5499892
 21
13.5
 31
0.0
1001
GRPNAME
1000
PASTMD1B
  0
LINE
  5
1321
330
8E2
100
AcDbEntity
  8
241
  6
HIDDEN2
100
AcDbLine
 10
38.2999892
 20
13.75
 30
0.0
 11
37.2999892
 21
13.75
 31
0.0
1001
GRPNAME
1000
PASTMD1B
  0
LINE
  5
1322
330
8E2
100
AcDbEntity
  8
241
  6
HIDDEN2
100
AcDbLine
 10
38.5499892
 20
13.5
 30
0.0
 11
38.2999892
 21
13.75
 31
0.0
1001
GRPNAME
1000
PASTMD1B
  0
LINE
  5
1323
330
8E2
100
AcDbEntity
  8
241
  6
HIDDEN2
100
AcDbLine
 10
37.2999892
 20
12.76967746
 30
0.0
 11
37.2999892
 21
13.75
 31
0.0
1001
GRPNAME
1000
PASTMD1B
  0
LINE
  5
1324
330
8E2
100
AcDbEntity
  8
241
  6
HIDDEN2
100
AcDbLine
 10
50.0385335
 20
6.75015468
 30
0.0
 11
48.9999892
 21
8.54896619
 31
0.0
1001
GRPNAME
1000
PASTMD6O
  0
LINE
  5
1325
330
8E2
100
AcDbEntity
  8
241
  6
HIDDEN2
100
AcDbLine
 10
48.2999892
 20
9.18783049
 30
0.0
 11
48.2999892
 21
8.50001742
 31
0.0
1001
GRPNAME
1000
PASTMD1B
  0
LINE
  5
1326
330
8E2
100
AcDbEntity
  8
241
  6
HIDDEN2
100
AcDbLine
 10
48.2999892
 20
12.8
 30
0.0
 11
48.2999892
 21
8.50001742
 31
0.0
1001
GRPNAME
1000
PASTMD1B
  0
LINE
  5
1327
330
8E2
100
AcDbEntity
  8
241
  6
HIDDEN2
100
AcDbLine
 10
47.5999892
 20
13.5
 30
0.0
 11
48.2999892
 21
12.8
 31
0.0
1001
GRPNAME
1000
PASTMD06
  0
LINE
  5
1328
330
8E2
100
AcDbEntity
  8
241
  6
HIDDEN2
100
AcDbLine
 10
52.6735335
 20
7.20015468
 30
0.0
 11
55.0
 21
6.35339013
 31
0.0
1001
GRPNAME
1000
PASTMD1O
  0
LINE
  5
1329
330
8E2
100
AcDbEntity
  8
241
  6
HIDDEN2
100
AcDbLine
 10
51.8735335
 20
7.20015468
 30
0.0
 11
52.6735335
 21
7.20015468
 31
0.0
1001
GRPNAME
1000
PASTMD6O
  0
LINE
  5
132A
330
8E2
100
AcDbEntity
  8
241
  6
HIDDEN2
100
AcDbLine
 10
51.4235335
 20
6.75015468
 30
0.0
 11
51.8735335
 21
7.20015468
 31
0.0
1001
GRPNAME
1000
PASTMD6O
  0
LINE
  5
132B
330
8E2
100
AcDbEntity
  8
241
  6
HIDDEN2
100
AcDbLine
 10
50.0385335
 20
6.75015468
 30
0.0
 11
51.4235335
 21
6.75015468
 31
0.0
1001
GRPNAME
1000
PASTMD6O
  0
LINE
  5
132C
330
8E2
100
AcDbEntity
  8
240
  6
CONTINUOUS
100
AcDbLine
 10
54.2
 20
17.5
 30
0.0
 11
34.75979682
 21
17.5
 31
0.0
1001
GRPNAME
1000
PASTMD6P
  0
ARC
  5
132D
330
8E2
100
AcDbEntity
  8
240
  6
CONTINUOUS
100
AcDbCircle
 10
31.1999892
 20
17.04181847
 30
0.0
 40
0.5
100
AcDbArc
 50
359.9999824
 51
85.0
1001
GRPNAME
1000
PASTMD02
  0
LINE
  5
132E
330
8E2
100
AcDbEntity
  8
240
  6
CONTINUOUS
100
AcDbLine
 10
32.9999892
 20
17.65
 30
0.0
 11
34.4999892
 21
17.65
 31
0.0
1001
GRPNAME
1000
PASTMD6P
  0
ARC
  5
132F
330
8E2
100
AcDbEntity
  8
240
  6
CONTINUOUS
100
AcDbCircle
 10
32.9999892
 20
17.15
 30
0.0
 40
0.5
100
AcDbArc
 50
89.99999999
 51
180.0
1001
GRPNAME
1000
PASTMD1S
  0
LINE
  5
1330
330
8E2
100
AcDbEntity
  8
240
100
AcDbLine
 10
34.75979682
 20
17.5
 30
0.0
 11
34.4999892
 21
17.65
 31
0.0
  0
ARC
  5
1331
330
8E2
100
AcDbEntity
  8
240
  6
CONTINUOUS
100
AcDbCircle
 10
54.2
 20
16.7
 30
0.0
 40
0.8
100
AcDbArc
 50
0.0
 51
90.0
1001
GRPNAME
1000
PASTMD6P
  0
ENDBLK
  5
8E4
330
8E2
100
AcDbEntity
  8
0
100
AcDbBlockEnd
  0
BLOCK
  5
A31
330
A27
100
AcDbEntity
  8
0
100
AcDbBlockBegin
  2
*D5
 70
     1
 10
0.0
 20
0.0
 30
0.0
  3
*D5
  1

  0
LINE
  5
10A9
330
A27
100
AcDbEntity
  8
250
  6
CONTINUOUS
 62
     3
100
AcDbLine
 10
6.0
 20
7.45
 30
0.0
 11
6.0
 21
36.0
 31
0.0
  0
LINE
  5
10AA
330
A27
100
AcDbEntity
  8
250
  6
CONTINUOUS
 62
     3
100
AcDbLine
 10
55.0
 20
17.305322
 30
0.0
 11
55.0
 21
36.0
 31
0.0
  0
LINE
  5
10AB
330
A27
100
AcDbEntity
  8
250
  6
CONTINUOUS
 62
     3
100
AcDbLine
 10
8.23
 20
35.0
 30
0.0
 11
52.77
 21
35.0
 31
0.0
  0
INSERT
  5
10AC
330
A27
100
AcDbEntity
  8
250
  6
CONTINUOUS
 62
     3
100
AcDbBlockReference
  2
_OPEN
 10
6.0
 20
35.0
 30
0.0
 41
2.23
 42
2.23
 43
2.23
 50
180.0
  0
INSERT
  5
10AD
330
A27
100
AcDbEntity
  8
250
  6
CONTINUOUS
 62
     3
100
AcDbBlockReference
  2
_OPEN
 10
55.0
 20
35.0
 30
0.0
 41
2.23
 42
2.23
 43
2.23
  0
MTEXT
  5
10AE
330
A27
100
AcDbEntity
  8
250
  6
CONTINUOUS
 62
    40
100
AcDbMText
 10
30.5
 20
37.5
 30
0.0
 40
3.0
 41
0.0
 71
     5
 72
     1
  1
\A1;（max.49）
1001
ACAD
1000
MTEXTBEGIN
1070
    73
1070
     1
1070
    44
1040
1.0
1070
    74
1070
     0
1000
MTEXTEND
1000
MTEXTBEGIN
1070
    73
1070
     1
1070
    44
1040
1.0
1070
    74
1070
     0
1000
MTEXTEND
1000
MTEXTBEGIN
1070
    73
1070
     1
1070
    44
1040
1.0
1070
    74
1070
     0
1000
MTEXTEND
  0
POINT
  5
10AF
330
A27
100
AcDbEntity
  8
DEFPOINTS
  6
CONTINUOUS
 62
     0
100
AcDbPoint
 10
6.0
 20
6.95
 30
0.0
  0
POINT
  5
10B0
330
A27
100
AcDbEntity
  8
DEFPOINTS
  6
CONTINUOUS
 62
     0
100
AcDbPoint
 10
55.0
 20
16.805322
 30
0.0
  0
POINT
  5
10B1
330
A27
100
AcDbEntity
  8
DEFPOINTS
  6
CONTINUOUS
 62
     0
100
AcDbPoint
 10
55.0
 20
35.0
 30
0.0
  0
ENDBLK
  5
A32
330
A27
100
AcDbEntity
  8
0
100
AcDbBlockEnd
  0
BLOCK
  5
A64
330
A5A
100
AcDbEntity
  8
0
100
AcDbBlockBegin
  2
*D6
 70
     1
 10
0.0
 20
0.0
 30
0.0
  3
*D6
  1

  0
LINE
  5
A5B
330
A5A
100
AcDbEntity
  8
250
  6
CONTINUOUS
 62
     3
100
AcDbLine
 10
20.0
 20
19.49
 30
0.0
 11
20.0
 21
29.0
 31
0.0
  0
LINE
  5
A5C
330
A5A
100
AcDbEntity
  8
250
  6
CONTINUOUS
 62
     3
100
AcDbLine
 10
55.0
 20
17.305322
 30
0.0
 11
55.0
 21
29.0
 31
0.0
  0
LINE
  5
A5D
330
A5A
100
AcDbEntity
  8
250
  6
CONTINUOUS
 62
     3
100
AcDbLine
 10
22.23
 20
28.0
 30
0.0
 11
52.77
 21
28.0
 31
0.0
  0
INSERT
  5
A5E
330
A5A
100
AcDbEntity
  8
250
  6
CONTINUOUS
 62
     3
100
AcDbBlockReference
  2
_OPEN
 10
20.0
 20
28.0
 30
0.0
 41
2.23
 42
2.23
 43
2.23
 50
180.0
  0
INSERT
  5
A5F
330
A5A
100
AcDbEntity
  8
250
  6
CONTINUOUS
 62
     3
100
AcDbBlockReference
  2
_OPEN
 10
55.0
 20
28.0
 30
0.0
 41
2.23
 42
2.23
 43
2.23
  0
MTEXT
  5
A60
330
A5A
100
AcDbEntity
  8
250
  6
CONTINUOUS
 62
    40
100
AcDbMText
 10
37.5
 20
30.5
 30
0.0
 40
3.0
 41
0.0
 71
     5
 72
     1
  1
\A1;35
1001
ACAD
1000
MTEXTBEGIN
1070
    73
1070
     1
1070
    44
1040
1.0
1070
    74
1070
     0
1000
MTEXTEND
1000
MTEXTBEGIN
1070
    73
1070
     1
1070
    44
1040
1.0
1070
    74
1070
     0
1000
MTEXTEND
1000
MTEXTBEGIN
1070
    73
1070
     1
1070
    44
1040
1.0
1070
    74
1070
     0
1000
MTEXTEND
1000
MTEXTBEGIN
1070
    73
1070
     1
1070
    44
1040
1.0
1070
    74
1070
     0
1000
MTEXTEND
1000
MTEXTBEGIN
1070
    73
1070
     1
1070
    44
1040
1.0
1070
    74
1070
     0
1000
MTEXTEND
1000
MTEXTBEGIN
1070
    73
1070
     1
1070
    44
1040
1.0
1070
    74
1070
     0
1000
MTEXTEND
1000
MTEXTBEGIN
1070
    73
1070
     1
1070
    44
1040
1.0
1070
    74
1070
     0
1000
MTEXTEND
  0
POINT
  5
A61
330
A5A
100
AcDbEntity
  8
DEFPOINTS
  6
CONTINUOUS
 62
     0
100
AcDbPoint
 10
20.0
 20
18.99
 30
0.0
  0
POINT
  5
A62
330
A5A
100
AcDbEntity
  8
DEFPOINTS
  6
CONTINUOUS
 62
     0
100
AcDbPoint
 10
55.0
 20
16.805322
 30
0.0
  0
POINT
  5
A63
330
A5A
100
AcDbEntity
  8
DEFPOINTS
  6
CONTINUOUS
 62
     0
100
AcDbPoint
 10
55.0
 20
28.0
 30
0.0
  0
ENDBLK
  5
A65
330
A5A
100
AcDbEntity
  8
0
100
AcDbBlockEnd
  0
BLOCK
  5
1082
330
1078
100
AcDbEntity
  8
0
100
AcDbBlockBegin
  2
*D7
 70
     1
 10
0.0
 20
0.0
 30
0.0
  3
*D7
  1

  0
LINE
  5
108E
330
1078
100
AcDbEntity
  8
250
  6
CONTINUOUS
 62
     3
100
AcDbLine
 10
54.7
 20
-17.5
 30
0.0
 11
72.0
 21
-17.5
 31
0.0
  0
LINE
  5
108F
330
1078
100
AcDbEntity
  8
250
  6
CONTINUOUS
 62
     3
100
AcDbLine
 10
54.7
 20
17.5
 30
0.0
 11
72.0
 21
17.5
 31
0.0
  0
LINE
  5
1090
330
1078
100
AcDbEntity
  8
250
  6
CONTINUOUS
 62
     3
100
AcDbLine
 10
71.0
 20
-15.27
 30
0.0
 11
71.0
 21
15.27
 31
0.0
  0
INSERT
  5
1091
330
1078
100
AcDbEntity
  8
250
  6
CONTINUOUS
 62
     3
100
AcDbBlockReference
  2
_OPEN
 10
71.0
 20
-17.5
 30
0.0
 41
2.23
 42
2.23
 43
2.23
 50
270.0
  0
INSERT
  5
1092
330
1078
100
AcDbEntity
  8
250
  6
CONTINUOUS
 62
     3
100
AcDbBlockReference
  2
_OPEN
 10
71.0
 20
17.5
 30
0.0
 41
2.23
 42
2.23
 43
2.23
 50
90.0
  0
MTEXT
  5
1093
330
1078
100
AcDbEntity
  8
250
  6
CONTINUOUS
 62
    40
100
AcDbMText
 10
68.5
 20
0.0
 30
0.0
 40
3.0
 41
0.0
 71
     5
 72
     1
  1
\A1;{\H3;\U+2205}35
 11
0.0
 21
1.0
 31
0.0
1001
ACAD
1000
MTEXTBEGIN
1070
    73
1070
     1
1070
    44
1040
1.0
1070
    74
1070
     0
1000
MTEXTEND
1000
MTEXTBEGIN
1070
    73
1070
     1
1070
    44
1040
1.0
1070
    74
1070
     0
1000
MTEXTEND
1000
MTEXTBEGIN
1070
    73
1070
     1
1070
    44
1040
1.0
1070
    74
1070
     0
1000
MTEXTEND
  0
POINT
  5
1094
330
1078
100
AcDbEntity
  8
DEFPOINTS
  6
CONTINUOUS
 62
     0
100
AcDbPoint
 10
54.2
 20
-17.5
 30
0.0
  0
POINT
  5
1095
330
1078
100
AcDbEntity
  8
DEFPOINTS
  6
CONTINUOUS
 62
     0
100
AcDbPoint
 10
54.2
 20
17.5
 30
0.0
  0
POINT
  5
1096
330
1078
100
AcDbEntity
  8
DEFPOINTS
  6
CONTINUOUS
 62
     0
100
AcDbPoint
 10
71.0
 20
17.5
 30
0.0
  0
ENDBLK
  5
1083
330
1078
100
AcDbEntity
  8
0
100
AcDbBlockEnd
  0
BLOCK
  5
108C
330
1084
100
AcDbEntity
  8
0
100
AcDbBlockBegin
  2
*D8
 70
     1
 10
0.0
 20
0.0
 30
0.0
  3
*D8
  1

  0
LINE
  5
1097
330
1084
100
AcDbEntity
  8
250
  6
CONTINUOUS
 62
     3
100
AcDbLine
 10
55.5
 20
5.0
 30
0.0
 11
65.0
 21
5.0
 31
0.0
  0
LINE
  5
1098
330
1084
100
AcDbEntity
  8
250
  6
CONTINUOUS
 62
     3
100
AcDbLine
 10
64.0
 20
-5.0
 30
0.0
 11
64.0
 21
2.77
 31
0.0
  0
INSERT
  5
1099
330
1084
100
AcDbEntity
  8
250
  6
CONTINUOUS
 62
     3
100
AcDbBlockReference
  2
_OPEN
 10
64.0
 20
5.0
 30
0.0
 41
2.23
 42
2.23
 43
2.23
 50
90.0
  0
MTEXT
  5
109A
330
1084
100
AcDbEntity
  8
250
  6
CONTINUOUS
 62
    40
100
AcDbMText
 10
61.5
 20
-1.115
 30
0.0
 40
3.0
 41
0.0
 71
     5
 72
     1
  1
\A1;max.φ10
 11
0.0
 21
1.0
 31
0.0
1001
ACAD
1000
MTEXTBEGIN
1070
    73
1070
     1
1070
    44
1040
1.0
1070
    74
1070
     0
1000
MTEXTEND
1000
MTEXTBEGIN
1070
    73
1070
     1
1070
    44
1040
1.0
1070
    74
1070
     0
1000
MTEXTEND
1000
MTEXTBEGIN
1070
    73
1070
     1
1070
    44
1040
1.0
1070
    74
1070
     0
1000
MTEXTEND
  0
POINT
  5
109B
330
1084
100
AcDbEntity
  8
DEFPOINTS
  6
CONTINUOUS
 62
     0
100
AcDbPoint
 10
54.8
 20
-5.0
 30
0.0
  0
POINT
  5
109C
330
1084
100
AcDbEntity
  8
DEFPOINTS
  6
CONTINUOUS
 62
     0
100
AcDbPoint
 10
55.0
 20
5.0
 30
0.0
  0
POINT
  5
109D
330
1084
100
AcDbEntity
  8
DEFPOINTS
  6
CONTINUOUS
 62
     0
100
AcDbPoint
 10
64.0
 20
5.0
 30
0.0
  0
ENDBLK
  5
108D
330
1084
100
AcDbEntity
  8
0
100
AcDbBlockEnd
  0
ENDSEC
  0
SECTION
  2
ENTITIES
  0
INSERT
  5
6E6
330
1A
100
AcDbEntity
  8
245
100
AcDbBlockReference
  2
矢印なし
 10
175.62382697
 20
90.55123572
 30
0.0
  0
DIMENSION
  5
7F8
330
1A
100
AcDbEntity
  8
250
  6
CONTINUOUS
100
AcDbDimension
  2
*D3
 10
55.0
 20
41.993
 30
0.0
 11
27.5
 21
44.493
 31
0.0
 70
    32
  3
BIGT$0
100
AcDbAlignedDimension
 13
0.0
 23
19.69
 33
0.0
 14
55.0
 24
16.805322
 34
0.0
100
AcDbRotatedDimension
  0
TEXT
  5
826
330
1A
100
AcDbEntity
  8
241
100
AcDbText
 10
-24.304
 20
55.993
 30
0.0
 40
5.0
  1
C4-MEGA10E-55
  7
YOKO
 11
-24.304
 21
55.993
 31
0.0
100
AcDbText
 73
     1
  0
DIMENSION
  5
A26
330
1A
100
AcDbEntity
  8
250
  6
CONTINUOUS
100
AcDbDimension
  2
*D5
 10
55.0
 20
35.0
 30
0.0
 11
30.5
 21
37.5
 31
0.0
 70
    32
  1
（max.<>）
  3
BIGT$0
100
AcDbAlignedDimension
 13
6.0
 23
6.95
 33
0.0
 14
55.0
 24
16.805322
 34
0.0
100
AcDbRotatedDimension
  0
DIMENSION
  5
A59
330
1A
100
AcDbEntity
  8
250
  6
CONTINUOUS
100
AcDbDimension
  2
*D6
 10
55.0
 20
28.0
 30
0.0
 11
37.5
 21
30.5
 31
0.0
 70
    32
  3
BIGT$0
100
AcDbAlignedDimension
 13
20.0
 23
18.99
 33
0.0
 14
55.0
 24
16.805322
 34
0.0
100
AcDbRotatedDimension
  0
LINE
  5
FC2
330
1A
100
AcDbEntity
  8
250
  6
CONTINUOUS
100
AcDbLine
 10
-14.0
 20
-21.0
 30
0.0
 11
-24.4
 21
-21.0
 31
0.0
1001
ITEMNAME
1000
LNSP2
  0
LEADER
  5
FC3
330
1A
100
AcDbEntity
  8
250
  6
CONTINUOUS
100
AcDbLeader
  3
BIGT
 76
     2
 10
-9.34019448
 20
-12.92898008
 30
0.0
 10
-14.0
 20
-21.0
 30
0.0
1001
ACAD
1000
DSTYLE
1002
{
1070
     6
1000
OPEN
1070
    41
1040
2.0
1070
    42
1040
2.0
1070
    44
1040
2.0
1070
   140
1040
4.0
1070
   343
1005
594
1002
}
  0
MTEXT
  5
FC4
330
1A
100
AcDbEntity
  8
251
  6
CONTINUOUS
100
AcDbMText
 10
-21.6
 20
-20.0
 30
0.0
 40
2.8
 41
0.0
 71
     7
 72
     1
  1
C4
  7
YOKO
1001
ITEMNAME
1000
LNSP3
1001
ACAD
1000
MTEXTBEGIN
1070
    73
1070
     1
1070
    44
1040
1.0
1070
    74
1070
     0
1000
MTEXTEND
1000
MTEXTBEGIN
1070
    73
1070
     1
1070
    44
1040
1.0
1070
    74
1070
     0
1000
MTEXTEND
1000
MTEXTBEGIN
1070
    73
1070
     1
1070
    44
1040
1.0
1070
    74
1070
     0
1000
MTEXTEND
1000
MTEXTBEGIN
1070
    73
1070
     1
1070
    44
1040
1.0
1070
    74
1070
     0
1000
MTEXTEND
1000
MTEXTBEGIN
1070
    73
1070
     1
1070
    44
1040
1.0
1070
    74
1070
     0
1000
MTEXTEND
1000
MTEXTBEGIN
1070
    73
1070
     1
1070
    44
1040
1.0
1070
    74
1070
     0
1000
MTEXTEND
1000
MTEXTBEGIN
1070
    73
1070
     1
1070
    44
1040
1.0
1070
    74
1070
     0
1000
MTEXTEND
1000
MTEXTBEGIN
1070
    73
1070
     1
1070
    44
1040
1.0
1070
    74
1070
     0
1000
MTEXTEND
  0
DIMENSION
  5
104A
330
1A
100
AcDbEntity
  8
250
  6
CONTINUOUS
100
AcDbDimension
  2
*D7
 10
71.0
 20
17.5
 30
0.0
 11
71.0
 21
0.0
 31
0.0
 70
   160
  1
{\H3;\U+2205}<>
  3
BIGT$0
100
AcDbAlignedDimension
 13
54.2
 23
-17.5
 33
0.0
 14
54.2
 24
17.5
 34
0.0
 50
90.0
100
AcDbRotatedDimension
  0
DIMENSION
  5
104B
330
1A
100
AcDbEntity
  8
250
  6
CONTINUOUS
100
AcDbDimension
  2
*D8
 10
64.0
 20
5.0
 30
0.0
 11
64.0
 21
-1.115
 31
0.0
 70
   160
  1
max.φ<>
  3
BIGT$0
100
AcDbAlignedDimension
 13
54.8
 23
-5.0
 33
0.0
 14
55.0
 24
5.0
 34
0.0
 50
90.0
100
AcDbRotatedDimension
1001
ACAD
1000
DSTYLE
1002
{
1070
     5
1000

1070
   173
1070
     1
1070
     7
1000
OPEN
1070
    75
1070
     1
1070
     6
1000
NONE
1002
}
  0
INSERT
  5
1332
330
1A
100
AcDbEntity
  8
245
100
AcDbBlockReference
  2
1
 10
0.0
 20
0.0
 30
0.0
  0
VIEWPORT
  5
22
330
17
100
AcDbEntity
 67
     1
  8
0
100
AcDbViewport
 10
261.51769912
 20
148.5
 30
0.0
 40
523.03539823
 41
297.0
 68
     1
 69
     1
1001
ACAD
1000
MVIEW
1002
{
1070
    16
1010
0.0
1020
0.0
1030
0.0
1010
0.0
1020
0.0
1030
1.0
1040
0.0
1040
297.0
1040
261.51769912
1040
148.5
1040
50.0
1040
0.0
1040
0.0
1070
     0
1070
   100
1070
     1
1070
     1
1070
     0
1070
     0
1070
     0
1070
     0
1040
0.0
1040
0.0
1040
0.0
1040
1.0
1040
1.0
1040
10.0
1040
10.0
1070
     0
1002
{
1002
}
1002
}
  0
ENDSEC
  0
SECTION
  2
OBJECTS
  0
DICTIONARY
  5
C
330
0
100
AcDbDictionary
  3
ACAD_GROUP
350
D
  3
ACAD_LAYOUT
350
565
  3
ACAD_MLINESTYLE
350
E
  3
ACAD_PLOTSETTINGS
350
566
  3
ACAD_PLOTSTYLENAME
350
563
  3
ACDBHEADERROUNDTRIPXREC
350
135B
  3
GRADE_DWG
350
540
  0
DICTIONARY
  5
984
330
1A
100
AcDbDictionary
280
     1
  3
ACAD_LAYOUTSELFREF
360
137D
  0
DICTIONARY
  5
982
330
17
100
AcDbDictionary
280
     1
  3
ACAD_LAYOUTSELFREF
360
137C
  0
DICTIONARY
  5
D
102
{ACAD_REACTORS
330
C
102
}
330
C
100
AcDbDictionary
  3
*A1
350
6C7
  3
*A2
350
6C8
  3
*A3
350
6D4
  3
*A4
350
6D5
  3
DREC-1
350
5FC
  3
DREC-2
350
654
  3
DREC-3
350
673
  0
DICTIONARY
  5
565
102
{ACAD_REACTORS
330
C
102
}
330
C
100
AcDbDictionary
  0
DICTIONARY
  5
E
102
{ACAD_REACTORS
330
C
102
}
330
C
100
AcDbDictionary
  3
STANDARD
350
13
  0
DICTIONARY
  5
566
102
{ACAD_REACTORS
330
C
102
}
330
C
100
AcDbDictionary
  3
A3_0_5倍_
350
758
  3
A3_1倍_
350
757
  3
A3_1倍__2000_
350
707
  3
A3_2倍_
350
759
  3
A4_0_5倍_
350
755
  3
A4_1倍_
350
754
  3
A4_1倍__2000_
350
708
  3
A4_2倍_
350
756
  0
ACDBDICTIONARYWDFLT
  5
563
102
{ACAD_REACTORS
330
C
102
}
330
C
100
AcDbDictionary
281
     1
  3
Normal
350
564
100
AcDbDictionaryWithDefault
340
564
  0
DICTIONARY
  5
135B
102
{ACAD_REACTORS
330
C
102
}
330
C
100
AcDbDictionary
  3
CEPSNTYPE
350
1365
  3
DIMSTYLEDATA
350
1369
  3
FINGERPRINTGUID
350
1366
  3
HYPERLINKBASE
350
135E
  3
INSUNITS
350
1364
  3
LAYOUTDICT
350
1360
  3
LWETCUNION
350
1363
  3
PLOTSETDICT
350
1361
  3
PLOTSTYLNAMDICT
350
1362
  3
PSVPSCALE
350
1368
  3
PUCSBASE
350
136C
  3
PUCSORGBACK
350
1372
  3
PUCSORGBOTTOM
350
136E
  3
PUCSORGFRONT
350
1371
  3
PUCSORGLEFT
350
136F
  3
PUCSORGRIGHT
350
1370
  3
PUCSORGTOP
350
136D
  3
PUCSORTHOREF
350
136A
  3
PUCSORTHOVIEW
350
136B
  3
STYLESHEET
350
135F
  3
TSTACKALIGN
350
135C
  3
TSTACKSIZE
350
135D
  3
UCSBASE
350
1375
  3
UCSORGBACK
350
137B
  3
UCSORGBOTTOM
350
1377
  3
UCSORGFRONT
350
137A
  3
UCSORGLEFT
350
1378
  3
UCSORGRIGHT
350
1379
  3
UCSORGTOP
350
1376
  3
UCSORTHOREF
350
1373
  3
UCSORTHOVIEW
350
1374
  3
VERSIONGUID
350
1367
  0
DICTIONARY
  5
540
102
{ACAD_REACTORS
330
C
102
}
330
C
100
AcDbDictionary
  3
VERSION
350
560
  0
XRECORD
  5
137D
102
{ACAD_REACTORS
330
984
102
}
330
984
100
AcDbXrecord
340
1A
  0
XRECORD
  5
137C
102
{ACAD_REACTORS
330
982
102
}
330
982
100
AcDbXrecord
340
17
  0
GROUP
  5
6C7
102
{ACAD_REACTORS
330
D
102
}
330
D
100
AcDbGroup
300

 70
     0
 71
     1
1001
GRPNAME
1000
DMA00
  0
GROUP
  5
6C8
102
{ACAD_REACTORS
330
D
102
}
330
D
100
AcDbGroup
300

 70
     0
 71
     1
1001
GRPNAME
1000
DMA00
  0
GROUP
  5
6D4
102
{ACAD_REACTORS
330
D
102
}
330
D
100
AcDbGroup
300

 70
     0
 71
     1
1001
GRPNAME
1000
DMA00
  0
GROUP
  5
6D5
102
{ACAD_REACTORS
330
D
102
}
330
D
100
AcDbGroup
300

 70
     0
 71
     1
1001
GRPNAME
1000
DMA00
  0
GROUP
  5
5FC
102
{ACAD_REACTORS
330
D
102
}
330
D
100
AcDbGroup
300

 70
     0
 71
     1
1001
GRPNAME
1000
DREC-
1001
GPARA
1000
xsiz
1000
44.182
1000
ysiz
1000
40.677
1000
angl
1000
0
1000
ctyp
1000
0
1000
csiz
1000
5
1000
lfnt
1000
cont
1000
hcnt
1000
hoff
1000
vcnt
1000
voff
1000
opnt
1000
4
1000
dxpt
1000
0
1000
dypt
1000
0
  0
GROUP
  5
654
102
{ACAD_REACTORS
330
D
102
}
330
D
100
AcDbGroup
300

 70
     0
 71
     1
1001
GRPNAME
1000
DREC-
1001
GPARA
1000
xsiz
1000
54.592
1000
ysiz
1000
53.036
1000
angl
1000
0
1000
ctyp
1000
0
1000
csiz
1000
5
1000
lfnt
1000
cont
1000
hcnt
1000
hoff
1000
vcnt
1000
voff
1000
opnt
1000
4
1000
dxpt
1000
0
1000
dypt
1000
0
  0
GROUP
  5
673
102
{ACAD_REACTORS
330
D
102
}
330
D
100
AcDbGroup
300

 70
     0
 71
     1
1001
GRPNAME
1000
DREC-
1001
GPARA
1000
xsiz
1000
30.363
1000
ysiz
1000
36.175
1000
angl
1000
0
1000
ctyp
1000
0
1000
csiz
1000
5
1000
lfnt
1000
cont
1000
hcnt
1000
hoff
1000
vcnt
1000
voff
1000
opnt
1000
4
1000
dxpt
1000
0
1000
dypt
1000
0
  0
MLINESTYLE
  5
13
102
{ACAD_REACTORS
330
E
102
}
330
E
100
AcDbMlineStyle
  2
STANDARD
 70
     0
  3

 62
     0
 51
90.0
 52
90.0
 71
     2
 49
0.5
 62
   256
  6
BYLAYER
 49
-0.5
 62
   256
  6
BYLAYER
  0
PLOTSETTINGS
  5
758
102
{ACAD_REACTORS
330
566
102
}
330
566
100
AcDbPlotSettings
  1
A3(0.5倍)
  2
\\AWTECPC05\HP DeskJet 1120C
  4
A3
  6

 40
5.95841646
 41
13.49375153
 42
6.04309082
 43
3.67242432
 44
296.92599487
 45
419.94665527
 46
89.96
 47
127.14
 48
0.0
 49
0.0
140
0.0
141
0.0
142
1.0
143
2.0
 70
  1716
 72
     1
 73
     1
 74
     2
  7
big.ctb
 75
    17
147
0.5
148
0.0
149
0.0
  0
PLOTSETTINGS
  5
757
102
{ACAD_REACTORS
330
566
102
}
330
566
100
AcDbPlotSettings
  1
A3(1倍)
  2
\\AWTECPC05\HP DeskJet 1120C
  4
A3
  6

 40
5.95841646
 41
13.49375153
 42
6.04309082
 43
3.67242432
 44
296.92599487
 45
419.94665527
 46
37.46
 47
52.89
 48
0.0
 49
0.0
140
0.0
141
0.0
142
1.0
143
1.0
 70
  1716
 72
     1
 73
     1
 74
     2
  7
big.ctb
 75
    16
147
1.0
148
0.0
149
0.0
  0
PLOTSETTINGS
  5
707
102
{ACAD_REACTORS
330
566
102
}
330
566
100
AcDbPlotSettings
  1
A3(1倍)(2000)
  2
SII LS-1300 (D-SCAN)
  4
User258
  6

 40
3.17499995
 41
3.17499995
 42
3.17498779
 43
3.17498779
 44
419.98898315
 45
296.98950195
 46
58.32
 47
40.32
 48
0.0
 49
0.0
140
0.0
141
0.0
142
1.0
143
1.0
 70
  1716
 72
     1
 73
     0
 74
     2
  7
big.ctb
 75
    16
147
1.0
148
0.0
149
0.0
  0
PLOTSETTINGS
  5
759
102
{ACAD_REACTORS
330
566
102
}
330
566
100
AcDbPlotSettings
  1
A3(2倍)
  2
\\AWTECPC05\HP DeskJet 1120C
  4
A3
  6

 40
5.95841646
 41
13.49375153
 42
6.04309082
 43
3.67242432
 44
296.92599487
 45
419.94665527
 46
-67.54
 47
-95.61
 48
0.0
 49
0.0
140
0.0
141
0.0
142
1.0
143
0.5
 70
  1716
 72
     1
 73
     1
 74
     2
  7
big.ctb
 75
    27
147
2.0
148
0.0
149
0.0
  0
PLOTSETTINGS
  5
755
102
{ACAD_REACTORS
330
566
102
}
330
566
100
AcDbPlotSettings
  1
A4(0.5倍)
  2
\\AWTECPC05\HP DeskJet 1120C
  4
A4
  6

 40
4.18041658
 41
13.49374962
 42
4.18040466
 43
3.92642212
 44
209.97332764
 45
296.92599487
 46
48.31
 47
65.5
 48
0.0
 49
0.0
140
0.0
141
0.0
142
1.0
143
2.0
 70
  1716
 72
     1
 73
     1
 74
     2
  7
big.ctb
 75
    17
147
0.5
148
0.0
149
0.0
  0
PLOTSETTINGS
  5
754
102
{ACAD_REACTORS
330
566
102
}
330
566
100
AcDbPlotSettings
  1
A4(1倍)
  2
\\AWTECPC05\HP DeskJet 1120C
  4
A4
  6

 40
4.18041658
 41
13.49374962
 42
4.18040466
 43
3.92642212
 44
209.97332764
 45
296.92599487
 46
-4.19
 47
-8.75
 48
0.0
 49
0.0
140
0.0
141
0.0
142
1.0
143
1.0
 70
  1716
 72
     1
 73
     1
 74
     2
  7
big.ctb
 75
    16
147
1.0
148
0.0
149
0.0
  0
PLOTSETTINGS
  5
708
102
{ACAD_REACTORS
330
566
102
}
330
566
100
AcDbPlotSettings
  1
A4(1倍)(2000)
  2
SII LS-1300 (D-SCAN)
  4
User259
  6

 40
3.17499995
 41
3.17499995
 42
3.17498779
 43
3.17500305
 44
296.98950195
 45
209.99449158
 46
-3.18
 47
-3.18
 48
0.0
 49
0.0
140
0.0
141
0.0
142
1.0
143
1.0
 70
  1716
 72
     1
 73
     0
 74
     2
  7
big.ctb
 75
    16
147
1.0
148
0.0
149
0.0
  0
PLOTSETTINGS
  5
756
102
{ACAD_REACTORS
330
566
102
}
330
566
100
AcDbPlotSettings
  1
A4(2倍)
  2
\\AWTECPC05\HP DeskJet 1120C
  4
A4
  6

 40
4.18041658
 41
13.49374962
 42
4.18040466
 43
3.92642212
 44
209.97332764
 45
296.92599487
 46
-109.19
 47
-157.25
 48
0.0
 49
0.0
140
0.0
141
0.0
142
1.0
143
0.5
 70
  1716
 72
     1
 73
     1
 74
     2
  7
big.ctb
 75
    27
147
2.0
148
0.0
149
0.0
  0
ACDBPLACEHOLDER
  5
564
102
{ACAD_REACTORS
330
563
102
}
330
563
100
AcDbPlaceHolder
280
     0
  0
XRECORD
  5
1365
102
{ACAD_REACTORS
330
135B
102
}
330
135B
100
AcDbXrecord
 90
        0
  0
XRECORD
  5
1369
102
{ACAD_REACTORS
330
135B
102
}
330
135B
100
AcDbXrecord
1000
DSTYLE
1002
{
1070
   341
340
594
1070
   343
340
594
1070
   344
340
594
1002
}
  0
XRECORD
  5
1366
102
{ACAD_REACTORS
330
135B
102
}
330
135B
100
AcDbXrecord
  1
{51294030-9CB4-11D3-8E18-00A0C925D94D}
  0
XRECORD
  5
135E
102
{ACAD_REACTORS
330
135B
102
}
330
135B
100
AcDbXrecord
  1

  0
XRECORD
  5
1364
102
{ACAD_REACTORS
330
135B
102
}
330
135B
100
AcDbXrecord
 90
        0
  0
XRECORD
  5
1360
102
{ACAD_REACTORS
330
135B
102
}
330
135B
100
AcDbXrecord
340
565
  0
XRECORD
  5
1363
102
{ACAD_REACTORS
330
135B
102
}
330
135B
100
AcDbXrecord
 90
    10781
  0
XRECORD
  5
1361
102
{ACAD_REACTORS
330
135B
102
}
330
135B
100
AcDbXrecord
340
566
  0
XRECORD
  5
1362
102
{ACAD_REACTORS
330
135B
102
}
330
135B
100
AcDbXrecord
340
563
  0
XRECORD
  5
1368
102
{ACAD_REACTORS
330
135B
102
}
330
135B
100
AcDbXrecord
 40
0.0
  0
XRECORD
  5
136C
102
{ACAD_REACTORS
330
135B
102
}
330
135B
100
AcDbXrecord
340
0
  0
XRECORD
  5
1372
102
{ACAD_REACTORS
330
135B
102
}
330
135B
100
AcDbXrecord
 10
0.0
 20
0.0
 30
0.0
  0
XRECORD
  5
136E
102
{ACAD_REACTORS
330
135B
102
}
330
135B
100
AcDbXrecord
 10
0.0
 20
0.0
 30
0.0
  0
XRECORD
  5
1371
102
{ACAD_REACTORS
330
135B
102
}
330
135B
100
AcDbXrecord
 10
0.0
 20
0.0
 30
0.0
  0
XRECORD
  5
136F
102
{ACAD_REACTORS
330
135B
102
}
330
135B
100
AcDbXrecord
 10
0.0
 20
0.0
 30
0.0
  0
XRECORD
  5
1370
102
{ACAD_REACTORS
330
135B
102
}
330
135B
100
AcDbXrecord
 10
0.0
 20
0.0
 30
0.0
  0
XRECORD
  5
136D
102
{ACAD_REACTORS
330
135B
102
}
330
135B
100
AcDbXrecord
 10
0.0
 20
0.0
 30
0.0
  0
XRECORD
  5
136A
102
{ACAD_REACTORS
330
135B
102
}
330
135B
100
AcDbXrecord
340
0
  0
XRECORD
  5
136B
102
{ACAD_REACTORS
330
135B
102
}
330
135B
100
AcDbXrecord
 70
     0
  0
XRECORD
  5
135F
102
{ACAD_REACTORS
330
135B
102
}
330
135B
100
AcDbXrecord
  1
big.ctb
  0
XRECORD
  5
135C
102
{ACAD_REACTORS
330
135B
102
}
330
135B
100
AcDbXrecord
 90
        1
  0
XRECORD
  5
135D
102
{ACAD_REACTORS
330
135B
102
}
330
135B
100
AcDbXrecord
 90
       70
  0
XRECORD
  5
1375
102
{ACAD_REACTORS
330
135B
102
}
330
135B
100
AcDbXrecord
340
0
  0
XRECORD
  5
137B
102
{ACAD_REACTORS
330
135B
102
}
330
135B
100
AcDbXrecord
 10
0.0
 20
0.0
 30
0.0
  0
XRECORD
  5
1377
102
{ACAD_REACTORS
330
135B
102
}
330
135B
100
AcDbXrecord
 10
0.0
 20
0.0
 30
0.0
  0
XRECORD
  5
137A
102
{ACAD_REACTORS
330
135B
102
}
330
135B
100
AcDbXrecord
 10
0.0
 20
0.0
 30
0.0
  0
XRECORD
  5
1378
102
{ACAD_REACTORS
330
135B
102
}
330
135B
100
AcDbXrecord
 10
0.0
 20
0.0
 30
0.0
  0
XRECORD
  5
1379
102
{ACAD_REACTORS
330
135B
102
}
330
135B
100
AcDbXrecord
 10
0.0
 20
0.0
 30
0.0
  0
XRECORD
  5
1376
102
{ACAD_REACTORS
330
135B
102
}
330
135B
100
AcDbXrecord
 10
0.0
 20
0.0
 30
0.0
  0
XRECORD
  5
1373
102
{ACAD_REACTORS
330
135B
102
}
330
135B
100
AcDbXrecord
340
0
  0
XRECORD
  5
1374
102
{ACAD_REACTORS
330
135B
102
}
330
135B
100
AcDbXrecord
 70
     0
  0
XRECORD
  5
1367
102
{ACAD_REACTORS
330
135B
102
}
330
135B
100
AcDbXrecord
  1
{F6D56343-C201-4B5B-A7DF-AF5840FA4A10}
  0
XRECORD
  5
560
102
{ACAD_REACTORS
330
540
102
}
330
540
100
AcDbXrecord
  1
2.0.0
  0
ENDSEC
  0
EOF
