  0
SECTION
  2
HEADER
  9
$ACADVER
  1
AC1014
  9
$ACADMAINTVER
 70
     9
  9
$DWGCODEPAGE
  3
ANSI_932
  9
$INSBASE
 10
0.0
 20
0.0
 30
0.0
  9
$EXTMIN
 10
-108.4960452787506
 20
-64.00506347206669
 30
-0.0000000349181948
  9
$EXTMAX
 10
185.7983060820718
 20
89.00053134908217
 30
0.0000000814935746
  9
$LIMMIN
 10
0.0
 20
0.0
  9
$LIMMAX
 10
420.0
 20
297.0
  9
$ORTHOMODE
 70
     0
  9
$REGENMODE
 70
     1
  9
$FILLMODE
 70
     1
  9
$QTEXTMODE
 70
     0
  9
$MIRRTEXT
 70
     1
  9
$DRAGMODE
 70
     2
  9
$LTSCALE
 40
10.0
  9
$OSMODE
 70
   613
  9
$ATTMODE
 70
     1
  9
$TEXTSIZE
 40
3.0
  9
$TRACEWID
 40
1.0
  9
$TEXTSTYLE
  7
YOKO
  9
$CLAYER
  8
240
  9
$CELTYPE
  6
BYLAYER
  9
$CECOLOR
 62
   256
  9
$CELTSCALE
 40
1.0
  9
$DELOBJ
 70
     1
  9
$DISPSILH
 70
     0
  9
$DIMSCALE
 40
1.0
  9
$DIMASZ
 40
2.229999999999999
  9
$DIMEXO
 40
0.5
  9
$DIMDLI
 40
2.5
  9
$DIMRND
 40
0.0
  9
$DIMDLE
 40
0.0
  9
$DIMEXE
 40
1.0
  9
$DIMTP
 40
0.0
  9
$DIMTM
 40
0.0
  9
$DIMTXT
 40
3.0
  9
$DIMCEN
 40
0.0
  9
$DIMTSZ
 40
0.0
  9
$DIMTOL
 70
     0
  9
$DIMLIM
 70
     0
  9
$DIMTIH
 70
     0
  9
$DIMTOH
 70
     0
  9
$DIMSE1
 70
     0
  9
$DIMSE2
 70
     0
  9
$DIMTAD
 70
     3
  9
$DIMZIN
 70
     8
  9
$DIMBLK
  1
OPEN
  9
$DIMASO
 70
     1
  9
$DIMSHO
 70
     1
  9
$DIMPOST
  1

  9
$DIMAPOST
  1

  9
$DIMALT
 70
     0
  9
$DIMALTD
 70
     2
  9
$DIMALTF
 40
25.4
  9
$DIMLFAC
 40
1.0
  9
$DIMTOFL
 70
     1
  9
$DIMTVP
 40
0.0
  9
$DIMTIX
 70
     0
  9
$DIMSOXD
 70
     0
  9
$DIMSAH
 70
     0
  9
$DIMBLK1
  1

  9
$DIMBLK2
  1

  9
$DIMSTYLE
  2
BIGT
  9
$DIMCLRD
 70
   256
  9
$DIMCLRE
 70
   256
  9
$DIMCLRT
 70
    40
  9
$DIMTFAC
 40
1.0
  9
$DIMGAP
 40
1.0
  9
$DIMJUST
 70
     0
  9
$DIMSD1
 70
     0
  9
$DIMSD2
 70
     0
  9
$DIMTOLJ
 70
     1
  9
$DIMTZIN
 70
     8
  9
$DIMALTZ
 70
     0
  9
$DIMALTTZ
 70
     0
  9
$DIMFIT
 70
     2
  9
$DIMUPT
 70
     0
  9
$DIMUNIT
 70
     2
  9
$DIMDEC
 70
     3
  9
$DIMTDEC
 70
     3
  9
$DIMALTU
 70
     2
  9
$DIMALTTD
 70
     2
  9
$DIMTXSTY
  7
STANDARD
  9
$DIMAUNIT
 70
     0
  9
$LUNITS
 70
     2
  9
$LUPREC
 70
     3
  9
$SKETCHINC
 40
1.0
  9
$FILLETRAD
 40
15.0
  9
$AUNITS
 70
     0
  9
$AUPREC
 70
     3
  9
$MENU
  1
.
  9
$ELEVATION
 40
0.0
  9
$PELEVATION
 40
0.0
  9
$THICKNESS
 40
0.0
  9
$LIMCHECK
 70
     0
  9
$BLIPMODE
 70
     0
  9
$CHAMFERA
 40
10.0
  9
$CHAMFERB
 40
10.0
  9
$CHAMFERC
 40
0.0
  9
$CHAMFERD
 40
0.0
  9
$SKPOLY
 70
     0
  9
$TDCREATE
 40
2452174.391935764
  9
$TDUPDATE
 40
2452408.975680150
  9
$TDINDWG
 40
0.0443708333
  9
$TDUSRTIMER
 40
0.0443708333
  9
$USRTIMER
 70
     1
  9
$ANGBASE
 50
0.0
  9
$ANGDIR
 70
     0
  9
$PDMODE
 70
    35
  9
$PDSIZE
 40
-5.0
  9
$PLINEWID
 40
0.0
  9
$COORDS
 70
     0
  9
$SPLFRAME
 70
     0
  9
$SPLINETYPE
 70
     6
  9
$SPLINESEGS
 70
     8
  9
$ATTDIA
 70
     0
  9
$ATTREQ
 70
     0
  9
$HANDLING
 70
 22529
  9
$HANDSEED
  5
10DD
  9
$SURFTAB1
 70
     6
  9
$SURFTAB2
 70
     6
  9
$SURFTYPE
 70
     6
  9
$SURFU
 70
     6
  9
$SURFV
 70
     6
  9
$UCSNAME
  2

  9
$UCSORG
 10
0.0
 20
0.0
 30
0.0
  9
$UCSXDIR
 10
1.0
 20
0.0
 30
0.0
  9
$UCSYDIR
 10
0.0
 20
1.0
 30
0.0
  9
$PUCSNAME
  2

  9
$PUCSORG
 10
0.0
 20
0.0
 30
0.0
  9
$PUCSXDIR
 10
1.0
 20
0.0
 30
0.0
  9
$PUCSYDIR
 10
0.0
 20
1.0
 30
0.0
  9
$USERI1
 70
     1
  9
$USERI2
 70
     0
  9
$USERI3
 70
     0
  9
$USERI4
 70
     0
  9
$USERI5
 70
     0
  9
$USERR1
 40
0.0
  9
$USERR2
 40
0.0
  9
$USERR3
 40
0.0
  9
$USERR4
 40
0.0
  9
$USERR5
 40
0.0
  9
$WORLDVIEW
 70
     1
  9
$SHADEDGE
 70
     3
  9
$SHADEDIF
 70
    70
  9
$TILEMODE
 70
     1
  9
$MAXACTVP
 70
    16
  9
$PINSBASE
 10
0.0
 20
0.0
 30
0.0
  9
$PLIMCHECK
 70
     0
  9
$PEXTMIN
 10
1.000000000000000E+20
 20
1.000000000000000E+20
 30
1.000000000000000E+20
  9
$PEXTMAX
 10
-1.000000000000000E+20
 20
-1.000000000000000E+20
 30
-1.000000000000000E+20
  9
$PLIMMIN
 10
0.0
 20
0.0
  9
$PLIMMAX
 10
420.0
 20
297.0
  9
$UNITMODE
 70
     0
  9
$VISRETAIN
 70
     0
  9
$PLINEGEN
 70
     0
  9
$PSLTSCALE
 70
     1
  9
$TREEDEPTH
 70
  3020
  9
$PICKSTYLE
 70
     0
  9
$CMLSTYLE
  2
STANDARD
  9
$CMLJUST
 70
     0
  9
$CMLSCALE
 40
1.0
  9
$PROXYGRAPHICS
 70
     1
  9
$MEASUREMENT
 70
     1
  0
ENDSEC
  0
SECTION
  2
CLASSES
  0
CLASS
  1
XRECORD
  2
AcDbXrecord
  3
AutoCAD 2000
 90
        0
280
     0
281
     0
  0
CLASS
  1
ACDBDICTIONARYWDFLT
  2
AcDbDictionaryWithDefault
  3
AutoCAD 2000
 90
        0
280
     0
281
     0
  0
CLASS
  1
ACDBPLACEHOLDER
  2
AcDbPlaceHolder
  3
AutoCAD 2000
 90
        0
280
     0
281
     0
  0
CLASS
  1
LAYOUT
  2
AcDbLayout
  3
AutoCAD 2000
 90
        0
280
     0
281
     0
  0
CLASS
  1
DICTIONARYVAR
  2
AcDbDictionaryVar
  3
AutoCAD 2000
 90
        0
280
     0
281
     0
  0
CLASS
  1
LONG_TRANSACTION
  2
AcDbLongTransaction
  3
AutoCAD 2000
 90
        0
280
     0
281
     0
  0
CLASS
  1
LWPOLYLINE
  2
AcDbPolyline
  3
AutoCAD 2000
 90
        0
280
     0
281
     1
  0
CLASS
  1
HATCH
  2
AcDbHatch
  3
AutoCAD 2000
 90
        0
280
     0
281
     1
  0
CLASS
  1
XRECORD
  2
AcDbXrecord
  3
AutoCAD 2000
 90
        0
280
     0
281
     0
  0
ENDSEC
  0
SECTION
  2
TABLES
  0
TABLE
  2
VPORT
  5
8
330
0
100
AcDbSymbolTable
 70
     2
  0
VPORT
  5
10AE
330
8
100
AcDbSymbolTableRecord
100
AcDbViewportTableRecord
  2
*ACTIVE
 70
     0
 10
0.0
 20
0.0
 11
1.0
 21
1.0
 12
38.64761430379894
 22
12.49887138279024
 13
0.0
 23
0.0
 14
7.0
 24
7.0
 15
7.0
 25
7.0
 16
0.0
 26
0.0
 36
1.0
 17
0.0
 27
0.0
 37
0.0
 40
193.0769248006554
 41
1.53185955786736
 42
50.0
 43
0.0
 44
0.0
 50
0.0
 51
0.0
 71
     0
 72
  2000
 73
     1
 74
     0
 75
     0
 76
     0
 77
     0
 78
     0
  0
ENDTAB
  0
TABLE
  2
LTYPE
  5
5
330
0
100
AcDbSymbolTable
 70
     4
  0
LTYPE
  5
14
330
5
100
AcDbSymbolTableRecord
100
AcDbLinetypeTableRecord
  2
BYBLOCK
 70
     0
  3

 72
    65
 73
     0
 40
0.0
  0
LTYPE
  5
15
330
5
100
AcDbSymbolTableRecord
100
AcDbLinetypeTableRecord
  2
BYLAYER
 70
     0
  3

 72
    65
 73
     0
 40
0.0
  0
LTYPE
  5
16
330
5
100
AcDbSymbolTableRecord
100
AcDbLinetypeTableRecord
  2
CONTINUOUS
 70
     0
  3
Solid line
 72
    65
 73
     0
 40
0.0
  0
LTYPE
  5
258
330
5
100
AcDbSymbolTableRecord
100
AcDbLinetypeTableRecord
  2
CENTER2
 70
     0
  3
___ _ ___ _ ___ _ ___ _ ___ _ ___ _ ___ _ ___ _
 72
    65
 73
     4
 40
1.125
 49
0.75
 74
     0
 49
-0.125
 74
     0
 49
0.125
 74
     0
 49
-0.125
 74
     0
  0
LTYPE
  5
25C
330
5
100
AcDbSymbolTableRecord
100
AcDbLinetypeTableRecord
  2
HIDDEN2
 70
     0
  3
_ _ _ _ _ _ _ _ _ _ _ _ _ _ _ _ _ _ _ _ _ _ _ _
 72
    65
 73
     2
 40
0.1875
 49
0.125
 74
     0
 49
-0.0625
 74
     0
  0
LTYPE
  5
25D
330
5
100
AcDbSymbolTableRecord
100
AcDbLinetypeTableRecord
  2
PHANTOM2
 70
     0
  3
___ _ _ ___ _ _ ___ _ _ ___ _ _ ___ _ _ ___ _ _
 72
    65
 73
     6
 40
1.25
 49
0.625
 74
     0
 49
-0.125
 74
     0
 49
0.125
 74
     0
 49
-0.125
 74
     0
 49
0.125
 74
     0
 49
-0.125
 74
     0
  0
ENDTAB
  0
TABLE
  2
LAYER
  5
2
330
0
100
AcDbSymbolTable
 70
    10
  0
LAYER
  5
F
330
2
100
AcDbSymbolTableRecord
100
AcDbLayerTableRecord
  2
0
 70
     0
 62
     7
  6
CONTINUOUS
  0
LAYER
  5
1AA
330
2
100
AcDbSymbolTableRecord
100
AcDbLayerTableRecord
  2
240
 70
     0
 62
     4
  6
CONTINUOUS
  0
LAYER
  5
1AB
330
2
100
AcDbSymbolTableRecord
100
AcDbLayerTableRecord
  2
241
 70
     0
 62
   211
  6
CONTINUOUS
  0
LAYER
  5
1AC
330
2
100
AcDbSymbolTableRecord
100
AcDbLayerTableRecord
  2
242
 70
     0
 62
     3
  6
CONTINUOUS
  0
LAYER
  5
1AD
330
2
100
AcDbSymbolTableRecord
100
AcDbLayerTableRecord
  2
243
 70
     0
 62
   211
  6
HIDDEN2
  0
LAYER
  5
1AF
330
2
100
AcDbSymbolTableRecord
100
AcDbLayerTableRecord
  2
245
 70
     0
 62
     2
  6
CENTER2
  0
LAYER
  5
21A
330
2
100
AcDbSymbolTableRecord
100
AcDbLayerTableRecord
  2
246
 70
     0
 62
     3
  6
PHANTOM2
  0
LAYER
  5
21B
330
2
100
AcDbSymbolTableRecord
100
AcDbLayerTableRecord
  2
247
 70
     0
 62
    60
  6
CONTINUOUS
  0
LAYER
  5
21E
330
2
100
AcDbSymbolTableRecord
100
AcDbLayerTableRecord
  2
250
 70
     0
 62
     3
  6
CONTINUOUS
  0
LAYER
  5
5C4
330
2
100
AcDbSymbolTableRecord
100
AcDbLayerTableRecord
  2
DEFPOINTS
 70
     0
 62
     7
  6
CONTINUOUS
  0
ENDTAB
  0
TABLE
  2
STYLE
  5
3
330
0
100
AcDbSymbolTable
 70
     2
  0
STYLE
  5
10
330
3
100
AcDbSymbolTableRecord
100
AcDbTextStyleTableRecord
  2
STANDARD
 70
     0
 40
0.0
 41
1.0
 50
0.0
 71
     0
 42
3.0
  3
romans.shx
  4
BIGFONT.SHX
  0
STYLE
  5
339
330
3
100
AcDbSymbolTableRecord
100
AcDbTextStyleTableRecord
  2
YOKO
 70
     0
 40
0.0
 41
1.0
 50
0.0
 71
     0
 42
3.0
  3
romans.shx
  4
extfont.shx
  0
ENDTAB
  0
TABLE
  2
VIEW
  5
6
330
0
100
AcDbSymbolTable
 70
     0
  0
ENDTAB
  0
TABLE
  2
UCS
  5
7
330
0
100
AcDbSymbolTable
 70
     0
  0
ENDTAB
  0
TABLE
  2
APPID
  5
9
330
0
100
AcDbSymbolTable
 70
    11
  0
APPID
  5
11
330
9
100
AcDbSymbolTableRecord
100
AcDbRegAppTableRecord
  2
ACAD
 70
     0
  0
APPID
  5
1B1
330
9
100
AcDbSymbolTableRecord
100
AcDbRegAppTableRecord
  2
GLOBAL
 70
     0
  0
APPID
  5
2A4
330
9
100
AcDbSymbolTableRecord
100
AcDbRegAppTableRecord
  2
DETAIL
 70
     0
  0
APPID
  5
5FD
330
9
100
AcDbSymbolTableRecord
100
AcDbRegAppTableRecord
  2
GRPNAME
 70
     0
  0
APPID
  5
5FE
330
9
100
AcDbSymbolTableRecord
100
AcDbRegAppTableRecord
  2
GPARA
 70
     0
  0
APPID
  5
7D6
330
9
100
AcDbSymbolTableRecord
100
AcDbRegAppTableRecord
  2
ITEMNAME
 70
     0
  0
APPID
  5
7D7
330
9
100
AcDbSymbolTableRecord
100
AcDbRegAppTableRecord
  2
HATCH_TYPE
 70
     0
  0
APPID
  5
7D8
330
9
100
AcDbSymbolTableRecord
100
AcDbRegAppTableRecord
  2
HATCH_DISPLAY
 70
     0
  0
APPID
  5
7D9
330
9
100
AcDbSymbolTableRecord
100
AcDbRegAppTableRecord
  2
HATCH_DISTANCE
 70
     0
  0
APPID
  5
A29
330
9
100
AcDbSymbolTableRecord
100
AcDbRegAppTableRecord
  2
INSERT_PATH
 70
     0
  0
APPID
  5
A2A
330
9
100
AcDbSymbolTableRecord
100
AcDbRegAppTableRecord
  2
INSERT_NAME
 70
     0
  0
ENDTAB
  0
TABLE
  2
DIMSTYLE
  5
A
330
0
100
AcDbSymbolTable
 70
     1
  0
DIMSTYLE
105
59A
102
{ACAD_REACTORS
330
101D
330
101E
330
1024
330
1025
330
1026
330
1027
102
}
330
A
100
AcDbSymbolTableRecord
100
AcDbDimStyleTableRecord
  2
BIGT
 70
     0
  3

  4

  5
OPEN
  6

  7

 40
1.0
 41
2.229999999999999
 42
0.5
 43
2.5
 44
1.0
 45
0.0
 46
0.0
 47
0.0
 48
0.0
140
3.5
141
0.0
142
0.0
143
25.4
144
1.0
145
0.0
146
1.0
147
1.0
 71
     0
 72
     0
 73
     0
 74
     0
 75
     0
 76
     0
 77
     3
 78
     9
170
     0
171
     2
172
     1
173
     0
174
     0
175
     0
176
   256
177
   256
178
    40
270
     2
271
     3
272
     3
273
     2
274
     2
340
10
275
     0
280
     0
281
     0
282
     0
283
     1
284
     8
285
     0
286
     0
287
     2
288
     0
  0
ENDTAB
  0
TABLE
  2
BLOCK_RECORD
  5
1
330
0
100
AcDbSymbolTable
 70
     8
  0
BLOCK_RECORD
  5
1A
102
{ACAD_XDICTIONARY
360
10D2
102
}
330
1
100
AcDbSymbolTableRecord
100
AcDbBlockTableRecord
  2
*MODEL_SPACE
  0
BLOCK_RECORD
  5
17
102
{ACAD_XDICTIONARY
360
10D0
102
}
330
1
100
AcDbSymbolTableRecord
100
AcDbBlockTableRecord
  2
*PAPER_SPACE
  0
BLOCK_RECORD
  5
594
330
1
100
AcDbSymbolTableRecord
100
AcDbBlockTableRecord
  2
_OPEN
  0
BLOCK_RECORD
  5
E00
330
1
100
AcDbSymbolTableRecord
100
AcDbBlockTableRecord
  2
A$C1AD3512B
  0
BLOCK_RECORD
  5
1028
330
1
100
AcDbSymbolTableRecord
100
AcDbBlockTableRecord
  2
*D2
  0
BLOCK_RECORD
  5
1034
330
1
100
AcDbSymbolTableRecord
100
AcDbBlockTableRecord
  2
*D3
  0
BLOCK_RECORD
  5
1040
330
1
100
AcDbSymbolTableRecord
100
AcDbBlockTableRecord
  2
*D4
  0
BLOCK_RECORD
  5
104C
330
1
100
AcDbSymbolTableRecord
100
AcDbBlockTableRecord
  2
*D5
  0
BLOCK_RECORD
  5
1058
330
1
100
AcDbSymbolTableRecord
100
AcDbBlockTableRecord
  2
*D6
  0
BLOCK_RECORD
  5
1064
330
1
100
AcDbSymbolTableRecord
100
AcDbBlockTableRecord
  2
*D7
  0
ENDTAB
  0
ENDSEC
  0
SECTION
  2
BLOCKS
  0
BLOCK
  5
1B
330
1A
100
AcDbEntity
  8
0
100
AcDbBlockBegin
  2
*MODEL_SPACE
 70
     0
 10
0.0
 20
0.0
 30
0.0
  3
*MODEL_SPACE
  1

  0
ENDBLK
  5
1C
330
1A
100
AcDbEntity
  8
0
100
AcDbBlockEnd
  0
BLOCK
  5
18
330
17
100
AcDbEntity
 67
     1
  8
0
100
AcDbBlockBegin
  2
*PAPER_SPACE
 70
     0
 10
0.0
 20
0.0
 30
0.0
  3
*PAPER_SPACE
  1

  0
ENDBLK
  5
19
330
17
100
AcDbEntity
 67
     1
  8
0
100
AcDbBlockEnd
  0
BLOCK
  5
598
330
594
100
AcDbEntity
  8
0
100
AcDbBlockBegin
  2
_OPEN
 70
     0
 10
0.0
 20
0.0
 30
0.0
  3
_OPEN
  1

  0
LINE
  5
595
330
594
100
AcDbEntity
  8
0
  6
BYBLOCK
 62
     0
100
AcDbLine
 10
-1.0
 20
0.1666666666666666
 30
0.0
 11
0.0
 21
0.0
 31
0.0
  0
LINE
  5
596
330
594
100
AcDbEntity
  8
0
  6
BYBLOCK
 62
     0
100
AcDbLine
 10
-1.0
 20
-0.1666666666666666
 30
0.0
 11
0.0
 21
0.0
 31
0.0
  0
LINE
  5
597
330
594
100
AcDbEntity
  8
0
  6
BYBLOCK
 62
     0
100
AcDbLine
 10
0.0
 20
0.0
 30
0.0
 11
-1.0
 21
0.0
 31
0.0
  0
ENDBLK
  5
599
330
594
100
AcDbEntity
  8
0
100
AcDbBlockEnd
  0
BLOCK
  5
EF0
330
E00
100
AcDbEntity
  8
0
100
AcDbBlockBegin
  2
A$C1AD3512B
 70
     0
 10
0.0
 20
0.0
 30
0.0
  3
A$C1AD3512B
  1

  0
LINE
  5
E01
330
E00
100
AcDbEntity
  8
245
  6
CENTER2
100
AcDbLine
 10
-108.4758802915891
 20
0.0
 30
0.0
 11
171.3325296792504
 21
0.0
 31
0.0
  0
ARC
  5
E02
330
E00
100
AcDbEntity
  8
240
100
AcDbCircle
 10
53.00000000000008
 20
27.25
 30
0.0
 40
15.0
100
AcDbArc
 50
180.0
 51
270.0
  0
ARC
  5
E03
330
E00
100
AcDbEntity
  8
240
100
AcDbCircle
 10
53.00000000000003
 20
-27.25
 30
0.0
 40
15.0
100
AcDbArc
 50
90.0
 51
180.0
  0
LINE
  5
E04
330
E00
100
AcDbEntity
  8
240
100
AcDbLine
 10
0.0
 20
34.92500000000041
 30
0.0
 11
-100.9443068930717
 21
20.20395524476112
 31
0.0
  0
LINE
  5
E05
330
E00
100
AcDbEntity
  8
240
100
AcDbLine
 10
-0.0000000000002274
 20
-34.92499999999961
 30
0.0
 11
-100.9443068930718
 21
-20.20395524475952
 31
0.0
  0
LINE
  5
E06
330
E00
100
AcDbEntity
  8
240
100
AcDbLine
 10
-101.8
 20
19.21442226369788
 30
0.0
 11
-101.8000000000001
 21
-19.21442226369618
 31
0.0
  0
ARC
  5
E07
330
E00
100
AcDbEntity
  8
240
100
AcDbCircle
 10
-100.8000000000001
 20
-19.21442226369618
 30
0.0
 40
1.0
100
AcDbArc
 50
180.0
 51
261.7028550301631
  0
ARC
  5
E08
330
E00
100
AcDbEntity
  8
240
100
AcDbCircle
 10
-100.8
 20
19.21442226369788
 30
0.0
 40
0.9999999999999818
100
AcDbArc
 50
98.29714496983683
 51
180.0
  0
LINE
  5
E09
330
E00
100
AcDbEntity
  8
241
100
AcDbLine
 10
2.999999999999602
 20
-34.92499999999961
 30
0.0
 11
2.999999999999602
 21
34.92500000000035
 31
0.0
  0
LINE
  5
E0A
330
E00
100
AcDbEntity
  8
241
100
AcDbLine
 10
0.0
 20
-34.92499999999961
 30
0.0
 11
0.0
 21
34.92500000000041
 31
0.0
  0
LINE
  5
E0B
330
E00
100
AcDbEntity
  8
241
100
AcDbLine
 10
19.94352447854345
 20
42.49999999999943
 30
0.0
 11
19.94352447854345
 21
-42.49999999999966
 31
0.0
  0
LINE
  5
E0C
330
E00
100
AcDbEntity
  8
241
100
AcDbLine
 10
26.45647552145595
 20
42.49999999999943
 30
0.0
 11
26.45647552145595
 21
-42.49999999999966
 31
0.0
  0
LINE
  5
E0D
330
E00
100
AcDbEntity
  8
241
100
AcDbLine
 10
15.69999999999964
 20
-49.99999999999966
 30
0.0
 11
15.69999999999964
 21
49.99999999999943
 31
0.0
  0
LINE
  5
E0E
330
E00
100
AcDbEntity
  8
241
100
AcDbLine
 10
30.69999999999959
 20
-49.99999999999971
 30
0.0
 11
30.69999999999959
 21
49.99999999999943
 31
0.0
  0
LINE
  5
E0F
330
E00
100
AcDbEntity
  8
241
100
AcDbLine
 10
38.00000000000006
 20
27.25
 30
0.0
 11
38.0
 21
-27.25
 31
0.0
  0
TEXT
  5
E10
330
E00
100
AcDbEntity
  8
247
100
AcDbText
 10
12.69999999999962
 20
-12.28678511522821
 30
0.0
 40
3.0
  1
BT50-NBS8-165
 50
90.0
  7
YOKO
 11
12.69999999999962
 21
-12.28678511522821
 31
0.0
100
AcDbText
 73
     1
  0
LINE
  5
E11
102
{ACAD_REACTORS
330
E49
102
}
330
E00
100
AcDbEntity
  8
247
100
AcDbLine
 10
9.485066715957771
 20
-18.87527368210726
 30
0.0
 11
9.099065129043708
 21
-18.99699304245882
 31
0.0
  0
LINE
  5
E12
330
E00
100
AcDbEntity
  8
247
100
AcDbLine
 10
9.412755314590583
 20
-22.5863179936307
 30
0.0
 11
8.968175236465583
 21
-22.45883081101351
 31
0.0
  0
LINE
  5
E13
102
{ACAD_REACTORS
330
E32
102
}
330
E00
100
AcDbEntity
  8
247
100
AcDbLine
 10
9.424290959121833
 20
-18.68253991745888
 30
0.0
 11
9.038289372207771
 21
-18.80425927781038
 31
0.0
  0
POLYLINE
  5
E14
330
E00
100
AcDbEntity
  8
247
100
AcDb2dPolyline
 66
     1
 10
0.0
 20
0.0
 30
0.0
 70
     1
  0
VERTEX
  5
E15
330
E14
100
AcDbEntity
  8
247
  6
CONTINUOUS
100
AcDbVertex
100
AcDb2dVertex
 10
9.424290959121833
 20
-18.68253991745888
 30
0.0
  0
VERTEX
  5
E16
330
E14
100
AcDbEntity
  8
247
  6
CONTINUOUS
100
AcDbVertex
100
AcDb2dVertex
 10
9.038289372207771
 20
-18.80425927781038
 30
0.0
  0
VERTEX
  5
E17
330
E14
100
AcDbEntity
  8
247
  6
CONTINUOUS
100
AcDbVertex
100
AcDb2dVertex
 10
9.038289372207771
 20
-18.80425927781038
 30
0.0
  0
VERTEX
  5
E18
330
E14
100
AcDbEntity
  8
247
  6
CONTINUOUS
100
AcDbVertex
100
AcDb2dVertex
 10
9.424290959121833
 20
-18.68253991745888
 30
0.0
  0
SEQEND
  5
E19
330
E14
100
AcDbEntity
  8
247
  6
CONTINUOUS
  0
POLYLINE
  5
E1A
330
E00
100
AcDbEntity
  8
247
100
AcDb2dPolyline
 66
     1
 10
0.0
 20
0.0
 30
0.0
 70
     1
1001
HATCH_DISTANCE
1040
1.0
1001
HATCH_DISPLAY
1070
     0
1001
HATCH_TYPE
1070
     7
  0
VERTEX
  5
E1B
330
E1A
100
AcDbEntity
  8
247
  6
CONTINUOUS
100
AcDbVertex
100
AcDb2dVertex
 10
9.424290959121833
 20
-18.68253991745888
 30
0.0
  0
VERTEX
  5
E1C
330
E1A
100
AcDbEntity
  8
247
  6
CONTINUOUS
100
AcDbVertex
100
AcDb2dVertex
 10
9.038289372207771
 20
-18.80425927781038
 30
0.0
  0
VERTEX
  5
E1D
330
E1A
100
AcDbEntity
  8
247
  6
CONTINUOUS
100
AcDbVertex
100
AcDb2dVertex
 10
9.038289372207771
 20
-18.80425927781038
 30
0.0
  0
VERTEX
  5
E1E
330
E1A
100
AcDbEntity
  8
247
  6
CONTINUOUS
100
AcDbVertex
100
AcDb2dVertex
 10
9.424290959121833
 20
-18.68253991745888
 30
0.0
  0
SEQEND
  5
E1F
330
E1A
100
AcDbEntity
  8
247
  6
CONTINUOUS
  0
POLYLINE
  5
E20
330
E00
100
AcDbEntity
  8
247
100
AcDb2dPolyline
 66
     1
 10
0.0
 20
0.0
 30
0.0
 70
     1
  0
VERTEX
  5
E21
330
E20
100
AcDbEntity
  8
247
  6
CONTINUOUS
100
AcDbVertex
100
AcDb2dVertex
 10
9.424290959121833
 20
-18.68253991745888
 30
0.0
  0
VERTEX
  5
E22
330
E20
100
AcDbEntity
  8
247
  6
CONTINUOUS
100
AcDbVertex
100
AcDb2dVertex
 10
9.038289372207771
 20
-18.80425927781038
 30
0.0
  0
VERTEX
  5
E23
330
E20
100
AcDbEntity
  8
247
  6
CONTINUOUS
100
AcDbVertex
100
AcDb2dVertex
 10
9.038289372207771
 20
-18.80425927781038
 30
0.0
  0
VERTEX
  5
E24
330
E20
100
AcDbEntity
  8
247
  6
CONTINUOUS
100
AcDbVertex
100
AcDb2dVertex
 10
9.424290959121833
 20
-18.68253991745888
 30
0.0
  0
SEQEND
  5
E25
330
E20
100
AcDbEntity
  8
247
  6
CONTINUOUS
  0
POLYLINE
  5
E26
330
E00
100
AcDbEntity
  8
247
100
AcDb2dPolyline
 66
     1
 10
0.0
 20
0.0
 30
0.0
 70
     1
1001
HATCH_DISTANCE
1040
1.0
1001
HATCH_DISPLAY
1070
     0
1001
HATCH_TYPE
1070
     7
  0
VERTEX
  5
E27
330
E26
100
AcDbEntity
  8
247
  6
CONTINUOUS
100
AcDbVertex
100
AcDb2dVertex
 10
9.424290959121833
 20
-18.68253991745888
 30
0.0
  0
VERTEX
  5
E28
330
E26
100
AcDbEntity
  8
247
  6
CONTINUOUS
100
AcDbVertex
100
AcDb2dVertex
 10
9.038289372207771
 20
-18.80425927781038
 30
0.0
  0
VERTEX
  5
E29
330
E26
100
AcDbEntity
  8
247
  6
CONTINUOUS
100
AcDbVertex
100
AcDb2dVertex
 10
9.038289372207771
 20
-18.80425927781038
 30
0.0
  0
VERTEX
  5
E2A
330
E26
100
AcDbEntity
  8
247
  6
CONTINUOUS
100
AcDbVertex
100
AcDb2dVertex
 10
9.424290959121833
 20
-18.68253991745888
 30
0.0
  0
SEQEND
  5
E2B
330
E26
100
AcDbEntity
  8
247
  6
CONTINUOUS
  0
LINE
  5
E2C
330
E00
100
AcDbEntity
  8
247
100
AcDbLine
 10
9.429018845698863
 20
-24.23692434392205
 30
0.0
 11
9.012182206186423
 21
-23.82008770440961
 31
0.0
  0
LINE
  5
E2D
102
{ACAD_REACTORS
330
E32
102
}
330
E00
100
AcDbEntity
  8
247
100
AcDbLine
 10
8.968175236465583
 20
-25.63329980515414
 30
0.0
 11
9.372350041153083
 21
-25.74919030808382
 31
0.0
  0
LINE
  5
E2E
330
E00
100
AcDbEntity
  8
247
100
AcDbLine
 10
8.968175236465583
 20
-25.42307946823985
 30
0.0
 11
9.372350041153083
 21
-25.53896997117021
 31
0.0
  0
LINE
  5
E2F
330
E00
100
AcDbEntity
  8
247
100
AcDbLine
 10
9.37235004115314
 20
-25.5272939575367
 30
0.0
 11
8.968175236465611
 21
-25.1231191528492
 31
0.0
  0
ARC
  5
E30
330
E00
100
AcDbEntity
  8
247
100
AcDbCircle
 10
9.978596989395271
 20
-24.11506555222445
 30
0.0
 40
1.010430335998535
100
AcDbArc
 50
17.66957754739816
 51
180.2361598426716
  0
ARC
  5
E31
102
{ACAD_REACTORS
330
E49
102
}
330
E00
100
AcDbEntity
  8
247
100
AcDbCircle
 10
10.28172809291089
 20
-20.06045434616976
 30
0.0
 40
1.313554763793945
100
AcDbArc
 50
143.4440121970578
 51
254.0001843876854
  0
HATCH
  5
E32
330
E00
100
AcDbEntity
  8
247
100
AcDbHatch
 10
0.0
 20
0.0
 30
0.0
210
0.0
220
0.0
230
1.0
  2
ANSI31
 70
     0
 71
     1
 91
        1
 92
       33
 93
       10
 72
     1
 10
8.968175236465583
 20
-25.63329980515414
 11
9.372350041153083
 21
-25.74919030808382
 72
     1
 10
8.968175236465583
 20
-26.46797082566195
 11
8.968175236465583
 21
-25.63329980515414
 72
     1
 10
9.372350041153083
 20
-26.46797082566195
 11
9.372350041153083
 21
-25.74919030808382
 72
     2
 10
11.09007770228589
 20
-26.46797082566195
 40
1.717727661132812
 50
180.0
 51
360.0
 73
     1
 72
     2
 10
11.09007770228589
 20
-26.46797082566195
 40
2.121902465820312
 50
180.0
 51
360.0
 73
     1
 72
     1
 10
13.21198063454147
 20
-26.46797082566195
 11
13.21198063454147
 21
-18.26327417038856
 72
     1
 10
12.80780584025586
 20
-26.46797082566195
 11
12.80780584025586
 21
-18.26327417038856
 72
     2
 10
11.09007770228589
 20
-18.26327417038856
 40
2.121902465820312
 50
0.0
 51
194.7707939660939
 73
     1
 72
     2
 10
11.09007770228589
 20
-18.26327417038856
 40
1.717727661132812
 50
0.0
 51
194.1274364964119
 73
     1
 72
     1
 10
9.424290959121833
 20
-18.68253991745888
 11
9.038289372207771
 21
-18.80425927781038
 97
       10
330
E2D
330
E53
330
E62
330
E64
330
E44
330
E5F
330
E5E
330
E48
330
E79
330
E13
 75
     0
 76
     1
 52
90.0
 41
0.1
 77
     0
 78
     1
 53
135.0
 43
28.96197063136304
 44
-148.3898599400418
 45
-0.2245064030267288
 46
-0.2245064030267288
 79
     0
 98
        1
 10
28.96197063136304
 20
-148.3898599400418
  0
HATCH
  5
E33
330
E00
100
AcDbEntity
  8
247
100
AcDbHatch
 10
0.0
 20
0.0
 30
0.0
210
0.0
220
0.0
230
1.0
  2
ANSI31
 70
     0
 71
     0
 91
        1
 92
        7
 72
     0
 73
     1
 93
        6
 10
8.968175236465611
 20
-21.40768335007601
 10
8.968175236465555
 20
-22.45883081101351
 10
9.412755314590611
 20
-22.5863179936307
 10
9.412755314590583
 20
-22.43914697312288
 10
12.60571843791214
 20
-23.35472009324007
 10
12.60571843791214
 20
-22.45072839402132
 97
        0
 75
     0
 76
     1
 52
90.0
 41
0.1
 77
     0
 78
     1
 53
135.0
 43
28.96197063136304
 44
-148.3898599400418
 45
-0.2245064030267288
 46
-0.2245064030267288
 79
     0
 47
0.0134348504236232
 98
        1
 10
10.69169962313054
 20
-22.35266561501487
  0
POLYLINE
  5
E34
330
E00
100
AcDbEntity
  8
247
100
AcDb2dPolyline
 66
     1
 10
0.0
 20
0.0
 30
0.0
 70
     1
  0
VERTEX
  5
E35
330
E34
100
AcDbEntity
  8
247
  6
CONTINUOUS
100
AcDbVertex
100
AcDb2dVertex
 10
8.968175236465583
 20
-22.45883081101351
 30
0.0
  0
VERTEX
  5
E36
330
E34
100
AcDbEntity
  8
247
  6
CONTINUOUS
100
AcDbVertex
100
AcDb2dVertex
 10
9.412755314590583
 20
-22.5863179936307
 30
0.0
  0
VERTEX
  5
E37
330
E34
100
AcDbEntity
  8
247
  6
CONTINUOUS
100
AcDbVertex
100
AcDb2dVertex
 10
9.412755314590583
 20
-22.43914697312288
 30
0.0
  0
VERTEX
  5
E38
330
E34
100
AcDbEntity
  8
247
  6
CONTINUOUS
100
AcDbVertex
100
AcDb2dVertex
 10
12.60571843791211
 20
-23.35472009324007
 30
0.0
  0
VERTEX
  5
E39
330
E34
100
AcDbEntity
  8
247
  6
CONTINUOUS
100
AcDbVertex
100
AcDb2dVertex
 10
12.60571843791211
 20
-22.45072839402132
 30
0.0
  0
VERTEX
  5
E3A
330
E34
100
AcDbEntity
  8
247
  6
CONTINUOUS
100
AcDbVertex
100
AcDb2dVertex
 10
8.968175236465583
 20
-21.40768335007601
 30
0.0
  0
SEQEND
  5
E3B
330
E34
100
AcDbEntity
  8
247
  6
CONTINUOUS
  0
POLYLINE
  5
E3C
330
E00
100
AcDbEntity
  8
247
100
AcDb2dPolyline
 66
     1
 10
0.0
 20
0.0
 30
0.0
 70
     1
1001
HATCH_DISTANCE
1040
1.0
1001
HATCH_DISPLAY
1070
     0
1001
HATCH_TYPE
1070
     7
  0
VERTEX
  5
E3D
330
E3C
100
AcDbEntity
  8
247
  6
CONTINUOUS
100
AcDbVertex
100
AcDb2dVertex
 10
8.968175236465583
 20
-22.45883081101351
 30
0.0
  0
VERTEX
  5
E3E
330
E3C
100
AcDbEntity
  8
247
  6
CONTINUOUS
100
AcDbVertex
100
AcDb2dVertex
 10
9.412755314590583
 20
-22.5863179936307
 30
0.0
  0
VERTEX
  5
E3F
330
E3C
100
AcDbEntity
  8
247
  6
CONTINUOUS
100
AcDbVertex
100
AcDb2dVertex
 10
9.412755314590583
 20
-22.43914697312288
 30
0.0
  0
VERTEX
  5
E40
330
E3C
100
AcDbEntity
  8
247
  6
CONTINUOUS
100
AcDbVertex
100
AcDb2dVertex
 10
12.60571843791211
 20
-23.35472009324007
 30
0.0
  0
VERTEX
  5
E41
330
E3C
100
AcDbEntity
  8
247
  6
CONTINUOUS
100
AcDbVertex
100
AcDb2dVertex
 10
12.60571843791211
 20
-22.45072839402132
 30
0.0
  0
VERTEX
  5
E42
330
E3C
100
AcDbEntity
  8
247
  6
CONTINUOUS
100
AcDbVertex
100
AcDb2dVertex
 10
8.968175236465583
 20
-21.40768335007601
 30
0.0
  0
SEQEND
  5
E43
330
E3C
100
AcDbEntity
  8
247
  6
CONTINUOUS
  0
ARC
  5
E44
102
{ACAD_REACTORS
330
E32
102
}
330
E00
100
AcDbEntity
  8
247
100
AcDbCircle
 10
11.09007770228589
 20
-26.46797082566195
 30
0.0
 40
2.121902465820312
100
AcDbArc
 50
180.0
 51
0.0
  0
LINE
  5
E45
330
E00
100
AcDbEntity
  8
247
100
AcDbLine
 10
10.35301857303954
 20
-25.60993687731615
 30
0.0
 11
8.968175236465725
 21
-24.22509354074236
 31
0.0
  0
LINE
  5
E46
330
E00
100
AcDbEntity
  8
247
100
AcDbLine
 10
9.665587270221294
 20
-24.02447996239095
 30
0.0
 11
9.161611158830567
 21
-23.52050385100028
 31
0.0
  0
LINE
  5
E47
330
E00
100
AcDbEntity
  8
247
100
AcDbLine
 10
9.723491604750108
 20
-25.42942271508024
 30
0.0
 11
8.968175236465668
 21
-24.67410634679572
 31
0.0
  0
ARC
  5
E48
102
{ACAD_REACTORS
330
E32
102
}
330
E00
100
AcDbEntity
  8
247
100
AcDbCircle
 10
11.09007770228589
 20
-18.26327417038856
 30
0.0
 40
2.121902465820312
100
AcDbArc
 50
0.0
 51
194.7707939660939
  0
HATCH
  5
E49
330
E00
100
AcDbEntity
  8
247
100
AcDbHatch
 10
0.0
 20
0.0
 30
0.0
210
0.0
220
0.0
230
1.0
  2
ANSI31
 70
     0
 71
     1
 91
        1
 92
       33
 93
       15
 72
     1
 10
9.485066715957771
 20
-18.87527368210726
 11
9.099065129043708
 21
-18.99699304245882
 72
     2
 10
11.09007770228589
 20
-18.26327417038856
 40
1.717732429504394
 50
200.8721834020736
 51
222.5419489373881
 73
     1
 72
     2
 10
9.837148014785896
 20
-19.84887597702913
 40
0.4243833422660828
 50
91.71012138206434
 51
253.9983983544486
 73
     1
 72
     1
 10
11.61977130580152
 20
-20.80152795456819
 11
9.720158879043708
 21
-20.25681970261507
 72
     2
 10
11.73674518275464
 20
-20.39358422898226
 40
0.4243830442428589
 50
254.0002730571842
 51
434.0002730571843
 73
     1
 72
     1
 10
11.85371905970777
 20
-19.98564050339632
 11
10.94861346888745
 21
-19.72610376023226
 72
     1
 10
10.94861346888745
 20
-20.06246850632601
 11
10.94861346888745
 21
-19.72610376023226
 72
     1
 10
10.94861346888745
 20
-20.06246850632601
 11
10.54443866419995
 21
-19.94657800339632
 72
     1
 10
10.54443866419995
 20
-19.94657800339632
 11
10.54443866419995
 21
-18.76928613327919
 72
     1
 10
12.60571843791211
 20
-19.36035058640413
 11
10.54443866419995
 21
-18.76928613327919
 72
     1
 10
12.36864263224805
 20
-19.59744165085726
 11
12.60571843791211
 21
-19.36035058640413
 72
     2
 10
11.29216510462964
 20
-20.35018823288851
 40
1.313568115234375
 50
253.9997507017277
 51
394.9638732916308
 73
     1
 72
     2
 10
11.36122638392652
 20
-18.20257470749794
 40
3.43743896484375
 50
245.2051773698423
 51
262.7948259620506
 73
     1
 72
     2
 10
10.28172809291089
 20
-20.06045434616976
 40
1.313554763793945
 50
143.4440121970578
 51
254.0001843876854
 73
     1
 72
     2
 10
11.09007770228589
 20
-18.26327417038856
 40
2.121903419494628
 50
200.2296450633201
 51
208.5716889237166
 73
     1
 97
       15
330
E11
330
E7B
330
E7A
330
E80
330
E7F
330
E7E
330
E81
330
E82
330
E7D
330
E7C
330
E83
330
E5D
330
E6A
330
E31
330
E4D
 75
     0
 76
     1
 52
90.0
 41
0.1
 77
     0
 78
     1
 53
135.0
 43
28.96197063136304
 44
-148.3898599400418
 45
-0.2245064030267288
 46
-0.2245064030267288
 79
     0
 98
        1
 10
28.96197063136304
 20
-148.3898599400418
  0
LINE
  5
E4A
330
E00
100
AcDbEntity
  8
247
100
AcDbLine
 10
12.60571843791211
 20
-22.45072839402132
 30
0.0
 11
8.968175236465583
 21
-21.40768335007601
 31
0.0
  0
LINE
  5
E4B
330
E00
100
AcDbEntity
  8
240
100
AcDbLine
 10
15.69999999999964
 20
-49.99999999999966
 30
0.0
 11
4.299999999999613
 21
-49.99999999999966
 31
0.0
  0
LINE
  5
E4C
330
E00
100
AcDbEntity
  8
243
100
AcDbLine
 10
33.99999999999994
 20
-35.30000000000012
 30
0.0
 11
2.999999999999943
 21
-35.30000000000012
 31
0.0
  0
ARC
  5
E4D
102
{ACAD_REACTORS
330
E49
102
}
330
E00
100
AcDbEntity
  8
247
100
AcDbCircle
 10
11.09007770228589
 20
-18.26327417038856
 30
0.0
 40
2.121903419494628
100
AcDbArc
 50
200.2296450633201
 51
208.5716889237166
  0
LINE
  5
E4E
330
E00
100
AcDbEntity
  8
240
100
AcDbLine
 10
2.999999999999715
 20
-34.92499999999961
 30
0.0
 11
2.999999999999658
 21
-48.69999999999965
 31
0.0
  0
ARC
  5
E4F
330
E00
100
AcDbEntity
  8
240
100
AcDbCircle
 10
4.299999999999613
 20
-48.69999999999965
 30
0.0
 40
1.300000000000011
100
AcDbArc
 50
180.0
 51
270.0
  0
LINE
  5
E50
330
E00
100
AcDbEntity
  8
240
100
AcDbLine
 10
-0.0000000000002274
 20
-34.92499999999961
 30
0.0
 11
2.999999999999602
 21
-34.92499999999961
 31
0.0
  0
LINE
  5
E51
330
E00
100
AcDbEntity
  8
247
100
AcDbLine
 10
8.968175236465583
 20
-22.45883081101351
 30
0.0
 11
8.968175236465583
 21
-21.40768335007601
 31
0.0
  0
LINE
  5
E52
330
E00
100
AcDbEntity
  8
247
100
AcDbLine
 10
8.968175236465583
 20
-25.42307946823985
 30
0.0
 11
8.968175236465725
 21
-24.11923029866045
 31
0.0
  0
LINE
  5
E53
102
{ACAD_REACTORS
330
E32
102
}
330
E00
100
AcDbEntity
  8
247
100
AcDbLine
 10
8.968175236465583
 20
-26.46797082566195
 30
0.0
 11
8.968175236465583
 21
-25.63329980515414
 31
0.0
  0
LINE
  5
E54
330
E00
100
AcDbEntity
  8
243
100
AcDbLine
 10
33.99999999999994
 20
-35.30000000000012
 30
0.0
 11
34.0
 21
-49.99999999999971
 31
0.0
  0
LINE
  5
E55
330
E00
100
AcDbEntity
  8
240
100
AcDbLine
 10
38.0
 20
-48.7000000000001
 30
0.0
 11
38.00000000000002
 21
-27.25
 31
0.0
  0
LINE
  5
E56
330
E00
100
AcDbEntity
  8
240
100
AcDbLine
 10
26.19666790032062
 20
-42.49999999999966
 30
0.0
 11
20.20333209967879
 21
-42.49999999999966
 31
0.0
  0
LINE
  5
E57
330
E00
100
AcDbEntity
  8
240
100
AcDbLine
 10
19.94352447854345
 20
-42.64999999999964
 30
0.0
 11
15.69999999999964
 21
-49.99999999999966
 31
0.0
  0
ARC
  5
E58
330
E00
100
AcDbEntity
  8
240
100
AcDbCircle
 10
20.20333209967873
 20
-42.79999999999967
 30
0.0
 40
0.3000000000000114
100
AcDbArc
 50
89.99999999998861
 51
149.9999999999885
  0
LINE
  5
E59
330
E00
100
AcDbEntity
  8
240
100
AcDbLine
 10
30.69999999999959
 20
-49.99999999999971
 30
0.0
 11
36.69999999999964
 21
-49.99999999999977
 31
0.0
  0
LINE
  5
E5A
330
E00
100
AcDbEntity
  8
240
100
AcDbLine
 10
26.45647552145595
 20
-42.64999999999969
 30
0.0
 11
30.69999999999959
 21
-49.99999999999971
 31
0.0
  0
ARC
  5
E5B
330
E00
100
AcDbEntity
  8
240
100
AcDbCircle
 10
26.19666790032056
 20
-42.79999999999967
 30
0.0
 40
0.3000000000000428
100
AcDbArc
 50
29.99999999999246
 51
89.99999999998861
  0
ARC
  5
E5C
330
E00
100
AcDbEntity
  8
240
100
AcDbCircle
 10
36.69999999999999
 20
-48.7000000000001
 30
0.0
 40
1.300000000000011
100
AcDbArc
 50
270.0
 51
0.0
  0
ARC
  5
E5D
102
{ACAD_REACTORS
330
E49
102
}
330
E00
100
AcDbEntity
  8
247
100
AcDbCircle
 10
11.29216510462964
 20
-20.35018823288851
 30
0.0
 40
1.313568115234375
100
AcDbArc
 50
253.9997507017277
 51
34.96387329163082
  0
LINE
  5
E5E
102
{ACAD_REACTORS
330
E32
102
}
330
E00
100
AcDbEntity
  8
247
100
AcDbLine
 10
12.80780584025586
 20
-26.46797082566195
 30
0.0
 11
12.80780584025586
 21
-18.26327417038856
 31
0.0
  0
LINE
  5
E5F
102
{ACAD_REACTORS
330
E32
102
}
330
E00
100
AcDbEntity
  8
247
100
AcDbLine
 10
13.21198063454147
 20
-26.46797082566195
 30
0.0
 11
13.21198063454147
 21
-18.26327417038856
 31
0.0
  0
LINE
  5
E60
330
E00
100
AcDbEntity
  8
247
100
AcDbLine
 10
9.412755314590583
 20
-22.5863179936307
 30
0.0
 11
9.412755314590583
 21
-22.43914697312288
 31
0.0
  0
LINE
  5
E61
330
E00
100
AcDbEntity
  8
247
100
AcDbLine
 10
9.372350041153083
 20
-25.53896997117021
 30
0.0
 11
9.372350041154277
 21
-25.32873437546709
 31
0.0
  0
LINE
  5
E62
102
{ACAD_REACTORS
330
E32
102
}
330
E00
100
AcDbEntity
  8
247
100
AcDbLine
 10
9.372350041153083
 20
-26.46797082566195
 30
0.0
 11
9.372350041153083
 21
-25.74919030808382
 31
0.0
  0
LINE
  5
E63
330
E00
100
AcDbEntity
  8
247
100
AcDbLine
 10
12.60571843791211
 20
-23.35472009324007
 30
0.0
 11
9.412755314590583
 21
-22.43914697312288
 31
0.0
  0
ARC
  5
E64
102
{ACAD_REACTORS
330
E32
102
}
330
E00
100
AcDbEntity
  8
247
100
AcDbCircle
 10
11.09007770228589
 20
-26.46797082566195
 30
0.0
 40
1.717727661132812
100
AcDbArc
 50
180.0
 51
0.0
  0
LINE
  5
E65
330
E00
100
AcDbEntity
  8
247
100
AcDbLine
 10
12.60571843791211
 20
-26.25588891648226
 30
0.0
 11
9.372350041154277
 21
-25.32873437546709
 31
0.0
  0
LINE
  5
E66
330
E00
100
AcDbEntity
  8
247
100
AcDbLine
 10
9.382914148697693
 20
-24.32266719371966
 30
0.0
 11
10.53802994073157
 21
-24.65388390240628
 31
0.0
  0
ARC
  5
E67
330
E00
100
AcDbEntity
  8
247
100
AcDbCircle
 10
9.938191715957771
 20
-24.56597802781038
 30
0.0
 40
0.6062452793121338
100
AcDbArc
 50
351.6626016879293
 51
156.3381550951899
  0
LINE
  5
E68
330
E00
100
AcDbEntity
  8
247
100
AcDbLine
 10
10.0627963416407
 20
-23.972676227757
 30
0.0
 11
9.386448824886031
 21
-23.29632871100227
 31
0.0
  0
LINE
  5
E69
330
E00
100
AcDbEntity
  8
247
100
AcDbLine
 10
12.60571843791211
 20
-23.35472009324007
 30
0.0
 11
12.60571843791211
 21
-22.45072839402132
 31
0.0
  0
ARC
  5
E6A
102
{ACAD_REACTORS
330
E49
102
}
330
E00
100
AcDbEntity
  8
247
100
AcDbCircle
 10
11.36122638392652
 20
-18.20257470749794
 30
0.0
 40
3.43743896484375
100
AcDbArc
 50
245.2051773698423
 51
262.7948259620506
  0
LINE
  5
E6B
330
E00
100
AcDbEntity
  8
247
100
AcDbLine
 10
12.60571843791211
 20
-25.16855990586805
 30
0.0
 11
11.12270918476849
 21
-23.68555065272437
 31
0.0
  0
ARC
  5
E6C
330
E00
100
AcDbEntity
  8
247
100
AcDbCircle
 10
11.5548756759187
 20
-25.0295552983182
 30
0.0
 40
0.6062626242637635
100
AcDbArc
 50
351.6628542111488
 51
156.3381921591137
  0
LINE
  5
E6D
330
E00
100
AcDbEntity
  8
247
100
AcDbLine
 10
10.99958128538739
 20
-24.78623964032715
 30
0.0
 11
12.15473133930962
 21
-25.11746179794727
 31
0.0
  0
LINE
  5
E6E
330
E00
100
AcDbEntity
  8
247
100
AcDbLine
 10
12.60571843791211
 20
-26.06658551797488
 30
0.0
 11
11.45634189566726
 21
-24.91720897573009
 31
0.0
  0
LINE
  5
E6F
330
E00
100
AcDbEntity
  8
247
100
AcDbLine
 10
12.24159947790784
 20
-26.15147936402411
 30
0.0
 11
10.5314935160112
 21
-24.44137340212751
 31
0.0
  0
LINE
  5
E70
330
E00
100
AcDbEntity
  8
247
100
AcDbLine
 10
11.61207250961842
 20
-25.97096520178808
 30
0.0
 11
10.19728690393861
 21
-24.55617959610833
 31
0.0
  0
LINE
  5
E71
330
E00
100
AcDbEntity
  8
247
100
AcDbLine
 10
10.98254554132898
 20
-25.79045103955218
 30
0.0
 11
9.567765893925326
 21
-24.37567139214843
 31
0.0
  0
LINE
  5
E72
330
E00
100
AcDbEntity
  8
247
100
AcDbLine
 10
12.60571843791211
 20
-25.61757271192152
 30
0.0
 11
12.0858595627499
 21
-25.09771383675922
 31
0.0
  0
LINE
  5
E73
330
E00
100
AcDbEntity
  8
247
100
AcDbLine
 10
12.60571843791211
 20
-26.25588891648226
 30
0.0
 11
12.60571843791211
 21
-24.57864282273226
 31
0.0
  0
ARC
  5
E74
330
E00
100
AcDbEntity
  8
247
100
AcDbCircle
 10
11.59529620814527
 20
-24.57864282273226
 30
0.0
 40
1.010421752929687
100
AcDbArc
 50
0.0
 51
130.3298406541676
  0
LINE
  5
E75
330
E00
100
AcDbEntity
  8
247
100
AcDbLine
 10
12.60571843791214
 20
-24.71954709981457
 30
0.0
 11
11.46308014810011
 21
-23.57690881000257
 31
0.0
  0
LINE
  5
E76
330
E00
100
AcDbEntity
  8
247
100
AcDbLine
 10
11.13314516820764
 20
-24.59401224827036
 30
0.0
 11
9.68681422474134
 21
-23.1476813048041
 31
0.0
  0
LINE
  5
E77
330
E00
100
AcDbEntity
  8
247
100
AcDbLine
 10
11.42542084116973
 20
-24.43727511517909
 30
0.0
 11
10.1001146065945
 21
-23.11196888060385
 31
0.0
  0
LINE
  5
E78
330
E00
100
AcDbEntity
  8
247
100
AcDbLine
 10
12.52996169456253
 20
-24.19477755041146
 30
0.0
 11
11.97916148046607
 21
-23.64397733631506
 31
0.0
  0
ARC
  5
E79
102
{ACAD_REACTORS
330
E32
102
}
330
E00
100
AcDbEntity
  8
247
100
AcDbCircle
 10
11.09007770228589
 20
-18.26327417038856
 30
0.0
 40
1.717727661132812
100
AcDbArc
 50
0.0
 51
194.1274364964119
  0
ARC
  5
E7A
102
{ACAD_REACTORS
330
E49
102
}
330
E00
100
AcDbEntity
  8
247
100
AcDbCircle
 10
9.837148014785896
 20
-19.84887597702913
 30
0.0
 40
0.4243833422660828
100
AcDbArc
 50
91.71012138206434
 51
253.9983983544486
  0
ARC
  5
E7B
102
{ACAD_REACTORS
330
E49
102
}
330
E00
100
AcDbEntity
  8
247
100
AcDbCircle
 10
11.09007770228589
 20
-18.26327417038856
 30
0.0
 40
1.717732429504394
100
AcDbArc
 50
200.8721834020736
 51
222.5419489373881
  0
LINE
  5
E7C
102
{ACAD_REACTORS
330
E49
102
}
330
E00
100
AcDbEntity
  8
247
100
AcDbLine
 10
12.60571843791211
 20
-19.36035058640413
 30
0.0
 11
10.54443866419995
 21
-18.76928613327919
 31
0.0
  0
LINE
  5
E7D
102
{ACAD_REACTORS
330
E49
102
}
330
E00
100
AcDbEntity
  8
247
100
AcDbLine
 10
10.54443866419995
 20
-19.94657800339632
 30
0.0
 11
10.54443866419995
 21
-18.76928613327919
 31
0.0
  0
LINE
  5
E7E
102
{ACAD_REACTORS
330
E49
102
}
330
E00
100
AcDbEntity
  8
247
100
AcDbLine
 10
11.85371905970777
 20
-19.98564050339632
 30
0.0
 11
10.94861346888745
 21
-19.72610376023226
 31
0.0
  0
ARC
  5
E7F
102
{ACAD_REACTORS
330
E49
102
}
330
E00
100
AcDbEntity
  8
247
100
AcDbCircle
 10
11.73674518275464
 20
-20.39358422898226
 30
0.0
 40
0.4243830442428589
100
AcDbArc
 50
254.0002730571842
 51
74.00027305718428
  0
LINE
  5
E80
102
{ACAD_REACTORS
330
E49
102
}
330
E00
100
AcDbEntity
  8
247
100
AcDbLine
 10
11.61977130580152
 20
-20.80152795456819
 30
0.0
 11
9.720158879043708
 21
-20.25681970261507
 31
0.0
  0
LINE
  5
E81
102
{ACAD_REACTORS
330
E49
102
}
330
E00
100
AcDbEntity
  8
247
100
AcDbLine
 10
10.94861346888745
 20
-20.06246850632601
 30
0.0
 11
10.94861346888745
 21
-19.72610376023226
 31
0.0
  0
LINE
  5
E82
102
{ACAD_REACTORS
330
E49
102
}
330
E00
100
AcDbEntity
  8
247
100
AcDbLine
 10
10.94861346888745
 20
-20.06246850632601
 30
0.0
 11
10.54443866419995
 21
-19.94657800339632
 31
0.0
  0
LINE
  5
E83
102
{ACAD_REACTORS
330
E49
102
}
330
E00
100
AcDbEntity
  8
247
100
AcDbLine
 10
12.36864263224805
 20
-19.59744165085726
 30
0.0
 11
12.60571843791211
 21
-19.36035058640413
 31
0.0
  0
LINE
  5
E84
330
E00
100
AcDbEntity
  8
240
100
AcDbLine
 10
15.69999999999964
 20
49.99999999999943
 30
0.0
 11
4.299999999999613
 21
49.99999999999943
 31
0.0
  0
LINE
  5
E85
330
E00
100
AcDbEntity
  8
243
100
AcDbLine
 10
33.99999999999994
 20
35.2999999999999
 30
0.0
 11
2.999999999999943
 21
35.2999999999999
 31
0.0
  0
ARC
  5
E86
330
E00
100
AcDbEntity
  8
240
100
AcDbCircle
 10
4.300000000000011
 20
48.70000000000039
 30
0.0
 40
1.300000000000011
100
AcDbArc
 50
90.0
 51
180.0
  0
LINE
  5
E87
330
E00
100
AcDbEntity
  8
240
100
AcDbLine
 10
0.0
 20
34.92500000000041
 30
0.0
 11
2.999999999999602
 21
34.92500000000046
 31
0.0
  0
LINE
  5
E88
330
E00
100
AcDbEntity
  8
240
100
AcDbLine
 10
2.999999999999772
 20
48.69999999999976
 30
0.0
 11
2.999999999999772
 21
34.92500000000035
 31
0.0
  0
LINE
  5
E89
330
E00
100
AcDbEntity
  8
240
100
AcDbLine
 10
38.00000000000017
 20
48.7000000000001
 30
0.0
 11
38.00000000000008
 21
27.25000000000005
 31
0.0
  0
LINE
  5
E8A
330
E00
100
AcDbEntity
  8
240
100
AcDbLine
 10
26.19666790032062
 20
42.49999999999943
 30
0.0
 11
20.20333209967879
 21
42.49999999999943
 31
0.0
  0
LINE
  5
E8B
330
E00
100
AcDbEntity
  8
240
100
AcDbLine
 10
19.94352447854345
 20
42.64999999999941
 30
0.0
 11
15.69999999999964
 21
49.99999999999943
 31
0.0
  0
ARC
  5
E8C
330
E00
100
AcDbEntity
  8
240
100
AcDbCircle
 10
20.20333209967873
 20
42.79999999999944
 30
0.0
 40
0.2999999999999727
100
AcDbArc
 50
210.0000000000114
 51
270.0000000000114
  0
ARC
  5
E8D
330
E00
100
AcDbEntity
  8
240
100
AcDbCircle
 10
36.69999999999999
 20
48.69999999999987
 30
0.0
 40
1.300000000000011
100
AcDbArc
 50
0.0
 51
90.0
  0
LINE
  5
E8E
330
E00
100
AcDbEntity
  8
240
100
AcDbLine
 10
26.45647552145595
 20
42.64999999999946
 30
0.0
 11
30.69999999999959
 21
49.99999999999949
 31
0.0
  0
LINE
  5
E8F
330
E00
100
AcDbEntity
  8
243
100
AcDbLine
 10
33.99999999999994
 20
35.2999999999999
 30
0.0
 11
34.0
 21
49.99999999999949
 31
0.0
  0
ARC
  5
E90
330
E00
100
AcDbEntity
  8
240
100
AcDbCircle
 10
26.19666790032056
 20
42.79999999999944
 30
0.0
 40
0.3000000000000114
100
AcDbArc
 50
270.0000000000114
 51
330.0000000000075
  0
LINE
  5
E91
330
E00
100
AcDbEntity
  8
240
100
AcDbLine
 10
30.69999999999959
 20
49.99999999999949
 30
0.0
 11
36.69999999999964
 21
49.99999999999954
 31
0.0
  0
LINE
  5
E92
330
E00
100
AcDbEntity
  8
240
100
AcDbLine
 10
165.0
 20
0.0
 30
0.0
 11
165.0
 21
-11.59289321881345
 31
0.0
  0
LINE
  5
E93
330
E00
100
AcDbEntity
  8
241
100
AcDbLine
 10
154.0
 20
-8.0
 30
0.0
 11
154.0
 21
0.0
 31
0.0
  0
LINE
  5
E94
330
E00
100
AcDbEntity
  8
241
100
AcDbLine
 10
149.5
 20
-9.0
 30
0.0
 11
149.5
 21
0.0
 31
0.0
  0
LINE
  5
E95
330
E00
100
AcDbEntity
  8
241
100
AcDbLine
 10
154.3
 20
-9.800000000000011
 30
0.0
 11
154.3
 21
0.0
 31
0.0
  0
LINE
  5
E96
330
E00
100
AcDbEntity
  8
241
100
AcDbLine
 10
151.5
 20
-7.5
 30
0.0
 11
151.5
 21
0.0
 31
0.0
  0
LINE
  5
E97
330
E00
100
AcDbEntity
  8
246
100
AcDbLine
 10
127.693375672974
 20
-1.443375672974013
 30
0.0
 11
130.0
 21
-3.75
 31
0.0
  0
ARC
  5
E98
330
E00
100
AcDbEntity
  8
246
100
AcDbCircle
 10
118.0
 20
-2.899999999999977
 30
0.0
 40
1.0
100
AcDbArc
 50
180.0
 51
270.0
  0
LINE
  5
E99
330
E00
100
AcDbEntity
  8
241
100
AcDbLine
 10
164.0514718625759
 20
12.13812677388836
 30
0.0
 11
164.0514718625759
 21
-12.18543046357615
 31
0.0
  0
LINE
  5
E9A
330
E00
100
AcDbEntity
  8
246
100
AcDbLine
 10
130.0
 20
4.0
 30
0.0
 11
130.0
 21
-4.0
 31
0.0
  0
LINE
  5
E9B
330
E00
100
AcDbEntity
  8
246
100
AcDbLine
 10
146.9999999999992
 20
-4.736499012174476
 30
0.0
 11
147.0000000000001
 21
4.736499012173737
 31
0.0
  0
LINE
  5
E9C
330
E00
100
AcDbEntity
  8
240
100
AcDbLine
 10
53.00000000000003
 20
-12.25
 30
0.0
 11
148.5
 21
-12.25
 31
0.0
  0
LINE
  5
E9D
330
E00
100
AcDbEntity
  8
246
100
AcDbLine
 10
120.6
 20
-4.5
 30
0.0
 11
129.4999999999999
 21
-4.5
 31
0.0
  0
LINE
  5
E9E
330
E00
100
AcDbEntity
  8
246
100
AcDbLine
 10
120.3
 20
-4.199999999999988
 30
0.0
 11
129.7999999999999
 21
-4.199999999999988
 31
0.0
  0
LINE
  5
E9F
330
E00
100
AcDbEntity
  8
246
100
AcDbLine
 10
118.0
 20
-3.899999999999977
 30
0.0
 11
120.0
 21
-3.899999999999977
 31
0.0
  0
LINE
  5
EA0
330
E00
100
AcDbEntity
  8
246
100
AcDbLine
 10
120.6
 20
-4.5
 30
0.0
 11
120.0
 21
-3.899999999999977
 31
0.0
  0
LINE
  5
EA1
330
E00
100
AcDbEntity
  8
246
100
AcDbLine
 10
129.4999999999999
 20
-4.5
 30
0.0
 11
130.0
 21
-4.0
 31
0.0
  0
LINE
  5
EA2
330
E00
100
AcDbEntity
  8
241
100
AcDbLine
 10
161.0
 20
-11.49709263010237
 30
0.0
 11
154.3
 21
-11.49709263010237
 31
0.0
  0
LINE
  5
EA3
330
E00
100
AcDbEntity
  8
241
100
AcDbLine
 10
161.0
 20
-9.997092630102372
 30
0.0
 11
154.3
 21
-9.997092630102372
 31
0.0
  0
LINE
  5
EA4
330
E00
100
AcDbEntity
  8
240
100
AcDbLine
 10
154.8999999999999
 20
-12.5
 30
0.0
 11
164.0514718625759
 21
-12.50000000000017
 31
0.0
  0
LINE
  5
EA5
330
E00
100
AcDbEntity
  8
246
100
AcDbLine
 10
165.0
 20
-4.0
 30
0.0
 11
147.0
 21
-4.0
 31
0.0
  0
LINE
  5
EA6
330
E00
100
AcDbEntity
  8
246
100
AcDbLine
 10
161.3999999999999
 20
-6.249999999999943
 30
0.0
 11
147.0
 21
-4.736499012174249
 31
0.0
  0
ARC
  5
EA7
330
E00
100
AcDbEntity
  8
240
100
AcDbCircle
 10
148.5
 20
-11.25
 30
0.0
 40
0.9999999999999857
100
AcDbArc
 50
270.0
 51
0.0
  0
ARC
  5
EA8
330
E00
100
AcDbEntity
  8
240
100
AcDbCircle
 10
154.8999999999999
 20
-11.89999999999997
 30
0.0
 40
0.5999999999999944
100
AcDbArc
 50
180.0
 51
270.0
  0
LINE
  5
EA9
330
E00
100
AcDbEntity
  8
242
100
AcDbLine
 10
154.0
 20
-7.5
 30
0.0
 11
151.5
 21
-7.5
 31
0.0
  0
LINE
  5
EAA
330
E00
100
AcDbEntity
  8
240
100
AcDbLine
 10
154.0
 20
-8.0
 30
0.0
 11
150.5
 21
-8.0
 31
0.0
  0
LINE
  5
EAB
330
E00
100
AcDbEntity
  8
240
100
AcDbLine
 10
149.5
 20
-11.25
 30
0.0
 11
149.5
 21
-9.0
 31
0.0
  0
ARC
  5
EAC
330
E00
100
AcDbEntity
  8
240
100
AcDbCircle
 10
150.5
 20
-9.0
 30
0.0
 40
1.0
100
AcDbArc
 50
90.0
 51
180.0
  0
LINE
  5
EAD
330
E00
100
AcDbEntity
  8
242
100
AcDbLine
 10
151.5
 20
-7.5
 30
0.0
 11
151.0
 21
-8.0
 31
0.0
  0
LINE
  5
EAE
330
E00
100
AcDbEntity
  8
240
100
AcDbLine
 10
154.3
 20
-11.89999999999997
 30
0.0
 11
154.3
 21
-9.800000000000011
 31
0.0
  0
LINE
  5
EAF
330
E00
100
AcDbEntity
  8
240
100
AcDbLine
 10
154.0
 20
-9.5
 30
0.0
 11
154.3
 21
-9.800000000000011
 31
0.0
  0
LINE
  5
EB0
330
E00
100
AcDbEntity
  8
240
100
AcDbLine
 10
154.0
 20
-9.5
 30
0.0
 11
154.0
 21
-8.0
 31
0.0
  0
LINE
  5
EB1
330
E00
100
AcDbEntity
  8
240
100
AcDbLine
 10
164.4757359312878
 20
-12.32426406871212
 30
0.0
 11
164.8535533905932
 21
-11.94644660940673
 31
0.0
  0
ARC
  5
EB2
330
E00
100
AcDbEntity
  8
240
100
AcDbCircle
 10
164.051471862576
 20
-11.90000000000014
 30
0.0
 40
0.5999999999999944
100
AcDbArc
 50
269.9999999999967
 51
315.0
  0
LINE
  5
EB3
330
E00
100
AcDbEntity
  8
246
100
AcDbLine
 10
161.3999999999999
 20
-5.25
 30
0.0
 11
163.3
 21
-5.25
 31
0.0
  0
ARC
  5
EB4
330
E00
100
AcDbEntity
  8
240
100
AcDbCircle
 10
164.5
 20
-11.59289321881345
 30
0.0
 40
0.500000000000004
100
AcDbArc
 50
315.0
 51
0.0
  0
LINE
  5
EB5
330
E00
100
AcDbEntity
  8
246
100
AcDbLine
 10
163.3
 20
-6.25
 30
0.0
 11
163.3999999999999
 21
-6.25
 31
0.0
  0
LINE
  5
EB6
330
E00
100
AcDbEntity
  8
241
100
AcDbLine
 10
161.0
 20
-11.49709263010237
 30
0.0
 11
161.0
 21
-9.997092630102372
 31
0.0
  0
LINE
  5
EB7
330
E00
100
AcDbEntity
  8
246
100
AcDbLine
 10
161.3999999999999
 20
-5.25
 30
0.0
 11
161.3999999999999
 21
-6.249999999999943
 31
0.0
  0
LINE
  5
EB8
330
E00
100
AcDbEntity
  8
246
100
AcDbLine
 10
163.3
 20
-5.25
 30
0.0
 11
163.3
 21
-6.25
 31
0.0
  0
LINE
  5
EB9
330
E00
100
AcDbEntity
  8
246
100
AcDbLine
 10
165.0
 20
-5.326239569296603
 30
0.0
 11
163.3999999999999
 21
-6.25
 31
0.0
  0
LINE
  5
EBA
330
E00
100
AcDbEntity
  8
240
100
AcDbLine
 10
53.00000000000008
 20
12.25
 30
0.0
 11
148.5
 21
12.25
 31
0.0
  0
LINE
  5
EBB
330
E00
100
AcDbEntity
  8
246
100
AcDbLine
 10
120.6
 20
4.5
 30
0.0
 11
129.4999999999999
 21
4.5
 31
0.0
  0
LINE
  5
EBC
330
E00
100
AcDbEntity
  8
246
100
AcDbLine
 10
120.2999999999999
 20
4.199999999999988
 30
0.0
 11
129.7999999999999
 21
4.199999999999988
 31
0.0
  0
LINE
  5
EBD
330
E00
100
AcDbEntity
  8
246
100
AcDbLine
 10
117.0
 20
-2.0
 30
0.0
 11
125.5
 21
-1.999999999999943
 31
0.0
  0
LINE
  5
EBE
330
E00
100
AcDbEntity
  8
246
100
AcDbLine
 10
117.0
 20
2.000000000000056
 30
0.0
 11
125.5
 21
2.0
 31
0.0
  0
LINE
  5
EBF
330
E00
100
AcDbEntity
  8
246
100
AcDbLine
 10
118.0
 20
3.900000000000034
 30
0.0
 11
120.0
 21
3.900000000000034
 31
0.0
  0
LINE
  5
EC0
330
E00
100
AcDbEntity
  8
246
100
AcDbLine
 10
117.0
 20
-2.899999999999977
 30
0.0
 11
117.0
 21
2.900000000000034
 31
0.0
  0
ARC
  5
EC1
330
E00
100
AcDbEntity
  8
246
100
AcDbCircle
 10
118.0
 20
2.900000000000034
 30
0.0
 40
1.0
100
AcDbArc
 50
90.0
 51
180.0
  0
LINE
  5
EC2
330
E00
100
AcDbEntity
  8
246
100
AcDbLine
 10
120.6
 20
4.5
 30
0.0
 11
120.0
 21
3.900000000000034
 31
0.0
  0
LINE
  5
EC3
330
E00
100
AcDbEntity
  8
246
100
AcDbLine
 10
127.693375672974
 20
1.44337567297407
 30
0.0
 11
130.0
 21
3.75
 31
0.0
  0
LINE
  5
EC4
330
E00
100
AcDbEntity
  8
246
100
AcDbLine
 10
125.5
 20
2.0
 30
0.0
 11
125.5
 21
1.029999694814875
 31
0.0
  0
LINE
  5
EC5
330
E00
100
AcDbEntity
  8
246
100
AcDbLine
 10
125.5
 20
2.0
 30
0.0
 11
125.8213672050458
 21
1.44337567297407
 31
0.0
  0
LINE
  5
EC6
330
E00
100
AcDbEntity
  8
246
100
AcDbLine
 10
127.693375672974
 20
1.44337567297407
 30
0.0
 11
125.8213672050458
 21
1.44337567297407
 31
0.0
  0
LINE
  5
EC7
330
E00
100
AcDbEntity
  8
246
100
AcDbLine
 10
127.693375672974
 20
0.7216878364870354
 30
0.0
 11
125.8213672050458
 21
0.7216878364870354
 31
0.0
  0
LINE
  5
EC8
330
E00
100
AcDbEntity
  8
246
100
AcDbLine
 10
127.693375672974
 20
-1.443375672974013
 30
0.0
 11
125.8213672050458
 21
-1.443375672974013
 31
0.0
  0
LINE
  5
EC9
330
E00
100
AcDbEntity
  8
246
100
AcDbLine
 10
127.693375672974
 20
-0.7216878364869786
 30
0.0
 11
125.8213672050458
 21
-0.7216878364869786
 31
0.0
  0
LINE
  5
ECA
330
E00
100
AcDbEntity
  8
246
100
AcDbLine
 10
125.5
 20
-1.999999999999943
 30
0.0
 11
125.5
 21
-1.029999694814875
 31
0.0
  0
LINE
  5
ECB
330
E00
100
AcDbEntity
  8
246
100
AcDbLine
 10
125.5
 20
-1.999999999999943
 30
0.0
 11
125.8213672050458
 21
-1.443375672974013
 31
0.0
  0
LINE
  5
ECC
330
E00
100
AcDbEntity
  8
246
100
AcDbLine
 10
125.8213672050458
 20
1.44337567297407
 30
0.0
 11
125.8213672050458
 21
-1.443375672974013
 31
0.0
  0
LINE
  5
ECD
330
E00
100
AcDbEntity
  8
246
100
AcDbLine
 10
127.693375672974
 20
1.44337567297407
 30
0.0
 11
127.693375672974
 21
-1.443375672974013
 31
0.0
  0
LINE
  5
ECE
330
E00
100
AcDbEntity
  8
246
100
AcDbLine
 10
130.0
 20
4.0
 30
0.0
 11
129.4999999999999
 21
4.5
 31
0.0
  0
LINE
  5
ECF
330
E00
100
AcDbEntity
  8
241
100
AcDbLine
 10
161.0
 20
9.997092630102372
 30
0.0
 11
154.3
 21
9.997092630102372
 31
0.0
  0
LINE
  5
ED0
330
E00
100
AcDbEntity
  8
241
100
AcDbLine
 10
161.0
 20
11.49709263010237
 30
0.0
 11
154.3
 21
11.49709263010237
 31
0.0
  0
LINE
  5
ED1
330
E00
100
AcDbEntity
  8
240
100
AcDbLine
 10
154.8999999999999
 20
12.5
 30
0.0
 11
164.0514718625759
 21
12.50000000000017
 31
0.0
  0
LINE
  5
ED2
330
E00
100
AcDbEntity
  8
246
100
AcDbLine
 10
165.0
 20
4.0
 30
0.0
 11
147.0
 21
4.0
 31
0.0
  0
LINE
  5
ED3
330
E00
100
AcDbEntity
  8
246
100
AcDbLine
 10
161.3999999999999
 20
6.249999999999943
 30
0.0
 11
147.0000000000001
 21
4.736499012174135
 31
0.0
  0
LINE
  5
ED4
330
E00
100
AcDbEntity
  8
241
100
AcDbLine
 10
161.0
 20
-1.5
 30
0.0
 11
154.3
 21
-1.5
 31
0.0
  0
LINE
  5
ED5
330
E00
100
AcDbEntity
  8
241
100
AcDbLine
 10
161.0
 20
1.5
 30
0.0
 11
154.3
 21
1.5
 31
0.0
  0
ARC
  5
ED6
330
E00
100
AcDbEntity
  8
240
100
AcDbCircle
 10
148.5
 20
11.25
 30
0.0
 40
1.0
100
AcDbArc
 50
0.0
 51
90.0
  0
LINE
  5
ED7
330
E00
100
AcDbEntity
  8
241
100
AcDbLine
 10
149.5
 20
9.0
 30
0.0
 11
149.5
 21
0.0
 31
0.0
  0
LINE
  5
ED8
330
E00
100
AcDbEntity
  8
241
100
AcDbLine
 10
154.0
 20
8.0
 30
0.0
 11
154.0
 21
0.0
 31
0.0
  0
LINE
  5
ED9
330
E00
100
AcDbEntity
  8
241
100
AcDbLine
 10
154.3
 20
9.800000000000011
 30
0.0
 11
154.3
 21
0.0
 31
0.0
  0
LINE
  5
EDA
330
E00
100
AcDbEntity
  8
241
100
AcDbLine
 10
151.5
 20
7.5
 30
0.0
 11
151.5
 21
0.0
 31
0.0
  0
LINE
  5
EDB
330
E00
100
AcDbEntity
  8
242
100
AcDbLine
 10
154.0
 20
7.5
 30
0.0
 11
151.5
 21
7.5
 31
0.0
  0
LINE
  5
EDC
330
E00
100
AcDbEntity
  8
240
100
AcDbLine
 10
154.0
 20
8.0
 30
0.0
 11
150.5
 21
8.0
 31
0.0
  0
LINE
  5
EDD
330
E00
100
AcDbEntity
  8
240
100
AcDbLine
 10
149.5
 20
11.25
 30
0.0
 11
149.5
 21
9.0
 31
0.0
  0
ARC
  5
EDE
330
E00
100
AcDbEntity
  8
240
100
AcDbCircle
 10
150.5
 20
9.0
 30
0.0
 40
1.0
100
AcDbArc
 50
180.0
 51
270.0
  0
LINE
  5
EDF
330
E00
100
AcDbEntity
  8
242
100
AcDbLine
 10
151.5
 20
7.5
 30
0.0
 11
151.0
 21
8.0
 31
0.0
  0
ARC
  5
EE0
330
E00
100
AcDbEntity
  8
240
100
AcDbCircle
 10
154.8999999999999
 20
11.90000000000003
 30
0.0
 40
0.5999999999999944
100
AcDbArc
 50
90.0
 51
180.0
  0
LINE
  5
EE1
330
E00
100
AcDbEntity
  8
240
100
AcDbLine
 10
154.0
 20
9.5
 30
0.0
 11
154.3
 21
9.800000000000011
 31
0.0
  0
LINE
  5
EE2
330
E00
100
AcDbEntity
  8
240
100
AcDbLine
 10
154.0
 20
9.5
 30
0.0
 11
154.0
 21
8.0
 31
0.0
  0
LINE
  5
EE3
330
E00
100
AcDbEntity
  8
240
100
AcDbLine
 10
154.3
 20
9.800000000000011
 30
0.0
 11
154.3
 21
11.90000000000003
 31
0.0
  0
LINE
  5
EE4
330
E00
100
AcDbEntity
  8
246
100
AcDbLine
 10
163.3
 20
5.25
 30
0.0
 11
163.3
 21
6.25
 31
0.0
  0
LINE
  5
EE5
330
E00
100
AcDbEntity
  8
246
100
AcDbLine
 10
165.0
 20
5.326239569296603
 30
0.0
 11
163.3999999999999
 21
6.25
 31
0.0
  0
LINE
  5
EE6
330
E00
100
AcDbEntity
  8
246
100
AcDbLine
 10
161.3999999999999
 20
5.25
 30
0.0
 11
161.3999999999999
 21
6.249999999999943
 31
0.0
  0
LINE
  5
EE7
330
E00
100
AcDbEntity
  8
240
100
AcDbLine
 10
165.0
 20
0.0
 30
0.0
 11
165.0
 21
11.59289321881345
 31
0.0
  0
LINE
  5
EE8
330
E00
100
AcDbEntity
  8
246
100
AcDbLine
 10
161.3999999999999
 20
5.25
 30
0.0
 11
163.3
 21
5.25
 31
0.0
  0
LINE
  5
EE9
330
E00
100
AcDbEntity
  8
241
100
AcDbLine
 10
161.0
 20
-1.5
 30
0.0
 11
161.0
 21
0.0
 31
0.0
  0
LINE
  5
EEA
330
E00
100
AcDbEntity
  8
241
100
AcDbLine
 10
161.0
 20
1.5
 30
0.0
 11
161.0
 21
0.0
 31
0.0
  0
LINE
  5
EEB
330
E00
100
AcDbEntity
  8
240
100
AcDbLine
 10
164.8535533905932
 20
11.94644660940673
 30
0.0
 11
164.4757359312878
 21
12.32426406871212
 31
0.0
  0
ARC
  5
EEC
330
E00
100
AcDbEntity
  8
240
100
AcDbCircle
 10
164.0514718625759
 20
11.9000000000002
 30
0.0
 40
0.5999999999999888
100
AcDbArc
 50
45.0
 51
90.00000000000325
  0
LINE
  5
EED
330
E00
100
AcDbEntity
  8
246
100
AcDbLine
 10
163.3
 20
6.25
 30
0.0
 11
163.3999999999999
 21
6.25
 31
0.0
  0
LINE
  5
EEE
330
E00
100
AcDbEntity
  8
241
100
AcDbLine
 10
161.0
 20
11.49709263010237
 30
0.0
 11
161.0
 21
9.997092630102372
 31
0.0
  0
ARC
  5
EEF
330
E00
100
AcDbEntity
  8
240
100
AcDbCircle
 10
164.5
 20
11.59289321881345
 30
0.0
 40
0.5
100
AcDbArc
 50
0.0
 51
45.0
  0
ENDBLK
  5
EF1
330
E00
100
AcDbEntity
  8
0
100
AcDbBlockEnd
  0
BLOCK
  5
1032
330
1028
100
AcDbEntity
  8
0
100
AcDbBlockBegin
  2
*D2
 70
     1
 10
0.0
 20
0.0
 30
0.0
  3
*D2
  1

  0
LINE
  5
1070
330
1028
100
AcDbEntity
  8
250
  6
CONTINUOUS
100
AcDbLine
 10
0.0
 20
35.42500000000041
 30
0.0
 11
0.0000000000000022
 21
71.0
 31
0.0
  0
LINE
  5
1071
330
1028
100
AcDbEntity
  8
250
  6
CONTINUOUS
100
AcDbLine
 10
165.0
 20
9.592893218813401
 30
0.0
 11
165.0
 21
71.0
 31
0.0
  0
LINE
  5
1072
330
1028
100
AcDbEntity
  8
250
  6
CONTINUOUS
100
AcDbLine
 10
2.230000000000002
 20
70.0
 30
0.0
 11
162.77
 21
70.0
 31
0.0
  0
INSERT
  5
1073
330
1028
100
AcDbEntity
  8
250
  6
CONTINUOUS
100
AcDbBlockReference
  2
_OPEN
 10
0.0000000000000021
 20
70.0
 30
0.0
 41
2.229999999999999
 42
2.229999999999999
 43
2.229999999999999
 50
180.0
  0
INSERT
  5
1074
330
1028
100
AcDbEntity
  8
250
  6
CONTINUOUS
100
AcDbBlockReference
  2
_OPEN
 10
165.0
 20
70.0
 30
0.0
 41
2.229999999999999
 42
2.229999999999999
 43
2.229999999999999
  0
MTEXT
  5
1075
330
1028
100
AcDbEntity
  8
250
  6
CONTINUOUS
 62
    40
100
AcDbMText
 10
82.5
 20
72.5
 30
0.0
 40
3.0
 41
0.0
 71
     5
 72
     1
  1
\A1;165
1001
ACAD
1000
MTEXTBEGIN
1070
    73
1070
     1
1070
    44
1040
1.0
1070
    74
1070
     0
1000
MTEXTEND
  0
POINT
  5
1076
330
1028
100
AcDbEntity
  8
DEFPOINTS
  6
CONTINUOUS
 62
     0
100
AcDbPoint
 10
0.0
 20
34.92500000000041
 30
0.0
  0
POINT
  5
1077
330
1028
100
AcDbEntity
  8
DEFPOINTS
  6
CONTINUOUS
 62
     0
100
AcDbPoint
 10
165.0
 20
9.092893218813401
 30
0.0
  0
POINT
  5
1078
330
1028
100
AcDbEntity
  8
DEFPOINTS
  6
CONTINUOUS
 62
     0
100
AcDbPoint
 10
165.0
 20
70.0
 30
0.0
  0
ENDBLK
  5
1033
330
1028
100
AcDbEntity
  8
0
100
AcDbBlockEnd
  0
BLOCK
  5
103E
330
1034
100
AcDbEntity
  8
0
100
AcDbBlockBegin
  2
*D3
 70
     1
 10
0.0
 20
0.0
 30
0.0
  3
*D3
  1

  0
LINE
  5
1079
330
1034
100
AcDbEntity
  8
250
  6
CONTINUOUS
100
AcDbLine
 10
38.00000000000017
 20
49.2000000000001
 30
0.0
 11
38.00000000000017
 21
64.0
 31
0.0
  0
LINE
  5
107A
330
1034
100
AcDbEntity
  8
250
  6
CONTINUOUS
100
AcDbLine
 10
165.0
 20
9.592893218813401
 30
0.0
 11
165.0
 21
64.0
 31
0.0
  0
LINE
  5
107B
330
1034
100
AcDbEntity
  8
250
  6
CONTINUOUS
100
AcDbLine
 10
40.23000000000016
 20
63.0
 30
0.0
 11
162.77
 21
63.0
 31
0.0
  0
INSERT
  5
107C
330
1034
100
AcDbEntity
  8
250
  6
CONTINUOUS
100
AcDbBlockReference
  2
_OPEN
 10
38.00000000000017
 20
63.0
 30
0.0
 41
2.229999999999999
 42
2.229999999999999
 43
2.229999999999999
 50
180.0
  0
INSERT
  5
107D
330
1034
100
AcDbEntity
  8
250
  6
CONTINUOUS
100
AcDbBlockReference
  2
_OPEN
 10
165.0
 20
63.0
 30
0.0
 41
2.229999999999999
 42
2.229999999999999
 43
2.229999999999999
  0
MTEXT
  5
107E
330
1034
100
AcDbEntity
  8
250
  6
CONTINUOUS
 62
    40
100
AcDbMText
 10
101.5
 20
65.5
 30
0.0
 40
3.0
 41
0.0
 71
     5
 72
     1
  1
\A1;127
1001
ACAD
1000
MTEXTBEGIN
1070
    73
1070
     1
1070
    44
1040
1.0
1070
    74
1070
     0
1000
MTEXTEND
  0
POINT
  5
107F
330
1034
100
AcDbEntity
  8
DEFPOINTS
  6
CONTINUOUS
 62
     0
100
AcDbPoint
 10
38.00000000000017
 20
48.7000000000001
 30
0.0
  0
POINT
  5
1080
330
1034
100
AcDbEntity
  8
DEFPOINTS
  6
CONTINUOUS
 62
     0
100
AcDbPoint
 10
165.0
 20
9.092893218813401
 30
0.0
  0
POINT
  5
1081
330
1034
100
AcDbEntity
  8
DEFPOINTS
  6
CONTINUOUS
 62
     0
100
AcDbPoint
 10
165.0
 20
63.0
 30
0.0
  0
ENDBLK
  5
103F
330
1034
100
AcDbEntity
  8
0
100
AcDbBlockEnd
  0
BLOCK
  5
104A
330
1040
100
AcDbEntity
  8
0
100
AcDbBlockBegin
  2
*D4
 70
     1
 10
0.0
 20
0.0
 30
0.0
  3
*D4
  1

  0
LINE
  5
1082
330
1040
100
AcDbEntity
  8
250
  6
CONTINUOUS
100
AcDbLine
 10
0.0
 20
35.42500000000041
 30
0.0
 11
0.0000000000000018
 21
64.0
 31
0.0
  0
LINE
  5
1083
330
1040
100
AcDbEntity
  8
250
  6
CONTINUOUS
100
AcDbLine
 10
38.00000000000017
 20
49.2000000000001
 30
0.0
 11
38.00000000000017
 21
64.0
 31
0.0
  0
LINE
  5
1084
330
1040
100
AcDbEntity
  8
250
  6
CONTINUOUS
100
AcDbLine
 10
2.230000000000001
 20
63.0
 30
0.0
 11
35.77000000000017
 21
63.0
 31
0.0
  0
INSERT
  5
1085
330
1040
100
AcDbEntity
  8
250
  6
CONTINUOUS
100
AcDbBlockReference
  2
_OPEN
 10
0.0000000000000017
 20
63.0
 30
0.0
 41
2.229999999999999
 42
2.229999999999999
 43
2.229999999999999
 50
180.0
  0
INSERT
  5
1086
330
1040
100
AcDbEntity
  8
250
  6
CONTINUOUS
100
AcDbBlockReference
  2
_OPEN
 10
38.00000000000017
 20
63.0
 30
0.0
 41
2.229999999999999
 42
2.229999999999999
 43
2.229999999999999
  0
MTEXT
  5
1087
330
1040
100
AcDbEntity
  8
250
  6
CONTINUOUS
 62
    40
100
AcDbMText
 10
19.00000000000009
 20
65.5
 30
0.0
 40
3.0
 41
0.0
 71
     5
 72
     1
  1
\A1;38
1001
ACAD
1000
MTEXTBEGIN
1070
    73
1070
     1
1070
    44
1040
1.0
1070
    74
1070
     0
1000
MTEXTEND
  0
POINT
  5
1088
330
1040
100
AcDbEntity
  8
DEFPOINTS
  6
CONTINUOUS
 62
     0
100
AcDbPoint
 10
0.0
 20
34.92500000000041
 30
0.0
  0
POINT
  5
1089
330
1040
100
AcDbEntity
  8
DEFPOINTS
  6
CONTINUOUS
 62
     0
100
AcDbPoint
 10
38.00000000000017
 20
48.7000000000001
 30
0.0
  0
POINT
  5
108A
330
1040
100
AcDbEntity
  8
DEFPOINTS
  6
CONTINUOUS
 62
     0
100
AcDbPoint
 10
38.00000000000017
 20
63.0
 30
0.0
  0
ENDBLK
  5
104B
330
1040
100
AcDbEntity
  8
0
100
AcDbBlockEnd
  0
BLOCK
  5
1056
330
104C
100
AcDbEntity
  8
0
100
AcDbBlockBegin
  2
*D5
 70
     1
 10
0.0
 20
0.0
 30
0.0
  3
*D5
  1

  0
LINE
  5
108B
330
104C
100
AcDbEntity
  8
250
  6
CONTINUOUS
100
AcDbLine
 10
130.0
 20
-4.5
 30
0.0
 11
130.0
 21
-64.0
 31
0.0
  0
LINE
  5
108C
330
104C
100
AcDbEntity
  8
250
  6
CONTINUOUS
100
AcDbLine
 10
165.0
 20
-12.09289321881345
 30
0.0
 11
165.0
 21
-64.0
 31
0.0
  0
LINE
  5
108D
330
104C
100
AcDbEntity
  8
250
  6
CONTINUOUS
100
AcDbLine
 10
132.23
 20
-63.0
 30
0.0
 11
162.77
 21
-63.0
 31
0.0
  0
INSERT
  5
108E
330
104C
100
AcDbEntity
  8
250
  6
CONTINUOUS
100
AcDbBlockReference
  2
_OPEN
 10
130.0
 20
-63.0
 30
0.0
 41
2.229999999999999
 42
2.229999999999999
 43
2.229999999999999
 50
180.0
  0
INSERT
  5
108F
330
104C
100
AcDbEntity
  8
250
  6
CONTINUOUS
100
AcDbBlockReference
  2
_OPEN
 10
165.0
 20
-63.0
 30
0.0
 41
2.229999999999999
 42
2.229999999999999
 43
2.229999999999999
  0
MTEXT
  5
1090
330
104C
100
AcDbEntity
  8
250
  6
CONTINUOUS
 62
    40
100
AcDbMText
 10
147.5
 20
-60.5
 30
0.0
 40
3.0
 41
0.0
 71
     5
 72
     1
  1
\A1;26～42
1001
ACAD
1000
MTEXTBEGIN
1070
    73
1070
     1
1070
    44
1040
1.0
1070
    74
1070
     0
1000
MTEXTEND
  0
POINT
  5
1091
330
104C
100
AcDbEntity
  8
DEFPOINTS
  6
CONTINUOUS
 62
     0
100
AcDbPoint
 10
130.0
 20
-4.0
 30
0.0
  0
POINT
  5
1092
330
104C
100
AcDbEntity
  8
DEFPOINTS
  6
CONTINUOUS
 62
     0
100
AcDbPoint
 10
165.0
 20
-11.59289321881345
 30
0.0
  0
POINT
  5
1093
330
104C
100
AcDbEntity
  8
DEFPOINTS
  6
CONTINUOUS
 62
     0
100
AcDbPoint
 10
165.0
 20
-63.0
 30
0.0
  0
ENDBLK
  5
1057
330
104C
100
AcDbEntity
  8
0
100
AcDbBlockEnd
  0
BLOCK
  5
1062
330
1058
100
AcDbEntity
  8
0
100
AcDbBlockBegin
  2
*D6
 70
     1
 10
0.0
 20
0.0
 30
0.0
  3
*D6
  1

  0
LINE
  5
1094
330
1058
100
AcDbEntity
  8
250
  6
CONTINUOUS
100
AcDbLine
 10
164.5514718625759
 20
-12.50000000000017
 30
0.0
 11
185.7674620313519
 21
-12.50000000000017
 31
0.0
  0
LINE
  5
1095
330
1058
100
AcDbEntity
  8
250
  6
CONTINUOUS
100
AcDbLine
 10
164.5514718625759
 20
12.50000000000017
 30
0.0
 11
185.7674620313519
 21
12.50000000000016
 31
0.0
  0
LINE
  5
1096
330
1058
100
AcDbEntity
  8
250
  6
CONTINUOUS
100
AcDbLine
 10
184.7674620313519
 20
-10.27000000000017
 30
0.0
 11
184.7674620313519
 21
10.27000000000016
 31
0.0
  0
INSERT
  5
1097
330
1058
100
AcDbEntity
  8
250
  6
CONTINUOUS
100
AcDbBlockReference
  2
_OPEN
 10
184.7674620313519
 20
-12.50000000000017
 30
0.0
 41
2.229999999999999
 42
2.229999999999999
 43
2.229999999999999
 50
270.0
  0
INSERT
  5
1098
330
1058
100
AcDbEntity
  8
250
  6
CONTINUOUS
100
AcDbBlockReference
  2
_OPEN
 10
184.7674620313519
 20
12.50000000000016
 30
0.0
 41
2.229999999999999
 42
2.229999999999999
 43
2.229999999999999
 50
90.0
  0
MTEXT
  5
1099
330
1058
100
AcDbEntity
  8
250
  6
CONTINUOUS
 62
    40
100
AcDbMText
 10
182.2674620313518
 20
0.0000000000000245
 30
0.0
 40
3.0
 41
0.0
 71
     5
 72
     1
  1
\A1;{\H3;\U+2205}25
 11
0.0000000000000001
 21
1.0
 31
0.0
1001
ACAD
1000
MTEXTBEGIN
1070
    73
1070
     1
1070
    44
1040
1.0
1070
    74
1070
     0
1000
MTEXTEND
  0
POINT
  5
109A
330
1058
100
AcDbEntity
  8
DEFPOINTS
  6
CONTINUOUS
 62
     0
100
AcDbPoint
 10
164.0514718625759
 20
-12.50000000000017
 30
0.0
  0
POINT
  5
109B
330
1058
100
AcDbEntity
  8
DEFPOINTS
  6
CONTINUOUS
 62
     0
100
AcDbPoint
 10
164.0514718625759
 20
12.50000000000017
 30
0.0
  0
POINT
  5
109C
330
1058
100
AcDbEntity
  8
DEFPOINTS
  6
CONTINUOUS
 62
     0
100
AcDbPoint
 10
184.7674620313519
 20
12.50000000000016
 30
0.0
  0
ENDBLK
  5
1063
330
1058
100
AcDbEntity
  8
0
100
AcDbBlockEnd
  0
BLOCK
  5
106E
330
1064
100
AcDbEntity
  8
0
100
AcDbBlockBegin
  2
*D7
 70
     1
 10
0.0
 20
0.0
 30
0.0
  3
*D7
  1

  0
LINE
  5
10D4
330
1064
100
AcDbEntity
  8
250
  6
CONTINUOUS
100
AcDbLine
 10
165.5
 20
-4.0
 30
0.0
 11
178.7674620313518
 21
-4.000000000000004
 31
0.0
  0
LINE
  5
10D5
330
1064
100
AcDbEntity
  8
250
  6
CONTINUOUS
100
AcDbLine
 10
165.5
 20
3.999999999999999
 30
0.0
 11
178.7674620313518
 21
3.999999999999996
 31
0.0
  0
LINE
  5
10D6
330
1064
100
AcDbEntity
  8
250
  6
CONTINUOUS
100
AcDbLine
 10
177.7674620313518
 20
-1.770000000000004
 30
0.0
 11
177.7674620313518
 21
1.769999999999996
 31
0.0
  0
MTEXT
  5
10D7
330
1064
100
AcDbEntity
  8
250
  6
CONTINUOUS
 62
    40
100
AcDbMText
 10
175.3850704740298
 20
4.120491966545785
 30
0.0
 40
3.0
 41
0.0
 71
     5
 72
     1
  1
\A1;MAX.%%c8
 11
0.0000000000000001
 21
1.0
 31
0.0
  0
INSERT
  5
10D8
330
1064
100
AcDbEntity
  8
250
  6
CONTINUOUS
100
AcDbBlockReference
  2
_OPEN
 10
177.7674620313518
 20
-4.000000000000003
 30
0.0
 41
2.229999999999999
 42
2.229999999999999
 43
2.229999999999999
 50
270.0
  0
INSERT
  5
10D9
330
1064
100
AcDbEntity
  8
250
  6
CONTINUOUS
100
AcDbBlockReference
  2
_OPEN
 10
177.7674620313518
 20
3.999999999999996
 30
0.0
 41
2.229999999999999
 42
2.229999999999999
 43
2.229999999999999
 50
90.0
  0
POINT
  5
10DA
330
1064
100
AcDbEntity
  8
DEFPOINTS
  6
CONTINUOUS
 62
     0
100
AcDbPoint
 10
165.0
 20
-4.0
 30
0.0
  0
POINT
  5
10DB
330
1064
100
AcDbEntity
  8
DEFPOINTS
  6
CONTINUOUS
 62
     0
100
AcDbPoint
 10
165.0
 20
4.0
 30
0.0
  0
POINT
  5
10DC
330
1064
100
AcDbEntity
  8
DEFPOINTS
  6
CONTINUOUS
 62
     0
100
AcDbPoint
 10
177.7674620313518
 20
3.999999999999996
 30
0.0
  0
ENDBLK
  5
106F
330
1064
100
AcDbEntity
  8
0
100
AcDbBlockEnd
  0
ENDSEC
  0
SECTION
  2
ENTITIES
  0
DIMENSION
  5
101D
330
1A
100
AcDbEntity
  8
250
  6
CONTINUOUS
100
AcDbDimension
  2
*D2
 10
165.0
 20
70.0
 30
0.0
 11
82.5
 21
72.5
 31
0.0
 70
    32
  3
BIGT
100
AcDbAlignedDimension
 13
0.0
 23
34.92500000000041
 33
0.0
 14
165.0
 24
9.092893218813401
 34
0.0
100
AcDbRotatedDimension
1001
ACAD
1000
DSTYLE
1002
{
1070
    78
1070
     8
1070
   140
1040
3.0
1002
}
  0
DIMENSION
  5
101E
330
1A
100
AcDbEntity
  8
250
  6
CONTINUOUS
100
AcDbDimension
  2
*D3
 10
165.0
 20
63.0
 30
0.0
 11
101.5
 21
65.5
 31
0.0
 70
    32
  3
BIGT
100
AcDbAlignedDimension
 13
38.00000000000017
 23
48.7000000000001
 33
0.0
 14
165.0
 24
9.092893218813401
 34
0.0
100
AcDbRotatedDimension
1001
ACAD
1000
DSTYLE
1002
{
1070
    78
1070
     8
1070
   140
1040
3.0
1002
}
  0
INSERT
  5
101F
330
1A
100
AcDbEntity
  8
240
100
AcDbBlockReference
  2
A$C1AD3512B
 10
0.0
 20
0.0
 30
0.0
  0
LINE
  5
1020
330
1A
100
AcDbEntity
  8
250
  6
CONTINUOUS
100
AcDbLine
 10
-48.70262733519037
 20
-42.0
 30
0.0
 11
-64.70262733519037
 21
-42.0
 31
0.0
1001
ITEMNAME
1000
LNSP2
  0
MTEXT
  5
1021
330
1A
100
AcDbEntity
  8
250
  6
CONTINUOUS
 62
    40
100
AcDbMText
 10
-61.70262733519037
 20
-41.0
 30
0.0
 40
3.0
 41
0.0
 71
     7
 72
     1
  1
BT50
  7
YOKO
1001
ITEMNAME
1000
LNSP3
1001
ACAD
1000
MTEXTBEGIN
1070
    73
1070
     1
1070
    44
1040
1.0
1070
    74
1070
     0
1000
MTEXTEND
  0
LEADER
  5
1022
330
1A
100
AcDbEntity
  8
250
  6
CONTINUOUS
100
AcDbLeader
  3
BIGT
 76
     2
 10
-41.15292489211467
 20
-28.92353178656605
 30
0.0
 10
-48.70262733519037
 20
-42.0
 30
0.0
1001
ACAD
1000
DSTYLE
1002
{
1070
     5
1000
OPEN
1070
    78
1070
     8
1070
   140
1040
3.0
1002
}
  0
TEXT
  5
1023
330
1A
100
AcDbEntity
  8
241
100
AcDbText
 10
-98.0
 20
84.0
 30
0.0
 40
5.0
  1
BT50-NBS8-165
  7
YOKO
 11
-98.0
 21
84.0
 31
0.0
100
AcDbText
 73
     1
  0
DIMENSION
  5
1024
330
1A
100
AcDbEntity
  8
250
  6
CONTINUOUS
100
AcDbDimension
  2
*D4
 10
38.00000000000017
 20
63.0
 30
0.0
 11
19.00000000000009
 21
65.5
 31
0.0
 70
    32
  3
BIGT
100
AcDbAlignedDimension
 13
0.0
 23
34.92500000000041
 33
0.0
 14
38.00000000000017
 24
48.7000000000001
 34
0.0
100
AcDbRotatedDimension
1001
ACAD
1000
DSTYLE
1002
{
1070
    78
1070
     8
1070
   140
1040
3.0
1002
}
  0
DIMENSION
  5
1025
330
1A
100
AcDbEntity
  8
250
  6
CONTINUOUS
100
AcDbDimension
  2
*D5
 10
165.0
 20
-63.0
 30
0.0
 11
147.5
 21
-60.5
 31
0.0
 70
    32
  1
26～42
  3
BIGT
100
AcDbAlignedDimension
 13
130.0
 23
-4.0
 33
0.0
 14
165.0
 24
-11.59289321881345
 34
0.0
100
AcDbRotatedDimension
1001
ACAD
1000
DSTYLE
1002
{
1070
    78
1070
     8
1070
   140
1040
3.0
1002
}
  0
DIMENSION
  5
1026
330
1A
100
AcDbEntity
  8
250
  6
CONTINUOUS
100
AcDbDimension
  2
*D6
 10
184.7674620313519
 20
12.50000000000016
 30
0.0
 11
182.2674620313518
 21
0.0000000000000245
 31
0.0
 70
    32
  1
{\H3;\U+2205}<>
  3
BIGT
100
AcDbAlignedDimension
 13
164.0514718625759
 23
-12.50000000000017
 33
0.0
 14
164.0514718625759
 24
12.50000000000017
 34
0.0
 50
90.0
100
AcDbRotatedDimension
1001
ACAD
1000
DSTYLE
1002
{
1070
    78
1070
     8
1070
   140
1040
3.0
1002
}
  0
DIMENSION
  5
1027
330
1A
100
AcDbEntity
  8
250
  6
CONTINUOUS
100
AcDbDimension
  2
*D7
 10
177.7674620313518
 20
3.999999999999996
 30
0.0
 11
175.3850704740298
 21
4.120491966545785
 31
0.0
 70
   160
  1
MAX.%%c<>
  3
BIGT
100
AcDbAlignedDimension
 13
165.0
 23
-4.0
 33
0.0
 14
165.0
 24
4.0
 34
0.0
 50
90.0
100
AcDbRotatedDimension
1001
ACAD
1000
DSTYLE
1002
{
1070
   287
1070
     5
1070
    78
1070
     8
1070
   140
1040
3.0
1070
   279
1070
     2
1002
}
  0
VIEWPORT
  5
22
330
17
100
AcDbEntity
 67
     1
  8
0
100
AcDbViewport
 10
261.5176991150442
 20
148.5
 30
0.0
 40
523.0353982300885
 41
297.0
 68
     1
 69
     1
1001
ACAD
1000
MVIEW
1002
{
1070
    16
1010
0.0
1020
0.0
1030
0.0
1010
0.0
1020
0.0
1030
1.0
1040
0.0
1040
297.0
1040
261.5176991150442
1040
148.5
1040
50.0
1040
0.0
1040
0.0
1070
     0
1070
   100
1070
     1
1070
     1
1070
     0
1070
     0
1070
     0
1070
     0
1040
0.0
1040
0.0
1040
0.0
1040
1.0
1040
1.0
1040
10.0
1040
10.0
1070
     0
1002
{
1002
}
1002
}
  0
ENDSEC
  0
SECTION
  2
OBJECTS
  0
DICTIONARY
  5
C
330
0
100
AcDbDictionary
  3
ACAD_GROUP
350
D
  3
ACAD_LAYOUT
350
565
  3
ACAD_MLINESTYLE
350
E
  3
ACAD_PLOTSETTINGS
350
566
  3
ACAD_PLOTSTYLENAME
350
563
  3
ACDBHEADERROUNDTRIPXREC
350
10AF
  3
ACDBVARIABLEDICTIONARY
350
10A7
  3
GRADE_DWG
350
540
  0
DICTIONARY
  5
10D2
330
1A
100
AcDbDictionary
280
     1
  3
ACAD_LAYOUTSELFREF
360
10D3
  0
DICTIONARY
  5
10D0
330
17
100
AcDbDictionary
280
     1
  3
ACAD_LAYOUTSELFREF
360
10D1
  0
DICTIONARY
  5
D
102
{ACAD_REACTORS
330
C
102
}
330
C
100
AcDbDictionary
  3
DREC-1
350
5FC
  3
DREC-2
350
654
  3
DREC-3
350
673
  3
LNSP-1
350
F7E
  0
DICTIONARY
  5
565
102
{ACAD_REACTORS
330
C
102
}
330
C
100
AcDbDictionary
  0
DICTIONARY
  5
E
102
{ACAD_REACTORS
330
C
102
}
330
C
100
AcDbDictionary
  3
STANDARD
350
13
  0
DICTIONARY
  5
566
102
{ACAD_REACTORS
330
C
102
}
330
C
100
AcDbDictionary
  0
ACDBDICTIONARYWDFLT
  5
563
102
{ACAD_REACTORS
330
C
102
}
330
C
100
AcDbDictionary
281
     1
  3
Normal
350
564
100
AcDbDictionaryWithDefault
340
564
  0
DICTIONARY
  5
10AF
102
{ACAD_REACTORS
330
C
102
}
330
C
100
AcDbDictionary
  3
CEPSNTYPE
350
10B9
  3
DIMSTYLEDATA
350
10BD
  3
FINGERPRINTGUID
350
10BA
  3
HYPERLINKBASE
350
10B2
  3
INSUNITS
350
10B8
  3
LAYOUTDICT
350
10B4
  3
LWETCUNION
350
10B7
  3
PLOTSETDICT
350
10B5
  3
PLOTSTYLNAMDICT
350
10B6
  3
PSVPSCALE
350
10BC
  3
PUCSBASE
350
10C0
  3
PUCSORGBACK
350
10C6
  3
PUCSORGBOTTOM
350
10C2
  3
PUCSORGFRONT
350
10C5
  3
PUCSORGLEFT
350
10C3
  3
PUCSORGRIGHT
350
10C4
  3
PUCSORGTOP
350
10C1
  3
PUCSORTHOREF
350
10BE
  3
PUCSORTHOVIEW
350
10BF
  3
STYLESHEET
350
10B3
  3
TSTACKALIGN
350
10B0
  3
TSTACKSIZE
350
10B1
  3
UCSBASE
350
10C9
  3
UCSORGBACK
350
10CF
  3
UCSORGBOTTOM
350
10CB
  3
UCSORGFRONT
350
10CE
  3
UCSORGLEFT
350
10CC
  3
UCSORGRIGHT
350
10CD
  3
UCSORGTOP
350
10CA
  3
UCSORTHOREF
350
10C7
  3
UCSORTHOVIEW
350
10C8
  3
VERSIONGUID
350
10BB
  0
DICTIONARY
  5
10A7
102
{ACAD_REACTORS
330
C
102
}
330
C
100
AcDbDictionary
  3
DIMASSOC
350
10A8
  0
DICTIONARY
  5
540
102
{ACAD_REACTORS
330
C
102
}
330
C
100
AcDbDictionary
  3
VERSION
350
560
  0
XRECORD
  5
10D3
102
{ACAD_REACTORS
330
10D2
102
}
330
10D2
100
AcDbXrecord
340
1A
  0
XRECORD
  5
10D1
102
{ACAD_REACTORS
330
10D0
102
}
330
10D0
100
AcDbXrecord
340
17
  0
GROUP
  5
5FC
102
{ACAD_REACTORS
330
D
102
}
330
D
100
AcDbGroup
300

 70
     0
 71
     1
1001
GRPNAME
1000
DREC-
1001
GPARA
1000
xsiz
1000
44.182
1000
ysiz
1000
40.677
1000
angl
1000
0
1000
ctyp
1000
0
1000
csiz
1000
5
1000
lfnt
1000
cont
1000
hcnt
1000
hoff
1000
vcnt
1000
voff
1000
opnt
1000
4
1000
dxpt
1000
0
1000
dypt
1000
0
  0
GROUP
  5
654
102
{ACAD_REACTORS
330
D
102
}
330
D
100
AcDbGroup
300

 70
     0
 71
     1
1001
GRPNAME
1000
DREC-
1001
GPARA
1000
xsiz
1000
54.592
1000
ysiz
1000
53.036
1000
angl
1000
0
1000
ctyp
1000
0
1000
csiz
1000
5
1000
lfnt
1000
cont
1000
hcnt
1000
hoff
1000
vcnt
1000
voff
1000
opnt
1000
4
1000
dxpt
1000
0
1000
dypt
1000
0
  0
GROUP
  5
673
102
{ACAD_REACTORS
330
D
102
}
330
D
100
AcDbGroup
300

 70
     0
 71
     1
1001
GRPNAME
1000
DREC-
1001
GPARA
1000
xsiz
1000
30.363
1000
ysiz
1000
36.175
1000
angl
1000
0
1000
ctyp
1000
0
1000
csiz
1000
5
1000
lfnt
1000
cont
1000
hcnt
1000
hoff
1000
vcnt
1000
voff
1000
opnt
1000
4
1000
dxpt
1000
0
1000
dypt
1000
0
  0
GROUP
  5
F7E
102
{ACAD_REACTORS
330
D
102
}
330
D
100
AcDbGroup
300

 70
     0
 71
     1
1001
GRPNAME
1000
LNSP
  0
MLINESTYLE
  5
13
102
{ACAD_REACTORS
330
E
102
}
330
E
100
AcDbMlineStyle
  2
STANDARD
 70
     0
  3

 62
     0
 51
90.0
 52
90.0
 71
     2
 49
0.5
 62
   256
  6
BYLAYER
 49
-0.5
 62
   256
  6
BYLAYER
  0
ACDBPLACEHOLDER
  5
564
102
{ACAD_REACTORS
330
563
102
}
330
563
100
AcDbPlaceHolder
280
     0
  0
XRECORD
  5
10B9
102
{ACAD_REACTORS
330
10AF
102
}
330
10AF
100
AcDbXrecord
 90
        0
  0
XRECORD
  5
10BD
102
{ACAD_REACTORS
330
10AF
102
}
330
10AF
100
AcDbXrecord
1000
DSTYLE
1002
{
1070
    79
 70
     2
1070
   179
 70
     3
1070
   289
 70
     2
1070
   341
340
594
1070
   342
340
594
1070
   371
 70
    -1
1070
   372
 70
    -1
1002
}
  0
XRECORD
  5
10BA
102
{ACAD_REACTORS
330
10AF
102
}
330
10AF
100
AcDbXrecord
  1
{51294030-9CB4-11D3-8E18-00A0C925D94D}
  0
XRECORD
  5
10B2
102
{ACAD_REACTORS
330
10AF
102
}
330
10AF
100
AcDbXrecord
  1

  0
XRECORD
  5
10B8
102
{ACAD_REACTORS
330
10AF
102
}
330
10AF
100
AcDbXrecord
 90
        0
  0
XRECORD
  5
10B4
102
{ACAD_REACTORS
330
10AF
102
}
330
10AF
100
AcDbXrecord
340
565
  0
XRECORD
  5
10B7
102
{ACAD_REACTORS
330
10AF
102
}
330
10AF
100
AcDbXrecord
 90
    10781
  0
XRECORD
  5
10B5
102
{ACAD_REACTORS
330
10AF
102
}
330
10AF
100
AcDbXrecord
340
566
  0
XRECORD
  5
10B6
102
{ACAD_REACTORS
330
10AF
102
}
330
10AF
100
AcDbXrecord
340
563
  0
XRECORD
  5
10BC
102
{ACAD_REACTORS
330
10AF
102
}
330
10AF
100
AcDbXrecord
 40
0.0
  0
XRECORD
  5
10C0
102
{ACAD_REACTORS
330
10AF
102
}
330
10AF
100
AcDbXrecord
340
0
  0
XRECORD
  5
10C6
102
{ACAD_REACTORS
330
10AF
102
}
330
10AF
100
AcDbXrecord
 10
0.0
 20
0.0
 30
0.0
  0
XRECORD
  5
10C2
102
{ACAD_REACTORS
330
10AF
102
}
330
10AF
100
AcDbXrecord
 10
0.0
 20
0.0
 30
0.0
  0
XRECORD
  5
10C5
102
{ACAD_REACTORS
330
10AF
102
}
330
10AF
100
AcDbXrecord
 10
0.0
 20
0.0
 30
0.0
  0
XRECORD
  5
10C3
102
{ACAD_REACTORS
330
10AF
102
}
330
10AF
100
AcDbXrecord
 10
0.0
 20
0.0
 30
0.0
  0
XRECORD
  5
10C4
102
{ACAD_REACTORS
330
10AF
102
}
330
10AF
100
AcDbXrecord
 10
0.0
 20
0.0
 30
0.0
  0
XRECORD
  5
10C1
102
{ACAD_REACTORS
330
10AF
102
}
330
10AF
100
AcDbXrecord
 10
0.0
 20
0.0
 30
0.0
  0
XRECORD
  5
10BE
102
{ACAD_REACTORS
330
10AF
102
}
330
10AF
100
AcDbXrecord
340
0
  0
XRECORD
  5
10BF
102
{ACAD_REACTORS
330
10AF
102
}
330
10AF
100
AcDbXrecord
 70
     0
  0
XRECORD
  5
10B3
102
{ACAD_REACTORS
330
10AF
102
}
330
10AF
100
AcDbXrecord
  1
big.ctb
  0
XRECORD
  5
10B0
102
{ACAD_REACTORS
330
10AF
102
}
330
10AF
100
AcDbXrecord
 90
        1
  0
XRECORD
  5
10B1
102
{ACAD_REACTORS
330
10AF
102
}
330
10AF
100
AcDbXrecord
 90
       70
  0
XRECORD
  5
10C9
102
{ACAD_REACTORS
330
10AF
102
}
330
10AF
100
AcDbXrecord
340
0
  0
XRECORD
  5
10CF
102
{ACAD_REACTORS
330
10AF
102
}
330
10AF
100
AcDbXrecord
 10
0.0
 20
0.0
 30
0.0
  0
XRECORD
  5
10CB
102
{ACAD_REACTORS
330
10AF
102
}
330
10AF
100
AcDbXrecord
 10
0.0
 20
0.0
 30
0.0
  0
XRECORD
  5
10CE
102
{ACAD_REACTORS
330
10AF
102
}
330
10AF
100
AcDbXrecord
 10
0.0
 20
0.0
 30
0.0
  0
XRECORD
  5
10CC
102
{ACAD_REACTORS
330
10AF
102
}
330
10AF
100
AcDbXrecord
 10
0.0
 20
0.0
 30
0.0
  0
XRECORD
  5
10CD
102
{ACAD_REACTORS
330
10AF
102
}
330
10AF
100
AcDbXrecord
 10
0.0
 20
0.0
 30
0.0
  0
XRECORD
  5
10CA
102
{ACAD_REACTORS
330
10AF
102
}
330
10AF
100
AcDbXrecord
 10
0.0
 20
0.0
 30
0.0
  0
XRECORD
  5
10C7
102
{ACAD_REACTORS
330
10AF
102
}
330
10AF
100
AcDbXrecord
340
0
  0
XRECORD
  5
10C8
102
{ACAD_REACTORS
330
10AF
102
}
330
10AF
100
AcDbXrecord
 70
     0
  0
XRECORD
  5
10BB
102
{ACAD_REACTORS
330
10AF
102
}
330
10AF
100
AcDbXrecord
  1
{83C0C849-6665-11D6-95D9-006094EB2375}
  0
DICTIONARYVAR
  5
10A8
102
{ACAD_REACTORS
330
10A7
102
}
330
10A7
100
DictionaryVariables
280
     0
  1
1
  0
XRECORD
  5
560
102
{ACAD_REACTORS
330
540
102
}
330
540
100
AcDbXrecord
  1
2.0.0
  0
ENDSEC
  0
EOF
