  0
SECTION
  2
HEADER
  9
$ACADVER
  1
AC1014
  9
$ACADMAINTVER
 70
     9
  9
$DWGCODEPAGE
  3
ANSI_932
  9
$INSBASE
 10
0.0
 20
0.0
 30
0.0
  9
$EXTMIN
 10
-107.1545743663508
 20
-64.00066972941909
 30
-0.0000000349181948
  9
$EXTMAX
 10
113.028206574658
 20
89.00704429045163
 30
0.0000000814935746
  9
$LIMMIN
 10
0.0
 20
0.0
  9
$LIMMAX
 10
297.0
 20
210.0
  9
$ORTHOMODE
 70
     0
  9
$REGENMODE
 70
     1
  9
$FILLMODE
 70
     1
  9
$QTEXTMODE
 70
     0
  9
$MIRRTEXT
 70
     1
  9
$DRAGMODE
 70
     2
  9
$LTSCALE
 40
10.0
  9
$OSMODE
 70
   613
  9
$ATTMODE
 70
     1
  9
$TEXTSIZE
 40
3.0
  9
$TRACEWID
 40
1.0
  9
$TEXTSTYLE
  7
YOKO
  9
$CLAYER
  8
240
  9
$CELTYPE
  6
BYLAYER
  9
$CECOLOR
 62
   256
  9
$CELTSCALE
 40
1.0
  9
$DELOBJ
 70
     1
  9
$DISPSILH
 70
     0
  9
$DIMSCALE
 40
1.0
  9
$DIMASZ
 40
2.229999999999999
  9
$DIMEXO
 40
0.5
  9
$DIMDLI
 40
2.5
  9
$DIMRND
 40
0.0
  9
$DIMDLE
 40
0.0
  9
$DIMEXE
 40
1.0
  9
$DIMTP
 40
0.0
  9
$DIMTM
 40
0.0
  9
$DIMTXT
 40
3.0
  9
$DIMCEN
 40
0.0
  9
$DIMTSZ
 40
0.0
  9
$DIMTOL
 70
     0
  9
$DIMLIM
 70
     0
  9
$DIMTIH
 70
     0
  9
$DIMTOH
 70
     0
  9
$DIMSE1
 70
     0
  9
$DIMSE2
 70
     0
  9
$DIMTAD
 70
     3
  9
$DIMZIN
 70
     8
  9
$DIMBLK
  1
OPEN
  9
$DIMASO
 70
     1
  9
$DIMSHO
 70
     1
  9
$DIMPOST
  1

  9
$DIMAPOST
  1

  9
$DIMALT
 70
     0
  9
$DIMALTD
 70
     2
  9
$DIMALTF
 40
25.4
  9
$DIMLFAC
 40
1.0
  9
$DIMTOFL
 70
     1
  9
$DIMTVP
 40
0.0
  9
$DIMTIX
 70
     0
  9
$DIMSOXD
 70
     0
  9
$DIMSAH
 70
     0
  9
$DIMBLK1
  1

  9
$DIMBLK2
  1

  9
$DIMSTYLE
  2
BIGT
  9
$DIMCLRD
 70
   256
  9
$DIMCLRE
 70
   256
  9
$DIMCLRT
 70
    40
  9
$DIMTFAC
 40
1.0
  9
$DIMGAP
 40
1.0
  9
$DIMJUST
 70
     0
  9
$DIMSD1
 70
     0
  9
$DIMSD2
 70
     0
  9
$DIMTOLJ
 70
     1
  9
$DIMTZIN
 70
     8
  9
$DIMALTZ
 70
     0
  9
$DIMALTTZ
 70
     0
  9
$DIMFIT
 70
     2
  9
$DIMUPT
 70
     0
  9
$DIMUNIT
 70
     2
  9
$DIMDEC
 70
     3
  9
$DIMTDEC
 70
     3
  9
$DIMALTU
 70
     2
  9
$DIMALTTD
 70
     2
  9
$DIMTXSTY
  7
STANDARD
  9
$DIMAUNIT
 70
     0
  9
$LUNITS
 70
     2
  9
$LUPREC
 70
     3
  9
$SKETCHINC
 40
1.0
  9
$FILLETRAD
 40
0.0
  9
$AUNITS
 70
     0
  9
$AUPREC
 70
     3
  9
$MENU
  1
.
  9
$ELEVATION
 40
0.0
  9
$PELEVATION
 40
0.0
  9
$THICKNESS
 40
0.0
  9
$LIMCHECK
 70
     0
  9
$BLIPMODE
 70
     0
  9
$CHAMFERA
 40
10.0
  9
$CHAMFERB
 40
10.0
  9
$CHAMFERC
 40
0.0
  9
$CHAMFERD
 40
0.0
  9
$SKPOLY
 70
     0
  9
$TDCREATE
 40
2452174.382276829
  9
$TDUPDATE
 40
2452408.968020104
  9
$TDINDWG
 40
0.0099723380
  9
$TDUSRTIMER
 40
0.0099723380
  9
$USRTIMER
 70
     1
  9
$ANGBASE
 50
0.0
  9
$ANGDIR
 70
     0
  9
$PDMODE
 70
    35
  9
$PDSIZE
 40
-5.0
  9
$PLINEWID
 40
0.0
  9
$COORDS
 70
     0
  9
$SPLFRAME
 70
     0
  9
$SPLINETYPE
 70
     6
  9
$SPLINESEGS
 70
     8
  9
$ATTDIA
 70
     0
  9
$ATTREQ
 70
     0
  9
$HANDLING
 70
 22529
  9
$HANDSEED
  5
EB8
  9
$SURFTAB1
 70
     6
  9
$SURFTAB2
 70
     6
  9
$SURFTYPE
 70
     6
  9
$SURFU
 70
     6
  9
$SURFV
 70
     6
  9
$UCSNAME
  2

  9
$UCSORG
 10
0.0
 20
0.0
 30
0.0
  9
$UCSXDIR
 10
1.0
 20
0.0
 30
0.0
  9
$UCSYDIR
 10
0.0
 20
1.0
 30
0.0
  9
$PUCSNAME
  2

  9
$PUCSORG
 10
0.0
 20
0.0
 30
0.0
  9
$PUCSXDIR
 10
1.0
 20
0.0
 30
0.0
  9
$PUCSYDIR
 10
0.0
 20
1.0
 30
0.0
  9
$USERI1
 70
     1
  9
$USERI2
 70
     0
  9
$USERI3
 70
     0
  9
$USERI4
 70
     0
  9
$USERI5
 70
     0
  9
$USERR1
 40
0.0
  9
$USERR2
 40
0.0
  9
$USERR3
 40
0.0
  9
$USERR4
 40
0.0
  9
$USERR5
 40
0.0
  9
$WORLDVIEW
 70
     1
  9
$SHADEDGE
 70
     3
  9
$SHADEDIF
 70
    70
  9
$TILEMODE
 70
     1
  9
$MAXACTVP
 70
    16
  9
$PINSBASE
 10
0.0
 20
0.0
 30
0.0
  9
$PLIMCHECK
 70
     0
  9
$PEXTMIN
 10
1.000000000000000E+20
 20
1.000000000000000E+20
 30
1.000000000000000E+20
  9
$PEXTMAX
 10
-1.000000000000000E+20
 20
-1.000000000000000E+20
 30
-1.000000000000000E+20
  9
$PLIMMIN
 10
0.0
 20
0.0
  9
$PLIMMAX
 10
420.0
 20
297.0
  9
$UNITMODE
 70
     0
  9
$VISRETAIN
 70
     0
  9
$PLINEGEN
 70
     0
  9
$PSLTSCALE
 70
     1
  9
$TREEDEPTH
 70
  3020
  9
$PICKSTYLE
 70
     0
  9
$CMLSTYLE
  2
STANDARD
  9
$CMLJUST
 70
     0
  9
$CMLSCALE
 40
1.0
  9
$PROXYGRAPHICS
 70
     1
  9
$MEASUREMENT
 70
     1
  0
ENDSEC
  0
SECTION
  2
CLASSES
  0
CLASS
  1
XRECORD
  2
AcDbXrecord
  3
AutoCAD 2000
 90
        0
280
     0
281
     0
  0
CLASS
  1
ACDBDICTIONARYWDFLT
  2
AcDbDictionaryWithDefault
  3
AutoCAD 2000
 90
        0
280
     0
281
     0
  0
CLASS
  1
ACDBPLACEHOLDER
  2
AcDbPlaceHolder
  3
AutoCAD 2000
 90
        0
280
     0
281
     0
  0
CLASS
  1
LAYOUT
  2
AcDbLayout
  3
AutoCAD 2000
 90
        0
280
     0
281
     0
  0
CLASS
  1
DICTIONARYVAR
  2
AcDbDictionaryVar
  3
AutoCAD 2000
 90
        0
280
     0
281
     0
  0
CLASS
  1
LONG_TRANSACTION
  2
AcDbLongTransaction
  3
AutoCAD 2000
 90
        0
280
     0
281
     0
  0
CLASS
  1
LWPOLYLINE
  2
AcDbPolyline
  3
AutoCAD 2000
 90
        0
280
     0
281
     1
  0
CLASS
  1
HATCH
  2
AcDbHatch
  3
AutoCAD 2000
 90
        0
280
     0
281
     1
  0
CLASS
  1
XRECORD
  2
AcDbXrecord
  3
AutoCAD 2000
 90
        0
280
     0
281
     0
  0
ENDSEC
  0
SECTION
  2
TABLES
  0
TABLE
  2
VPORT
  5
8
330
0
100
AcDbSymbolTable
 70
     2
  0
VPORT
  5
E87
330
8
100
AcDbSymbolTableRecord
100
AcDbViewportTableRecord
  2
*ACTIVE
 70
     0
 10
0.0
 20
0.0
 11
1.0
 21
1.0
 12
2.936646029861449
 22
12.49855079629759
 13
0.0
 23
0.0
 14
7.0
 24
7.0
 15
7.0
 25
7.0
 16
0.0
 26
0.0
 36
1.0
 17
0.0
 27
0.0
 37
0.0
 40
154.215920121364
 41
1.53185955786736
 42
50.0
 43
0.0
 44
0.0
 50
0.0
 51
0.0
 71
     0
 72
  2000
 73
     1
 74
     0
 75
     0
 76
     0
 77
     0
 78
     0
  0
ENDTAB
  0
TABLE
  2
LTYPE
  5
5
330
0
100
AcDbSymbolTable
 70
     4
  0
LTYPE
  5
14
330
5
100
AcDbSymbolTableRecord
100
AcDbLinetypeTableRecord
  2
BYBLOCK
 70
     0
  3

 72
    65
 73
     0
 40
0.0
  0
LTYPE
  5
15
330
5
100
AcDbSymbolTableRecord
100
AcDbLinetypeTableRecord
  2
BYLAYER
 70
     0
  3

 72
    65
 73
     0
 40
0.0
  0
LTYPE
  5
16
330
5
100
AcDbSymbolTableRecord
100
AcDbLinetypeTableRecord
  2
CONTINUOUS
 70
     0
  3
Solid line
 72
    65
 73
     0
 40
0.0
  0
LTYPE
  5
258
330
5
100
AcDbSymbolTableRecord
100
AcDbLinetypeTableRecord
  2
CENTER2
 70
     0
  3
___ _ ___ _ ___ _ ___ _ ___ _ ___ _ ___ _ ___ _
 72
    65
 73
     4
 40
1.125
 49
0.75
 74
     0
 49
-0.125
 74
     0
 49
0.125
 74
     0
 49
-0.125
 74
     0
  0
LTYPE
  5
25C
330
5
100
AcDbSymbolTableRecord
100
AcDbLinetypeTableRecord
  2
HIDDEN2
 70
     0
  3
_ _ _ _ _ _ _ _ _ _ _ _ _ _ _ _ _ _ _ _ _ _ _ _
 72
    65
 73
     2
 40
0.1875
 49
0.125
 74
     0
 49
-0.0625
 74
     0
  0
LTYPE
  5
25D
330
5
100
AcDbSymbolTableRecord
100
AcDbLinetypeTableRecord
  2
PHANTOM2
 70
     0
  3
___ _ _ ___ _ _ ___ _ _ ___ _ _ ___ _ _ ___ _ _
 72
    65
 73
     6
 40
1.25
 49
0.625
 74
     0
 49
-0.125
 74
     0
 49
0.125
 74
     0
 49
-0.125
 74
     0
 49
0.125
 74
     0
 49
-0.125
 74
     0
  0
ENDTAB
  0
TABLE
  2
LAYER
  5
2
330
0
100
AcDbSymbolTable
 70
    10
  0
LAYER
  5
F
330
2
100
AcDbSymbolTableRecord
100
AcDbLayerTableRecord
  2
0
 70
     0
 62
     7
  6
CONTINUOUS
  0
LAYER
  5
1AA
330
2
100
AcDbSymbolTableRecord
100
AcDbLayerTableRecord
  2
240
 70
     0
 62
     4
  6
CONTINUOUS
  0
LAYER
  5
1AB
330
2
100
AcDbSymbolTableRecord
100
AcDbLayerTableRecord
  2
241
 70
     0
 62
   211
  6
CONTINUOUS
  0
LAYER
  5
1AC
330
2
100
AcDbSymbolTableRecord
100
AcDbLayerTableRecord
  2
242
 70
     0
 62
     3
  6
CONTINUOUS
  0
LAYER
  5
1AD
330
2
100
AcDbSymbolTableRecord
100
AcDbLayerTableRecord
  2
243
 70
     0
 62
   211
  6
HIDDEN2
  0
LAYER
  5
1AF
330
2
100
AcDbSymbolTableRecord
100
AcDbLayerTableRecord
  2
245
 70
     0
 62
     2
  6
CENTER2
  0
LAYER
  5
21A
330
2
100
AcDbSymbolTableRecord
100
AcDbLayerTableRecord
  2
246
 70
     0
 62
     3
  6
PHANTOM2
  0
LAYER
  5
21B
330
2
100
AcDbSymbolTableRecord
100
AcDbLayerTableRecord
  2
247
 70
     0
 62
    60
  6
CONTINUOUS
  0
LAYER
  5
21E
330
2
100
AcDbSymbolTableRecord
100
AcDbLayerTableRecord
  2
250
 70
     0
 62
     3
  6
CONTINUOUS
  0
LAYER
  5
5C4
330
2
100
AcDbSymbolTableRecord
100
AcDbLayerTableRecord
  2
DEFPOINTS
 70
     0
 62
     7
  6
CONTINUOUS
  0
ENDTAB
  0
TABLE
  2
STYLE
  5
3
330
0
100
AcDbSymbolTable
 70
     2
  0
STYLE
  5
10
330
3
100
AcDbSymbolTableRecord
100
AcDbTextStyleTableRecord
  2
STANDARD
 70
     0
 40
0.0
 41
1.0
 50
0.0
 71
     0
 42
3.0
  3
romans.shx
  4
BIGFONT.SHX
  0
STYLE
  5
339
330
3
100
AcDbSymbolTableRecord
100
AcDbTextStyleTableRecord
  2
YOKO
 70
     0
 40
0.0
 41
1.0
 50
0.0
 71
     0
 42
3.0
  3
romans.shx
  4
extfont.shx
  0
ENDTAB
  0
TABLE
  2
VIEW
  5
6
330
0
100
AcDbSymbolTable
 70
     0
  0
ENDTAB
  0
TABLE
  2
UCS
  5
7
330
0
100
AcDbSymbolTable
 70
     0
  0
ENDTAB
  0
TABLE
  2
APPID
  5
9
330
0
100
AcDbSymbolTable
 70
     9
  0
APPID
  5
11
330
9
100
AcDbSymbolTableRecord
100
AcDbRegAppTableRecord
  2
ACAD
 70
     0
  0
APPID
  5
1B1
330
9
100
AcDbSymbolTableRecord
100
AcDbRegAppTableRecord
  2
GLOBAL
 70
     0
  0
APPID
  5
2A4
330
9
100
AcDbSymbolTableRecord
100
AcDbRegAppTableRecord
  2
DETAIL
 70
     0
  0
APPID
  5
5FD
330
9
100
AcDbSymbolTableRecord
100
AcDbRegAppTableRecord
  2
GRPNAME
 70
     0
  0
APPID
  5
5FE
330
9
100
AcDbSymbolTableRecord
100
AcDbRegAppTableRecord
  2
GPARA
 70
     0
  0
APPID
  5
7D6
330
9
100
AcDbSymbolTableRecord
100
AcDbRegAppTableRecord
  2
ITEMNAME
 70
     0
  0
APPID
  5
7D7
330
9
100
AcDbSymbolTableRecord
100
AcDbRegAppTableRecord
  2
HATCH_TYPE
 70
     0
  0
APPID
  5
7D8
330
9
100
AcDbSymbolTableRecord
100
AcDbRegAppTableRecord
  2
HATCH_DISPLAY
 70
     0
  0
APPID
  5
7D9
330
9
100
AcDbSymbolTableRecord
100
AcDbRegAppTableRecord
  2
HATCH_DISTANCE
 70
     0
  0
ENDTAB
  0
TABLE
  2
DIMSTYLE
  5
A
330
0
100
AcDbSymbolTable
 70
     2
  0
DIMSTYLE
105
48F
330
A
100
AcDbSymbolTableRecord
100
AcDbDimStyleTableRecord
  2
STANDARD
 70
     0
  3

  4

  5

  6

  7

 40
1.0
 41
2.0
 42
2.0
 43
3.75
 44
2.0
 45
0.0
 46
0.0
 47
0.0
 48
0.0
140
4.0
141
0.09
142
0.0
143
25.4
144
1.0
145
0.0
146
1.0
147
1.0
 71
     0
 72
     0
 73
     1
 74
     1
 75
     0
 76
     0
 77
     0
 78
     8
170
     0
171
     2
172
     0
173
     1
174
     0
175
     0
176
   256
177
   256
178
   256
270
     2
271
     3
272
     4
273
     2
274
     2
340
10
275
     0
280
     0
281
     0
282
     0
283
     1
284
     8
285
     0
286
     0
287
     3
288
     0
  0
DIMSTYLE
105
59A
102
{ACAD_REACTORS
330
DF2
330
DF3
330
DF9
330
DFA
330
DFB
330
DFC
102
}
330
A
100
AcDbSymbolTableRecord
100
AcDbDimStyleTableRecord
  2
BIGT
 70
     0
  3

  4

  5
OPEN
  6

  7

 40
1.0
 41
2.229999999999999
 42
0.5
 43
2.5
 44
1.0
 45
0.0
 46
0.0
 47
0.0
 48
0.0
140
3.5
141
0.0
142
0.0
143
25.4
144
1.0
145
0.0
146
1.0
147
1.0
 71
     0
 72
     0
 73
     0
 74
     0
 75
     0
 76
     0
 77
     3
 78
     9
170
     0
171
     2
172
     1
173
     0
174
     0
175
     0
176
   256
177
   256
178
    40
270
     2
271
     3
272
     3
273
     2
274
     2
340
10
275
     0
280
     0
281
     0
282
     0
283
     1
284
     8
285
     0
286
     0
287
     2
288
     0
  0
ENDTAB
  0
TABLE
  2
BLOCK_RECORD
  5
1
330
0
100
AcDbSymbolTable
 70
     8
  0
BLOCK_RECORD
  5
1A
102
{ACAD_XDICTIONARY
360
EAB
102
}
330
1
100
AcDbSymbolTableRecord
100
AcDbBlockTableRecord
  2
*MODEL_SPACE
  0
BLOCK_RECORD
  5
17
102
{ACAD_XDICTIONARY
360
EA9
102
}
330
1
100
AcDbSymbolTableRecord
100
AcDbBlockTableRecord
  2
*PAPER_SPACE
  0
BLOCK_RECORD
  5
594
330
1
100
AcDbSymbolTableRecord
100
AcDbBlockTableRecord
  2
_OPEN
  0
BLOCK_RECORD
  5
A95
330
1
100
AcDbSymbolTableRecord
100
AcDbBlockTableRecord
  2
A$C4E475688
  0
BLOCK_RECORD
  5
DFD
330
1
100
AcDbSymbolTableRecord
100
AcDbBlockTableRecord
  2
*D2
  0
BLOCK_RECORD
  5
E09
330
1
100
AcDbSymbolTableRecord
100
AcDbBlockTableRecord
  2
*D3
  0
BLOCK_RECORD
  5
E15
330
1
100
AcDbSymbolTableRecord
100
AcDbBlockTableRecord
  2
*D4
  0
BLOCK_RECORD
  5
E23
330
1
100
AcDbSymbolTableRecord
100
AcDbBlockTableRecord
  2
*D5
  0
BLOCK_RECORD
  5
E2F
330
1
100
AcDbSymbolTableRecord
100
AcDbBlockTableRecord
  2
*D6
  0
BLOCK_RECORD
  5
E3B
330
1
100
AcDbSymbolTableRecord
100
AcDbBlockTableRecord
  2
*D7
  0
ENDTAB
  0
ENDSEC
  0
SECTION
  2
BLOCKS
  0
BLOCK
  5
1B
330
1A
100
AcDbEntity
  8
0
100
AcDbBlockBegin
  2
*MODEL_SPACE
 70
     0
 10
0.0
 20
0.0
 30
0.0
  3
*MODEL_SPACE
  1

  0
ENDBLK
  5
1C
330
1A
100
AcDbEntity
  8
0
100
AcDbBlockEnd
  0
BLOCK
  5
18
330
17
100
AcDbEntity
 67
     1
  8
0
100
AcDbBlockBegin
  2
*PAPER_SPACE
 70
     0
 10
0.0
 20
0.0
 30
0.0
  3
*PAPER_SPACE
  1

  0
ENDBLK
  5
19
330
17
100
AcDbEntity
 67
     1
  8
0
100
AcDbBlockEnd
  0
BLOCK
  5
598
330
594
100
AcDbEntity
  8
0
100
AcDbBlockBegin
  2
_OPEN
 70
     0
 10
0.0
 20
0.0
 30
0.0
  3
_OPEN
  1

  0
LINE
  5
595
330
594
100
AcDbEntity
  8
0
  6
BYBLOCK
 62
     0
100
AcDbLine
 10
-1.0
 20
0.1666666666666666
 30
0.0
 11
0.0
 21
0.0
 31
0.0
  0
LINE
  5
596
330
594
100
AcDbEntity
  8
0
  6
BYBLOCK
 62
     0
100
AcDbLine
 10
-1.0
 20
-0.1666666666666666
 30
0.0
 11
0.0
 21
0.0
 31
0.0
  0
LINE
  5
597
330
594
100
AcDbEntity
  8
0
  6
BYBLOCK
 62
     0
100
AcDbLine
 10
0.0
 20
0.0
 30
0.0
 11
-1.0
 21
0.0
 31
0.0
  0
ENDBLK
  5
599
330
594
100
AcDbEntity
  8
0
100
AcDbBlockEnd
  0
BLOCK
  5
B86
330
A95
100
AcDbEntity
  8
0
100
AcDbBlockBegin
  2
A$C4E475688
 70
     0
 10
0.0
 20
0.0
 30
0.0
  3
A$C4E475688
  1

  0
LINE
  5
A96
330
A95
100
AcDbEntity
  8
245
100
AcDbLine
 10
-107.133339948908
 20
0.0
 30
0.0
 11
93.67909787285993
 21
0.0
 31
0.0
  0
ARC
  5
A97
330
A95
100
AcDbEntity
  8
240
100
AcDbCircle
 10
53.00000000000003
 20
-24.75000000000005
 30
0.0
 40
15.0
100
AcDbArc
 50
90.0
 51
180.0
  0
ARC
  5
A98
330
A95
100
AcDbEntity
  8
240
100
AcDbCircle
 10
53.00000000000008
 20
24.75
 30
0.0
 40
15.0
100
AcDbArc
 50
180.0
 51
270.0
  0
LINE
  5
A99
330
A95
100
AcDbEntity
  8
240
100
AcDbLine
 10
0.0
 20
34.92500000000041
 30
0.0
 11
-100.9443068930717
 21
20.20395524476112
 31
0.0
  0
LINE
  5
A9A
330
A95
100
AcDbEntity
  8
240
100
AcDbLine
 10
-0.0000000000002274
 20
-34.92499999999961
 30
0.0
 11
-100.9443068930718
 21
-20.20395524475952
 31
0.0
  0
LINE
  5
A9B
330
A95
100
AcDbEntity
  8
240
100
AcDbLine
 10
-101.8
 20
19.21442226369788
 30
0.0
 11
-101.8000000000001
 21
-19.21442226369618
 31
0.0
  0
ARC
  5
A9C
330
A95
100
AcDbEntity
  8
240
100
AcDbCircle
 10
-100.8000000000001
 20
-19.21442226369618
 30
0.0
 40
1.0
100
AcDbArc
 50
180.0
 51
261.7028550301631
  0
ARC
  5
A9D
330
A95
100
AcDbEntity
  8
240
100
AcDbCircle
 10
-100.8
 20
19.21442226369788
 30
0.0
 40
0.9999999999999818
100
AcDbArc
 50
98.29714496983683
 51
180.0
  0
TEXT
  5
A9E
330
A95
100
AcDbEntity
  8
247
100
AcDbText
 10
12.69999999999962
 20
-12.28678511522821
 30
0.0
 40
3.0
  1
BT50-NBS6-90
 50
90.0
  7
YOKO
 11
12.69999999999962
 21
-12.28678511522821
 31
0.0
100
AcDbText
 73
     1
  0
LINE
  5
A9F
330
A95
100
AcDbEntity
  8
241
100
AcDbLine
 10
2.999999999999602
 20
-34.92499999999961
 30
0.0
 11
2.999999999999602
 21
34.92500000000035
 31
0.0
  0
LINE
  5
AA0
330
A95
100
AcDbEntity
  8
241
100
AcDbLine
 10
0.0
 20
-34.92499999999961
 30
0.0
 11
0.0
 21
34.92500000000041
 31
0.0
  0
LINE
  5
AA1
330
A95
100
AcDbEntity
  8
241
100
AcDbLine
 10
19.94352447854345
 20
42.49999999999943
 30
0.0
 11
19.94352447854345
 21
-42.49999999999966
 31
0.0
  0
LINE
  5
AA2
330
A95
100
AcDbEntity
  8
241
100
AcDbLine
 10
26.45647552145595
 20
42.49999999999943
 30
0.0
 11
26.45647552145595
 21
-42.49999999999966
 31
0.0
  0
LINE
  5
AA3
330
A95
100
AcDbEntity
  8
241
100
AcDbLine
 10
38.00000000000008
 20
24.75
 30
0.0
 11
38.00000000000002
 21
-24.75000000000005
 31
0.0
  0
LINE
  5
AA4
330
A95
100
AcDbEntity
  8
241
100
AcDbLine
 10
15.69999999999964
 20
-49.99999999999966
 30
0.0
 11
15.69999999999964
 21
49.99999999999943
 31
0.0
  0
LINE
  5
AA5
330
A95
100
AcDbEntity
  8
241
100
AcDbLine
 10
30.69999999999959
 20
-49.99999999999971
 30
0.0
 11
30.69999999999959
 21
49.99999999999943
 31
0.0
  0
LINE
  5
AA6
330
A95
100
AcDbEntity
  8
243
100
AcDbLine
 10
33.99999999999994
 20
-35.30000000000012
 30
0.0
 11
34.0
 21
-49.99999999999971
 31
0.0
  0
LINE
  5
AA7
330
A95
100
AcDbEntity
  8
240
100
AcDbLine
 10
38.0
 20
-48.7000000000001
 30
0.0
 11
38.00000000000002
 21
-24.75000000000005
 31
0.0
  0
LINE
  5
AA8
330
A95
100
AcDbEntity
  8
240
100
AcDbLine
 10
2.999999999999715
 20
-34.92499999999961
 30
0.0
 11
2.999999999999658
 21
-48.69999999999965
 31
0.0
  0
LINE
  5
AA9
330
A95
100
AcDbEntity
  8
240
100
AcDbLine
 10
19.94352447854345
 20
-42.64999999999964
 30
0.0
 11
15.69999999999964
 21
-49.99999999999966
 31
0.0
  0
LINE
  5
AAA
330
A95
100
AcDbEntity
  8
240
100
AcDbLine
 10
15.69999999999964
 20
-49.99999999999966
 30
0.0
 11
4.299999999999613
 21
-49.99999999999966
 31
0.0
  0
ARC
  5
AAB
330
A95
100
AcDbEntity
  8
240
100
AcDbCircle
 10
4.299999999999613
 20
-48.69999999999965
 30
0.0
 40
1.300000000000011
100
AcDbArc
 50
180.0
 51
270.0
  0
LINE
  5
AAC
330
A95
100
AcDbEntity
  8
240
100
AcDbLine
 10
26.45647552145595
 20
-42.64999999999969
 30
0.0
 11
30.69999999999959
 21
-49.99999999999971
 31
0.0
  0
LINE
  5
AAD
330
A95
100
AcDbEntity
  8
240
100
AcDbLine
 10
26.19666790032062
 20
-42.49999999999966
 30
0.0
 11
20.20333209967879
 21
-42.49999999999966
 31
0.0
  0
ARC
  5
AAE
330
A95
100
AcDbEntity
  8
240
100
AcDbCircle
 10
20.20333209967873
 20
-42.79999999999967
 30
0.0
 40
0.3000000000000114
100
AcDbArc
 50
89.99999999998861
 51
149.9999999999885
  0
ARC
  5
AAF
330
A95
100
AcDbEntity
  8
240
100
AcDbCircle
 10
26.19666790032056
 20
-42.79999999999967
 30
0.0
 40
0.3000000000000428
100
AcDbArc
 50
29.99999999999246
 51
89.99999999998861
  0
LINE
  5
AB0
330
A95
100
AcDbEntity
  8
240
100
AcDbLine
 10
30.69999999999959
 20
-49.99999999999971
 30
0.0
 11
36.69999999999964
 21
-49.99999999999977
 31
0.0
  0
ARC
  5
AB1
330
A95
100
AcDbEntity
  8
240
100
AcDbCircle
 10
36.69999999999999
 20
-48.7000000000001
 30
0.0
 40
1.300000000000011
100
AcDbArc
 50
270.0
 51
0.0
  0
LINE
  5
AB2
330
A95
100
AcDbEntity
  8
243
100
AcDbLine
 10
33.99999999999994
 20
-35.30000000000012
 30
0.0
 11
2.999999999999943
 21
-35.30000000000012
 31
0.0
  0
LINE
  5
AB3
330
A95
100
AcDbEntity
  8
240
100
AcDbLine
 10
-0.0000000000002274
 20
-34.92499999999961
 30
0.0
 11
2.999999999999602
 21
-34.92499999999961
 31
0.0
  0
LINE
  5
AB4
330
A95
100
AcDbEntity
  8
247
100
AcDbLine
 10
9.429018845698863
 20
-24.23692434392205
 30
0.0
 11
9.012182206186423
 21
-23.82008770440961
 31
0.0
  0
LINE
  5
AB5
330
A95
100
AcDbEntity
  8
247
100
AcDbLine
 10
8.968175236465583
 20
-25.42307946823985
 30
0.0
 11
8.968175236465725
 21
-24.11923029866045
 31
0.0
  0
ARC
  5
AB6
330
A95
100
AcDbEntity
  8
247
100
AcDbCircle
 10
9.938191715957771
 20
-24.56597802781038
 30
0.0
 40
0.6062452793121338
100
AcDbArc
 50
351.6626016879293
 51
156.3381550951899
  0
LINE
  5
AB7
330
A95
100
AcDbEntity
  8
247
100
AcDbLine
 10
11.42542084116973
 20
-24.43727511517909
 30
0.0
 11
10.1001146065945
 21
-23.11196888060385
 31
0.0
  0
LINE
  5
AB8
330
A95
100
AcDbEntity
  8
247
100
AcDbLine
 10
11.13314516820764
 20
-24.59401224827036
 30
0.0
 11
9.68681422474134
 21
-23.1476813048041
 31
0.0
  0
ARC
  5
AB9
330
A95
100
AcDbEntity
  8
247
100
AcDbCircle
 10
11.59529620814527
 20
-24.57864282273226
 30
0.0
 40
1.010421752929687
100
AcDbArc
 50
0.0
 51
130.3298406541676
  0
LINE
  5
ABA
330
A95
100
AcDbEntity
  8
247
100
AcDbLine
 10
12.60571843791214
 20
-24.71954709981457
 30
0.0
 11
11.46308014810011
 21
-23.57690881000257
 31
0.0
  0
LINE
  5
ABB
330
A95
100
AcDbEntity
  8
247
100
AcDbLine
 10
12.60571843791211
 20
-25.16855990586805
 30
0.0
 11
11.12270918476849
 21
-23.68555065272437
 31
0.0
  0
LINE
  5
ABC
330
A95
100
AcDbEntity
  8
247
100
AcDbLine
 10
12.52996169456253
 20
-24.19477755041146
 30
0.0
 11
11.97916148046607
 21
-23.64397733631506
 31
0.0
  0
LINE
  5
ABD
102
{ACAD_REACTORS
330
ABF
102
}
330
A95
100
AcDbEntity
  8
247
100
AcDbLine
 10
12.80780584025586
 20
-26.46797082566195
 30
0.0
 11
12.80780584025586
 21
-18.26327417038856
 31
0.0
  0
LINE
  5
ABE
102
{ACAD_REACTORS
330
ABF
102
}
330
A95
100
AcDbEntity
  8
247
100
AcDbLine
 10
13.21198063454147
 20
-26.46797082566195
 30
0.0
 11
13.21198063454147
 21
-18.26327417038856
 31
0.0
  0
HATCH
  5
ABF
330
A95
100
AcDbEntity
  8
247
100
AcDbHatch
 10
0.0
 20
0.0
 30
0.0
210
0.0
220
0.0
230
1.0
  2
ANSI31
 70
     0
 71
     1
 91
        1
 92
       33
 93
       10
 72
     1
 10
8.968175236465583
 20
-25.63329980515414
 11
9.372350041153083
 21
-25.74919030808382
 72
     1
 10
8.968175236465583
 20
-26.46797082566195
 11
8.968175236465583
 21
-25.63329980515414
 72
     1
 10
9.372350041153083
 20
-26.46797082566195
 11
9.372350041153083
 21
-25.74919030808382
 72
     2
 10
11.09007770228589
 20
-26.46797082566195
 40
1.717727661132812
 50
180.0
 51
360.0
 73
     1
 72
     2
 10
11.09007770228589
 20
-26.46797082566195
 40
2.121902465820312
 50
180.0
 51
360.0
 73
     1
 72
     1
 10
13.21198063454147
 20
-26.46797082566195
 11
13.21198063454147
 21
-18.26327417038856
 72
     1
 10
12.80780584025586
 20
-26.46797082566195
 11
12.80780584025586
 21
-18.26327417038856
 72
     2
 10
11.09007770228589
 20
-18.26327417038856
 40
2.121902465820312
 50
0.0
 51
194.7707939660941
 73
     1
 72
     2
 10
11.09007770228589
 20
-18.26327417038856
 40
1.717727661132812
 50
0.0
 51
194.1274364964119
 73
     1
 72
     1
 10
9.424290959121833
 20
-18.68253991745888
 11
9.038289372207771
 21
-18.80425927781038
 97
       10
330
AC8
330
ACC
330
ACD
330
AC4
330
AC3
330
ABE
330
ABD
330
AE9
330
AEA
330
AF3
 75
     0
 76
     1
 52
90.0
 41
0.1
 77
     0
 78
     1
 53
135.0
 43
28.96197063136304
 44
-148.3898599400418
 45
-0.2245064030267288
 46
-0.2245064030267288
 79
     0
 98
        1
 10
28.96197063136304
 20
-148.3898599400418
  0
LINE
  5
AC0
330
A95
100
AcDbEntity
  8
247
100
AcDbLine
 10
12.60571843791211
 20
-26.06658551797488
 30
0.0
 11
11.45634189566726
 21
-24.91720897573009
 31
0.0
  0
LINE
  5
AC1
330
A95
100
AcDbEntity
  8
247
100
AcDbLine
 10
12.60571843791211
 20
-25.61757271192152
 30
0.0
 11
12.0858595627499
 21
-25.09771383675922
 31
0.0
  0
LINE
  5
AC2
330
A95
100
AcDbEntity
  8
247
100
AcDbLine
 10
12.60571843791211
 20
-26.25588891648226
 30
0.0
 11
9.372350041154277
 21
-25.32873437546709
 31
0.0
  0
ARC
  5
AC3
102
{ACAD_REACTORS
330
ABF
102
}
330
A95
100
AcDbEntity
  8
247
100
AcDbCircle
 10
11.09007770228589
 20
-26.46797082566195
 30
0.0
 40
2.121902465820312
100
AcDbArc
 50
180.0
 51
0.0
  0
ARC
  5
AC4
102
{ACAD_REACTORS
330
ABF
102
}
330
A95
100
AcDbEntity
  8
247
100
AcDbCircle
 10
11.09007770228589
 20
-26.46797082566195
 30
0.0
 40
1.717727661132812
100
AcDbArc
 50
180.0
 51
0.0
  0
LINE
  5
AC5
330
A95
100
AcDbEntity
  8
247
100
AcDbLine
 10
9.723491604750108
 20
-25.42942271508024
 30
0.0
 11
8.968175236465668
 21
-24.67410634679572
 31
0.0
  0
LINE
  5
AC6
330
A95
100
AcDbEntity
  8
247
100
AcDbLine
 10
9.382914148697693
 20
-24.32266719371966
 30
0.0
 11
10.53802994073157
 21
-24.65388390240628
 31
0.0
  0
LINE
  5
AC7
330
A95
100
AcDbEntity
  8
247
100
AcDbLine
 10
10.35301857303954
 20
-25.60993687731615
 30
0.0
 11
8.968175236465725
 21
-24.22509354074236
 31
0.0
  0
LINE
  5
AC8
102
{ACAD_REACTORS
330
ABF
102
}
330
A95
100
AcDbEntity
  8
247
100
AcDbLine
 10
8.968175236465583
 20
-25.63329980515414
 30
0.0
 11
9.372350041153083
 21
-25.74919030808382
 31
0.0
  0
LINE
  5
AC9
330
A95
100
AcDbEntity
  8
247
100
AcDbLine
 10
8.968175236465583
 20
-25.42307946823985
 30
0.0
 11
9.372350041153083
 21
-25.53896997117021
 31
0.0
  0
LINE
  5
ACA
330
A95
100
AcDbEntity
  8
247
100
AcDbLine
 10
9.37235004115314
 20
-25.5272939575367
 30
0.0
 11
8.968175236465611
 21
-25.1231191528492
 31
0.0
  0
LINE
  5
ACB
330
A95
100
AcDbEntity
  8
247
100
AcDbLine
 10
9.372350041153083
 20
-25.53896997117021
 30
0.0
 11
9.372350041154277
 21
-25.32873437546709
 31
0.0
  0
LINE
  5
ACC
102
{ACAD_REACTORS
330
ABF
102
}
330
A95
100
AcDbEntity
  8
247
100
AcDbLine
 10
8.968175236465583
 20
-26.46797082566195
 30
0.0
 11
8.968175236465583
 21
-25.63329980515414
 31
0.0
  0
LINE
  5
ACD
102
{ACAD_REACTORS
330
ABF
102
}
330
A95
100
AcDbEntity
  8
247
100
AcDbLine
 10
9.372350041153083
 20
-26.46797082566195
 30
0.0
 11
9.372350041153083
 21
-25.74919030808382
 31
0.0
  0
LINE
  5
ACE
330
A95
100
AcDbEntity
  8
247
100
AcDbLine
 10
11.61207250961842
 20
-25.97096520178808
 30
0.0
 11
10.19728690393861
 21
-24.55617959610833
 31
0.0
  0
ARC
  5
ACF
330
A95
100
AcDbEntity
  8
247
100
AcDbCircle
 10
11.5548756759187
 20
-25.0295552983182
 30
0.0
 40
0.6062626242637635
100
AcDbArc
 50
351.6628542111489
 51
156.3381921591137
  0
LINE
  5
AD0
330
A95
100
AcDbEntity
  8
247
100
AcDbLine
 10
10.99958128538739
 20
-24.78623964032715
 30
0.0
 11
12.15473133930962
 21
-25.11746179794727
 31
0.0
  0
LINE
  5
AD1
330
A95
100
AcDbEntity
  8
247
100
AcDbLine
 10
12.24159947790784
 20
-26.15147936402411
 30
0.0
 11
10.5314935160112
 21
-24.44137340212751
 31
0.0
  0
LINE
  5
AD2
330
A95
100
AcDbEntity
  8
247
100
AcDbLine
 10
10.98254554132898
 20
-25.79045103955218
 30
0.0
 11
9.567765893925326
 21
-24.37567139214843
 31
0.0
  0
LINE
  5
AD3
330
A95
100
AcDbEntity
  8
247
100
AcDbLine
 10
12.60571843791211
 20
-26.25588891648226
 30
0.0
 11
12.60571843791211
 21
-24.57864282273226
 31
0.0
  0
ARC
  5
AD4
102
{ACAD_REACTORS
330
AEB
102
}
330
A95
100
AcDbEntity
  8
247
100
AcDbCircle
 10
11.29216510462964
 20
-20.35018823288851
 30
0.0
 40
1.313568115234375
100
AcDbArc
 50
253.9997507017277
 51
34.96387329163082
  0
HATCH
  5
AD5
330
A95
100
AcDbEntity
  8
247
100
AcDbHatch
 10
0.0
 20
0.0
 30
0.0
210
0.0
220
0.0
230
1.0
  2
ANSI31
 70
     0
 71
     0
 91
        1
 92
        7
 72
     0
 73
     1
 93
        6
 10
8.968175236465611
 20
-21.40768335007601
 10
8.968175236465555
 20
-22.45883081101351
 10
9.412755314590611
 20
-22.5863179936307
 10
9.412755314590583
 20
-22.43914697312288
 10
12.60571843791214
 20
-23.35472009324007
 10
12.60571843791214
 20
-22.45072839402132
 97
        0
 75
     0
 76
     1
 52
90.0
 41
0.1
 77
     0
 78
     1
 53
135.0
 43
28.96197063136304
 44
-148.3898599400418
 45
-0.2245064030267288
 46
-0.2245064030267288
 79
     0
 47
0.0134348504236232
 98
        1
 10
10.69169962313054
 20
-22.35266561501487
  0
LINE
  5
AD6
330
A95
100
AcDbEntity
  8
247
100
AcDbLine
 10
12.60571843791211
 20
-23.35472009324007
 30
0.0
 11
9.412755314590583
 21
-22.43914697312288
 31
0.0
  0
POLYLINE
  5
AD7
330
A95
100
AcDbEntity
  8
247
100
AcDb2dPolyline
 66
     1
 10
0.0
 20
0.0
 30
0.0
 70
     1
  0
VERTEX
  5
AD8
330
AD7
100
AcDbEntity
  8
247
  6
CONTINUOUS
100
AcDbVertex
100
AcDb2dVertex
 10
8.968175236465583
 20
-22.45883081101351
 30
0.0
  0
VERTEX
  5
AD9
330
AD7
100
AcDbEntity
  8
247
  6
CONTINUOUS
100
AcDbVertex
100
AcDb2dVertex
 10
9.412755314590583
 20
-22.5863179936307
 30
0.0
  0
VERTEX
  5
ADA
330
AD7
100
AcDbEntity
  8
247
  6
CONTINUOUS
100
AcDbVertex
100
AcDb2dVertex
 10
9.412755314590583
 20
-22.43914697312288
 30
0.0
  0
VERTEX
  5
ADB
330
AD7
100
AcDbEntity
  8
247
  6
CONTINUOUS
100
AcDbVertex
100
AcDb2dVertex
 10
12.60571843791211
 20
-23.35472009324007
 30
0.0
  0
VERTEX
  5
ADC
330
AD7
100
AcDbEntity
  8
247
  6
CONTINUOUS
100
AcDbVertex
100
AcDb2dVertex
 10
12.60571843791211
 20
-22.45072839402132
 30
0.0
  0
VERTEX
  5
ADD
330
AD7
100
AcDbEntity
  8
247
  6
CONTINUOUS
100
AcDbVertex
100
AcDb2dVertex
 10
8.968175236465583
 20
-21.40768335007601
 30
0.0
  0
SEQEND
  5
ADE
330
AD7
100
AcDbEntity
  8
247
  6
CONTINUOUS
  0
POLYLINE
  5
ADF
330
A95
100
AcDbEntity
  8
247
100
AcDb2dPolyline
 66
     1
 10
0.0
 20
0.0
 30
0.0
 70
     1
1001
HATCH_DISTANCE
1040
1.0
1001
HATCH_DISPLAY
1070
     0
1001
HATCH_TYPE
1070
     7
  0
VERTEX
  5
AE0
330
ADF
100
AcDbEntity
  8
247
  6
CONTINUOUS
100
AcDbVertex
100
AcDb2dVertex
 10
8.968175236465583
 20
-22.45883081101351
 30
0.0
  0
VERTEX
  5
AE1
330
ADF
100
AcDbEntity
  8
247
  6
CONTINUOUS
100
AcDbVertex
100
AcDb2dVertex
 10
9.412755314590583
 20
-22.5863179936307
 30
0.0
  0
VERTEX
  5
AE2
330
ADF
100
AcDbEntity
  8
247
  6
CONTINUOUS
100
AcDbVertex
100
AcDb2dVertex
 10
9.412755314590583
 20
-22.43914697312288
 30
0.0
  0
VERTEX
  5
AE3
330
ADF
100
AcDbEntity
  8
247
  6
CONTINUOUS
100
AcDbVertex
100
AcDb2dVertex
 10
12.60571843791211
 20
-23.35472009324007
 30
0.0
  0
VERTEX
  5
AE4
330
ADF
100
AcDbEntity
  8
247
  6
CONTINUOUS
100
AcDbVertex
100
AcDb2dVertex
 10
12.60571843791211
 20
-22.45072839402132
 30
0.0
  0
VERTEX
  5
AE5
330
ADF
100
AcDbEntity
  8
247
  6
CONTINUOUS
100
AcDbVertex
100
AcDb2dVertex
 10
8.968175236465583
 20
-21.40768335007601
 30
0.0
  0
SEQEND
  5
AE6
330
ADF
100
AcDbEntity
  8
247
  6
CONTINUOUS
  0
LINE
  5
AE7
330
A95
100
AcDbEntity
  8
247
100
AcDbLine
 10
12.60571843791211
 20
-22.45072839402132
 30
0.0
 11
8.968175236465583
 21
-21.40768335007601
 31
0.0
  0
LINE
  5
AE8
102
{ACAD_REACTORS
330
AEB
102
}
330
A95
100
AcDbEntity
  8
247
100
AcDbLine
 10
12.60571843791211
 20
-19.36035058640413
 30
0.0
 11
10.54443866419995
 21
-18.76928613327919
 31
0.0
  0
ARC
  5
AE9
102
{ACAD_REACTORS
330
ABF
102
}
330
A95
100
AcDbEntity
  8
247
100
AcDbCircle
 10
11.09007770228589
 20
-18.26327417038856
 30
0.0
 40
2.121902465820312
100
AcDbArc
 50
0.0
 51
194.7707939660941
  0
ARC
  5
AEA
102
{ACAD_REACTORS
330
ABF
102
}
330
A95
100
AcDbEntity
  8
247
100
AcDbCircle
 10
11.09007770228589
 20
-18.26327417038856
 30
0.0
 40
1.717727661132812
100
AcDbArc
 50
0.0
 51
194.1274364964119
  0
HATCH
  5
AEB
330
A95
100
AcDbEntity
  8
247
100
AcDbHatch
 10
0.0
 20
0.0
 30
0.0
210
0.0
220
0.0
230
1.0
  2
ANSI31
 70
     0
 71
     1
 91
        1
 92
       33
 93
       15
 72
     1
 10
9.485066715957771
 20
-18.87527368210726
 11
9.099065129043708
 21
-18.99699304245882
 72
     2
 10
11.09007770228589
 20
-18.26327417038856
 40
1.717732429504394
 50
200.8721834020736
 51
222.5419489373881
 73
     1
 72
     2
 10
9.837148014785896
 20
-19.84887597702913
 40
0.4243833422660828
 50
91.71012138206434
 51
253.9983983544486
 73
     1
 72
     1
 10
11.61977130580152
 20
-20.80152795456819
 11
9.720158879043708
 21
-20.25681970261507
 72
     2
 10
11.73674518275464
 20
-20.39358422898226
 40
0.4243830442428589
 50
254.0002730571842
 51
434.0002730571843
 73
     1
 72
     1
 10
11.85371905970777
 20
-19.98564050339632
 11
10.94861346888745
 21
-19.72610376023226
 72
     1
 10
10.94861346888745
 20
-20.06246850632601
 11
10.94861346888745
 21
-19.72610376023226
 72
     1
 10
10.94861346888745
 20
-20.06246850632601
 11
10.54443866419995
 21
-19.94657800339632
 72
     1
 10
10.54443866419995
 20
-19.94657800339632
 11
10.54443866419995
 21
-18.76928613327919
 72
     1
 10
12.60571843791211
 20
-19.36035058640413
 11
10.54443866419995
 21
-18.76928613327919
 72
     1
 10
12.36864263224805
 20
-19.59744165085726
 11
12.60571843791211
 21
-19.36035058640413
 72
     2
 10
11.29216510462964
 20
-20.35018823288851
 40
1.313568115234375
 50
253.9997507017277
 51
394.9638732916308
 73
     1
 72
     2
 10
11.36122638392652
 20
-18.20257470749794
 40
3.43743896484375
 50
245.2051773698423
 51
262.7948259620506
 73
     1
 72
     2
 10
10.28172809291089
 20
-20.06045434616976
 40
1.313554763793945
 50
143.4440121970578
 51
254.0001843876854
 73
     1
 72
     2
 10
11.09007770228589
 20
-18.26327417038856
 40
2.121903419494628
 50
200.2296450633201
 51
208.5716889237166
 73
     1
 97
       15
330
AEC
330
AF2
330
AED
330
B14
330
B13
330
B10
330
B11
330
B12
330
B16
330
AE8
330
B17
330
AD4
330
B15
330
AEE
330
B0F
 75
     0
 76
     1
 52
90.0
 41
0.1
 77
     0
 78
     1
 53
135.0
 43
28.96197063136304
 44
-148.3898599400418
 45
-0.2245064030267288
 46
-0.2245064030267288
 79
     0
 98
        1
 10
28.96197063136304
 20
-148.3898599400418
  0
LINE
  5
AEC
102
{ACAD_REACTORS
330
AEB
102
}
330
A95
100
AcDbEntity
  8
247
100
AcDbLine
 10
9.485066715957771
 20
-18.87527368210726
 30
0.0
 11
9.099065129043708
 21
-18.99699304245882
 31
0.0
  0
ARC
  5
AED
102
{ACAD_REACTORS
330
AEB
102
}
330
A95
100
AcDbEntity
  8
247
100
AcDbCircle
 10
9.837148014785896
 20
-19.84887597702913
 30
0.0
 40
0.4243833422660828
100
AcDbArc
 50
91.71012138206434
 51
253.9983983544486
  0
ARC
  5
AEE
102
{ACAD_REACTORS
330
AEB
102
}
330
A95
100
AcDbEntity
  8
247
100
AcDbCircle
 10
10.28172809291089
 20
-20.06045434616976
 30
0.0
 40
1.313554763793945
100
AcDbArc
 50
143.4440121970578
 51
254.0001843876854
  0
LINE
  5
AEF
330
A95
100
AcDbEntity
  8
247
100
AcDbLine
 10
9.665587270221294
 20
-24.02447996239095
 30
0.0
 11
9.161611158830567
 21
-23.52050385100028
 31
0.0
  0
LINE
  5
AF0
330
A95
100
AcDbEntity
  8
247
100
AcDbLine
 10
10.0627963416407
 20
-23.972676227757
 30
0.0
 11
9.386448824886031
 21
-23.29632871100227
 31
0.0
  0
ARC
  5
AF1
330
A95
100
AcDbEntity
  8
247
100
AcDbCircle
 10
9.978596989395271
 20
-24.11506555222445
 30
0.0
 40
1.010430335998535
100
AcDbArc
 50
17.66957754739792
 51
180.2361598426716
  0
ARC
  5
AF2
102
{ACAD_REACTORS
330
AEB
102
}
330
A95
100
AcDbEntity
  8
247
100
AcDbCircle
 10
11.09007770228589
 20
-18.26327417038856
 30
0.0
 40
1.717732429504394
100
AcDbArc
 50
200.8721834020736
 51
222.5419489373881
  0
LINE
  5
AF3
102
{ACAD_REACTORS
330
ABF
102
}
330
A95
100
AcDbEntity
  8
247
100
AcDbLine
 10
9.424290959121833
 20
-18.68253991745888
 30
0.0
 11
9.038289372207771
 21
-18.80425927781038
 31
0.0
  0
POLYLINE
  5
AF4
330
A95
100
AcDbEntity
  8
247
100
AcDb2dPolyline
 66
     1
 10
0.0
 20
0.0
 30
0.0
 70
     1
  0
VERTEX
  5
AF5
330
AF4
100
AcDbEntity
  8
247
  6
CONTINUOUS
100
AcDbVertex
100
AcDb2dVertex
 10
9.424290959121833
 20
-18.68253991745888
 30
0.0
  0
VERTEX
  5
AF6
330
AF4
100
AcDbEntity
  8
247
  6
CONTINUOUS
100
AcDbVertex
100
AcDb2dVertex
 10
9.038289372207771
 20
-18.80425927781038
 30
0.0
  0
VERTEX
  5
AF7
330
AF4
100
AcDbEntity
  8
247
  6
CONTINUOUS
100
AcDbVertex
100
AcDb2dVertex
 10
9.038289372207771
 20
-18.80425927781038
 30
0.0
  0
VERTEX
  5
AF8
330
AF4
100
AcDbEntity
  8
247
  6
CONTINUOUS
100
AcDbVertex
100
AcDb2dVertex
 10
9.424290959121833
 20
-18.68253991745888
 30
0.0
  0
SEQEND
  5
AF9
330
AF4
100
AcDbEntity
  8
247
  6
CONTINUOUS
  0
POLYLINE
  5
AFA
330
A95
100
AcDbEntity
  8
247
100
AcDb2dPolyline
 66
     1
 10
0.0
 20
0.0
 30
0.0
 70
     1
1001
HATCH_DISTANCE
1040
1.0
1001
HATCH_DISPLAY
1070
     0
1001
HATCH_TYPE
1070
     7
  0
VERTEX
  5
AFB
330
AFA
100
AcDbEntity
  8
247
  6
CONTINUOUS
100
AcDbVertex
100
AcDb2dVertex
 10
9.424290959121833
 20
-18.68253991745888
 30
0.0
  0
VERTEX
  5
AFC
330
AFA
100
AcDbEntity
  8
247
  6
CONTINUOUS
100
AcDbVertex
100
AcDb2dVertex
 10
9.038289372207771
 20
-18.80425927781038
 30
0.0
  0
VERTEX
  5
AFD
330
AFA
100
AcDbEntity
  8
247
  6
CONTINUOUS
100
AcDbVertex
100
AcDb2dVertex
 10
9.038289372207771
 20
-18.80425927781038
 30
0.0
  0
VERTEX
  5
AFE
330
AFA
100
AcDbEntity
  8
247
  6
CONTINUOUS
100
AcDbVertex
100
AcDb2dVertex
 10
9.424290959121833
 20
-18.68253991745888
 30
0.0
  0
SEQEND
  5
AFF
330
AFA
100
AcDbEntity
  8
247
  6
CONTINUOUS
  0
POLYLINE
  5
B00
330
A95
100
AcDbEntity
  8
247
100
AcDb2dPolyline
 66
     1
 10
0.0
 20
0.0
 30
0.0
 70
     1
  0
VERTEX
  5
B01
330
B00
100
AcDbEntity
  8
247
  6
CONTINUOUS
100
AcDbVertex
100
AcDb2dVertex
 10
9.424290959121833
 20
-18.68253991745888
 30
0.0
  0
VERTEX
  5
B02
330
B00
100
AcDbEntity
  8
247
  6
CONTINUOUS
100
AcDbVertex
100
AcDb2dVertex
 10
9.038289372207771
 20
-18.80425927781038
 30
0.0
  0
VERTEX
  5
B03
330
B00
100
AcDbEntity
  8
247
  6
CONTINUOUS
100
AcDbVertex
100
AcDb2dVertex
 10
9.038289372207771
 20
-18.80425927781038
 30
0.0
  0
VERTEX
  5
B04
330
B00
100
AcDbEntity
  8
247
  6
CONTINUOUS
100
AcDbVertex
100
AcDb2dVertex
 10
9.424290959121833
 20
-18.68253991745888
 30
0.0
  0
SEQEND
  5
B05
330
B00
100
AcDbEntity
  8
247
  6
CONTINUOUS
  0
POLYLINE
  5
B06
330
A95
100
AcDbEntity
  8
247
100
AcDb2dPolyline
 66
     1
 10
0.0
 20
0.0
 30
0.0
 70
     1
1001
HATCH_DISTANCE
1040
1.0
1001
HATCH_DISPLAY
1070
     0
1001
HATCH_TYPE
1070
     7
  0
VERTEX
  5
B07
330
B06
100
AcDbEntity
  8
247
  6
CONTINUOUS
100
AcDbVertex
100
AcDb2dVertex
 10
9.424290959121833
 20
-18.68253991745888
 30
0.0
  0
VERTEX
  5
B08
330
B06
100
AcDbEntity
  8
247
  6
CONTINUOUS
100
AcDbVertex
100
AcDb2dVertex
 10
9.038289372207771
 20
-18.80425927781038
 30
0.0
  0
VERTEX
  5
B09
330
B06
100
AcDbEntity
  8
247
  6
CONTINUOUS
100
AcDbVertex
100
AcDb2dVertex
 10
9.038289372207771
 20
-18.80425927781038
 30
0.0
  0
VERTEX
  5
B0A
330
B06
100
AcDbEntity
  8
247
  6
CONTINUOUS
100
AcDbVertex
100
AcDb2dVertex
 10
9.424290959121833
 20
-18.68253991745888
 30
0.0
  0
SEQEND
  5
B0B
330
B06
100
AcDbEntity
  8
247
  6
CONTINUOUS
  0
LINE
  5
B0C
330
A95
100
AcDbEntity
  8
247
100
AcDbLine
 10
8.968175236465583
 20
-22.45883081101351
 30
0.0
 11
8.968175236465583
 21
-21.40768335007601
 31
0.0
  0
LINE
  5
B0D
330
A95
100
AcDbEntity
  8
247
100
AcDbLine
 10
9.412755314590583
 20
-22.5863179936307
 30
0.0
 11
8.968175236465583
 21
-22.45883081101351
 31
0.0
  0
LINE
  5
B0E
330
A95
100
AcDbEntity
  8
247
100
AcDbLine
 10
9.412755314590583
 20
-22.5863179936307
 30
0.0
 11
9.412755314590583
 21
-22.43914697312288
 31
0.0
  0
ARC
  5
B0F
102
{ACAD_REACTORS
330
AEB
102
}
330
A95
100
AcDbEntity
  8
247
100
AcDbCircle
 10
11.09007770228589
 20
-18.26327417038856
 30
0.0
 40
2.121903419494628
100
AcDbArc
 50
200.2296450633201
 51
208.5716889237166
  0
LINE
  5
B10
102
{ACAD_REACTORS
330
AEB
102
}
330
A95
100
AcDbEntity
  8
247
100
AcDbLine
 10
11.85371905970777
 20
-19.98564050339632
 30
0.0
 11
10.94861346888745
 21
-19.72610376023226
 31
0.0
  0
LINE
  5
B11
102
{ACAD_REACTORS
330
AEB
102
}
330
A95
100
AcDbEntity
  8
247
100
AcDbLine
 10
10.94861346888745
 20
-20.06246850632601
 30
0.0
 11
10.94861346888745
 21
-19.72610376023226
 31
0.0
  0
LINE
  5
B12
102
{ACAD_REACTORS
330
AEB
102
}
330
A95
100
AcDbEntity
  8
247
100
AcDbLine
 10
10.94861346888745
 20
-20.06246850632601
 30
0.0
 11
10.54443866419995
 21
-19.94657800339632
 31
0.0
  0
ARC
  5
B13
102
{ACAD_REACTORS
330
AEB
102
}
330
A95
100
AcDbEntity
  8
247
100
AcDbCircle
 10
11.73674518275464
 20
-20.39358422898226
 30
0.0
 40
0.4243830442428589
100
AcDbArc
 50
254.0002730571842
 51
74.00027305718428
  0
LINE
  5
B14
102
{ACAD_REACTORS
330
AEB
102
}
330
A95
100
AcDbEntity
  8
247
100
AcDbLine
 10
11.61977130580152
 20
-20.80152795456819
 30
0.0
 11
9.720158879043708
 21
-20.25681970261507
 31
0.0
  0
ARC
  5
B15
102
{ACAD_REACTORS
330
AEB
102
}
330
A95
100
AcDbEntity
  8
247
100
AcDbCircle
 10
11.36122638392652
 20
-18.20257470749794
 30
0.0
 40
3.43743896484375
100
AcDbArc
 50
245.2051773698423
 51
262.7948259620506
  0
LINE
  5
B16
102
{ACAD_REACTORS
330
AEB
102
}
330
A95
100
AcDbEntity
  8
247
100
AcDbLine
 10
10.54443866419995
 20
-19.94657800339632
 30
0.0
 11
10.54443866419995
 21
-18.76928613327919
 31
0.0
  0
LINE
  5
B17
102
{ACAD_REACTORS
330
AEB
102
}
330
A95
100
AcDbEntity
  8
247
100
AcDbLine
 10
12.36864263224805
 20
-19.59744165085726
 30
0.0
 11
12.60571843791211
 21
-19.36035058640413
 31
0.0
  0
LINE
  5
B18
330
A95
100
AcDbEntity
  8
247
100
AcDbLine
 10
12.60571843791211
 20
-23.35472009324007
 30
0.0
 11
12.60571843791211
 21
-22.45072839402132
 31
0.0
  0
LINE
  5
B19
330
A95
100
AcDbEntity
  8
240
100
AcDbLine
 10
19.94352447854345
 20
42.64999999999941
 30
0.0
 11
15.69999999999964
 21
49.99999999999943
 31
0.0
  0
LINE
  5
B1A
330
A95
100
AcDbEntity
  8
243
100
AcDbLine
 10
33.99999999999994
 20
35.2999999999999
 30
0.0
 11
2.999999999999943
 21
35.2999999999999
 31
0.0
  0
LINE
  5
B1B
330
A95
100
AcDbEntity
  8
240
100
AcDbLine
 10
2.999999999999772
 20
48.69999999999976
 30
0.0
 11
2.999999999999772
 21
34.92500000000035
 31
0.0
  0
LINE
  5
B1C
330
A95
100
AcDbEntity
  8
240
100
AcDbLine
 10
0.0
 20
34.92500000000041
 30
0.0
 11
2.999999999999602
 21
34.92500000000046
 31
0.0
  0
LINE
  5
B1D
330
A95
100
AcDbEntity
  8
240
100
AcDbLine
 10
15.69999999999964
 20
49.99999999999943
 30
0.0
 11
4.299999999999613
 21
49.99999999999943
 31
0.0
  0
ARC
  5
B1E
330
A95
100
AcDbEntity
  8
240
100
AcDbCircle
 10
4.300000000000011
 20
48.70000000000039
 30
0.0
 40
1.300000000000011
100
AcDbArc
 50
90.0
 51
180.0
  0
LINE
  5
B1F
330
A95
100
AcDbEntity
  8
240
100
AcDbLine
 10
26.45647552145595
 20
42.64999999999946
 30
0.0
 11
30.69999999999959
 21
49.99999999999949
 31
0.0
  0
LINE
  5
B20
330
A95
100
AcDbEntity
  8
243
100
AcDbLine
 10
33.99999999999994
 20
35.2999999999999
 30
0.0
 11
34.0
 21
49.99999999999949
 31
0.0
  0
LINE
  5
B21
330
A95
100
AcDbEntity
  8
240
100
AcDbLine
 10
38.00000000000017
 20
48.7000000000001
 30
0.0
 11
38.00000000000008
 21
24.75
 31
0.0
  0
LINE
  5
B22
330
A95
100
AcDbEntity
  8
240
100
AcDbLine
 10
26.19666790032062
 20
42.49999999999943
 30
0.0
 11
20.20333209967879
 21
42.49999999999943
 31
0.0
  0
ARC
  5
B23
330
A95
100
AcDbEntity
  8
240
100
AcDbCircle
 10
20.20333209967873
 20
42.79999999999944
 30
0.0
 40
0.2999999999999727
100
AcDbArc
 50
210.000000000011
 51
270.0000000000114
  0
ARC
  5
B24
330
A95
100
AcDbEntity
  8
240
100
AcDbCircle
 10
26.19666790032056
 20
42.79999999999944
 30
0.0
 40
0.3000000000000114
100
AcDbArc
 50
270.0000000000114
 51
330.0000000000075
  0
LINE
  5
B25
330
A95
100
AcDbEntity
  8
240
100
AcDbLine
 10
30.69999999999959
 20
49.99999999999949
 30
0.0
 11
36.69999999999964
 21
49.99999999999954
 31
0.0
  0
ARC
  5
B26
330
A95
100
AcDbEntity
  8
240
100
AcDbCircle
 10
36.69999999999999
 20
48.69999999999987
 30
0.0
 40
1.300000000000011
100
AcDbArc
 50
0.0
 51
90.0
  0
LINE
  5
B27
330
A95
100
AcDbEntity
  8
240
100
AcDbLine
 10
81.39999999999998
 20
10.0
 30
0.0
 11
89.05147186257613
 21
10.0
 31
0.0
  0
LINE
  5
B28
330
A95
100
AcDbEntity
  8
246
100
AcDbLine
 10
87.39999999999998
 20
4.100000000000022
 30
0.0
 11
88.70000000000004
 21
4.100000000000022
 31
0.0
  0
LINE
  5
B29
330
A95
100
AcDbEntity
  8
246
100
AcDbLine
 10
87.39999999999998
 20
-4.100000000000022
 30
0.0
 11
88.70000000000004
 21
-4.100000000000022
 31
0.0
  0
LINE
  5
B2A
330
A95
100
AcDbEntity
  8
240
100
AcDbLine
 10
81.39999999999998
 20
-10.0
 30
0.0
 11
89.05147186257613
 21
-10.0
 31
0.0
  0
LINE
  5
B2B
330
A95
100
AcDbEntity
  8
246
100
AcDbLine
 10
76.0
 20
-3.0
 30
0.0
 11
90.00000000000005
 21
-3.0
 31
0.0
  0
LINE
  5
B2C
330
A95
100
AcDbEntity
  8
246
100
AcDbLine
 10
76.0
 20
3.0
 30
0.0
 11
90.00000000000005
 21
3.0
 31
0.0
  0
LINE
  5
B2D
330
A95
100
AcDbEntity
  8
240
100
AcDbLine
 10
75.0
 20
9.75
 30
0.0
 11
53.00000000000008
 21
9.75
 31
0.0
  0
LINE
  5
B2E
330
A95
100
AcDbEntity
  8
240
100
AcDbLine
 10
75.0
 20
-9.75
 30
0.0
 11
53.00000000000003
 21
-9.750000000000056
 31
0.0
  0
LINE
  5
B2F
330
A95
100
AcDbEntity
  8
246
100
AcDbLine
 10
55.5
 20
1.5
 30
0.0
 11
48.0
 21
1.5
 31
0.0
  0
LINE
  5
B30
330
A95
100
AcDbEntity
  8
246
100
AcDbLine
 10
55.5
 20
-1.5
 30
0.0
 11
48.0
 21
-1.5
 31
0.0
  0
LINE
  5
B31
330
A95
100
AcDbEntity
  8
246
100
AcDbLine
 10
50.60000000000002
 20
-3.5
 30
0.0
 11
59.5
 21
-3.5
 31
0.0
  0
LINE
  5
B32
330
A95
100
AcDbEntity
  8
246
100
AcDbLine
 10
50.25000000000005
 20
-3.150000000000034
 30
0.0
 11
59.85000000000002
 21
-3.150000000000034
 31
0.0
  0
LINE
  5
B33
330
A95
100
AcDbEntity
  8
246
100
AcDbLine
 10
50.60000000000002
 20
3.5
 30
0.0
 11
59.5
 21
3.5
 31
0.0
  0
LINE
  5
B34
330
A95
100
AcDbEntity
  8
246
100
AcDbLine
 10
50.25
 20
3.149999999999977
 30
0.0
 11
59.85000000000002
 21
3.149999999999977
 31
0.0
  0
ARC
  5
B35
330
A95
100
AcDbEntity
  8
246
100
AcDbCircle
 10
49.0
 20
-1.899999999999977
 30
0.0
 40
1.0
100
AcDbArc
 50
180.0
 51
270.0
  0
LINE
  5
B36
330
A95
100
AcDbEntity
  8
246
100
AcDbLine
 10
50.00000000000006
 20
-2.899999999999977
 30
0.0
 11
50.60000000000002
 21
-3.5
 31
0.0
  0
LINE
  5
B37
330
A95
100
AcDbEntity
  8
246
100
AcDbLine
 10
49.0
 20
-2.899999999999977
 30
0.0
 11
50.00000000000006
 21
-2.899999999999977
 31
0.0
  0
LINE
  5
B38
330
A95
100
AcDbEntity
  8
246
100
AcDbLine
 10
50.00000000000006
 20
2.899999999999977
 30
0.0
 11
50.60000000000002
 21
3.5
 31
0.0
  0
LINE
  5
B39
330
A95
100
AcDbEntity
  8
246
100
AcDbLine
 10
48.0
 20
-1.899999999999977
 30
0.0
 11
48.0
 21
1.899999999999977
 31
0.0
  0
LINE
  5
B3A
330
A95
100
AcDbEntity
  8
246
100
AcDbLine
 10
48.0
 20
-1.900000000000034
 30
0.0
 11
48.0
 21
-1.850000000000022
 31
0.0
  0
ARC
  5
B3B
330
A95
100
AcDbEntity
  8
246
100
AcDbCircle
 10
49.0
 20
1.899999999999977
 30
0.0
 40
1.0
100
AcDbArc
 50
90.0
 51
180.0
  0
LINE
  5
B3C
330
A95
100
AcDbEntity
  8
246
100
AcDbLine
 10
48.0
 20
1.899999999999977
 30
0.0
 11
48.0
 21
1.849999999999965
 31
0.0
  0
LINE
  5
B3D
330
A95
100
AcDbEntity
  8
246
100
AcDbLine
 10
49.0
 20
2.899999999999977
 30
0.0
 11
50.00000000000006
 21
2.899999999999977
 31
0.0
  0
LINE
  5
B3E
330
A95
100
AcDbEntity
  8
246
100
AcDbLine
 10
60.0
 20
2.75
 30
0.0
 11
58.40470053837925
 21
1.154700538379245
 31
0.0
  0
LINE
  5
B3F
330
A95
100
AcDbEntity
  8
246
100
AcDbLine
 10
60.0
 20
-2.75
 30
0.0
 11
58.40470053837925
 21
-1.154700538379302
 31
0.0
  0
LINE
  5
B40
330
A95
100
AcDbEntity
  8
246
100
AcDbLine
 10
58.40470053837925
 20
0.5773502691896511
 30
0.0
 11
55.69935873711784
 21
0.5773502691896511
 31
0.0
  0
LINE
  5
B41
330
A95
100
AcDbEntity
  8
246
100
AcDbLine
 10
58.40470053837925
 20
1.154700538379245
 30
0.0
 11
55.69935873711784
 21
1.154700538379245
 31
0.0
  0
LINE
  5
B42
330
A95
100
AcDbEntity
  8
246
100
AcDbLine
 10
58.40470053837925
 20
-0.5773502691896511
 30
0.0
 11
55.69935873711784
 21
-0.5773502691896511
 31
0.0
  0
LINE
  5
B43
330
A95
100
AcDbEntity
  8
246
100
AcDbLine
 10
58.40470053837925
 20
-1.154700538379302
 30
0.0
 11
55.69935873711784
 21
-1.154700538379302
 31
0.0
  0
LINE
  5
B44
330
A95
100
AcDbEntity
  8
246
100
AcDbLine
 10
55.50000000000011
 20
1.5
 30
0.0
 11
55.69935873711784
 21
1.154700538379245
 31
0.0
  0
LINE
  5
B45
330
A95
100
AcDbEntity
  8
246
100
AcDbLine
 10
55.5
 20
1.5
 30
0.0
 11
55.5
 21
0.8239997558519007
 31
0.0
  0
LINE
  5
B46
330
A95
100
AcDbEntity
  8
246
100
AcDbLine
 10
55.50000000000011
 20
-1.5
 30
0.0
 11
55.69935873711784
 21
-1.154700538379302
 31
0.0
  0
LINE
  5
B47
330
A95
100
AcDbEntity
  8
246
100
AcDbLine
 10
55.5
 20
-1.5
 30
0.0
 11
55.5
 21
-0.8514664143803543
 31
0.0
  0
LINE
  5
B48
330
A95
100
AcDbEntity
  8
246
100
AcDbLine
 10
55.69935873711784
 20
-1.154700538379302
 30
0.0
 11
55.6993587371179
 21
1.154700538379245
 31
0.0
  0
LINE
  5
B49
330
A95
100
AcDbEntity
  8
246
100
AcDbLine
 10
58.40470053837925
 20
-1.154700538379302
 30
0.0
 11
58.40470053837925
 21
1.154700538379245
 31
0.0
  0
LINE
  5
B4A
330
A95
100
AcDbEntity
  8
246
100
AcDbLine
 10
60.0
 20
-3.0
 30
0.0
 11
60.0
 21
3.0
 31
0.0
  0
LINE
  5
B4B
330
A95
100
AcDbEntity
  8
246
100
AcDbLine
 10
60.0
 20
-3.0
 30
0.0
 11
59.5
 21
-3.5
 31
0.0
  0
LINE
  5
B4C
330
A95
100
AcDbEntity
  8
246
100
AcDbLine
 10
59.5
 20
3.5
 30
0.0
 11
60.0
 21
3.0
 31
0.0
  0
ARC
  5
B4D
330
A95
100
AcDbEntity
  8
240
100
AcDbCircle
 10
75.0
 20
-8.75
 30
0.0
 40
1.000000000000014
100
AcDbArc
 50
270.0
 51
0.0
  0
ARC
  5
B4E
330
A95
100
AcDbEntity
  8
240
100
AcDbCircle
 10
81.39999999999998
 20
-9.399999999999977
 30
0.0
 40
0.5999999999999944
100
AcDbArc
 50
180.0
 51
270.0
  0
ARC
  5
B4F
330
A95
100
AcDbEntity
  8
240
100
AcDbCircle
 10
77.0
 20
7.0
 30
0.0
 40
0.9999999999999715
100
AcDbArc
 50
180.0
 51
270.0
  0
ARC
  5
B50
330
A95
100
AcDbEntity
  8
240
100
AcDbCircle
 10
75.0
 20
8.75
 30
0.0
 40
1.000000000000028
100
AcDbArc
 50
0.0
 51
90.0
  0
ARC
  5
B51
330
A95
100
AcDbEntity
  8
240
100
AcDbCircle
 10
77.0
 20
-7.0
 30
0.0
 40
1.000000000000014
100
AcDbArc
 50
90.0
 51
180.0
  0
LINE
  5
B52
330
A95
100
AcDbEntity
  8
246
100
AcDbLine
 10
87.39999999999998
 20
-4.75
 30
0.0
 11
75.99999999999994
 21
-3.551811717971418
 31
0.0
  0
LINE
  5
B53
330
A95
100
AcDbEntity
  8
246
100
AcDbLine
 10
87.39999999999998
 20
4.75
 30
0.0
 11
75.99999999999988
 21
3.551811717971304
 31
0.0
  0
LINE
  5
B54
330
A95
100
AcDbEntity
  8
241
100
AcDbLine
 10
76.00000000000005
 20
7.0
 30
0.0
 11
76.0
 21
0.0
 31
0.0
  0
LINE
  5
B55
330
A95
100
AcDbEntity
  8
241
100
AcDbLine
 10
76.00000000000005
 20
-7.0
 30
0.0
 11
76.0
 21
0.0
 31
0.0
  0
LINE
  5
B56
330
A95
100
AcDbEntity
  8
240
100
AcDbLine
 10
76.00000000000005
 20
-8.75
 30
0.0
 11
76.00000000000005
 21
-7.0
 31
0.0
  0
LINE
  5
B57
330
A95
100
AcDbEntity
  8
240
100
AcDbLine
 10
76.00000000000005
 20
8.75
 30
0.0
 11
76.00000000000005
 21
7.0
 31
0.0
  0
LINE
  5
B58
330
A95
100
AcDbEntity
  8
246
100
AcDbLine
 10
87.39999999999998
 20
4.100000000000022
 30
0.0
 11
87.39999999999998
 21
4.75
 31
0.0
  0
LINE
  5
B59
330
A95
100
AcDbEntity
  8
241
100
AcDbLine
 10
78.00000000000006
 20
5.5
 30
0.0
 11
78.00000000000006
 21
0.0
 31
0.0
  0
LINE
  5
B5A
330
A95
100
AcDbEntity
  8
241
100
AcDbLine
 10
80.5
 20
6.0
 30
0.0
 11
80.5
 21
0.0
 31
0.0
  0
LINE
  5
B5B
330
A95
100
AcDbEntity
  8
241
100
AcDbLine
 10
80.80000000000001
 20
7.550000000000011
 30
0.0
 11
80.80000000000001
 21
0.0
 31
0.0
  0
LINE
  5
B5C
330
A95
100
AcDbEntity
  8
241
100
AcDbLine
 10
86.5
 20
-7.967329428042262
 30
0.0
 11
80.80000000000001
 21
-7.967329428042262
 31
0.0
  0
LINE
  5
B5D
330
A95
100
AcDbEntity
  8
241
100
AcDbLine
 10
86.5
 20
-9.217329428042262
 30
0.0
 11
80.80000000000001
 21
-9.217329428042262
 31
0.0
  0
LINE
  5
B5E
330
A95
100
AcDbEntity
  8
241
100
AcDbLine
 10
86.5
 20
1.25
 30
0.0
 11
80.80000000000001
 21
1.25
 31
0.0
  0
LINE
  5
B5F
330
A95
100
AcDbEntity
  8
241
100
AcDbLine
 10
86.5
 20
-1.25
 30
0.0
 11
80.80000000000001
 21
-1.25
 31
0.0
  0
LINE
  5
B60
330
A95
100
AcDbEntity
  8
241
100
AcDbLine
 10
80.80000000000001
 20
-7.550000000000011
 30
0.0
 11
80.80000000000001
 21
0.0
 31
0.0
  0
LINE
  5
B61
330
A95
100
AcDbEntity
  8
241
100
AcDbLine
 10
78.0
 20
-5.5
 30
0.0
 11
78.0
 21
0.0
 31
0.0
  0
LINE
  5
B62
330
A95
100
AcDbEntity
  8
241
100
AcDbLine
 10
80.5
 20
-6.0
 30
0.0
 11
80.5
 21
0.0
 31
0.0
  0
LINE
  5
B63
330
A95
100
AcDbEntity
  8
242
100
AcDbLine
 10
80.5
 20
-5.5
 30
0.0
 11
78.0
 21
-5.5
 31
0.0
  0
LINE
  5
B64
330
A95
100
AcDbEntity
  8
240
100
AcDbLine
 10
77.0
 20
-6.0
 30
0.0
 11
80.5
 21
-6.0
 31
0.0
  0
LINE
  5
B65
330
A95
100
AcDbEntity
  8
242
100
AcDbLine
 10
77.5
 20
-6.0
 30
0.0
 11
78.0
 21
-5.5
 31
0.0
  0
LINE
  5
B66
330
A95
100
AcDbEntity
  8
240
100
AcDbLine
 10
80.5
 20
-7.25
 30
0.0
 11
80.5
 21
-6.0
 31
0.0
  0
LINE
  5
B67
330
A95
100
AcDbEntity
  8
240
100
AcDbLine
 10
80.5
 20
-7.25
 30
0.0
 11
80.80000000000001
 21
-7.550000000000011
 31
0.0
  0
LINE
  5
B68
330
A95
100
AcDbEntity
  8
240
100
AcDbLine
 10
80.80000000000001
 20
-9.399999999999977
 30
0.0
 11
80.80000000000001
 21
-7.550000000000011
 31
0.0
  0
LINE
  5
B69
330
A95
100
AcDbEntity
  8
246
100
AcDbLine
 10
87.39999999999998
 20
-4.100000000000022
 30
0.0
 11
87.39999999999998
 21
-4.75
 31
0.0
  0
LINE
  5
B6A
330
A95
100
AcDbEntity
  8
241
100
AcDbLine
 10
86.5
 20
-9.217329428042262
 30
0.0
 11
86.5
 21
-7.967329428042262
 31
0.0
  0
LINE
  5
B6B
330
A95
100
AcDbEntity
  8
241
100
AcDbLine
 10
86.5
 20
-1.25
 30
0.0
 11
86.5
 21
0.0
 31
0.0
  0
LINE
  5
B6C
330
A95
100
AcDbEntity
  8
241
100
AcDbLine
 10
86.5
 20
1.25
 30
0.0
 11
86.5
 21
0.0
 31
0.0
  0
LINE
  5
B6D
330
A95
100
AcDbEntity
  8
241
100
AcDbLine
 10
86.5
 20
9.217329428042205
 30
0.0
 11
80.80000000000001
 21
9.217329428042205
 31
0.0
  0
LINE
  5
B6E
330
A95
100
AcDbEntity
  8
241
100
AcDbLine
 10
86.5
 20
7.967329428042205
 30
0.0
 11
80.80000000000001
 21
7.967329428042205
 31
0.0
  0
LINE
  5
B6F
330
A95
100
AcDbEntity
  8
240
100
AcDbLine
 10
77.0
 20
6.0
 30
0.0
 11
80.5
 21
6.0
 31
0.0
  0
LINE
  5
B70
330
A95
100
AcDbEntity
  8
246
100
AcDbLine
 10
80.5
 20
5.5
 30
0.0
 11
78.00000000000006
 21
5.5
 31
0.0
  0
LINE
  5
B71
330
A95
100
AcDbEntity
  8
242
100
AcDbLine
 10
77.5
 20
6.0
 30
0.0
 11
78.00000000000006
 21
5.5
 31
0.0
  0
LINE
  5
B72
330
A95
100
AcDbEntity
  8
240
100
AcDbLine
 10
80.5
 20
7.25
 30
0.0
 11
80.5
 21
6.0
 31
0.0
  0
LINE
  5
B73
330
A95
100
AcDbEntity
  8
240
100
AcDbLine
 10
80.5
 20
7.25
 30
0.0
 11
80.80000000000001
 21
7.550000000000011
 31
0.0
  0
LINE
  5
B74
330
A95
100
AcDbEntity
  8
240
100
AcDbLine
 10
80.80000000000001
 20
9.399999999999977
 30
0.0
 11
80.80000000000001
 21
7.550000000000011
 31
0.0
  0
ARC
  5
B75
330
A95
100
AcDbEntity
  8
240
100
AcDbCircle
 10
81.39999999999998
 20
9.399999999999977
 30
0.0
 40
0.6000000000000086
100
AcDbArc
 50
90.0
 51
180.0
  0
LINE
  5
B76
330
A95
100
AcDbEntity
  8
241
100
AcDbLine
 10
86.5
 20
9.217329428042205
 30
0.0
 11
86.5
 21
7.967329428042205
 31
0.0
  0
LINE
  5
B77
330
A95
100
AcDbEntity
  8
240
100
AcDbLine
 10
89.47573593128799
 20
-9.824264068711954
 30
0.0
 11
89.85355339059328
 21
-9.446446609406734
 31
0.0
  0
ARC
  5
B78
330
A95
100
AcDbEntity
  8
240
100
AcDbCircle
 10
89.05147186257613
 20
-9.399999999999977
 30
0.0
 40
0.5999999999999944
100
AcDbArc
 50
270.0
 51
314.9999999999994
  0
LINE
  5
B79
330
A95
100
AcDbEntity
  8
241
100
AcDbLine
 10
89.05147186257613
 20
-9.649952696310322
 30
0.0
 11
89.05147186257613
 21
9.602649006622527
 31
0.0
  0
LINE
  5
B7A
330
A95
100
AcDbEntity
  8
240
100
AcDbLine
 10
90.0
 20
9.092893218813401
 30
0.0
 11
90.0
 21
0.0
 31
0.0
  0
LINE
  5
B7B
330
A95
100
AcDbEntity
  8
246
100
AcDbLine
 10
88.80000000000007
 20
4.75
 30
0.0
 11
90.00000000000005
 21
4.057179676972396
 31
0.0
  0
LINE
  5
B7C
330
A95
100
AcDbEntity
  8
246
100
AcDbLine
 10
88.70000000000004
 20
4.100000000000022
 30
0.0
 11
88.69999999999993
 21
4.75
 31
0.0
  0
LINE
  5
B7D
330
A95
100
AcDbEntity
  8
240
100
AcDbLine
 10
90.0
 20
-9.092893218813458
 30
0.0
 11
90.0
 21
0.0
 31
0.0
  0
ARC
  5
B7E
330
A95
100
AcDbEntity
  8
240
100
AcDbCircle
 10
89.50000000000001
 20
-9.092893218813458
 30
0.0
 40
0.500000000000004
100
AcDbArc
 50
315.0
 51
0.0
  0
LINE
  5
B7F
330
A95
100
AcDbEntity
  8
246
100
AcDbLine
 10
88.69999999999993
 20
-4.75
 30
0.0
 11
88.80000000000007
 21
-4.75
 31
0.0
  0
LINE
  5
B80
330
A95
100
AcDbEntity
  8
246
100
AcDbLine
 10
88.70000000000004
 20
-4.100000000000022
 30
0.0
 11
88.69999999999993
 21
-4.75
 31
0.0
  0
LINE
  5
B81
330
A95
100
AcDbEntity
  8
246
100
AcDbLine
 10
88.80000000000007
 20
-4.75
 30
0.0
 11
90.00000000000005
 21
-4.057179676972396
 31
0.0
  0
ARC
  5
B82
330
A95
100
AcDbEntity
  8
240
100
AcDbCircle
 10
89.50000000000001
 20
9.092893218813401
 30
0.0
 40
0.5
100
AcDbArc
 50
0.0
 51
45.0
  0
LINE
  5
B83
330
A95
100
AcDbEntity
  8
246
100
AcDbLine
 10
88.69999999999993
 20
4.75
 30
0.0
 11
88.80000000000007
 21
4.75
 31
0.0
  0
ARC
  5
B84
330
A95
100
AcDbEntity
  8
240
100
AcDbCircle
 10
89.05147186257613
 20
9.399999999999977
 30
0.0
 40
0.6000000000000089
100
AcDbArc
 50
45.00000000000057
 51
90.0
  0
LINE
  5
B85
330
A95
100
AcDbEntity
  8
240
100
AcDbLine
 10
89.85355339059328
 20
9.446446609406734
 30
0.0
 11
89.47573593128799
 21
9.824264068711954
 31
0.0
  0
ENDBLK
  5
B87
330
A95
100
AcDbEntity
  8
0
100
AcDbBlockEnd
  0
BLOCK
  5
E07
330
DFD
100
AcDbEntity
  8
0
100
AcDbBlockBegin
  2
*D2
 70
     1
 10
0.0
 20
0.0
 30
0.0
  3
*D2
  1

  0
LINE
  5
E47
330
DFD
100
AcDbEntity
  8
250
  6
CONTINUOUS
100
AcDbLine
 10
0.0
 20
35.42500000000041
 30
0.0
 11
0.0000000000000022
 21
71.0
 31
0.0
  0
LINE
  5
E48
330
DFD
100
AcDbEntity
  8
250
  6
CONTINUOUS
100
AcDbLine
 10
90.0
 20
9.592893218813401
 30
0.0
 11
90.0
 21
71.0
 31
0.0
  0
LINE
  5
E49
330
DFD
100
AcDbEntity
  8
250
  6
CONTINUOUS
100
AcDbLine
 10
2.230000000000002
 20
70.0
 30
0.0
 11
87.76999999999999
 21
70.0
 31
0.0
  0
INSERT
  5
E4A
330
DFD
100
AcDbEntity
  8
250
  6
CONTINUOUS
100
AcDbBlockReference
  2
_OPEN
 10
0.0000000000000021
 20
70.0
 30
0.0
 41
2.229999999999999
 42
2.229999999999999
 43
2.229999999999999
 50
180.0
  0
INSERT
  5
E4B
330
DFD
100
AcDbEntity
  8
250
  6
CONTINUOUS
100
AcDbBlockReference
  2
_OPEN
 10
90.0
 20
70.0
 30
0.0
 41
2.229999999999999
 42
2.229999999999999
 43
2.229999999999999
  0
MTEXT
  5
E4C
330
DFD
100
AcDbEntity
  8
250
  6
CONTINUOUS
 62
    40
100
AcDbMText
 10
45.0
 20
72.5
 30
0.0
 40
3.0
 41
0.0
 71
     5
 72
     1
  1
\A1;90
1001
ACAD
1000
MTEXTBEGIN
1070
    73
1070
     1
1070
    44
1040
1.0
1070
    74
1070
     0
1000
MTEXTEND
  0
POINT
  5
E4D
330
DFD
100
AcDbEntity
  8
DEFPOINTS
  6
CONTINUOUS
 62
     0
100
AcDbPoint
 10
0.0
 20
34.92500000000041
 30
0.0
  0
POINT
  5
E4E
330
DFD
100
AcDbEntity
  8
DEFPOINTS
  6
CONTINUOUS
 62
     0
100
AcDbPoint
 10
90.0
 20
9.092893218813401
 30
0.0
  0
POINT
  5
E4F
330
DFD
100
AcDbEntity
  8
DEFPOINTS
  6
CONTINUOUS
 62
     0
100
AcDbPoint
 10
90.0
 20
70.0
 30
0.0
  0
ENDBLK
  5
E08
330
DFD
100
AcDbEntity
  8
0
100
AcDbBlockEnd
  0
BLOCK
  5
E13
330
E09
100
AcDbEntity
  8
0
100
AcDbBlockBegin
  2
*D3
 70
     1
 10
0.0
 20
0.0
 30
0.0
  3
*D3
  1

  0
LINE
  5
E50
330
E09
100
AcDbEntity
  8
250
  6
CONTINUOUS
100
AcDbLine
 10
0.0
 20
35.42500000000041
 30
0.0
 11
0.0000000000000018
 21
64.0
 31
0.0
  0
LINE
  5
E51
330
E09
100
AcDbEntity
  8
250
  6
CONTINUOUS
100
AcDbLine
 10
38.00000000000017
 20
49.2000000000001
 30
0.0
 11
38.00000000000017
 21
64.0
 31
0.0
  0
LINE
  5
E52
330
E09
100
AcDbEntity
  8
250
  6
CONTINUOUS
100
AcDbLine
 10
2.230000000000001
 20
63.0
 30
0.0
 11
35.77000000000017
 21
63.0
 31
0.0
  0
INSERT
  5
E53
330
E09
100
AcDbEntity
  8
250
  6
CONTINUOUS
100
AcDbBlockReference
  2
_OPEN
 10
0.0000000000000017
 20
63.0
 30
0.0
 41
2.229999999999999
 42
2.229999999999999
 43
2.229999999999999
 50
180.0
  0
INSERT
  5
E54
330
E09
100
AcDbEntity
  8
250
  6
CONTINUOUS
100
AcDbBlockReference
  2
_OPEN
 10
38.00000000000017
 20
63.0
 30
0.0
 41
2.229999999999999
 42
2.229999999999999
 43
2.229999999999999
  0
MTEXT
  5
E55
330
E09
100
AcDbEntity
  8
250
  6
CONTINUOUS
 62
    40
100
AcDbMText
 10
19.00000000000009
 20
65.5
 30
0.0
 40
3.0
 41
0.0
 71
     5
 72
     1
  1
\A1;38
1001
ACAD
1000
MTEXTBEGIN
1070
    73
1070
     1
1070
    44
1040
1.0
1070
    74
1070
     0
1000
MTEXTEND
  0
POINT
  5
E56
330
E09
100
AcDbEntity
  8
DEFPOINTS
  6
CONTINUOUS
 62
     0
100
AcDbPoint
 10
0.0
 20
34.92500000000041
 30
0.0
  0
POINT
  5
E57
330
E09
100
AcDbEntity
  8
DEFPOINTS
  6
CONTINUOUS
 62
     0
100
AcDbPoint
 10
38.00000000000017
 20
48.7000000000001
 30
0.0
  0
POINT
  5
E58
330
E09
100
AcDbEntity
  8
DEFPOINTS
  6
CONTINUOUS
 62
     0
100
AcDbPoint
 10
38.00000000000017
 20
63.0
 30
0.0
  0
ENDBLK
  5
E14
330
E09
100
AcDbEntity
  8
0
100
AcDbBlockEnd
  0
BLOCK
  5
E21
330
E15
100
AcDbEntity
  8
0
100
AcDbBlockBegin
  2
*D4
 70
     1
 10
0.0
 20
0.0
 30
0.0
  3
*D4
  1

  0
LINE
  5
EAD
330
E15
100
AcDbEntity
  8
250
  6
CONTINUOUS
100
AcDbLine
 10
90.5
 20
-3.0
 30
0.0
 11
106.0
 21
-3.000000000000004
 31
0.0
  0
LINE
  5
EAE
330
E15
100
AcDbEntity
  8
250
  6
CONTINUOUS
100
AcDbLine
 10
90.50000000000006
 20
3.0
 30
0.0
 11
106.0
 21
2.999999999999995
 31
0.0
  0
LINE
  5
EAF
330
E15
100
AcDbEntity
  8
250
  6
CONTINUOUS
100
AcDbLine
 10
105.0
 20
-5.230000000000003
 30
0.0
 11
105.0
 21
-7.460000000000004
 31
0.0
  0
LINE
  5
EB0
330
E15
100
AcDbEntity
  8
250
  6
CONTINUOUS
100
AcDbLine
 10
105.0
 20
5.229999999999995
 30
0.0
 11
105.0
 21
7.459999999999995
 31
0.0
  0
MTEXT
  5
EB1
330
E15
100
AcDbEntity
  8
250
  6
CONTINUOUS
 62
    40
100
AcDbMText
 10
102.8916073863881
 20
4.945214833993304
 30
0.0
 40
3.0
 41
0.0
 71
     5
 72
     1
  1
\A1;MAX.%%C6
 11
0.0000000000000001
 21
1.0
 31
0.0
  0
LINE
  5
EB2
330
E15
100
AcDbEntity
  8
250
  6
CONTINUOUS
100
AcDbLine
 10
105.0
 20
-3.000000000000004
 30
0.0
 11
105.0
 21
2.999999999999995
 31
0.0
  0
INSERT
  5
EB3
330
E15
100
AcDbEntity
  8
250
  6
CONTINUOUS
100
AcDbBlockReference
  2
_OPEN
 10
105.0
 20
-3.000000000000004
 30
0.0
 41
2.229999999999999
 42
2.229999999999999
 43
2.229999999999999
 50
90.0
  0
INSERT
  5
EB4
330
E15
100
AcDbEntity
  8
250
  6
CONTINUOUS
100
AcDbBlockReference
  2
_OPEN
 10
105.0
 20
2.999999999999995
 30
0.0
 41
2.229999999999999
 42
2.229999999999999
 43
2.229999999999999
 50
270.0
  0
POINT
  5
EB5
330
E15
100
AcDbEntity
  8
DEFPOINTS
  6
CONTINUOUS
 62
     0
100
AcDbPoint
 10
90.0
 20
-3.0
 30
0.0
  0
POINT
  5
EB6
330
E15
100
AcDbEntity
  8
DEFPOINTS
  6
CONTINUOUS
 62
     0
100
AcDbPoint
 10
90.00000000000005
 20
3.0
 30
0.0
  0
POINT
  5
EB7
330
E15
100
AcDbEntity
  8
DEFPOINTS
  6
CONTINUOUS
 62
     0
100
AcDbPoint
 10
105.0
 20
2.999999999999995
 30
0.0
  0
ENDBLK
  5
E22
330
E15
100
AcDbEntity
  8
0
100
AcDbBlockEnd
  0
BLOCK
  5
E2D
330
E23
100
AcDbEntity
  8
0
100
AcDbBlockBegin
  2
*D5
 70
     1
 10
0.0
 20
0.0
 30
0.0
  3
*D5
  1

  0
LINE
  5
E64
330
E23
100
AcDbEntity
  8
250
  6
CONTINUOUS
100
AcDbLine
 10
89.55147186257613
 20
-10.0
 30
0.0
 11
113.0
 21
-10.0
 31
0.0
  0
LINE
  5
E65
330
E23
100
AcDbEntity
  8
250
  6
CONTINUOUS
100
AcDbLine
 10
89.55147186257613
 20
10.0
 30
0.0
 11
113.0
 21
9.999999999999992
 31
0.0
  0
LINE
  5
E66
330
E23
100
AcDbEntity
  8
250
  6
CONTINUOUS
100
AcDbLine
 10
112.0
 20
-7.770000000000006
 30
0.0
 11
112.0
 21
7.769999999999992
 31
0.0
  0
INSERT
  5
E67
330
E23
100
AcDbEntity
  8
250
  6
CONTINUOUS
100
AcDbBlockReference
  2
_OPEN
 10
112.0
 20
-10.0
 30
0.0
 41
2.229999999999999
 42
2.229999999999999
 43
2.229999999999999
 50
270.0
  0
INSERT
  5
E68
330
E23
100
AcDbEntity
  8
250
  6
CONTINUOUS
100
AcDbBlockReference
  2
_OPEN
 10
112.0
 20
9.999999999999992
 30
0.0
 41
2.229999999999999
 42
2.229999999999999
 43
2.229999999999999
 50
90.0
  0
MTEXT
  5
E69
330
E23
100
AcDbEntity
  8
250
  6
CONTINUOUS
 62
    40
100
AcDbMText
 10
109.4999999999999
 20
0.0000000000000112
 30
0.0
 40
3.0
 41
0.0
 71
     5
 72
     1
  1
\A1;{\H3;\U+2205}20
 11
0.0000000000000001
 21
1.0
 31
0.0
1001
ACAD
1000
MTEXTBEGIN
1070
    73
1070
     1
1070
    44
1040
1.0
1070
    74
1070
     0
1000
MTEXTEND
  0
POINT
  5
E6A
330
E23
100
AcDbEntity
  8
DEFPOINTS
  6
CONTINUOUS
 62
     0
100
AcDbPoint
 10
89.05147186257613
 20
-10.0
 30
0.0
  0
POINT
  5
E6B
330
E23
100
AcDbEntity
  8
DEFPOINTS
  6
CONTINUOUS
 62
     0
100
AcDbPoint
 10
89.05147186257613
 20
10.0
 30
0.0
  0
POINT
  5
E6C
330
E23
100
AcDbEntity
  8
DEFPOINTS
  6
CONTINUOUS
 62
     0
100
AcDbPoint
 10
112.0
 20
9.999999999999992
 30
0.0
  0
ENDBLK
  5
E2E
330
E23
100
AcDbEntity
  8
0
100
AcDbBlockEnd
  0
BLOCK
  5
E39
330
E2F
100
AcDbEntity
  8
0
100
AcDbBlockBegin
  2
*D6
 70
     1
 10
0.0
 20
0.0
 30
0.0
  3
*D6
  1

  0
LINE
  5
E6D
330
E2F
100
AcDbEntity
  8
250
  6
CONTINUOUS
100
AcDbLine
 10
60.0
 20
-3.5
 30
0.0
 11
60.0
 21
-64.0
 31
0.0
  0
LINE
  5
E6E
330
E2F
100
AcDbEntity
  8
250
  6
CONTINUOUS
100
AcDbLine
 10
90.0
 20
-9.592893218813458
 30
0.0
 11
90.0
 21
-64.0
 31
0.0
  0
LINE
  5
E6F
330
E2F
100
AcDbEntity
  8
250
  6
CONTINUOUS
100
AcDbLine
 10
62.22999999999998
 20
-63.0
 30
0.0
 11
87.76999999999999
 21
-63.0
 31
0.0
  0
INSERT
  5
E70
330
E2F
100
AcDbEntity
  8
250
  6
CONTINUOUS
100
AcDbBlockReference
  2
_OPEN
 10
60.0
 20
-63.0
 30
0.0
 41
2.229999999999999
 42
2.229999999999999
 43
2.229999999999999
 50
180.0
  0
INSERT
  5
E71
330
E2F
100
AcDbEntity
  8
250
  6
CONTINUOUS
100
AcDbBlockReference
  2
_OPEN
 10
90.0
 20
-63.0
 30
0.0
 41
2.229999999999999
 42
2.229999999999999
 43
2.229999999999999
  0
MTEXT
  5
E72
330
E2F
100
AcDbEntity
  8
250
  6
CONTINUOUS
 62
    40
100
AcDbMText
 10
75.0
 20
-60.5
 30
0.0
 40
3.0
 41
0.0
 71
     5
 72
     1
  1
\A1;21～40
1001
ACAD
1000
MTEXTBEGIN
1070
    73
1070
     1
1070
    44
1040
1.0
1070
    74
1070
     0
1000
MTEXTEND
  0
POINT
  5
E73
330
E2F
100
AcDbEntity
  8
DEFPOINTS
  6
CONTINUOUS
 62
     0
100
AcDbPoint
 10
60.0
 20
-3.0
 30
0.0
  0
POINT
  5
E74
330
E2F
100
AcDbEntity
  8
DEFPOINTS
  6
CONTINUOUS
 62
     0
100
AcDbPoint
 10
90.0
 20
-9.092893218813458
 30
0.0
  0
POINT
  5
E75
330
E2F
100
AcDbEntity
  8
DEFPOINTS
  6
CONTINUOUS
 62
     0
100
AcDbPoint
 10
90.0
 20
-63.0
 30
0.0
  0
ENDBLK
  5
E3A
330
E2F
100
AcDbEntity
  8
0
100
AcDbBlockEnd
  0
BLOCK
  5
E45
330
E3B
100
AcDbEntity
  8
0
100
AcDbBlockBegin
  2
*D7
 70
     1
 10
0.0
 20
0.0
 30
0.0
  3
*D7
  1

  0
LINE
  5
E76
330
E3B
100
AcDbEntity
  8
250
  6
CONTINUOUS
100
AcDbLine
 10
38.00000000000017
 20
49.2000000000001
 30
0.0
 11
38.00000000000017
 21
64.0
 31
0.0
  0
LINE
  5
E77
330
E3B
100
AcDbEntity
  8
250
  6
CONTINUOUS
100
AcDbLine
 10
90.0
 20
9.592893218813401
 30
0.0
 11
90.0
 21
64.0
 31
0.0
  0
LINE
  5
E78
330
E3B
100
AcDbEntity
  8
250
  6
CONTINUOUS
100
AcDbLine
 10
40.23000000000016
 20
63.0
 30
0.0
 11
87.76999999999999
 21
63.0
 31
0.0
  0
INSERT
  5
E79
330
E3B
100
AcDbEntity
  8
250
  6
CONTINUOUS
100
AcDbBlockReference
  2
_OPEN
 10
38.00000000000017
 20
63.0
 30
0.0
 41
2.229999999999999
 42
2.229999999999999
 43
2.229999999999999
 50
180.0
  0
INSERT
  5
E7A
330
E3B
100
AcDbEntity
  8
250
  6
CONTINUOUS
100
AcDbBlockReference
  2
_OPEN
 10
90.0
 20
63.0
 30
0.0
 41
2.229999999999999
 42
2.229999999999999
 43
2.229999999999999
  0
MTEXT
  5
E7B
330
E3B
100
AcDbEntity
  8
250
  6
CONTINUOUS
 62
    40
100
AcDbMText
 10
64.00000000000009
 20
65.5
 30
0.0
 40
3.0
 41
0.0
 71
     5
 72
     1
  1
\A1;52
1001
ACAD
1000
MTEXTBEGIN
1070
    73
1070
     1
1070
    44
1040
1.0
1070
    74
1070
     0
1000
MTEXTEND
  0
POINT
  5
E7C
330
E3B
100
AcDbEntity
  8
DEFPOINTS
  6
CONTINUOUS
 62
     0
100
AcDbPoint
 10
38.00000000000017
 20
48.7000000000001
 30
0.0
  0
POINT
  5
E7D
330
E3B
100
AcDbEntity
  8
DEFPOINTS
  6
CONTINUOUS
 62
     0
100
AcDbPoint
 10
90.0
 20
9.092893218813401
 30
0.0
  0
POINT
  5
E7E
330
E3B
100
AcDbEntity
  8
DEFPOINTS
  6
CONTINUOUS
 62
     0
100
AcDbPoint
 10
90.0
 20
63.0
 30
0.0
  0
ENDBLK
  5
E46
330
E3B
100
AcDbEntity
  8
0
100
AcDbBlockEnd
  0
ENDSEC
  0
SECTION
  2
ENTITIES
  0
DIMENSION
  5
DF2
330
1A
100
AcDbEntity
  8
250
  6
CONTINUOUS
100
AcDbDimension
  2
*D2
 10
90.0
 20
70.0
 30
0.0
 11
45.0
 21
72.5
 31
0.0
 70
    32
  3
BIGT
100
AcDbAlignedDimension
 13
0.0
 23
34.92500000000041
 33
0.0
 14
90.0
 24
9.092893218813401
 34
0.0
100
AcDbRotatedDimension
1001
ACAD
1000
DSTYLE
1002
{
1070
    78
1070
     8
1070
   140
1040
3.0
1002
}
  0
DIMENSION
  5
DF3
330
1A
100
AcDbEntity
  8
250
  6
CONTINUOUS
100
AcDbDimension
  2
*D3
 10
38.00000000000017
 20
63.0
 30
0.0
 11
19.00000000000009
 21
65.5
 31
0.0
 70
    32
  3
BIGT
100
AcDbAlignedDimension
 13
0.0
 23
34.92500000000041
 33
0.0
 14
38.00000000000017
 24
48.7000000000001
 34
0.0
100
AcDbRotatedDimension
1001
ACAD
1000
DSTYLE
1002
{
1070
    78
1070
     8
1070
   140
1040
3.0
1002
}
  0
INSERT
  5
DF4
330
1A
100
AcDbEntity
  8
240
100
AcDbBlockReference
  2
A$C4E475688
 10
0.0
 20
0.0
 30
0.0
  0
LEADER
  5
DF5
330
1A
100
AcDbEntity
  8
250
  6
CONTINUOUS
100
AcDbLeader
  3
BIGT
 76
     2
 10
-46.05024927287985
 20
-28.20933864770444
 30
0.0
 10
-62.09519508558544
 20
-49.0
 30
0.0
1001
ACAD
1000
DSTYLE
1002
{
1070
     5
1000
OPEN
1070
    78
1070
     8
1070
   140
1040
3.0
1002
}
  0
LINE
  5
DF6
330
1A
100
AcDbEntity
  8
250
  6
CONTINUOUS
100
AcDbLine
 10
-62.09519508558544
 20
-49.0
 30
0.0
 11
-78.09519508558544
 21
-49.0
 31
0.0
1001
ITEMNAME
1000
LNSP2
  0
MTEXT
  5
DF7
330
1A
100
AcDbEntity
  8
250
  6
CONTINUOUS
 62
    40
100
AcDbMText
 10
-75.09519508558544
 20
-48.0
 30
0.0
 40
3.0
 41
0.0
 71
     7
 72
     1
  1
BT50
  7
YOKO
1001
ITEMNAME
1000
LNSP3
1001
ACAD
1000
MTEXTBEGIN
1070
    73
1070
     1
1070
    44
1040
1.0
1070
    74
1070
     0
1000
MTEXTEND
  0
TEXT
  5
DF8
330
1A
100
AcDbEntity
  8
241
100
AcDbText
 10
-98.0
 20
84.0
 30
0.0
 40
5.0
  1
BT50-NBS6-90
  7
YOKO
 11
-98.0
 21
84.0
 31
0.0
100
AcDbText
 73
     1
  0
DIMENSION
  5
DF9
330
1A
100
AcDbEntity
  8
250
  6
CONTINUOUS
100
AcDbDimension
  2
*D4
 10
105.0
 20
2.999999999999995
 30
0.0
 11
102.8916073863881
 21
4.945214833993304
 31
0.0
 70
   160
  1
MAX.%%C<>
  3
BIGT
100
AcDbAlignedDimension
 13
90.0
 23
-3.0
 33
0.0
 14
90.00000000000005
 24
3.0
 34
0.0
 50
90.0
100
AcDbRotatedDimension
1001
ACAD
1000
DSTYLE
1002
{
1070
   287
1070
     5
1070
    78
1070
     8
1070
   140
1040
3.0
1070
   279
1070
     2
1002
}
  0
DIMENSION
  5
DFA
330
1A
100
AcDbEntity
  8
250
  6
CONTINUOUS
100
AcDbDimension
  2
*D5
 10
112.0
 20
9.999999999999992
 30
0.0
 11
109.4999999999999
 21
0.0000000000000112
 31
0.0
 70
    32
  1
{\H3;\U+2205}<>
  3
BIGT
100
AcDbAlignedDimension
 13
89.05147186257613
 23
-10.0
 33
0.0
 14
89.05147186257613
 24
10.0
 34
0.0
 50
90.0
100
AcDbRotatedDimension
1001
ACAD
1000
DSTYLE
1002
{
1070
    78
1070
     8
1070
   140
1040
3.0
1002
}
  0
DIMENSION
  5
DFB
330
1A
100
AcDbEntity
  8
250
  6
CONTINUOUS
100
AcDbDimension
  2
*D6
 10
90.0
 20
-63.0
 30
0.0
 11
75.0
 21
-60.5
 31
0.0
 70
    32
  1
21～40
  3
BIGT
100
AcDbAlignedDimension
 13
60.0
 23
-3.0
 33
0.0
 14
90.0
 24
-9.092893218813458
 34
0.0
100
AcDbRotatedDimension
1001
ACAD
1000
DSTYLE
1002
{
1070
    78
1070
     8
1070
   140
1040
3.0
1002
}
  0
DIMENSION
  5
DFC
330
1A
100
AcDbEntity
  8
250
  6
CONTINUOUS
100
AcDbDimension
  2
*D7
 10
90.0
 20
63.0
 30
0.0
 11
64.00000000000009
 21
65.5
 31
0.0
 70
    32
  3
BIGT
100
AcDbAlignedDimension
 13
38.00000000000017
 23
48.7000000000001
 33
0.0
 14
90.0
 24
9.092893218813401
 34
0.0
100
AcDbRotatedDimension
1001
ACAD
1000
DSTYLE
1002
{
1070
    78
1070
     8
1070
   140
1040
3.0
1002
}
  0
VIEWPORT
  5
22
330
17
100
AcDbEntity
 67
     1
  8
0
100
AcDbViewport
 10
261.5176991150442
 20
148.5
 30
0.0
 40
523.0353982300885
 41
297.0
 68
     1
 69
     1
1001
ACAD
1000
MVIEW
1002
{
1070
    16
1010
0.0
1020
0.0
1030
0.0
1010
0.0
1020
0.0
1030
1.0
1040
0.0
1040
297.0
1040
261.5176991150442
1040
148.5
1040
50.0
1040
0.0
1040
0.0
1070
     0
1070
   100
1070
     1
1070
     1
1070
     0
1070
     0
1070
     0
1070
     0
1040
0.0
1040
0.0
1040
0.0
1040
1.0
1040
1.0
1040
10.0
1040
10.0
1070
     0
1002
{
1002
}
1002
}
  0
ENDSEC
  0
SECTION
  2
OBJECTS
  0
DICTIONARY
  5
C
330
0
100
AcDbDictionary
  3
ACAD_GROUP
350
D
  3
ACAD_LAYOUT
350
565
  3
ACAD_MLINESTYLE
350
E
  3
ACAD_PLOTSETTINGS
350
566
  3
ACAD_PLOTSTYLENAME
350
563
  3
ACDBHEADERROUNDTRIPXREC
350
E88
  3
ACDBVARIABLEDICTIONARY
350
E80
  3
GRADE_DWG
350
540
  0
DICTIONARY
  5
EAB
330
1A
100
AcDbDictionary
280
     1
  3
ACAD_LAYOUTSELFREF
360
EAC
  0
DICTIONARY
  5
EA9
330
17
100
AcDbDictionary
280
     1
  3
ACAD_LAYOUTSELFREF
360
EAA
  0
DICTIONARY
  5
D
102
{ACAD_REACTORS
330
C
102
}
330
C
100
AcDbDictionary
  3
DREC-1
350
5FC
  3
DREC-2
350
654
  3
DREC-3
350
673
  0
DICTIONARY
  5
565
102
{ACAD_REACTORS
330
C
102
}
330
C
100
AcDbDictionary
  0
DICTIONARY
  5
E
102
{ACAD_REACTORS
330
C
102
}
330
C
100
AcDbDictionary
  3
STANDARD
350
13
  0
DICTIONARY
  5
566
102
{ACAD_REACTORS
330
C
102
}
330
C
100
AcDbDictionary
  0
ACDBDICTIONARYWDFLT
  5
563
102
{ACAD_REACTORS
330
C
102
}
330
C
100
AcDbDictionary
281
     1
  3
Normal
350
564
100
AcDbDictionaryWithDefault
340
564
  0
DICTIONARY
  5
E88
102
{ACAD_REACTORS
330
C
102
}
330
C
100
AcDbDictionary
  3
CEPSNTYPE
350
E92
  3
DIMSTYLEDATA
350
E96
  3
FINGERPRINTGUID
350
E93
  3
HYPERLINKBASE
350
E8B
  3
INSUNITS
350
E91
  3
LAYOUTDICT
350
E8D
  3
LWETCUNION
350
E90
  3
PLOTSETDICT
350
E8E
  3
PLOTSTYLNAMDICT
350
E8F
  3
PSVPSCALE
350
E95
  3
PUCSBASE
350
E99
  3
PUCSORGBACK
350
E9F
  3
PUCSORGBOTTOM
350
E9B
  3
PUCSORGFRONT
350
E9E
  3
PUCSORGLEFT
350
E9C
  3
PUCSORGRIGHT
350
E9D
  3
PUCSORGTOP
350
E9A
  3
PUCSORTHOREF
350
E97
  3
PUCSORTHOVIEW
350
E98
  3
STYLESHEET
350
E8C
  3
TSTACKALIGN
350
E89
  3
TSTACKSIZE
350
E8A
  3
UCSBASE
350
EA2
  3
UCSORGBACK
350
EA8
  3
UCSORGBOTTOM
350
EA4
  3
UCSORGFRONT
350
EA7
  3
UCSORGLEFT
350
EA5
  3
UCSORGRIGHT
350
EA6
  3
UCSORGTOP
350
EA3
  3
UCSORTHOREF
350
EA0
  3
UCSORTHOVIEW
350
EA1
  3
VERSIONGUID
350
E94
  0
DICTIONARY
  5
E80
102
{ACAD_REACTORS
330
C
102
}
330
C
100
AcDbDictionary
  3
DIMASSOC
350
E81
  0
DICTIONARY
  5
540
102
{ACAD_REACTORS
330
C
102
}
330
C
100
AcDbDictionary
  3
VERSION
350
560
  0
XRECORD
  5
EAC
102
{ACAD_REACTORS
330
EAB
102
}
330
EAB
100
AcDbXrecord
340
1A
  0
XRECORD
  5
EAA
102
{ACAD_REACTORS
330
EA9
102
}
330
EA9
100
AcDbXrecord
340
17
  0
GROUP
  5
5FC
102
{ACAD_REACTORS
330
D
102
}
330
D
100
AcDbGroup
300

 70
     0
 71
     1
1001
GRPNAME
1000
DREC-
1001
GPARA
1000
xsiz
1000
44.182
1000
ysiz
1000
40.677
1000
angl
1000
0
1000
ctyp
1000
0
1000
csiz
1000
5
1000
lfnt
1000
cont
1000
hcnt
1000
hoff
1000
vcnt
1000
voff
1000
opnt
1000
4
1000
dxpt
1000
0
1000
dypt
1000
0
  0
GROUP
  5
654
102
{ACAD_REACTORS
330
D
102
}
330
D
100
AcDbGroup
300

 70
     0
 71
     1
1001
GRPNAME
1000
DREC-
1001
GPARA
1000
xsiz
1000
54.592
1000
ysiz
1000
53.036
1000
angl
1000
0
1000
ctyp
1000
0
1000
csiz
1000
5
1000
lfnt
1000
cont
1000
hcnt
1000
hoff
1000
vcnt
1000
voff
1000
opnt
1000
4
1000
dxpt
1000
0
1000
dypt
1000
0
  0
GROUP
  5
673
102
{ACAD_REACTORS
330
D
102
}
330
D
100
AcDbGroup
300

 70
     0
 71
     1
1001
GRPNAME
1000
DREC-
1001
GPARA
1000
xsiz
1000
30.363
1000
ysiz
1000
36.175
1000
angl
1000
0
1000
ctyp
1000
0
1000
csiz
1000
5
1000
lfnt
1000
cont
1000
hcnt
1000
hoff
1000
vcnt
1000
voff
1000
opnt
1000
4
1000
dxpt
1000
0
1000
dypt
1000
0
  0
MLINESTYLE
  5
13
102
{ACAD_REACTORS
330
E
102
}
330
E
100
AcDbMlineStyle
  2
STANDARD
 70
     0
  3

 62
     0
 51
90.0
 52
90.0
 71
     2
 49
0.5
 62
   256
  6
BYLAYER
 49
-0.5
 62
   256
  6
BYLAYER
  0
ACDBPLACEHOLDER
  5
564
102
{ACAD_REACTORS
330
563
102
}
330
563
100
AcDbPlaceHolder
280
     0
  0
XRECORD
  5
E92
102
{ACAD_REACTORS
330
E88
102
}
330
E88
100
AcDbXrecord
 90
        0
  0
XRECORD
  5
E96
102
{ACAD_REACTORS
330
E88
102
}
330
E88
100
AcDbXrecord
1000
DSTYLE
1002
{
1070
    79
 70
     2
1070
   179
 70
     3
1070
   289
 70
     2
1070
   341
340
594
1070
   342
340
594
1070
   371
 70
    -1
1070
   372
 70
    -1
1002
}
  0
XRECORD
  5
E93
102
{ACAD_REACTORS
330
E88
102
}
330
E88
100
AcDbXrecord
  1
{51294030-9CB4-11D3-8E18-00A0C925D94D}
  0
XRECORD
  5
E8B
102
{ACAD_REACTORS
330
E88
102
}
330
E88
100
AcDbXrecord
  1

  0
XRECORD
  5
E91
102
{ACAD_REACTORS
330
E88
102
}
330
E88
100
AcDbXrecord
 90
        0
  0
XRECORD
  5
E8D
102
{ACAD_REACTORS
330
E88
102
}
330
E88
100
AcDbXrecord
340
565
  0
XRECORD
  5
E90
102
{ACAD_REACTORS
330
E88
102
}
330
E88
100
AcDbXrecord
 90
    10781
  0
XRECORD
  5
E8E
102
{ACAD_REACTORS
330
E88
102
}
330
E88
100
AcDbXrecord
340
566
  0
XRECORD
  5
E8F
102
{ACAD_REACTORS
330
E88
102
}
330
E88
100
AcDbXrecord
340
563
  0
XRECORD
  5
E95
102
{ACAD_REACTORS
330
E88
102
}
330
E88
100
AcDbXrecord
 40
0.0
  0
XRECORD
  5
E99
102
{ACAD_REACTORS
330
E88
102
}
330
E88
100
AcDbXrecord
340
0
  0
XRECORD
  5
E9F
102
{ACAD_REACTORS
330
E88
102
}
330
E88
100
AcDbXrecord
 10
0.0
 20
0.0
 30
0.0
  0
XRECORD
  5
E9B
102
{ACAD_REACTORS
330
E88
102
}
330
E88
100
AcDbXrecord
 10
0.0
 20
0.0
 30
0.0
  0
XRECORD
  5
E9E
102
{ACAD_REACTORS
330
E88
102
}
330
E88
100
AcDbXrecord
 10
0.0
 20
0.0
 30
0.0
  0
XRECORD
  5
E9C
102
{ACAD_REACTORS
330
E88
102
}
330
E88
100
AcDbXrecord
 10
0.0
 20
0.0
 30
0.0
  0
XRECORD
  5
E9D
102
{ACAD_REACTORS
330
E88
102
}
330
E88
100
AcDbXrecord
 10
0.0
 20
0.0
 30
0.0
  0
XRECORD
  5
E9A
102
{ACAD_REACTORS
330
E88
102
}
330
E88
100
AcDbXrecord
 10
0.0
 20
0.0
 30
0.0
  0
XRECORD
  5
E97
102
{ACAD_REACTORS
330
E88
102
}
330
E88
100
AcDbXrecord
340
0
  0
XRECORD
  5
E98
102
{ACAD_REACTORS
330
E88
102
}
330
E88
100
AcDbXrecord
 70
     0
  0
XRECORD
  5
E8C
102
{ACAD_REACTORS
330
E88
102
}
330
E88
100
AcDbXrecord
  1
big.ctb
  0
XRECORD
  5
E89
102
{ACAD_REACTORS
330
E88
102
}
330
E88
100
AcDbXrecord
 90
        1
  0
XRECORD
  5
E8A
102
{ACAD_REACTORS
330
E88
102
}
330
E88
100
AcDbXrecord
 90
       70
  0
XRECORD
  5
EA2
102
{ACAD_REACTORS
330
E88
102
}
330
E88
100
AcDbXrecord
340
0
  0
XRECORD
  5
EA8
102
{ACAD_REACTORS
330
E88
102
}
330
E88
100
AcDbXrecord
 10
0.0
 20
0.0
 30
0.0
  0
XRECORD
  5
EA4
102
{ACAD_REACTORS
330
E88
102
}
330
E88
100
AcDbXrecord
 10
0.0
 20
0.0
 30
0.0
  0
XRECORD
  5
EA7
102
{ACAD_REACTORS
330
E88
102
}
330
E88
100
AcDbXrecord
 10
0.0
 20
0.0
 30
0.0
  0
XRECORD
  5
EA5
102
{ACAD_REACTORS
330
E88
102
}
330
E88
100
AcDbXrecord
 10
0.0
 20
0.0
 30
0.0
  0
XRECORD
  5
EA6
102
{ACAD_REACTORS
330
E88
102
}
330
E88
100
AcDbXrecord
 10
0.0
 20
0.0
 30
0.0
  0
XRECORD
  5
EA3
102
{ACAD_REACTORS
330
E88
102
}
330
E88
100
AcDbXrecord
 10
0.0
 20
0.0
 30
0.0
  0
XRECORD
  5
EA0
102
{ACAD_REACTORS
330
E88
102
}
330
E88
100
AcDbXrecord
340
0
  0
XRECORD
  5
EA1
102
{ACAD_REACTORS
330
E88
102
}
330
E88
100
AcDbXrecord
 70
     0
  0
XRECORD
  5
E94
102
{ACAD_REACTORS
330
E88
102
}
330
E88
100
AcDbXrecord
  1
{83C0C819-6665-11D6-95D9-006094EB2375}
  0
DICTIONARYVAR
  5
E81
102
{ACAD_REACTORS
330
E80
102
}
330
E80
100
DictionaryVariables
280
     0
  1
1
  0
XRECORD
  5
560
102
{ACAD_REACTORS
330
540
102
}
330
540
100
AcDbXrecord
  1
2.0.0
  0
ENDSEC
  0
EOF
