  0
SECTION
  2
HEADER
  9
$ACADVER
  1
AC1014
  9
$ACADMAINTVER
 70
     9
  9
$DWGCODEPAGE
  3
ANSI_932
  9
$INSBASE
 10
0.0
 20
0.0
 30
0.0
  9
$EXTMIN
 10
-107.1501790136794
 20
-64.00506347206669
 30
-0.0000000349181948
  9
$EXTMAX
 10
218.0053951697229
 20
89.00053134908217
 30
0.0000000814935746
  9
$LIMMIN
 10
0.0
 20
0.0
  9
$LIMMAX
 10
420.0
 20
297.0
  9
$ORTHOMODE
 70
     0
  9
$REGENMODE
 70
     1
  9
$FILLMODE
 70
     1
  9
$QTEXTMODE
 70
     0
  9
$MIRRTEXT
 70
     1
  9
$DRAGMODE
 70
     2
  9
$LTSCALE
 40
10.0
  9
$OSMODE
 70
   613
  9
$ATTMODE
 70
     1
  9
$TEXTSIZE
 40
3.0
  9
$TRACEWID
 40
1.0
  9
$TEXTSTYLE
  7
YOKO
  9
$CLAYER
  8
240
  9
$CELTYPE
  6
BYLAYER
  9
$CECOLOR
 62
   256
  9
$CELTSCALE
 40
1.0
  9
$DELOBJ
 70
     1
  9
$DISPSILH
 70
     0
  9
$DIMSCALE
 40
1.0
  9
$DIMASZ
 40
2.229999999999999
  9
$DIMEXO
 40
0.5
  9
$DIMDLI
 40
2.5
  9
$DIMRND
 40
0.0
  9
$DIMDLE
 40
0.0
  9
$DIMEXE
 40
1.0
  9
$DIMTP
 40
0.0
  9
$DIMTM
 40
0.0
  9
$DIMTXT
 40
3.0
  9
$DIMCEN
 40
0.0
  9
$DIMTSZ
 40
0.0
  9
$DIMTOL
 70
     0
  9
$DIMLIM
 70
     0
  9
$DIMTIH
 70
     0
  9
$DIMTOH
 70
     0
  9
$DIMSE1
 70
     0
  9
$DIMSE2
 70
     0
  9
$DIMTAD
 70
     3
  9
$DIMZIN
 70
     8
  9
$DIMBLK
  1
OPEN
  9
$DIMASO
 70
     1
  9
$DIMSHO
 70
     1
  9
$DIMPOST
  1

  9
$DIMAPOST
  1

  9
$DIMALT
 70
     0
  9
$DIMALTD
 70
     2
  9
$DIMALTF
 40
25.4
  9
$DIMLFAC
 40
1.0
  9
$DIMTOFL
 70
     1
  9
$DIMTVP
 40
0.0
  9
$DIMTIX
 70
     0
  9
$DIMSOXD
 70
     0
  9
$DIMSAH
 70
     0
  9
$DIMBLK1
  1

  9
$DIMBLK2
  1

  9
$DIMSTYLE
  2
BIGT
  9
$DIMCLRD
 70
   256
  9
$DIMCLRE
 70
   256
  9
$DIMCLRT
 70
    40
  9
$DIMTFAC
 40
1.0
  9
$DIMGAP
 40
1.0
  9
$DIMJUST
 70
     0
  9
$DIMSD1
 70
     0
  9
$DIMSD2
 70
     0
  9
$DIMTOLJ
 70
     1
  9
$DIMTZIN
 70
     8
  9
$DIMALTZ
 70
     0
  9
$DIMALTTZ
 70
     0
  9
$DIMFIT
 70
     2
  9
$DIMUPT
 70
     0
  9
$DIMUNIT
 70
     2
  9
$DIMDEC
 70
     3
  9
$DIMTDEC
 70
     3
  9
$DIMALTU
 70
     2
  9
$DIMALTTD
 70
     2
  9
$DIMTXSTY
  7
STANDARD
  9
$DIMAUNIT
 70
     0
  9
$LUNITS
 70
     2
  9
$LUPREC
 70
     3
  9
$SKETCHINC
 40
1.0
  9
$FILLETRAD
 40
0.0
  9
$AUNITS
 70
     0
  9
$AUPREC
 70
     3
  9
$MENU
  1
.
  9
$ELEVATION
 40
0.0
  9
$PELEVATION
 40
0.0
  9
$THICKNESS
 40
0.0
  9
$LIMCHECK
 70
     0
  9
$BLIPMODE
 70
     0
  9
$CHAMFERA
 40
10.0
  9
$CHAMFERB
 40
10.0
  9
$CHAMFERC
 40
0.0
  9
$CHAMFERD
 40
0.0
  9
$SKPOLY
 70
     0
  9
$TDCREATE
 40
2452174.371328124
  9
$TDUPDATE
 40
2452408.969273900
  9
$TDINDWG
 40
0.0240020949
  9
$TDUSRTIMER
 40
0.0240020949
  9
$USRTIMER
 70
     1
  9
$ANGBASE
 50
0.0
  9
$ANGDIR
 70
     0
  9
$PDMODE
 70
    35
  9
$PDSIZE
 40
-5.0
  9
$PLINEWID
 40
0.0
  9
$COORDS
 70
     0
  9
$SPLFRAME
 70
     0
  9
$SPLINETYPE
 70
     6
  9
$SPLINESEGS
 70
     8
  9
$ATTDIA
 70
     0
  9
$ATTREQ
 70
     0
  9
$HANDLING
 70
 22529
  9
$HANDSEED
  5
CE5
  9
$SURFTAB1
 70
     6
  9
$SURFTAB2
 70
     6
  9
$SURFTYPE
 70
     6
  9
$SURFU
 70
     6
  9
$SURFV
 70
     6
  9
$UCSNAME
  2

  9
$UCSORG
 10
0.0
 20
0.0
 30
0.0
  9
$UCSXDIR
 10
1.0
 20
0.0
 30
0.0
  9
$UCSYDIR
 10
0.0
 20
1.0
 30
0.0
  9
$PUCSNAME
  2

  9
$PUCSORG
 10
0.0
 20
0.0
 30
0.0
  9
$PUCSXDIR
 10
1.0
 20
0.0
 30
0.0
  9
$PUCSYDIR
 10
0.0
 20
1.0
 30
0.0
  9
$USERI1
 70
     1
  9
$USERI2
 70
     0
  9
$USERI3
 70
     0
  9
$USERI4
 70
     0
  9
$USERI5
 70
     0
  9
$USERR1
 40
0.0
  9
$USERR2
 40
0.0
  9
$USERR3
 40
0.0
  9
$USERR4
 40
0.0
  9
$USERR5
 40
0.0
  9
$WORLDVIEW
 70
     1
  9
$SHADEDGE
 70
     3
  9
$SHADEDIF
 70
    70
  9
$TILEMODE
 70
     1
  9
$MAXACTVP
 70
    16
  9
$PINSBASE
 10
0.0
 20
0.0
 30
0.0
  9
$PLIMCHECK
 70
     0
  9
$PEXTMIN
 10
1.000000000000000E+20
 20
1.000000000000000E+20
 30
1.000000000000000E+20
  9
$PEXTMAX
 10
-1.000000000000000E+20
 20
-1.000000000000000E+20
 30
-1.000000000000000E+20
  9
$PLIMMIN
 10
0.0
 20
0.0
  9
$PLIMMAX
 10
420.0
 20
297.0
  9
$UNITMODE
 70
     0
  9
$VISRETAIN
 70
     0
  9
$PLINEGEN
 70
     0
  9
$PSLTSCALE
 70
     1
  9
$TREEDEPTH
 70
  3020
  9
$PICKSTYLE
 70
     0
  9
$CMLSTYLE
  2
STANDARD
  9
$CMLJUST
 70
     0
  9
$CMLSCALE
 40
1.0
  9
$PROXYGRAPHICS
 70
     1
  9
$MEASUREMENT
 70
     1
  0
ENDSEC
  0
SECTION
  2
CLASSES
  0
CLASS
  1
XRECORD
  2
AcDbXrecord
  3
AutoCAD 2000
 90
        0
280
     0
281
     0
  0
CLASS
  1
ACDBDICTIONARYWDFLT
  2
AcDbDictionaryWithDefault
  3
AutoCAD 2000
 90
        0
280
     0
281
     0
  0
CLASS
  1
ACDBPLACEHOLDER
  2
AcDbPlaceHolder
  3
AutoCAD 2000
 90
        0
280
     0
281
     0
  0
CLASS
  1
LAYOUT
  2
AcDbLayout
  3
AutoCAD 2000
 90
        0
280
     0
281
     0
  0
CLASS
  1
DICTIONARYVAR
  2
AcDbDictionaryVar
  3
AutoCAD 2000
 90
        0
280
     0
281
     0
  0
CLASS
  1
LONG_TRANSACTION
  2
AcDbLongTransaction
  3
AutoCAD 2000
 90
        0
280
     0
281
     0
  0
CLASS
  1
LWPOLYLINE
  2
AcDbPolyline
  3
AutoCAD 2000
 90
        0
280
     0
281
     1
  0
CLASS
  1
HATCH
  2
AcDbHatch
  3
AutoCAD 2000
 90
        0
280
     0
281
     1
  0
CLASS
  1
XRECORD
  2
AcDbXrecord
  3
AutoCAD 2000
 90
        0
280
     0
281
     0
  0
ENDSEC
  0
SECTION
  2
TABLES
  0
TABLE
  2
VPORT
  5
8
330
0
100
AcDbSymbolTable
 70
     2
  0
VPORT
  5
CB4
330
8
100
AcDbSymbolTableRecord
100
AcDbViewportTableRecord
  2
*ACTIVE
 70
     0
 10
0.0
 20
0.0
 11
1.0
 21
1.0
 12
55.43838580772096
 22
12.49887138279024
 13
0.0
 23
0.0
 14
7.0
 24
7.0
 15
7.0
 25
7.0
 16
0.0
 26
0.0
 36
1.0
 17
0.0
 27
0.0
 37
0.0
 40
213.345481461562
 41
1.53185955786736
 42
50.0
 43
0.0
 44
0.0
 50
0.0
 51
0.0
 71
     0
 72
  2000
 73
     1
 74
     0
 75
     0
 76
     0
 77
     0
 78
     0
  0
ENDTAB
  0
TABLE
  2
LTYPE
  5
5
330
0
100
AcDbSymbolTable
 70
     4
  0
LTYPE
  5
14
330
5
100
AcDbSymbolTableRecord
100
AcDbLinetypeTableRecord
  2
BYBLOCK
 70
     0
  3

 72
    65
 73
     0
 40
0.0
  0
LTYPE
  5
15
330
5
100
AcDbSymbolTableRecord
100
AcDbLinetypeTableRecord
  2
BYLAYER
 70
     0
  3

 72
    65
 73
     0
 40
0.0
  0
LTYPE
  5
16
330
5
100
AcDbSymbolTableRecord
100
AcDbLinetypeTableRecord
  2
CONTINUOUS
 70
     0
  3
Solid line
 72
    65
 73
     0
 40
0.0
  0
LTYPE
  5
258
330
5
100
AcDbSymbolTableRecord
100
AcDbLinetypeTableRecord
  2
CENTER2
 70
     0
  3
___ _ ___ _ ___ _ ___ _ ___ _ ___ _ ___ _ ___ _
 72
    65
 73
     4
 40
1.125
 49
0.75
 74
     0
 49
-0.125
 74
     0
 49
0.125
 74
     0
 49
-0.125
 74
     0
  0
LTYPE
  5
25C
330
5
100
AcDbSymbolTableRecord
100
AcDbLinetypeTableRecord
  2
HIDDEN2
 70
     0
  3
_ _ _ _ _ _ _ _ _ _ _ _ _ _ _ _ _ _ _ _ _ _ _ _
 72
    65
 73
     2
 40
0.1875
 49
0.125
 74
     0
 49
-0.0625
 74
     0
  0
LTYPE
  5
25D
330
5
100
AcDbSymbolTableRecord
100
AcDbLinetypeTableRecord
  2
PHANTOM2
 70
     0
  3
___ _ _ ___ _ _ ___ _ _ ___ _ _ ___ _ _ ___ _ _
 72
    65
 73
     6
 40
1.25
 49
0.625
 74
     0
 49
-0.125
 74
     0
 49
0.125
 74
     0
 49
-0.125
 74
     0
 49
0.125
 74
     0
 49
-0.125
 74
     0
  0
ENDTAB
  0
TABLE
  2
LAYER
  5
2
330
0
100
AcDbSymbolTable
 70
    10
  0
LAYER
  5
F
330
2
100
AcDbSymbolTableRecord
100
AcDbLayerTableRecord
  2
0
 70
     0
 62
     7
  6
CONTINUOUS
  0
LAYER
  5
1AA
330
2
100
AcDbSymbolTableRecord
100
AcDbLayerTableRecord
  2
240
 70
     0
 62
     4
  6
CONTINUOUS
  0
LAYER
  5
1AB
330
2
100
AcDbSymbolTableRecord
100
AcDbLayerTableRecord
  2
241
 70
     0
 62
   211
  6
CONTINUOUS
  0
LAYER
  5
1AC
330
2
100
AcDbSymbolTableRecord
100
AcDbLayerTableRecord
  2
242
 70
     0
 62
     3
  6
CONTINUOUS
  0
LAYER
  5
1AD
330
2
100
AcDbSymbolTableRecord
100
AcDbLayerTableRecord
  2
243
 70
     0
 62
   211
  6
HIDDEN2
  0
LAYER
  5
1AF
330
2
100
AcDbSymbolTableRecord
100
AcDbLayerTableRecord
  2
245
 70
     0
 62
     2
  6
CENTER2
  0
LAYER
  5
21A
330
2
100
AcDbSymbolTableRecord
100
AcDbLayerTableRecord
  2
246
 70
     0
 62
     3
  6
PHANTOM2
  0
LAYER
  5
21B
330
2
100
AcDbSymbolTableRecord
100
AcDbLayerTableRecord
  2
247
 70
     0
 62
    60
  6
CONTINUOUS
  0
LAYER
  5
21E
330
2
100
AcDbSymbolTableRecord
100
AcDbLayerTableRecord
  2
250
 70
     0
 62
     3
  6
CONTINUOUS
  0
LAYER
  5
5C4
330
2
100
AcDbSymbolTableRecord
100
AcDbLayerTableRecord
  2
DEFPOINTS
 70
     0
 62
     7
  6
CONTINUOUS
  0
ENDTAB
  0
TABLE
  2
STYLE
  5
3
330
0
100
AcDbSymbolTable
 70
     2
  0
STYLE
  5
10
330
3
100
AcDbSymbolTableRecord
100
AcDbTextStyleTableRecord
  2
STANDARD
 70
     0
 40
0.0
 41
1.0
 50
0.0
 71
     0
 42
3.0
  3
romans.shx
  4
BIGFONT.SHX
  0
STYLE
  5
339
330
3
100
AcDbSymbolTableRecord
100
AcDbTextStyleTableRecord
  2
YOKO
 70
     0
 40
0.0
 41
1.0
 50
0.0
 71
     0
 42
3.0
  3
romans.shx
  4
extfont.shx
  0
ENDTAB
  0
TABLE
  2
VIEW
  5
6
330
0
100
AcDbSymbolTable
 70
     0
  0
ENDTAB
  0
TABLE
  2
UCS
  5
7
330
0
100
AcDbSymbolTable
 70
     0
  0
ENDTAB
  0
TABLE
  2
APPID
  5
9
330
0
100
AcDbSymbolTable
 70
     9
  0
APPID
  5
11
330
9
100
AcDbSymbolTableRecord
100
AcDbRegAppTableRecord
  2
ACAD
 70
     0
  0
APPID
  5
1B1
330
9
100
AcDbSymbolTableRecord
100
AcDbRegAppTableRecord
  2
GLOBAL
 70
     0
  0
APPID
  5
2A4
330
9
100
AcDbSymbolTableRecord
100
AcDbRegAppTableRecord
  2
DETAIL
 70
     0
  0
APPID
  5
5FD
330
9
100
AcDbSymbolTableRecord
100
AcDbRegAppTableRecord
  2
GRPNAME
 70
     0
  0
APPID
  5
5FE
330
9
100
AcDbSymbolTableRecord
100
AcDbRegAppTableRecord
  2
GPARA
 70
     0
  0
APPID
  5
6E3
330
9
100
AcDbSymbolTableRecord
100
AcDbRegAppTableRecord
  2
ITEMNAME
 70
     0
  0
APPID
  5
6E4
330
9
100
AcDbSymbolTableRecord
100
AcDbRegAppTableRecord
  2
HATCH_TYPE
 70
     0
  0
APPID
  5
6E5
330
9
100
AcDbSymbolTableRecord
100
AcDbRegAppTableRecord
  2
HATCH_DISPLAY
 70
     0
  0
APPID
  5
6E6
330
9
100
AcDbSymbolTableRecord
100
AcDbRegAppTableRecord
  2
HATCH_DISTANCE
 70
     0
  0
ENDTAB
  0
TABLE
  2
DIMSTYLE
  5
A
330
0
100
AcDbSymbolTable
 70
     2
  0
DIMSTYLE
105
48F
330
A
100
AcDbSymbolTableRecord
100
AcDbDimStyleTableRecord
  2
STANDARD
 70
     0
  3

  4

  5

  6

  7

 40
1.0
 41
2.0
 42
2.0
 43
3.75
 44
2.0
 45
0.0
 46
0.0
 47
0.0
 48
0.0
140
4.0
141
0.09
142
0.0
143
25.4
144
1.0
145
0.0
146
1.0
147
1.0
 71
     0
 72
     0
 73
     1
 74
     1
 75
     0
 76
     0
 77
     0
 78
     8
170
     0
171
     2
172
     0
173
     1
174
     0
175
     0
176
   256
177
   256
178
   256
270
     2
271
     3
272
     4
273
     2
274
     2
340
10
275
     0
280
     0
281
     0
282
     0
283
     1
284
     8
285
     0
286
     0
287
     3
288
     0
  0
DIMSTYLE
105
59A
102
{ACAD_REACTORS
330
C1F
330
C20
330
C26
330
C27
330
C28
330
C29
102
}
330
A
100
AcDbSymbolTableRecord
100
AcDbDimStyleTableRecord
  2
BIGT
 70
     0
  3

  4

  5
OPEN
  6

  7

 40
1.0
 41
2.229999999999999
 42
0.5
 43
2.5
 44
1.0
 45
0.0
 46
0.0
 47
0.0
 48
0.0
140
3.5
141
0.0
142
0.0
143
25.4
144
1.0
145
0.0
146
1.0
147
1.0
 71
     0
 72
     0
 73
     0
 74
     0
 75
     0
 76
     0
 77
     3
 78
     9
170
     0
171
     2
172
     1
173
     0
174
     0
175
     0
176
   256
177
   256
178
    40
270
     2
271
     3
272
     3
273
     2
274
     2
340
10
275
     0
280
     0
281
     0
282
     0
283
     1
284
     8
285
     0
286
     0
287
     2
288
     0
  0
ENDTAB
  0
TABLE
  2
BLOCK_RECORD
  5
1
330
0
100
AcDbSymbolTable
 70
     8
  0
BLOCK_RECORD
  5
1A
102
{ACAD_XDICTIONARY
360
CD8
102
}
330
1
100
AcDbSymbolTableRecord
100
AcDbBlockTableRecord
  2
*MODEL_SPACE
  0
BLOCK_RECORD
  5
17
102
{ACAD_XDICTIONARY
360
CD6
102
}
330
1
100
AcDbSymbolTableRecord
100
AcDbBlockTableRecord
  2
*PAPER_SPACE
  0
BLOCK_RECORD
  5
594
330
1
100
AcDbSymbolTableRecord
100
AcDbBlockTableRecord
  2
_OPEN
  0
BLOCK_RECORD
  5
9D5
330
1
100
AcDbSymbolTableRecord
100
AcDbBlockTableRecord
  2
A$C45593794
  0
BLOCK_RECORD
  5
C2A
330
1
100
AcDbSymbolTableRecord
100
AcDbBlockTableRecord
  2
*D2
  0
BLOCK_RECORD
  5
C36
330
1
100
AcDbSymbolTableRecord
100
AcDbBlockTableRecord
  2
*D3
  0
BLOCK_RECORD
  5
C42
330
1
100
AcDbSymbolTableRecord
100
AcDbBlockTableRecord
  2
*D4
  0
BLOCK_RECORD
  5
C4E
330
1
100
AcDbSymbolTableRecord
100
AcDbBlockTableRecord
  2
*D5
  0
BLOCK_RECORD
  5
C5A
330
1
100
AcDbSymbolTableRecord
100
AcDbBlockTableRecord
  2
*D6
  0
BLOCK_RECORD
  5
C66
330
1
100
AcDbSymbolTableRecord
100
AcDbBlockTableRecord
  2
*D7
  0
ENDTAB
  0
ENDSEC
  0
SECTION
  2
BLOCKS
  0
BLOCK
  5
1B
330
1A
100
AcDbEntity
  8
0
100
AcDbBlockBegin
  2
*MODEL_SPACE
 70
     0
 10
0.0
 20
0.0
 30
0.0
  3
*MODEL_SPACE
  1

  0
ENDBLK
  5
1C
330
1A
100
AcDbEntity
  8
0
100
AcDbBlockEnd
  0
BLOCK
  5
18
330
17
100
AcDbEntity
 67
     1
  8
0
100
AcDbBlockBegin
  2
*PAPER_SPACE
 70
     0
 10
0.0
 20
0.0
 30
0.0
  3
*PAPER_SPACE
  1

  0
ENDBLK
  5
19
330
17
100
AcDbEntity
 67
     1
  8
0
100
AcDbBlockEnd
  0
BLOCK
  5
598
330
594
100
AcDbEntity
  8
0
100
AcDbBlockBegin
  2
_OPEN
 70
     0
 10
0.0
 20
0.0
 30
0.0
  3
_OPEN
  1

  0
LINE
  5
595
330
594
100
AcDbEntity
  8
0
  6
BYBLOCK
 62
     0
100
AcDbLine
 10
-1.0
 20
0.1666666666666666
 30
0.0
 11
0.0
 21
0.0
 31
0.0
  0
LINE
  5
596
330
594
100
AcDbEntity
  8
0
  6
BYBLOCK
 62
     0
100
AcDbLine
 10
-1.0
 20
-0.1666666666666666
 30
0.0
 11
0.0
 21
0.0
 31
0.0
  0
LINE
  5
597
330
594
100
AcDbEntity
  8
0
  6
BYBLOCK
 62
     0
100
AcDbLine
 10
0.0
 20
0.0
 30
0.0
 11
-1.0
 21
0.0
 31
0.0
  0
ENDBLK
  5
599
330
594
100
AcDbEntity
  8
0
100
AcDbBlockEnd
  0
BLOCK
  5
AC6
330
9D5
100
AcDbEntity
  8
0
100
AcDbBlockBegin
  2
A$C45593794
 70
     0
 10
0.0
 20
0.0
 30
0.0
  3
A$C45593794
  1

  0
LINE
  5
9D6
330
9D5
100
AcDbEntity
  8
245
100
AcDbLine
 10
-107.133339948908
 20
0.0
 30
0.0
 11
203.6790978728599
 21
0.0
 31
0.0
  0
LINE
  5
9D7
330
9D5
100
AcDbEntity
  8
240
100
AcDbLine
 10
0.0
 20
34.92500000000041
 30
0.0
 11
2.999999999999602
 21
34.92500000000046
 31
0.0
  0
LINE
  5
9D8
330
9D5
100
AcDbEntity
  8
240
100
AcDbLine
 10
-0.0000000000002274
 20
-34.92499999999961
 30
0.0
 11
2.999999999999602
 21
-34.92499999999961
 31
0.0
  0
LINE
  5
9D9
330
9D5
100
AcDbEntity
  8
240
100
AcDbLine
 10
-101.8
 20
19.21442226369782
 30
0.0
 11
-101.8000000000001
 21
-19.21442226369623
 31
0.0
  0
LINE
  5
9DA
330
9D5
100
AcDbEntity
  8
241
100
AcDbLine
 10
0.0
 20
-34.92499999999961
 30
0.0
 11
0.0
 21
34.92500000000041
 31
0.0
  0
LINE
  5
9DB
330
9D5
100
AcDbEntity
  8
240
100
AcDbLine
 10
-0.0000000000002274
 20
-34.92499999999961
 30
0.0
 11
-100.9443068930718
 21
-20.20395524475947
 31
0.0
  0
ARC
  5
9DC
330
9D5
100
AcDbEntity
  8
240
100
AcDbCircle
 10
-100.8000000000001
 20
-19.21442226369623
 30
0.0
 40
1.0
100
AcDbArc
 50
180.0
 51
261.7028550301631
  0
LINE
  5
9DD
330
9D5
100
AcDbEntity
  8
240
100
AcDbLine
 10
0.0
 20
34.92500000000041
 30
0.0
 11
-100.9443068930717
 21
20.20395524476112
 31
0.0
  0
ARC
  5
9DE
330
9D5
100
AcDbEntity
  8
240
100
AcDbCircle
 10
-100.8
 20
19.21442226369782
 30
0.0
 40
0.9999999999999818
100
AcDbArc
 50
98.29714496983683
 51
180.0
  0
TEXT
  5
9DF
330
9D5
100
AcDbEntity
  8
247
100
AcDbText
 10
12.69999999999962
 20
-12.28678511522821
 30
0.0
 40
3.0
  1
BT50-NBS6-200
 50
90.0
  7
YOKO
 11
12.69999999999962
 21
-12.28678511522821
 31
0.0
100
AcDbText
 73
     1
  0
LINE
  5
9E0
330
9D5
100
AcDbEntity
  8
241
100
AcDbLine
 10
190.8
 20
-7.550000000000011
 30
0.0
 11
190.8
 21
0.0
 31
0.0
  0
LINE
  5
9E1
330
9D5
100
AcDbEntity
  8
241
100
AcDbLine
 10
188.0
 20
-5.5
 30
0.0
 11
188.0
 21
0.0
 31
0.0
  0
LINE
  5
9E2
330
9D5
100
AcDbEntity
  8
241
100
AcDbLine
 10
190.5
 20
-6.0
 30
0.0
 11
190.5
 21
0.0
 31
0.0
  0
LINE
  5
9E3
330
9D5
100
AcDbEntity
  8
241
100
AcDbLine
 10
186.0
 20
-7.000000000000056
 30
0.0
 11
186.0
 21
0.0
 31
0.0
  0
LINE
  5
9E4
330
9D5
100
AcDbEntity
  8
240
100
AcDbLine
 10
200.0
 20
-9.092893218813458
 30
0.0
 11
200.0
 21
0.0
 31
0.0
  0
LINE
  5
9E5
330
9D5
100
AcDbEntity
  8
241
100
AcDbLine
 10
199.0514718625761
 20
-9.649952696310322
 30
0.0
 11
199.0514718625761
 21
9.602649006622527
 31
0.0
  0
LINE
  5
9E6
330
9D5
100
AcDbEntity
  8
241
100
AcDbLine
 10
38.00000000000008
 20
24.75
 30
0.0
 11
38.00000000000002
 21
-24.75000000000005
 31
0.0
  0
LINE
  5
9E7
330
9D5
100
AcDbEntity
  8
241
100
AcDbLine
 10
2.999999999999602
 20
-34.92499999999961
 30
0.0
 11
2.999999999999602
 21
34.92500000000035
 31
0.0
  0
LINE
  5
9E8
330
9D5
100
AcDbEntity
  8
241
100
AcDbLine
 10
19.94352447854345
 20
42.49999999999943
 30
0.0
 11
19.94352447854345
 21
-42.49999999999966
 31
0.0
  0
LINE
  5
9E9
330
9D5
100
AcDbEntity
  8
241
100
AcDbLine
 10
26.45647552145595
 20
42.49999999999943
 30
0.0
 11
26.45647552145595
 21
-42.49999999999966
 31
0.0
  0
LINE
  5
9EA
330
9D5
100
AcDbEntity
  8
241
100
AcDbLine
 10
15.69999999999964
 20
-49.99999999999966
 30
0.0
 11
15.69999999999964
 21
49.99999999999943
 31
0.0
  0
LINE
  5
9EB
330
9D5
100
AcDbEntity
  8
241
100
AcDbLine
 10
30.69999999999959
 20
-49.99999999999971
 30
0.0
 11
30.69999999999959
 21
49.99999999999943
 31
0.0
  0
ARC
  5
9EC
330
9D5
100
AcDbEntity
  8
240
100
AcDbCircle
 10
187.0
 20
-7.000000000000056
 30
0.0
 40
1.000000000000014
100
AcDbArc
 50
90.0
 51
180.0
  0
LINE
  5
9ED
330
9D5
100
AcDbEntity
  8
240
100
AcDbLine
 10
185.0
 20
-9.75
 30
0.0
 11
53.00000000000003
 21
-9.750000000000056
 31
0.0
  0
ARC
  5
9EE
330
9D5
100
AcDbEntity
  8
240
100
AcDbCircle
 10
53.00000000000003
 20
-24.75000000000005
 30
0.0
 40
15.0
100
AcDbArc
 50
90.0
 51
180.0
  0
LINE
  5
9EF
330
9D5
100
AcDbEntity
  8
240
100
AcDbLine
 10
38.0
 20
-48.7000000000001
 30
0.0
 11
38.00000000000002
 21
-24.75000000000005
 31
0.0
  0
LINE
  5
9F0
330
9D5
100
AcDbEntity
  8
240
100
AcDbLine
 10
2.999999999999715
 20
-34.92499999999961
 30
0.0
 11
2.999999999999658
 21
-48.69999999999965
 31
0.0
  0
LINE
  5
9F1
330
9D5
100
AcDbEntity
  8
243
100
AcDbLine
 10
33.99999999999994
 20
-35.30000000000012
 30
0.0
 11
34.0
 21
-49.99999999999971
 31
0.0
  0
LINE
  5
9F2
330
9D5
100
AcDbEntity
  8
240
100
AcDbLine
 10
26.19666790032062
 20
-42.49999999999966
 30
0.0
 11
20.20333209967879
 21
-42.49999999999966
 31
0.0
  0
LINE
  5
9F3
330
9D5
100
AcDbEntity
  8
240
100
AcDbLine
 10
15.69999999999964
 20
-49.99999999999966
 30
0.0
 11
4.299999999999613
 21
-49.99999999999966
 31
0.0
  0
ARC
  5
9F4
330
9D5
100
AcDbEntity
  8
240
100
AcDbCircle
 10
4.299999999999613
 20
-48.69999999999965
 30
0.0
 40
1.300000000000011
100
AcDbArc
 50
180.0
 51
270.0
  0
LINE
  5
9F5
330
9D5
100
AcDbEntity
  8
240
100
AcDbLine
 10
19.94352447854345
 20
-42.64999999999964
 30
0.0
 11
15.69999999999964
 21
-49.99999999999966
 31
0.0
  0
ARC
  5
9F6
330
9D5
100
AcDbEntity
  8
240
100
AcDbCircle
 10
20.20333209967873
 20
-42.79999999999967
 30
0.0
 40
0.3000000000000114
100
AcDbArc
 50
89.99999999998861
 51
149.9999999999885
  0
LINE
  5
9F7
330
9D5
100
AcDbEntity
  8
240
100
AcDbLine
 10
30.69999999999959
 20
-49.99999999999971
 30
0.0
 11
36.69999999999964
 21
-49.99999999999977
 31
0.0
  0
LINE
  5
9F8
330
9D5
100
AcDbEntity
  8
240
100
AcDbLine
 10
26.45647552145595
 20
-42.64999999999969
 30
0.0
 11
30.69999999999959
 21
-49.99999999999971
 31
0.0
  0
ARC
  5
9F9
330
9D5
100
AcDbEntity
  8
240
100
AcDbCircle
 10
26.19666790032056
 20
-42.79999999999967
 30
0.0
 40
0.3000000000000428
100
AcDbArc
 50
29.99999999999246
 51
89.99999999998861
  0
ARC
  5
9FA
330
9D5
100
AcDbEntity
  8
240
100
AcDbCircle
 10
36.69999999999999
 20
-48.7000000000001
 30
0.0
 40
1.300000000000011
100
AcDbArc
 50
270.0
 51
0.0
  0
LINE
  5
9FB
330
9D5
100
AcDbEntity
  8
243
100
AcDbLine
 10
33.99999999999994
 20
-35.30000000000012
 30
0.0
 11
2.999999999999943
 21
-35.30000000000012
 31
0.0
  0
ARC
  5
9FC
102
{ACAD_REACTORS
330
A11
102
}
330
9D5
100
AcDbEntity
  8
247
100
AcDbCircle
 10
11.29216510462964
 20
-20.35018823288851
 30
0.0
 40
1.313568115234375
100
AcDbArc
 50
253.9997507017277
 51
34.96387329163082
  0
LINE
  5
9FD
330
9D5
100
AcDbEntity
  8
247
100
AcDbLine
 10
8.968175236465583
 20
-22.45883081101351
 30
0.0
 11
8.968175236465583
 21
-21.40768335007601
 31
0.0
  0
ARC
  5
9FE
102
{ACAD_REACTORS
330
A11
102
}
330
9D5
100
AcDbEntity
  8
247
100
AcDbCircle
 10
10.28172809291089
 20
-20.06045434616976
 30
0.0
 40
1.313554763793945
100
AcDbArc
 50
143.4440121970578
 51
254.0001843876854
  0
POLYLINE
  5
9FF
102
{ACAD_REACTORS
330
A2A
102
}
330
9D5
100
AcDbEntity
  8
247
100
AcDb2dPolyline
 66
     1
 10
0.0
 20
0.0
 30
0.0
 70
     1
  0
VERTEX
  5
A00
330
9FF
100
AcDbEntity
  8
247
  6
CONTINUOUS
100
AcDbVertex
100
AcDb2dVertex
 10
8.968175236465583
 20
-22.45883081101351
 30
0.0
  0
VERTEX
  5
A01
330
9FF
100
AcDbEntity
  8
247
  6
CONTINUOUS
100
AcDbVertex
100
AcDb2dVertex
 10
9.412755314590583
 20
-22.5863179936307
 30
0.0
  0
VERTEX
  5
A02
330
9FF
100
AcDbEntity
  8
247
  6
CONTINUOUS
100
AcDbVertex
100
AcDb2dVertex
 10
9.412755314590583
 20
-22.43914697312288
 30
0.0
  0
VERTEX
  5
A03
330
9FF
100
AcDbEntity
  8
247
  6
CONTINUOUS
100
AcDbVertex
100
AcDb2dVertex
 10
12.60571843791211
 20
-23.35472009324007
 30
0.0
  0
VERTEX
  5
A04
330
9FF
100
AcDbEntity
  8
247
  6
CONTINUOUS
100
AcDbVertex
100
AcDb2dVertex
 10
12.60571843791211
 20
-22.45072839402132
 30
0.0
  0
VERTEX
  5
A05
330
9FF
100
AcDbEntity
  8
247
  6
CONTINUOUS
100
AcDbVertex
100
AcDb2dVertex
 10
8.968175236465583
 20
-21.40768335007601
 30
0.0
  0
SEQEND
  5
A06
330
9FF
100
AcDbEntity
  8
247
  6
CONTINUOUS
  0
POLYLINE
  5
A07
330
9D5
100
AcDbEntity
  8
247
100
AcDb2dPolyline
 66
     1
 10
0.0
 20
0.0
 30
0.0
 70
     1
1001
HATCH_DISTANCE
1040
1.0
1001
HATCH_DISPLAY
1070
     0
1001
HATCH_TYPE
1070
     7
  0
VERTEX
  5
A08
330
A07
100
AcDbEntity
  8
247
  6
CONTINUOUS
100
AcDbVertex
100
AcDb2dVertex
 10
8.968175236465583
 20
-22.45883081101351
 30
0.0
  0
VERTEX
  5
A09
330
A07
100
AcDbEntity
  8
247
  6
CONTINUOUS
100
AcDbVertex
100
AcDb2dVertex
 10
9.412755314590583
 20
-22.5863179936307
 30
0.0
  0
VERTEX
  5
A0A
330
A07
100
AcDbEntity
  8
247
  6
CONTINUOUS
100
AcDbVertex
100
AcDb2dVertex
 10
9.412755314590583
 20
-22.43914697312288
 30
0.0
  0
VERTEX
  5
A0B
330
A07
100
AcDbEntity
  8
247
  6
CONTINUOUS
100
AcDbVertex
100
AcDb2dVertex
 10
12.60571843791211
 20
-23.35472009324007
 30
0.0
  0
VERTEX
  5
A0C
330
A07
100
AcDbEntity
  8
247
  6
CONTINUOUS
100
AcDbVertex
100
AcDb2dVertex
 10
12.60571843791211
 20
-22.45072839402132
 30
0.0
  0
VERTEX
  5
A0D
330
A07
100
AcDbEntity
  8
247
  6
CONTINUOUS
100
AcDbVertex
100
AcDb2dVertex
 10
8.968175236465583
 20
-21.40768335007601
 30
0.0
  0
SEQEND
  5
A0E
330
A07
100
AcDbEntity
  8
247
  6
CONTINUOUS
  0
LINE
  5
A0F
330
9D5
100
AcDbEntity
  8
247
100
AcDbLine
 10
12.60571843791211
 20
-22.45072839402132
 30
0.0
 11
8.968175236465583
 21
-21.40768335007601
 31
0.0
  0
ARC
  5
A10
102
{ACAD_REACTORS
330
A11
102
}
330
9D5
100
AcDbEntity
  8
247
100
AcDbCircle
 10
11.36122638392652
 20
-18.20257470749794
 30
0.0
 40
3.43743896484375
100
AcDbArc
 50
245.2051773698423
 51
262.7948259620506
  0
HATCH
  5
A11
330
9D5
100
AcDbEntity
  8
247
100
AcDbHatch
 10
0.0
 20
0.0
 30
0.0
210
0.0
220
0.0
230
1.0
  2
ANSI31
 70
     0
 71
     1
 91
        1
 92
       33
 93
       15
 72
     1
 10
9.485066715957771
 20
-18.87527368210726
 11
9.099065129043708
 21
-18.99699304245882
 72
     2
 10
11.09007770228589
 20
-18.26327417038856
 40
1.717732429504394
 50
200.8721834020736
 51
222.5419489373881
 73
     1
 72
     2
 10
9.837148014785896
 20
-19.84887597702913
 40
0.4243833422660828
 50
91.71012138206434
 51
253.9983983544486
 73
     1
 72
     1
 10
11.61977130580152
 20
-20.80152795456819
 11
9.720158879043708
 21
-20.25681970261507
 72
     2
 10
11.73674518275464
 20
-20.39358422898226
 40
0.4243830442428589
 50
254.0002730571842
 51
434.0002730571843
 73
     1
 72
     1
 10
11.85371905970777
 20
-19.98564050339632
 11
10.94861346888745
 21
-19.72610376023226
 72
     1
 10
10.94861346888745
 20
-20.06246850632601
 11
10.94861346888745
 21
-19.72610376023226
 72
     1
 10
10.94861346888745
 20
-20.06246850632601
 11
10.54443866419995
 21
-19.94657800339632
 72
     1
 10
10.54443866419995
 20
-19.94657800339632
 11
10.54443866419995
 21
-18.76928613327919
 72
     1
 10
12.60571843791211
 20
-19.36035058640413
 11
10.54443866419995
 21
-18.76928613327919
 72
     1
 10
12.36864263224805
 20
-19.59744165085726
 11
12.60571843791211
 21
-19.36035058640413
 72
     2
 10
11.29216510462964
 20
-20.35018823288851
 40
1.313568115234375
 50
253.9997507017277
 51
394.9638732916308
 73
     1
 72
     2
 10
11.36122638392652
 20
-18.20257470749794
 40
3.43743896484375
 50
245.2051773698423
 51
262.7948259620506
 73
     1
 72
     2
 10
10.28172809291089
 20
-20.06045434616976
 40
1.313554763793945
 50
143.4440121970578
 51
254.0001843876854
 73
     1
 72
     2
 10
11.09007770228589
 20
-18.26327417038856
 40
2.121903419494628
 50
200.2296450633201
 51
208.5716889237166
 73
     1
 97
       15
330
A59
330
A3D
330
A3C
330
A3E
330
A60
330
A5B
330
A5D
330
A5E
330
A5C
330
A5A
330
A5F
330
9FC
330
A10
330
9FE
330
A58
 75
     0
 76
     1
 52
90.0
 41
0.1
 77
     0
 78
     1
 53
135.0
 43
28.96197063136304
 44
-148.3898599400418
 45
-0.2245064030267288
 46
-0.2245064030267288
 79
     0
 98
        1
 10
28.96197063136304
 20
-148.3898599400418
  0
LINE
  5
A12
102
{ACAD_REACTORS
330
A14
102
}
330
9D5
100
AcDbEntity
  8
247
100
AcDbLine
 10
12.80780584025586
 20
-26.46797082566195
 30
0.0
 11
12.80780584025586
 21
-18.26327417038856
 31
0.0
  0
LINE
  5
A13
102
{ACAD_REACTORS
330
A14
102
}
330
9D5
100
AcDbEntity
  8
247
100
AcDbLine
 10
13.21198063454147
 20
-26.46797082566195
 30
0.0
 11
13.21198063454147
 21
-18.26327417038856
 31
0.0
  0
HATCH
  5
A14
330
9D5
100
AcDbEntity
  8
247
100
AcDbHatch
 10
0.0
 20
0.0
 30
0.0
210
0.0
220
0.0
230
1.0
  2
ANSI31
 70
     0
 71
     1
 91
        1
 92
       33
 93
       10
 72
     1
 10
8.968175236465583
 20
-25.63329980515414
 11
9.372350041153083
 21
-25.74919030808382
 72
     1
 10
8.968175236465583
 20
-26.46797082566195
 11
8.968175236465583
 21
-25.63329980515414
 72
     1
 10
9.372350041153083
 20
-26.46797082566195
 11
9.372350041153083
 21
-25.74919030808382
 72
     2
 10
11.09007770228589
 20
-26.46797082566195
 40
1.717727661132812
 50
180.0
 51
360.0
 73
     1
 72
     2
 10
11.09007770228589
 20
-26.46797082566195
 40
2.121902465820312
 50
180.0
 51
360.0
 73
     1
 72
     1
 10
13.21198063454147
 20
-26.46797082566195
 11
13.21198063454147
 21
-18.26327417038856
 72
     1
 10
12.80780584025586
 20
-26.46797082566195
 11
12.80780584025586
 21
-18.26327417038856
 72
     2
 10
11.09007770228589
 20
-18.26327417038856
 40
2.121902465820312
 50
0.0
 51
194.7707939660939
 73
     1
 72
     2
 10
11.09007770228589
 20
-18.26327417038856
 40
1.717727661132812
 50
0.0
 51
194.1274364964119
 73
     1
 72
     1
 10
9.424290959121833
 20
-18.68253991745888
 11
9.038289372207771
 21
-18.80425927781038
 97
       10
330
A20
330
A21
330
A22
330
A17
330
A16
330
A13
330
A12
330
A3A
330
A3B
330
A3F
 75
     0
 76
     1
 52
90.0
 41
0.1
 77
     0
 78
     1
 53
135.0
 43
28.96197063136304
 44
-148.3898599400418
 45
-0.2245064030267288
 46
-0.2245064030267288
 79
     0
 98
        1
 10
28.96197063136304
 20
-148.3898599400418
  0
ARC
  5
A15
330
9D5
100
AcDbEntity
  8
247
100
AcDbCircle
 10
11.59529620814527
 20
-24.57864282273226
 30
0.0
 40
1.010421752929687
100
AcDbArc
 50
0.0
 51
130.3298406541676
  0
ARC
  5
A16
102
{ACAD_REACTORS
330
A14
102
}
330
9D5
100
AcDbEntity
  8
247
100
AcDbCircle
 10
11.09007770228589
 20
-26.46797082566195
 30
0.0
 40
2.121902465820312
100
AcDbArc
 50
180.0
 51
0.0
  0
ARC
  5
A17
102
{ACAD_REACTORS
330
A14
102
}
330
9D5
100
AcDbEntity
  8
247
100
AcDbCircle
 10
11.09007770228589
 20
-26.46797082566195
 30
0.0
 40
1.717727661132812
100
AcDbArc
 50
180.0
 51
0.0
  0
LINE
  5
A18
330
9D5
100
AcDbEntity
  8
247
100
AcDbLine
 10
12.60571843791211
 20
-26.06658551797488
 30
0.0
 11
11.45634189566726
 21
-24.91720897573009
 31
0.0
  0
LINE
  5
A19
330
9D5
100
AcDbEntity
  8
247
100
AcDbLine
 10
12.24159947790784
 20
-26.15147936402411
 30
0.0
 11
10.5314935160112
 21
-24.44137340212751
 31
0.0
  0
LINE
  5
A1A
330
9D5
100
AcDbEntity
  8
247
100
AcDbLine
 10
12.60571843791211
 20
-25.61757271192152
 30
0.0
 11
12.0858595627499
 21
-25.09771383675922
 31
0.0
  0
LINE
  5
A1B
330
9D5
100
AcDbEntity
  8
247
100
AcDbLine
 10
12.60571843791211
 20
-26.25588891648226
 30
0.0
 11
12.60571843791211
 21
-24.57864282273226
 31
0.0
  0
LINE
  5
A1C
330
9D5
100
AcDbEntity
  8
247
100
AcDbLine
 10
10.35301857303954
 20
-25.60993687731615
 30
0.0
 11
8.968175236465725
 21
-24.22509354074236
 31
0.0
  0
LINE
  5
A1D
330
9D5
100
AcDbEntity
  8
247
100
AcDbLine
 10
12.60571843791211
 20
-26.25588891648226
 30
0.0
 11
9.372350041154277
 21
-25.32873437546709
 31
0.0
  0
LINE
  5
A1E
330
9D5
100
AcDbEntity
  8
247
100
AcDbLine
 10
11.61207250961842
 20
-25.97096520178808
 30
0.0
 11
10.19728690393861
 21
-24.55617959610833
 31
0.0
  0
LINE
  5
A1F
330
9D5
100
AcDbEntity
  8
247
100
AcDbLine
 10
10.98254554132898
 20
-25.79045103955218
 30
0.0
 11
9.567765893925326
 21
-24.37567139214843
 31
0.0
  0
LINE
  5
A20
102
{ACAD_REACTORS
330
A14
102
}
330
9D5
100
AcDbEntity
  8
247
100
AcDbLine
 10
8.968175236465583
 20
-25.63329980515414
 30
0.0
 11
9.372350041153083
 21
-25.74919030808382
 31
0.0
  0
LINE
  5
A21
102
{ACAD_REACTORS
330
A14
102
}
330
9D5
100
AcDbEntity
  8
247
100
AcDbLine
 10
8.968175236465583
 20
-26.46797082566195
 30
0.0
 11
8.968175236465583
 21
-25.63329980515414
 31
0.0
  0
LINE
  5
A22
102
{ACAD_REACTORS
330
A14
102
}
330
9D5
100
AcDbEntity
  8
247
100
AcDbLine
 10
9.372350041153083
 20
-26.46797082566195
 30
0.0
 11
9.372350041153083
 21
-25.74919030808382
 31
0.0
  0
LINE
  5
A23
330
9D5
100
AcDbEntity
  8
247
100
AcDbLine
 10
10.0627963416407
 20
-23.972676227757
 30
0.0
 11
9.386448824886031
 21
-23.29632871100227
 31
0.0
  0
LINE
  5
A24
330
9D5
100
AcDbEntity
  8
247
100
AcDbLine
 10
9.723491604750108
 20
-25.42942271508024
 30
0.0
 11
8.968175236465668
 21
-24.67410634679572
 31
0.0
  0
LINE
  5
A25
330
9D5
100
AcDbEntity
  8
247
100
AcDbLine
 10
12.60571843791211
 20
-23.35472009324007
 30
0.0
 11
9.412755314590583
 21
-22.43914697312288
 31
0.0
  0
LINE
  5
A26
330
9D5
100
AcDbEntity
  8
247
100
AcDbLine
 10
9.382914148697693
 20
-24.32266719371966
 30
0.0
 11
10.53802994073157
 21
-24.65388390240628
 31
0.0
  0
ARC
  5
A27
330
9D5
100
AcDbEntity
  8
247
100
AcDbCircle
 10
9.938191715957771
 20
-24.56597802781038
 30
0.0
 40
0.6062452793121338
100
AcDbArc
 50
351.6626016879293
 51
156.3381550951899
  0
ARC
  5
A28
330
9D5
100
AcDbEntity
  8
247
100
AcDbCircle
 10
9.978596989395271
 20
-24.11506555222445
 30
0.0
 40
1.010430335998535
100
AcDbArc
 50
17.66957754739816
 51
180.2361598426716
  0
LINE
  5
A29
330
9D5
100
AcDbEntity
  8
247
100
AcDbLine
 10
11.13314516820764
 20
-24.59401224827036
 30
0.0
 11
9.68681422474134
 21
-23.1476813048041
 31
0.0
  0
HATCH
  5
A2A
330
9D5
100
AcDbEntity
  8
247
100
AcDbHatch
 10
0.0
 20
0.0
 30
0.0
210
0.0
220
0.0
230
1.0
  2
ANSI31
 70
     0
 71
     1
 91
        1
 92
        7
 72
     0
 73
     1
 93
        6
 10
8.968175236465583
 20
-21.40768335007601
 10
8.968175236465585
 20
-22.45883081101351
 10
9.412755314590585
 20
-22.58631799363069
 10
9.412755314590581
 20
-22.43914697312288
 10
12.60571843791211
 20
-23.35472009324007
 10
12.60571843791211
 20
-22.45072839402133
 97
        1
330
9FF
 75
     0
 76
     1
 52
90.0
 41
0.1
 77
     0
 78
     1
 53
135.0
 43
28.96197063136304
 44
-148.3898599400418
 45
-0.2245064030267288
 46
-0.2245064030267288
 79
     0
 47
0.0134348504236232
 98
        1
 10
10.69169962313054
 20
-22.35266561501487
  0
LINE
  5
A2B
330
9D5
100
AcDbEntity
  8
247
100
AcDbLine
 10
9.665587270221294
 20
-24.02447996239095
 30
0.0
 11
9.161611158830567
 21
-23.52050385100028
 31
0.0
  0
LINE
  5
A2C
330
9D5
100
AcDbEntity
  8
247
100
AcDbLine
 10
9.429018845698863
 20
-24.23692434392205
 30
0.0
 11
9.012182206186423
 21
-23.82008770440961
 31
0.0
  0
LINE
  5
A2D
330
9D5
100
AcDbEntity
  8
247
100
AcDbLine
 10
8.968175236465583
 20
-25.42307946823985
 30
0.0
 11
8.968175236465725
 21
-24.11923029866045
 31
0.0
  0
LINE
  5
A2E
330
9D5
100
AcDbEntity
  8
247
100
AcDbLine
 10
8.968175236465583
 20
-25.42307946823985
 30
0.0
 11
9.372350041153083
 21
-25.53896997117021
 31
0.0
  0
LINE
  5
A2F
330
9D5
100
AcDbEntity
  8
247
100
AcDbLine
 10
9.37235004115314
 20
-25.5272939575367
 30
0.0
 11
8.968175236465611
 21
-25.1231191528492
 31
0.0
  0
LINE
  5
A30
330
9D5
100
AcDbEntity
  8
247
100
AcDbLine
 10
9.372350041153083
 20
-25.53896997117021
 30
0.0
 11
9.372350041154277
 21
-25.32873437546709
 31
0.0
  0
LINE
  5
A31
330
9D5
100
AcDbEntity
  8
247
100
AcDbLine
 10
9.412755314590583
 20
-22.5863179936307
 30
0.0
 11
8.968175236465583
 21
-22.45883081101351
 31
0.0
  0
LINE
  5
A32
330
9D5
100
AcDbEntity
  8
247
100
AcDbLine
 10
9.412755314590583
 20
-22.5863179936307
 30
0.0
 11
9.412755314590583
 21
-22.43914697312288
 31
0.0
  0
LINE
  5
A33
330
9D5
100
AcDbEntity
  8
247
100
AcDbLine
 10
12.60571843791214
 20
-24.71954709981457
 30
0.0
 11
11.46308014810011
 21
-23.57690881000257
 31
0.0
  0
LINE
  5
A34
330
9D5
100
AcDbEntity
  8
247
100
AcDbLine
 10
12.60571843791211
 20
-25.16855990586805
 30
0.0
 11
11.12270918476849
 21
-23.68555065272437
 31
0.0
  0
ARC
  5
A35
330
9D5
100
AcDbEntity
  8
247
100
AcDbCircle
 10
11.5548756759187
 20
-25.0295552983182
 30
0.0
 40
0.6062626242637635
100
AcDbArc
 50
351.6628542111488
 51
156.3381921591137
  0
LINE
  5
A36
330
9D5
100
AcDbEntity
  8
247
100
AcDbLine
 10
10.99958128538739
 20
-24.78623964032715
 30
0.0
 11
12.15473133930962
 21
-25.11746179794727
 31
0.0
  0
LINE
  5
A37
330
9D5
100
AcDbEntity
  8
247
100
AcDbLine
 10
12.52996169456253
 20
-24.19477755041146
 30
0.0
 11
11.97916148046607
 21
-23.64397733631506
 31
0.0
  0
LINE
  5
A38
330
9D5
100
AcDbEntity
  8
247
100
AcDbLine
 10
12.60571843791211
 20
-23.35472009324007
 30
0.0
 11
12.60571843791211
 21
-22.45072839402132
 31
0.0
  0
LINE
  5
A39
330
9D5
100
AcDbEntity
  8
247
100
AcDbLine
 10
11.42542084116973
 20
-24.43727511517909
 30
0.0
 11
10.1001146065945
 21
-23.11196888060385
 31
0.0
  0
ARC
  5
A3A
102
{ACAD_REACTORS
330
A14
102
}
330
9D5
100
AcDbEntity
  8
247
100
AcDbCircle
 10
11.09007770228589
 20
-18.26327417038856
 30
0.0
 40
2.121902465820312
100
AcDbArc
 50
0.0
 51
194.7707939660939
  0
ARC
  5
A3B
102
{ACAD_REACTORS
330
A14
102
}
330
9D5
100
AcDbEntity
  8
247
100
AcDbCircle
 10
11.09007770228589
 20
-18.26327417038856
 30
0.0
 40
1.717727661132812
100
AcDbArc
 50
0.0
 51
194.1274364964119
  0
ARC
  5
A3C
102
{ACAD_REACTORS
330
A11
102
}
330
9D5
100
AcDbEntity
  8
247
100
AcDbCircle
 10
9.837148014785896
 20
-19.84887597702913
 30
0.0
 40
0.4243833422660828
100
AcDbArc
 50
91.71012138206434
 51
253.9983983544486
  0
ARC
  5
A3D
102
{ACAD_REACTORS
330
A11
102
}
330
9D5
100
AcDbEntity
  8
247
100
AcDbCircle
 10
11.09007770228589
 20
-18.26327417038856
 30
0.0
 40
1.717732429504394
100
AcDbArc
 50
200.8721834020736
 51
222.5419489373881
  0
LINE
  5
A3E
102
{ACAD_REACTORS
330
A11
102
}
330
9D5
100
AcDbEntity
  8
247
100
AcDbLine
 10
11.61977130580152
 20
-20.80152795456819
 30
0.0
 11
9.720158879043708
 21
-20.25681970261507
 31
0.0
  0
LINE
  5
A3F
102
{ACAD_REACTORS
330
A14
102
}
330
9D5
100
AcDbEntity
  8
247
100
AcDbLine
 10
9.424290959121833
 20
-18.68253991745888
 30
0.0
 11
9.038289372207771
 21
-18.80425927781038
 31
0.0
  0
POLYLINE
  5
A40
330
9D5
100
AcDbEntity
  8
247
100
AcDb2dPolyline
 66
     1
 10
0.0
 20
0.0
 30
0.0
 70
     1
  0
VERTEX
  5
A41
330
A40
100
AcDbEntity
  8
247
  6
CONTINUOUS
100
AcDbVertex
100
AcDb2dVertex
 10
9.424290959121833
 20
-18.68253991745888
 30
0.0
  0
VERTEX
  5
A42
330
A40
100
AcDbEntity
  8
247
  6
CONTINUOUS
100
AcDbVertex
100
AcDb2dVertex
 10
9.038289372207771
 20
-18.80425927781038
 30
0.0
  0
VERTEX
  5
A43
330
A40
100
AcDbEntity
  8
247
  6
CONTINUOUS
100
AcDbVertex
100
AcDb2dVertex
 10
9.038289372207771
 20
-18.80425927781038
 30
0.0
  0
VERTEX
  5
A44
330
A40
100
AcDbEntity
  8
247
  6
CONTINUOUS
100
AcDbVertex
100
AcDb2dVertex
 10
9.424290959121833
 20
-18.68253991745888
 30
0.0
  0
SEQEND
  5
A45
330
A40
100
AcDbEntity
  8
247
  6
CONTINUOUS
  0
POLYLINE
  5
A46
330
9D5
100
AcDbEntity
  8
247
100
AcDb2dPolyline
 66
     1
 10
0.0
 20
0.0
 30
0.0
 70
     1
1001
HATCH_DISTANCE
1040
1.0
1001
HATCH_DISPLAY
1070
     0
1001
HATCH_TYPE
1070
     7
  0
VERTEX
  5
A47
330
A46
100
AcDbEntity
  8
247
  6
CONTINUOUS
100
AcDbVertex
100
AcDb2dVertex
 10
9.424290959121833
 20
-18.68253991745888
 30
0.0
  0
VERTEX
  5
A48
330
A46
100
AcDbEntity
  8
247
  6
CONTINUOUS
100
AcDbVertex
100
AcDb2dVertex
 10
9.038289372207771
 20
-18.80425927781038
 30
0.0
  0
VERTEX
  5
A49
330
A46
100
AcDbEntity
  8
247
  6
CONTINUOUS
100
AcDbVertex
100
AcDb2dVertex
 10
9.038289372207771
 20
-18.80425927781038
 30
0.0
  0
VERTEX
  5
A4A
330
A46
100
AcDbEntity
  8
247
  6
CONTINUOUS
100
AcDbVertex
100
AcDb2dVertex
 10
9.424290959121833
 20
-18.68253991745888
 30
0.0
  0
SEQEND
  5
A4B
330
A46
100
AcDbEntity
  8
247
  6
CONTINUOUS
  0
POLYLINE
  5
A4C
330
9D5
100
AcDbEntity
  8
247
100
AcDb2dPolyline
 66
     1
 10
0.0
 20
0.0
 30
0.0
 70
     1
  0
VERTEX
  5
A4D
330
A4C
100
AcDbEntity
  8
247
  6
CONTINUOUS
100
AcDbVertex
100
AcDb2dVertex
 10
9.424290959121833
 20
-18.68253991745888
 30
0.0
  0
VERTEX
  5
A4E
330
A4C
100
AcDbEntity
  8
247
  6
CONTINUOUS
100
AcDbVertex
100
AcDb2dVertex
 10
9.038289372207771
 20
-18.80425927781038
 30
0.0
  0
VERTEX
  5
A4F
330
A4C
100
AcDbEntity
  8
247
  6
CONTINUOUS
100
AcDbVertex
100
AcDb2dVertex
 10
9.038289372207771
 20
-18.80425927781038
 30
0.0
  0
VERTEX
  5
A50
330
A4C
100
AcDbEntity
  8
247
  6
CONTINUOUS
100
AcDbVertex
100
AcDb2dVertex
 10
9.424290959121833
 20
-18.68253991745888
 30
0.0
  0
SEQEND
  5
A51
330
A4C
100
AcDbEntity
  8
247
  6
CONTINUOUS
  0
POLYLINE
  5
A52
330
9D5
100
AcDbEntity
  8
247
100
AcDb2dPolyline
 66
     1
 10
0.0
 20
0.0
 30
0.0
 70
     1
1001
HATCH_DISTANCE
1040
1.0
1001
HATCH_DISPLAY
1070
     0
1001
HATCH_TYPE
1070
     7
  0
VERTEX
  5
A53
330
A52
100
AcDbEntity
  8
247
  6
CONTINUOUS
100
AcDbVertex
100
AcDb2dVertex
 10
9.424290959121833
 20
-18.68253991745888
 30
0.0
  0
VERTEX
  5
A54
330
A52
100
AcDbEntity
  8
247
  6
CONTINUOUS
100
AcDbVertex
100
AcDb2dVertex
 10
9.038289372207771
 20
-18.80425927781038
 30
0.0
  0
VERTEX
  5
A55
330
A52
100
AcDbEntity
  8
247
  6
CONTINUOUS
100
AcDbVertex
100
AcDb2dVertex
 10
9.038289372207771
 20
-18.80425927781038
 30
0.0
  0
VERTEX
  5
A56
330
A52
100
AcDbEntity
  8
247
  6
CONTINUOUS
100
AcDbVertex
100
AcDb2dVertex
 10
9.424290959121833
 20
-18.68253991745888
 30
0.0
  0
SEQEND
  5
A57
330
A52
100
AcDbEntity
  8
247
  6
CONTINUOUS
  0
ARC
  5
A58
102
{ACAD_REACTORS
330
A11
102
}
330
9D5
100
AcDbEntity
  8
247
100
AcDbCircle
 10
11.09007770228589
 20
-18.26327417038856
 30
0.0
 40
2.121903419494628
100
AcDbArc
 50
200.2296450633201
 51
208.5716889237166
  0
LINE
  5
A59
102
{ACAD_REACTORS
330
A11
102
}
330
9D5
100
AcDbEntity
  8
247
100
AcDbLine
 10
9.485066715957771
 20
-18.87527368210726
 30
0.0
 11
9.099065129043708
 21
-18.99699304245882
 31
0.0
  0
LINE
  5
A5A
102
{ACAD_REACTORS
330
A11
102
}
330
9D5
100
AcDbEntity
  8
247
100
AcDbLine
 10
12.60571843791211
 20
-19.36035058640413
 30
0.0
 11
10.54443866419995
 21
-18.76928613327919
 31
0.0
  0
LINE
  5
A5B
102
{ACAD_REACTORS
330
A11
102
}
330
9D5
100
AcDbEntity
  8
247
100
AcDbLine
 10
11.85371905970777
 20
-19.98564050339632
 30
0.0
 11
10.94861346888745
 21
-19.72610376023226
 31
0.0
  0
LINE
  5
A5C
102
{ACAD_REACTORS
330
A11
102
}
330
9D5
100
AcDbEntity
  8
247
100
AcDbLine
 10
10.54443866419995
 20
-19.94657800339632
 30
0.0
 11
10.54443866419995
 21
-18.76928613327919
 31
0.0
  0
LINE
  5
A5D
102
{ACAD_REACTORS
330
A11
102
}
330
9D5
100
AcDbEntity
  8
247
100
AcDbLine
 10
10.94861346888745
 20
-20.06246850632601
 30
0.0
 11
10.94861346888745
 21
-19.72610376023226
 31
0.0
  0
LINE
  5
A5E
102
{ACAD_REACTORS
330
A11
102
}
330
9D5
100
AcDbEntity
  8
247
100
AcDbLine
 10
10.94861346888745
 20
-20.06246850632601
 30
0.0
 11
10.54443866419995
 21
-19.94657800339632
 31
0.0
  0
LINE
  5
A5F
102
{ACAD_REACTORS
330
A11
102
}
330
9D5
100
AcDbEntity
  8
247
100
AcDbLine
 10
12.36864263224805
 20
-19.59744165085726
 30
0.0
 11
12.60571843791211
 21
-19.36035058640413
 31
0.0
  0
ARC
  5
A60
102
{ACAD_REACTORS
330
A11
102
}
330
9D5
100
AcDbEntity
  8
247
100
AcDbCircle
 10
11.73674518275464
 20
-20.39358422898226
 30
0.0
 40
0.4243830442428589
100
AcDbArc
 50
254.0002730571842
 51
74.00027305718428
  0
ARC
  5
A61
330
9D5
100
AcDbEntity
  8
240
100
AcDbCircle
 10
185.0
 20
-8.75
 30
0.0
 40
1.000000000000014
100
AcDbArc
 50
270.0
 51
0.0
  0
LINE
  5
A62
330
9D5
100
AcDbEntity
  8
240
100
AcDbLine
 10
186.0
 20
-8.75
 30
0.0
 11
186.0
 21
-7.000000000000056
 31
0.0
  0
LINE
  5
A63
330
9D5
100
AcDbEntity
  8
240
100
AcDbLine
 10
191.3999999999999
 20
-10.0
 30
0.0
 11
199.0514718625761
 21
-10.0
 31
0.0
  0
LINE
  5
A64
330
9D5
100
AcDbEntity
  8
241
100
AcDbLine
 10
196.5
 20
-7.967329428042262
 30
0.0
 11
190.8
 21
-7.967329428042262
 31
0.0
  0
LINE
  5
A65
330
9D5
100
AcDbEntity
  8
241
100
AcDbLine
 10
196.5
 20
-9.217329428042205
 30
0.0
 11
190.8
 21
-9.217329428042205
 31
0.0
  0
LINE
  5
A66
330
9D5
100
AcDbEntity
  8
240
100
AcDbLine
 10
190.8
 20
-9.400000000000034
 30
0.0
 11
190.8
 21
-7.550000000000011
 31
0.0
  0
ARC
  5
A67
330
9D5
100
AcDbEntity
  8
240
100
AcDbCircle
 10
191.3999999999999
 20
-9.400000000000034
 30
0.0
 40
0.5999999999999944
100
AcDbArc
 50
180.0
 51
270.0
  0
LINE
  5
A68
330
9D5
100
AcDbEntity
  8
242
100
AcDbLine
 10
190.5
 20
-5.5
 30
0.0
 11
188.0
 21
-5.5
 31
0.0
  0
LINE
  5
A69
330
9D5
100
AcDbEntity
  8
240
100
AcDbLine
 10
187.0
 20
-6.0
 30
0.0
 11
190.5
 21
-6.0
 31
0.0
  0
LINE
  5
A6A
330
9D5
100
AcDbEntity
  8
242
100
AcDbLine
 10
187.5
 20
-6.0
 30
0.0
 11
188.0
 21
-5.5
 31
0.0
  0
LINE
  5
A6B
330
9D5
100
AcDbEntity
  8
240
100
AcDbLine
 10
190.5
 20
-7.25
 30
0.0
 11
190.5
 21
-6.0
 31
0.0
  0
LINE
  5
A6C
330
9D5
100
AcDbEntity
  8
240
100
AcDbLine
 10
190.5
 20
-7.25
 30
0.0
 11
190.8
 21
-7.550000000000011
 31
0.0
  0
LINE
  5
A6D
330
9D5
100
AcDbEntity
  8
241
100
AcDbLine
 10
196.5
 20
-9.217329428042205
 30
0.0
 11
196.5
 21
-7.967329428042262
 31
0.0
  0
ARC
  5
A6E
330
9D5
100
AcDbEntity
  8
240
100
AcDbCircle
 10
199.5
 20
-9.092893218813458
 30
0.0
 40
0.500000000000004
100
AcDbArc
 50
315.0
 51
0.0
  0
ARC
  5
A6F
330
9D5
100
AcDbEntity
  8
240
100
AcDbCircle
 10
199.0514718625761
 20
-9.400000000000034
 30
0.0
 40
0.5999999999999944
100
AcDbArc
 50
270.0
 51
314.9999999999987
  0
LINE
  5
A70
330
9D5
100
AcDbEntity
  8
240
100
AcDbLine
 10
199.4757359312879
 20
-9.824264068711954
 30
0.0
 11
199.8535533905932
 21
-9.446446609406734
 31
0.0
  0
ARC
  5
A71
330
9D5
100
AcDbEntity
  8
240
100
AcDbCircle
 10
187.0
 20
7.0
 30
0.0
 40
0.9999999999999715
100
AcDbArc
 50
180.0
 51
270.0
  0
LINE
  5
A72
330
9D5
100
AcDbEntity
  8
246
100
AcDbLine
 10
186.0
 20
3.0
 30
0.0
 11
200.0
 21
3.0
 31
0.0
  0
LINE
  5
A73
330
9D5
100
AcDbEntity
  8
246
100
AcDbLine
 10
186.0
 20
-3.0
 30
0.0
 11
200.0
 21
-3.0
 31
0.0
  0
LINE
  5
A74
330
9D5
100
AcDbEntity
  8
246
100
AcDbLine
 10
197.3999999999999
 20
4.749999999999943
 30
0.0
 11
185.9999999999999
 21
3.551811717971304
 31
0.0
  0
LINE
  5
A75
330
9D5
100
AcDbEntity
  8
246
100
AcDbLine
 10
197.3999999999999
 20
-4.75
 30
0.0
 11
185.9999999999999
 21
-3.551811717971474
 31
0.0
  0
LINE
  5
A76
330
9D5
100
AcDbEntity
  8
240
100
AcDbLine
 10
185.0
 20
9.749999999999943
 30
0.0
 11
53.00000000000008
 21
9.75
 31
0.0
  0
ARC
  5
A77
330
9D5
100
AcDbEntity
  8
240
100
AcDbCircle
 10
53.00000000000008
 20
24.75
 30
0.0
 40
15.0
100
AcDbArc
 50
180.0
 51
270.0
  0
LINE
  5
A78
330
9D5
100
AcDbEntity
  8
240
100
AcDbLine
 10
38.00000000000017
 20
48.7000000000001
 30
0.0
 11
38.00000000000008
 21
24.75
 31
0.0
  0
LINE
  5
A79
330
9D5
100
AcDbEntity
  8
240
100
AcDbLine
 10
26.19666790032062
 20
42.49999999999943
 30
0.0
 11
20.20333209967879
 21
42.49999999999943
 31
0.0
  0
LINE
  5
A7A
330
9D5
100
AcDbEntity
  8
243
100
AcDbLine
 10
33.99999999999994
 20
35.2999999999999
 30
0.0
 11
2.999999999999943
 21
35.2999999999999
 31
0.0
  0
LINE
  5
A7B
330
9D5
100
AcDbEntity
  8
240
100
AcDbLine
 10
2.999999999999772
 20
48.69999999999976
 30
0.0
 11
2.999999999999772
 21
34.92500000000035
 31
0.0
  0
LINE
  5
A7C
330
9D5
100
AcDbEntity
  8
240
100
AcDbLine
 10
19.94352447854345
 20
42.64999999999941
 30
0.0
 11
15.69999999999964
 21
49.99999999999943
 31
0.0
  0
ARC
  5
A7D
330
9D5
100
AcDbEntity
  8
240
100
AcDbCircle
 10
20.20333209967873
 20
42.79999999999944
 30
0.0
 40
0.2999999999999727
100
AcDbArc
 50
210.0000000000114
 51
270.0000000000114
  0
LINE
  5
A7E
330
9D5
100
AcDbEntity
  8
240
100
AcDbLine
 10
15.69999999999964
 20
49.99999999999943
 30
0.0
 11
4.299999999999613
 21
49.99999999999943
 31
0.0
  0
ARC
  5
A7F
330
9D5
100
AcDbEntity
  8
240
100
AcDbCircle
 10
4.300000000000011
 20
48.70000000000039
 30
0.0
 40
1.300000000000011
100
AcDbArc
 50
90.0
 51
180.0
  0
LINE
  5
A80
330
9D5
100
AcDbEntity
  8
240
100
AcDbLine
 10
26.45647552145595
 20
42.64999999999946
 30
0.0
 11
30.69999999999959
 21
49.99999999999949
 31
0.0
  0
LINE
  5
A81
330
9D5
100
AcDbEntity
  8
243
100
AcDbLine
 10
33.99999999999994
 20
35.2999999999999
 30
0.0
 11
34.0
 21
49.99999999999949
 31
0.0
  0
ARC
  5
A82
330
9D5
100
AcDbEntity
  8
240
100
AcDbCircle
 10
26.19666790032056
 20
42.79999999999944
 30
0.0
 40
0.3000000000000114
100
AcDbArc
 50
270.0000000000114
 51
330.0000000000075
  0
LINE
  5
A83
330
9D5
100
AcDbEntity
  8
240
100
AcDbLine
 10
30.69999999999959
 20
49.99999999999949
 30
0.0
 11
36.69999999999964
 21
49.99999999999954
 31
0.0
  0
ARC
  5
A84
330
9D5
100
AcDbEntity
  8
240
100
AcDbCircle
 10
36.69999999999999
 20
48.69999999999987
 30
0.0
 40
1.300000000000011
100
AcDbArc
 50
0.0
 51
90.0
  0
LINE
  5
A85
330
9D5
100
AcDbEntity
  8
246
100
AcDbLine
 10
165.5
 20
1.5
 30
0.0
 11
158.0
 21
1.5
 31
0.0
  0
LINE
  5
A86
330
9D5
100
AcDbEntity
  8
246
100
AcDbLine
 10
165.5
 20
-1.500000000000056
 30
0.0
 11
158.0
 21
-1.500000000000056
 31
0.0
  0
LINE
  5
A87
330
9D5
100
AcDbEntity
  8
246
100
AcDbLine
 10
160.6
 20
3.499999999999943
 30
0.0
 11
169.5
 21
3.499999999999943
 31
0.0
  0
LINE
  5
A88
330
9D5
100
AcDbEntity
  8
246
100
AcDbLine
 10
160.25
 20
3.149999999999977
 30
0.0
 11
169.85
 21
3.149999999999977
 31
0.0
  0
LINE
  5
A89
330
9D5
100
AcDbEntity
  8
246
100
AcDbLine
 10
160.6
 20
-3.5
 30
0.0
 11
169.5
 21
-3.5
 31
0.0
  0
LINE
  5
A8A
330
9D5
100
AcDbEntity
  8
246
100
AcDbLine
 10
160.25
 20
-3.150000000000034
 30
0.0
 11
169.85
 21
-3.150000000000034
 31
0.0
  0
LINE
  5
A8B
330
9D5
100
AcDbEntity
  8
246
100
AcDbLine
 10
160.0
 20
2.899999999999977
 30
0.0
 11
160.6
 21
3.499999999999943
 31
0.0
  0
LINE
  5
A8C
330
9D5
100
AcDbEntity
  8
246
100
AcDbLine
 10
158.0
 20
-1.899999999999977
 30
0.0
 11
158.0
 21
1.899999999999977
 31
0.0
  0
LINE
  5
A8D
330
9D5
100
AcDbEntity
  8
246
100
AcDbLine
 10
160.0
 20
-2.899999999999977
 30
0.0
 11
160.6
 21
-3.5
 31
0.0
  0
ARC
  5
A8E
330
9D5
100
AcDbEntity
  8
246
100
AcDbCircle
 10
159.0
 20
-1.899999999999977
 30
0.0
 40
1.0
100
AcDbArc
 50
180.0
 51
270.0
  0
LINE
  5
A8F
330
9D5
100
AcDbEntity
  8
246
100
AcDbLine
 10
158.0
 20
-1.900000000000034
 30
0.0
 11
158.0
 21
-1.850000000000022
 31
0.0
  0
LINE
  5
A90
330
9D5
100
AcDbEntity
  8
246
100
AcDbLine
 10
159.0
 20
-2.899999999999977
 30
0.0
 11
160.0
 21
-2.899999999999977
 31
0.0
  0
ARC
  5
A91
330
9D5
100
AcDbEntity
  8
246
100
AcDbCircle
 10
159.0
 20
1.899999999999977
 30
0.0
 40
1.0
100
AcDbArc
 50
90.0
 51
180.0
  0
LINE
  5
A92
330
9D5
100
AcDbEntity
  8
246
100
AcDbLine
 10
158.0
 20
1.899999999999977
 30
0.0
 11
158.0
 21
1.849999999999965
 31
0.0
  0
LINE
  5
A93
330
9D5
100
AcDbEntity
  8
246
100
AcDbLine
 10
159.0
 20
2.899999999999977
 30
0.0
 11
160.0
 21
2.899999999999977
 31
0.0
  0
LINE
  5
A94
330
9D5
100
AcDbEntity
  8
246
100
AcDbLine
 10
169.5
 20
3.499999999999943
 30
0.0
 11
170.0
 21
2.999999999999943
 31
0.0
  0
LINE
  5
A95
330
9D5
100
AcDbEntity
  8
246
100
AcDbLine
 10
170.0
 20
-2.750000000000056
 30
0.0
 11
168.4047005383792
 21
-1.154700538379302
 31
0.0
  0
LINE
  5
A96
330
9D5
100
AcDbEntity
  8
246
100
AcDbLine
 10
170.0
 20
2.75
 30
0.0
 11
168.4047005383792
 21
1.154700538379245
 31
0.0
  0
LINE
  5
A97
330
9D5
100
AcDbEntity
  8
246
100
AcDbLine
 10
165.5
 20
-1.500000000000056
 30
0.0
 11
165.5
 21
-0.8514664143803543
 31
0.0
  0
LINE
  5
A98
330
9D5
100
AcDbEntity
  8
246
100
AcDbLine
 10
168.4047005383792
 20
-1.154700538379302
 30
0.0
 11
168.4047005383792
 21
1.154700538379245
 31
0.0
  0
LINE
  5
A99
330
9D5
100
AcDbEntity
  8
246
100
AcDbLine
 10
165.6993587371178
 20
-1.154700538379302
 30
0.0
 11
165.6993587371179
 21
1.154700538379245
 31
0.0
  0
LINE
  5
A9A
330
9D5
100
AcDbEntity
  8
246
100
AcDbLine
 10
168.4047005383792
 20
-1.154700538379302
 30
0.0
 11
165.6993587371178
 21
-1.154700538379302
 31
0.0
  0
LINE
  5
A9B
330
9D5
100
AcDbEntity
  8
246
100
AcDbLine
 10
165.5000000000001
 20
-1.500000000000056
 30
0.0
 11
165.6993587371178
 21
-1.154700538379302
 31
0.0
  0
LINE
  5
A9C
330
9D5
100
AcDbEntity
  8
246
100
AcDbLine
 10
168.4047005383792
 20
0.5773502691895942
 30
0.0
 11
165.6993587371178
 21
0.5773502691895942
 31
0.0
  0
LINE
  5
A9D
330
9D5
100
AcDbEntity
  8
246
100
AcDbLine
 10
168.4047005383792
 20
1.154700538379245
 30
0.0
 11
165.6993587371178
 21
1.154700538379245
 31
0.0
  0
LINE
  5
A9E
330
9D5
100
AcDbEntity
  8
246
100
AcDbLine
 10
168.4047005383792
 20
-0.5773502691896511
 30
0.0
 11
165.6993587371178
 21
-0.5773502691896511
 31
0.0
  0
LINE
  5
A9F
330
9D5
100
AcDbEntity
  8
246
100
AcDbLine
 10
165.5
 20
1.5
 30
0.0
 11
165.5
 21
0.8239997558519007
 31
0.0
  0
LINE
  5
AA0
330
9D5
100
AcDbEntity
  8
246
100
AcDbLine
 10
165.5000000000001
 20
1.5
 30
0.0
 11
165.6993587371178
 21
1.154700538379245
 31
0.0
  0
LINE
  5
AA1
330
9D5
100
AcDbEntity
  8
246
100
AcDbLine
 10
170.0
 20
-3.0
 30
0.0
 11
170.0
 21
2.999999999999943
 31
0.0
  0
LINE
  5
AA2
330
9D5
100
AcDbEntity
  8
246
100
AcDbLine
 10
170.0
 20
-3.0
 30
0.0
 11
169.5
 21
-3.5
 31
0.0
  0
LINE
  5
AA3
330
9D5
100
AcDbEntity
  8
241
100
AcDbLine
 10
186.0
 20
7.0
 30
0.0
 11
186.0
 21
0.0
 31
0.0
  0
LINE
  5
AA4
330
9D5
100
AcDbEntity
  8
240
100
AcDbLine
 10
186.0
 20
8.75
 30
0.0
 11
186.0
 21
7.0
 31
0.0
  0
ARC
  5
AA5
330
9D5
100
AcDbEntity
  8
240
100
AcDbCircle
 10
185.0
 20
8.75
 30
0.0
 40
1.000000000000028
100
AcDbArc
 50
0.0
 51
90.0
  0
LINE
  5
AA6
330
9D5
100
AcDbEntity
  8
246
100
AcDbLine
 10
197.3999999999999
 20
4.099999999999965
 30
0.0
 11
198.7
 21
4.099999999999965
 31
0.0
  0
LINE
  5
AA7
330
9D5
100
AcDbEntity
  8
246
100
AcDbLine
 10
197.3999999999999
 20
-4.100000000000022
 30
0.0
 11
198.7
 21
-4.100000000000022
 31
0.0
  0
LINE
  5
AA8
330
9D5
100
AcDbEntity
  8
240
100
AcDbLine
 10
191.3999999999999
 20
10.0
 30
0.0
 11
199.0514718625761
 21
10.0
 31
0.0
  0
LINE
  5
AA9
330
9D5
100
AcDbEntity
  8
241
100
AcDbLine
 10
188.0
 20
5.5
 30
0.0
 11
188.0
 21
0.0
 31
0.0
  0
LINE
  5
AAA
330
9D5
100
AcDbEntity
  8
241
100
AcDbLine
 10
190.5
 20
5.999999999999943
 30
0.0
 11
190.5
 21
0.0
 31
0.0
  0
LINE
  5
AAB
330
9D5
100
AcDbEntity
  8
241
100
AcDbLine
 10
190.8
 20
7.550000000000011
 30
0.0
 11
190.8
 21
0.0
 31
0.0
  0
LINE
  5
AAC
330
9D5
100
AcDbEntity
  8
241
100
AcDbLine
 10
196.5
 20
1.25
 30
0.0
 11
190.8
 21
1.25
 31
0.0
  0
LINE
  5
AAD
330
9D5
100
AcDbEntity
  8
241
100
AcDbLine
 10
196.5
 20
-1.25
 30
0.0
 11
190.8
 21
-1.25
 31
0.0
  0
LINE
  5
AAE
330
9D5
100
AcDbEntity
  8
241
100
AcDbLine
 10
196.5
 20
-1.25
 30
0.0
 11
196.5
 21
0.0
 31
0.0
  0
LINE
  5
AAF
330
9D5
100
AcDbEntity
  8
246
100
AcDbLine
 10
197.3999999999999
 20
-4.100000000000022
 30
0.0
 11
197.3999999999999
 21
-4.75
 31
0.0
  0
LINE
  5
AB0
330
9D5
100
AcDbEntity
  8
241
100
AcDbLine
 10
196.5
 20
1.25
 30
0.0
 11
196.5
 21
0.0
 31
0.0
  0
LINE
  5
AB1
330
9D5
100
AcDbEntity
  8
241
100
AcDbLine
 10
196.5
 20
9.217329428042205
 30
0.0
 11
190.8
 21
9.217329428042205
 31
0.0
  0
LINE
  5
AB2
330
9D5
100
AcDbEntity
  8
241
100
AcDbLine
 10
196.5
 20
7.967329428042205
 30
0.0
 11
190.8
 21
7.967329428042205
 31
0.0
  0
LINE
  5
AB3
330
9D5
100
AcDbEntity
  8
240
100
AcDbLine
 10
190.5
 20
7.25
 30
0.0
 11
190.5
 21
5.999999999999943
 31
0.0
  0
LINE
  5
AB4
330
9D5
100
AcDbEntity
  8
240
100
AcDbLine
 10
187.0
 20
5.999999999999943
 30
0.0
 11
190.5
 21
5.999999999999943
 31
0.0
  0
LINE
  5
AB5
330
9D5
100
AcDbEntity
  8
246
100
AcDbLine
 10
190.5
 20
5.499999999999943
 30
0.0
 11
188.0
 21
5.499999999999943
 31
0.0
  0
LINE
  5
AB6
330
9D5
100
AcDbEntity
  8
242
100
AcDbLine
 10
187.5
 20
5.999999999999943
 30
0.0
 11
188.0
 21
5.5
 31
0.0
  0
ARC
  5
AB7
330
9D5
100
AcDbEntity
  8
240
100
AcDbCircle
 10
191.3999999999999
 20
9.399999999999977
 30
0.0
 40
0.6000000000000086
100
AcDbArc
 50
90.0
 51
180.0
  0
LINE
  5
AB8
330
9D5
100
AcDbEntity
  8
240
100
AcDbLine
 10
190.5
 20
7.25
 30
0.0
 11
190.8
 21
7.550000000000011
 31
0.0
  0
LINE
  5
AB9
330
9D5
100
AcDbEntity
  8
240
100
AcDbLine
 10
190.8
 20
9.399999999999977
 30
0.0
 11
190.8
 21
7.550000000000011
 31
0.0
  0
LINE
  5
ABA
330
9D5
100
AcDbEntity
  8
246
100
AcDbLine
 10
197.3999999999999
 20
4.099999999999965
 30
0.0
 11
197.3999999999999
 21
4.749999999999943
 31
0.0
  0
LINE
  5
ABB
330
9D5
100
AcDbEntity
  8
241
100
AcDbLine
 10
196.5
 20
9.217329428042205
 30
0.0
 11
196.5
 21
7.967329428042205
 31
0.0
  0
LINE
  5
ABC
330
9D5
100
AcDbEntity
  8
240
100
AcDbLine
 10
200.0
 20
9.092893218813458
 30
0.0
 11
200.0
 21
0.0
 31
0.0
  0
LINE
  5
ABD
330
9D5
100
AcDbEntity
  8
246
100
AcDbLine
 10
198.6999999999999
 20
-4.75
 30
0.0
 11
198.8
 21
-4.75
 31
0.0
  0
LINE
  5
ABE
330
9D5
100
AcDbEntity
  8
246
100
AcDbLine
 10
198.7
 20
-4.100000000000022
 30
0.0
 11
198.6999999999999
 21
-4.75
 31
0.0
  0
LINE
  5
ABF
330
9D5
100
AcDbEntity
  8
246
100
AcDbLine
 10
198.8
 20
-4.75
 30
0.0
 11
200.0
 21
-4.057179676972452
 31
0.0
  0
LINE
  5
AC0
330
9D5
100
AcDbEntity
  8
246
100
AcDbLine
 10
198.7
 20
4.099999999999965
 30
0.0
 11
198.6999999999999
 21
4.749999999999943
 31
0.0
  0
LINE
  5
AC1
330
9D5
100
AcDbEntity
  8
246
100
AcDbLine
 10
198.6999999999999
 20
4.749999999999943
 30
0.0
 11
198.8
 21
4.749999999999943
 31
0.0
  0
LINE
  5
AC2
330
9D5
100
AcDbEntity
  8
246
100
AcDbLine
 10
198.8
 20
4.75
 30
0.0
 11
200.0
 21
4.057179676972396
 31
0.0
  0
ARC
  5
AC3
330
9D5
100
AcDbEntity
  8
240
100
AcDbCircle
 10
199.0514718625761
 20
9.399999999999977
 30
0.0
 40
0.6000000000000089
100
AcDbArc
 50
45.00000000000115
 51
90.0
  0
LINE
  5
AC4
330
9D5
100
AcDbEntity
  8
240
100
AcDbLine
 10
199.8535533905932
 20
9.446446609406677
 30
0.0
 11
199.4757359312879
 21
9.824264068711897
 31
0.0
  0
ARC
  5
AC5
330
9D5
100
AcDbEntity
  8
240
100
AcDbCircle
 10
199.5
 20
9.092893218813458
 30
0.0
 40
0.5
100
AcDbArc
 50
0.0
 51
45.0
  0
ENDBLK
  5
AC7
330
9D5
100
AcDbEntity
  8
0
100
AcDbBlockEnd
  0
BLOCK
  5
C34
330
C2A
100
AcDbEntity
  8
0
100
AcDbBlockBegin
  2
*D2
 70
     1
 10
0.0
 20
0.0
 30
0.0
  3
*D2
  1

  0
LINE
  5
C74
330
C2A
100
AcDbEntity
  8
250
  6
CONTINUOUS
100
AcDbLine
 10
0.0
 20
35.42500000000041
 30
0.0
 11
0.0000000000000022
 21
71.0
 31
0.0
  0
LINE
  5
C75
330
C2A
100
AcDbEntity
  8
250
  6
CONTINUOUS
100
AcDbLine
 10
200.0
 20
9.592893218813458
 30
0.0
 11
200.0
 21
71.0
 31
0.0
  0
LINE
  5
C76
330
C2A
100
AcDbEntity
  8
250
  6
CONTINUOUS
100
AcDbLine
 10
2.230000000000002
 20
70.0
 30
0.0
 11
197.77
 21
70.0
 31
0.0
  0
INSERT
  5
C77
330
C2A
100
AcDbEntity
  8
250
  6
CONTINUOUS
100
AcDbBlockReference
  2
_OPEN
 10
0.0000000000000021
 20
70.0
 30
0.0
 41
2.229999999999999
 42
2.229999999999999
 43
2.229999999999999
 50
180.0
  0
INSERT
  5
C78
330
C2A
100
AcDbEntity
  8
250
  6
CONTINUOUS
100
AcDbBlockReference
  2
_OPEN
 10
200.0
 20
70.0
 30
0.0
 41
2.229999999999999
 42
2.229999999999999
 43
2.229999999999999
  0
MTEXT
  5
C79
330
C2A
100
AcDbEntity
  8
250
  6
CONTINUOUS
 62
    40
100
AcDbMText
 10
100.0
 20
72.5
 30
0.0
 40
3.0
 41
0.0
 71
     5
 72
     1
  1
\A1;200
1001
ACAD
1000
MTEXTBEGIN
1070
    73
1070
     1
1070
    44
1040
1.0
1070
    74
1070
     0
1000
MTEXTEND
  0
POINT
  5
C7A
330
C2A
100
AcDbEntity
  8
DEFPOINTS
  6
CONTINUOUS
 62
     0
100
AcDbPoint
 10
0.0
 20
34.92500000000041
 30
0.0
  0
POINT
  5
C7B
330
C2A
100
AcDbEntity
  8
DEFPOINTS
  6
CONTINUOUS
 62
     0
100
AcDbPoint
 10
200.0
 20
9.092893218813458
 30
0.0
  0
POINT
  5
C7C
330
C2A
100
AcDbEntity
  8
DEFPOINTS
  6
CONTINUOUS
 62
     0
100
AcDbPoint
 10
200.0
 20
70.0
 30
0.0
  0
ENDBLK
  5
C35
330
C2A
100
AcDbEntity
  8
0
100
AcDbBlockEnd
  0
BLOCK
  5
C40
330
C36
100
AcDbEntity
  8
0
100
AcDbBlockBegin
  2
*D3
 70
     1
 10
0.0
 20
0.0
 30
0.0
  3
*D3
  1

  0
LINE
  5
C7D
330
C36
100
AcDbEntity
  8
250
  6
CONTINUOUS
100
AcDbLine
 10
38.00000000000017
 20
49.2000000000001
 30
0.0
 11
38.00000000000017
 21
64.0
 31
0.0
  0
LINE
  5
C7E
330
C36
100
AcDbEntity
  8
250
  6
CONTINUOUS
100
AcDbLine
 10
200.0
 20
9.592893218813458
 30
0.0
 11
200.0
 21
64.0
 31
0.0
  0
LINE
  5
C7F
330
C36
100
AcDbEntity
  8
250
  6
CONTINUOUS
100
AcDbLine
 10
40.23000000000016
 20
63.0
 30
0.0
 11
197.77
 21
63.0
 31
0.0
  0
INSERT
  5
C80
330
C36
100
AcDbEntity
  8
250
  6
CONTINUOUS
100
AcDbBlockReference
  2
_OPEN
 10
38.00000000000017
 20
63.0
 30
0.0
 41
2.229999999999999
 42
2.229999999999999
 43
2.229999999999999
 50
180.0
  0
INSERT
  5
C81
330
C36
100
AcDbEntity
  8
250
  6
CONTINUOUS
100
AcDbBlockReference
  2
_OPEN
 10
200.0
 20
63.0
 30
0.0
 41
2.229999999999999
 42
2.229999999999999
 43
2.229999999999999
  0
MTEXT
  5
C82
330
C36
100
AcDbEntity
  8
250
  6
CONTINUOUS
 62
    40
100
AcDbMText
 10
119.0
 20
65.5
 30
0.0
 40
3.0
 41
0.0
 71
     5
 72
     1
  1
\A1;162
1001
ACAD
1000
MTEXTBEGIN
1070
    73
1070
     1
1070
    44
1040
1.0
1070
    74
1070
     0
1000
MTEXTEND
  0
POINT
  5
C83
330
C36
100
AcDbEntity
  8
DEFPOINTS
  6
CONTINUOUS
 62
     0
100
AcDbPoint
 10
38.00000000000017
 20
48.7000000000001
 30
0.0
  0
POINT
  5
C84
330
C36
100
AcDbEntity
  8
DEFPOINTS
  6
CONTINUOUS
 62
     0
100
AcDbPoint
 10
200.0
 20
9.092893218813458
 30
0.0
  0
POINT
  5
C85
330
C36
100
AcDbEntity
  8
DEFPOINTS
  6
CONTINUOUS
 62
     0
100
AcDbPoint
 10
200.0
 20
63.0
 30
0.0
  0
ENDBLK
  5
C41
330
C36
100
AcDbEntity
  8
0
100
AcDbBlockEnd
  0
BLOCK
  5
C4C
330
C42
100
AcDbEntity
  8
0
100
AcDbBlockBegin
  2
*D4
 70
     1
 10
0.0
 20
0.0
 30
0.0
  3
*D4
  1

  0
LINE
  5
C86
330
C42
100
AcDbEntity
  8
250
  6
CONTINUOUS
100
AcDbLine
 10
0.0
 20
35.42500000000041
 30
0.0
 11
0.0000000000000018
 21
64.0
 31
0.0
  0
LINE
  5
C87
330
C42
100
AcDbEntity
  8
250
  6
CONTINUOUS
100
AcDbLine
 10
38.00000000000017
 20
49.2000000000001
 30
0.0
 11
38.00000000000017
 21
64.0
 31
0.0
  0
LINE
  5
C88
330
C42
100
AcDbEntity
  8
250
  6
CONTINUOUS
100
AcDbLine
 10
2.230000000000001
 20
63.0
 30
0.0
 11
35.77000000000017
 21
63.0
 31
0.0
  0
INSERT
  5
C89
330
C42
100
AcDbEntity
  8
250
  6
CONTINUOUS
100
AcDbBlockReference
  2
_OPEN
 10
0.0000000000000017
 20
63.0
 30
0.0
 41
2.229999999999999
 42
2.229999999999999
 43
2.229999999999999
 50
180.0
  0
INSERT
  5
C8A
330
C42
100
AcDbEntity
  8
250
  6
CONTINUOUS
100
AcDbBlockReference
  2
_OPEN
 10
38.00000000000017
 20
63.0
 30
0.0
 41
2.229999999999999
 42
2.229999999999999
 43
2.229999999999999
  0
MTEXT
  5
C8B
330
C42
100
AcDbEntity
  8
250
  6
CONTINUOUS
 62
    40
100
AcDbMText
 10
19.00000000000009
 20
65.5
 30
0.0
 40
3.0
 41
0.0
 71
     5
 72
     1
  1
\A1;38
1001
ACAD
1000
MTEXTBEGIN
1070
    73
1070
     1
1070
    44
1040
1.0
1070
    74
1070
     0
1000
MTEXTEND
  0
POINT
  5
C8C
330
C42
100
AcDbEntity
  8
DEFPOINTS
  6
CONTINUOUS
 62
     0
100
AcDbPoint
 10
0.0
 20
34.92500000000041
 30
0.0
  0
POINT
  5
C8D
330
C42
100
AcDbEntity
  8
DEFPOINTS
  6
CONTINUOUS
 62
     0
100
AcDbPoint
 10
38.00000000000017
 20
48.7000000000001
 30
0.0
  0
POINT
  5
C8E
330
C42
100
AcDbEntity
  8
DEFPOINTS
  6
CONTINUOUS
 62
     0
100
AcDbPoint
 10
38.00000000000017
 20
63.0
 30
0.0
  0
ENDBLK
  5
C4D
330
C42
100
AcDbEntity
  8
0
100
AcDbBlockEnd
  0
BLOCK
  5
C58
330
C4E
100
AcDbEntity
  8
0
100
AcDbBlockBegin
  2
*D5
 70
     1
 10
0.0
 20
0.0
 30
0.0
  3
*D5
  1

  0
LINE
  5
C8F
330
C4E
100
AcDbEntity
  8
250
  6
CONTINUOUS
100
AcDbLine
 10
170.0
 20
-3.5
 30
0.0
 11
170.0
 21
-64.0
 31
0.0
  0
LINE
  5
C90
330
C4E
100
AcDbEntity
  8
250
  6
CONTINUOUS
100
AcDbLine
 10
200.0
 20
-9.592893218813458
 30
0.0
 11
200.0
 21
-64.0
 31
0.0
  0
LINE
  5
C91
330
C4E
100
AcDbEntity
  8
250
  6
CONTINUOUS
100
AcDbLine
 10
172.2299999999999
 20
-63.0
 30
0.0
 11
197.77
 21
-63.0
 31
0.0
  0
INSERT
  5
C92
330
C4E
100
AcDbEntity
  8
250
  6
CONTINUOUS
100
AcDbBlockReference
  2
_OPEN
 10
170.0
 20
-63.0
 30
0.0
 41
2.229999999999999
 42
2.229999999999999
 43
2.229999999999999
 50
180.0
  0
INSERT
  5
C93
330
C4E
100
AcDbEntity
  8
250
  6
CONTINUOUS
100
AcDbBlockReference
  2
_OPEN
 10
200.0
 20
-63.0
 30
0.0
 41
2.229999999999999
 42
2.229999999999999
 43
2.229999999999999
  0
MTEXT
  5
C94
330
C4E
100
AcDbEntity
  8
250
  6
CONTINUOUS
 62
    40
100
AcDbMText
 10
185.0
 20
-60.5
 30
0.0
 40
3.0
 41
0.0
 71
     5
 72
     1
  1
\A1;21～40
1001
ACAD
1000
MTEXTBEGIN
1070
    73
1070
     1
1070
    44
1040
1.0
1070
    74
1070
     0
1000
MTEXTEND
  0
POINT
  5
C95
330
C4E
100
AcDbEntity
  8
DEFPOINTS
  6
CONTINUOUS
 62
     0
100
AcDbPoint
 10
170.0
 20
-3.0
 30
0.0
  0
POINT
  5
C96
330
C4E
100
AcDbEntity
  8
DEFPOINTS
  6
CONTINUOUS
 62
     0
100
AcDbPoint
 10
200.0
 20
-9.092893218813458
 30
0.0
  0
POINT
  5
C97
330
C4E
100
AcDbEntity
  8
DEFPOINTS
  6
CONTINUOUS
 62
     0
100
AcDbPoint
 10
200.0
 20
-63.0
 30
0.0
  0
ENDBLK
  5
C59
330
C4E
100
AcDbEntity
  8
0
100
AcDbBlockEnd
  0
BLOCK
  5
C64
330
C5A
100
AcDbEntity
  8
0
100
AcDbBlockBegin
  2
*D6
 70
     1
 10
0.0
 20
0.0
 30
0.0
  3
*D6
  1

  0
LINE
  5
C98
330
C5A
100
AcDbEntity
  8
250
  6
CONTINUOUS
100
AcDbLine
 10
199.5514718625761
 20
-10.0
 30
0.0
 11
218.0
 21
-10.0
 31
0.0
  0
LINE
  5
C99
330
C5A
100
AcDbEntity
  8
250
  6
CONTINUOUS
100
AcDbLine
 10
199.5514718625761
 20
10.0
 30
0.0
 11
218.0
 21
9.999999999999994
 31
0.0
  0
LINE
  5
C9A
330
C5A
100
AcDbEntity
  8
250
  6
CONTINUOUS
100
AcDbLine
 10
217.0
 20
-7.770000000000004
 30
0.0
 11
217.0
 21
7.769999999999994
 31
0.0
  0
INSERT
  5
C9B
330
C5A
100
AcDbEntity
  8
250
  6
CONTINUOUS
100
AcDbBlockReference
  2
_OPEN
 10
217.0
 20
-10.0
 30
0.0
 41
2.229999999999999
 42
2.229999999999999
 43
2.229999999999999
 50
270.0
  0
INSERT
  5
C9C
330
C5A
100
AcDbEntity
  8
250
  6
CONTINUOUS
100
AcDbBlockReference
  2
_OPEN
 10
217.0
 20
9.999999999999994
 30
0.0
 41
2.229999999999999
 42
2.229999999999999
 43
2.229999999999999
 50
90.0
  0
MTEXT
  5
C9D
330
C5A
100
AcDbEntity
  8
250
  6
CONTINUOUS
 62
    40
100
AcDbMText
 10
214.5
 20
0.0000000000000297
 30
0.0
 40
3.0
 41
0.0
 71
     5
 72
     1
  1
\A1;{\H3;\U+2205}20
 11
0.0000000000000001
 21
1.0
 31
0.0
1001
ACAD
1000
MTEXTBEGIN
1070
    73
1070
     1
1070
    44
1040
1.0
1070
    74
1070
     0
1000
MTEXTEND
  0
POINT
  5
C9E
330
C5A
100
AcDbEntity
  8
DEFPOINTS
  6
CONTINUOUS
 62
     0
100
AcDbPoint
 10
199.0514718625761
 20
-10.0
 30
0.0
  0
POINT
  5
C9F
330
C5A
100
AcDbEntity
  8
DEFPOINTS
  6
CONTINUOUS
 62
     0
100
AcDbPoint
 10
199.0514718625761
 20
10.0
 30
0.0
  0
POINT
  5
CA0
330
C5A
100
AcDbEntity
  8
DEFPOINTS
  6
CONTINUOUS
 62
     0
100
AcDbPoint
 10
217.0
 20
9.999999999999994
 30
0.0
  0
ENDBLK
  5
C65
330
C5A
100
AcDbEntity
  8
0
100
AcDbBlockEnd
  0
BLOCK
  5
C72
330
C66
100
AcDbEntity
  8
0
100
AcDbBlockBegin
  2
*D7
 70
     1
 10
0.0
 20
0.0
 30
0.0
  3
*D7
  1

  0
LINE
  5
CDA
330
C66
100
AcDbEntity
  8
250
  6
CONTINUOUS
100
AcDbLine
 10
200.4999999999999
 20
-3.0
 30
0.0
 11
211.0
 21
-3.000000000000003
 31
0.0
  0
LINE
  5
CDB
330
C66
100
AcDbEntity
  8
250
  6
CONTINUOUS
100
AcDbLine
 10
200.5
 20
3.0
 30
0.0
 11
211.0
 21
2.999999999999996
 31
0.0
  0
LINE
  5
CDC
330
C66
100
AcDbEntity
  8
250
  6
CONTINUOUS
100
AcDbLine
 10
210.0
 20
-5.230000000000002
 30
0.0
 11
210.0
 21
-7.460000000000002
 31
0.0
  0
LINE
  5
CDD
330
C66
100
AcDbEntity
  8
250
  6
CONTINUOUS
100
AcDbLine
 10
210.0
 20
5.229999999999996
 30
0.0
 11
210.0
 21
7.459999999999997
 31
0.0
  0
MTEXT
  5
CDE
330
C66
100
AcDbEntity
  8
250
  6
CONTINUOUS
 62
    40
100
AcDbMText
 10
207.8916073863881
 20
4.945214833993304
 30
0.0
 40
3.0
 41
0.0
 71
     5
 72
     1
  1
\A1;MAX.%%C6
 11
0.0000000000000001
 21
1.0
 31
0.0
  0
LINE
  5
CDF
330
C66
100
AcDbEntity
  8
250
  6
CONTINUOUS
100
AcDbLine
 10
210.0
 20
-3.000000000000002
 30
0.0
 11
210.0
 21
2.999999999999997
 31
0.0
  0
INSERT
  5
CE0
330
C66
100
AcDbEntity
  8
250
  6
CONTINUOUS
100
AcDbBlockReference
  2
_OPEN
 10
210.0
 20
-3.000000000000002
 30
0.0
 41
2.229999999999999
 42
2.229999999999999
 43
2.229999999999999
 50
90.0
  0
INSERT
  5
CE1
330
C66
100
AcDbEntity
  8
250
  6
CONTINUOUS
100
AcDbBlockReference
  2
_OPEN
 10
210.0
 20
2.999999999999997
 30
0.0
 41
2.229999999999999
 42
2.229999999999999
 43
2.229999999999999
 50
270.0
  0
POINT
  5
CE2
330
C66
100
AcDbEntity
  8
DEFPOINTS
  6
CONTINUOUS
 62
     0
100
AcDbPoint
 10
200.0
 20
-3.0
 30
0.0
  0
POINT
  5
CE3
330
C66
100
AcDbEntity
  8
DEFPOINTS
  6
CONTINUOUS
 62
     0
100
AcDbPoint
 10
200.0
 20
3.0
 30
0.0
  0
POINT
  5
CE4
330
C66
100
AcDbEntity
  8
DEFPOINTS
  6
CONTINUOUS
 62
     0
100
AcDbPoint
 10
210.0
 20
2.999999999999997
 30
0.0
  0
ENDBLK
  5
C73
330
C66
100
AcDbEntity
  8
0
100
AcDbBlockEnd
  0
ENDSEC
  0
SECTION
  2
ENTITIES
  0
DIMENSION
  5
C1F
330
1A
100
AcDbEntity
  8
250
  6
CONTINUOUS
100
AcDbDimension
  2
*D2
 10
200.0
 20
70.0
 30
0.0
 11
100.0
 21
72.5
 31
0.0
 70
    32
  3
BIGT
100
AcDbAlignedDimension
 13
0.0
 23
34.92500000000041
 33
0.0
 14
200.0
 24
9.092893218813458
 34
0.0
100
AcDbRotatedDimension
1001
ACAD
1000
DSTYLE
1002
{
1070
    78
1070
     8
1070
   140
1040
3.0
1002
}
  0
DIMENSION
  5
C20
330
1A
100
AcDbEntity
  8
250
  6
CONTINUOUS
100
AcDbDimension
  2
*D3
 10
200.0
 20
63.0
 30
0.0
 11
119.0
 21
65.5
 31
0.0
 70
    32
  3
BIGT
100
AcDbAlignedDimension
 13
38.00000000000017
 23
48.7000000000001
 33
0.0
 14
200.0
 24
9.092893218813458
 34
0.0
100
AcDbRotatedDimension
1001
ACAD
1000
DSTYLE
1002
{
1070
    78
1070
     8
1070
   140
1040
3.0
1002
}
  0
INSERT
  5
C21
330
1A
100
AcDbEntity
  8
240
100
AcDbBlockReference
  2
A$C45593794
 10
0.0
 20
0.0
 30
0.0
  0
LINE
  5
C22
330
1A
100
AcDbEntity
  8
250
  6
CONTINUOUS
100
AcDbLine
 10
-62.09519508558544
 20
-49.0
 30
0.0
 11
-78.09519508558544
 21
-49.0
 31
0.0
1001
ITEMNAME
1000
LNSP2
  0
LEADER
  5
C23
330
1A
100
AcDbEntity
  8
250
  6
CONTINUOUS
100
AcDbLeader
  3
BIGT
 76
     2
 10
-46.05024927287985
 20
-28.20933864770444
 30
0.0
 10
-62.09519508558544
 20
-49.0
 30
0.0
1001
ACAD
1000
DSTYLE
1002
{
1070
     5
1000
OPEN
1070
    78
1070
     8
1070
   140
1040
3.0
1002
}
  0
MTEXT
  5
C24
330
1A
100
AcDbEntity
  8
250
  6
CONTINUOUS
 62
    40
100
AcDbMText
 10
-75.09519508558544
 20
-48.0
 30
0.0
 40
3.0
 41
0.0
 71
     7
 72
     1
  1
BT50
  7
YOKO
1001
ITEMNAME
1000
LNSP3
1001
ACAD
1000
MTEXTBEGIN
1070
    73
1070
     1
1070
    44
1040
1.0
1070
    74
1070
     0
1000
MTEXTEND
  0
TEXT
  5
C25
330
1A
100
AcDbEntity
  8
241
100
AcDbText
 10
-98.0
 20
84.0
 30
0.0
 40
5.0
  1
BT50-NBS6-200
  7
YOKO
 11
-98.0
 21
84.0
 31
0.0
100
AcDbText
 73
     1
  0
DIMENSION
  5
C26
330
1A
100
AcDbEntity
  8
250
  6
CONTINUOUS
100
AcDbDimension
  2
*D4
 10
38.00000000000017
 20
63.0
 30
0.0
 11
19.00000000000009
 21
65.5
 31
0.0
 70
    32
  3
BIGT
100
AcDbAlignedDimension
 13
0.0
 23
34.92500000000041
 33
0.0
 14
38.00000000000017
 24
48.7000000000001
 34
0.0
100
AcDbRotatedDimension
1001
ACAD
1000
DSTYLE
1002
{
1070
    78
1070
     8
1070
   140
1040
3.0
1002
}
  0
DIMENSION
  5
C27
330
1A
100
AcDbEntity
  8
250
  6
CONTINUOUS
100
AcDbDimension
  2
*D5
 10
200.0
 20
-63.0
 30
0.0
 11
185.0
 21
-60.5
 31
0.0
 70
    32
  1
21～40
  3
BIGT
100
AcDbAlignedDimension
 13
170.0
 23
-3.0
 33
0.0
 14
200.0
 24
-9.092893218813458
 34
0.0
100
AcDbRotatedDimension
1001
ACAD
1000
DSTYLE
1002
{
1070
    78
1070
     8
1070
   140
1040
3.0
1002
}
  0
DIMENSION
  5
C28
330
1A
100
AcDbEntity
  8
250
  6
CONTINUOUS
100
AcDbDimension
  2
*D6
 10
217.0
 20
9.999999999999994
 30
0.0
 11
214.5
 21
0.0000000000000297
 31
0.0
 70
    32
  1
{\H3;\U+2205}<>
  3
BIGT
100
AcDbAlignedDimension
 13
199.0514718625761
 23
-10.0
 33
0.0
 14
199.0514718625761
 24
10.0
 34
0.0
 50
90.0
100
AcDbRotatedDimension
1001
ACAD
1000
DSTYLE
1002
{
1070
    78
1070
     8
1070
   140
1040
3.0
1002
}
  0
DIMENSION
  5
C29
330
1A
100
AcDbEntity
  8
250
  6
CONTINUOUS
100
AcDbDimension
  2
*D7
 10
210.0
 20
2.999999999999997
 30
0.0
 11
207.8916073863881
 21
4.945214833993304
 31
0.0
 70
   160
  1
MAX.%%C<>
  3
BIGT
100
AcDbAlignedDimension
 13
200.0
 23
-3.0
 33
0.0
 14
200.0
 24
3.0
 34
0.0
 50
90.0
100
AcDbRotatedDimension
1001
ACAD
1000
DSTYLE
1002
{
1070
   287
1070
     5
1070
    78
1070
     8
1070
   140
1040
3.0
1070
   279
1070
     2
1002
}
  0
VIEWPORT
  5
22
330
17
100
AcDbEntity
 67
     1
  8
0
100
AcDbViewport
 10
261.5176991150442
 20
148.5
 30
0.0
 40
523.0353982300885
 41
297.0
 68
     1
 69
     1
1001
ACAD
1000
MVIEW
1002
{
1070
    16
1010
0.0
1020
0.0
1030
0.0
1010
0.0
1020
0.0
1030
1.0
1040
0.0
1040
297.0
1040
261.5176991150442
1040
148.5
1040
50.0
1040
0.0
1040
0.0
1070
     0
1070
   100
1070
     1
1070
     1
1070
     0
1070
     0
1070
     0
1070
     0
1040
0.0
1040
0.0
1040
0.0
1040
1.0
1040
1.0
1040
10.0
1040
10.0
1070
     0
1002
{
1002
}
1002
}
  0
ENDSEC
  0
SECTION
  2
OBJECTS
  0
DICTIONARY
  5
C
330
0
100
AcDbDictionary
  3
ACAD_GROUP
350
D
  3
ACAD_LAYOUT
350
565
  3
ACAD_MLINESTYLE
350
E
  3
ACAD_PLOTSETTINGS
350
566
  3
ACAD_PLOTSTYLENAME
350
563
  3
ACDBHEADERROUNDTRIPXREC
350
CB5
  3
ACDBVARIABLEDICTIONARY
350
CAD
  3
GRADE_DWG
350
540
  0
DICTIONARY
  5
CD8
330
1A
100
AcDbDictionary
280
     1
  3
ACAD_LAYOUTSELFREF
360
CD9
  0
DICTIONARY
  5
CD6
330
17
100
AcDbDictionary
280
     1
  3
ACAD_LAYOUTSELFREF
360
CD7
  0
DICTIONARY
  5
D
102
{ACAD_REACTORS
330
C
102
}
330
C
100
AcDbDictionary
  3
DREC-1
350
5FC
  3
DREC-2
350
654
  3
DREC-3
350
673
  0
DICTIONARY
  5
565
102
{ACAD_REACTORS
330
C
102
}
330
C
100
AcDbDictionary
  0
DICTIONARY
  5
E
102
{ACAD_REACTORS
330
C
102
}
330
C
100
AcDbDictionary
  3
STANDARD
350
13
  0
DICTIONARY
  5
566
102
{ACAD_REACTORS
330
C
102
}
330
C
100
AcDbDictionary
  0
ACDBDICTIONARYWDFLT
  5
563
102
{ACAD_REACTORS
330
C
102
}
330
C
100
AcDbDictionary
281
     1
  3
Normal
350
564
100
AcDbDictionaryWithDefault
340
564
  0
DICTIONARY
  5
CB5
102
{ACAD_REACTORS
330
C
102
}
330
C
100
AcDbDictionary
  3
CEPSNTYPE
350
CBF
  3
DIMSTYLEDATA
350
CC3
  3
FINGERPRINTGUID
350
CC0
  3
HYPERLINKBASE
350
CB8
  3
INSUNITS
350
CBE
  3
LAYOUTDICT
350
CBA
  3
LWETCUNION
350
CBD
  3
PLOTSETDICT
350
CBB
  3
PLOTSTYLNAMDICT
350
CBC
  3
PSVPSCALE
350
CC2
  3
PUCSBASE
350
CC6
  3
PUCSORGBACK
350
CCC
  3
PUCSORGBOTTOM
350
CC8
  3
PUCSORGFRONT
350
CCB
  3
PUCSORGLEFT
350
CC9
  3
PUCSORGRIGHT
350
CCA
  3
PUCSORGTOP
350
CC7
  3
PUCSORTHOREF
350
CC4
  3
PUCSORTHOVIEW
350
CC5
  3
STYLESHEET
350
CB9
  3
TSTACKALIGN
350
CB6
  3
TSTACKSIZE
350
CB7
  3
UCSBASE
350
CCF
  3
UCSORGBACK
350
CD5
  3
UCSORGBOTTOM
350
CD1
  3
UCSORGFRONT
350
CD4
  3
UCSORGLEFT
350
CD2
  3
UCSORGRIGHT
350
CD3
  3
UCSORGTOP
350
CD0
  3
UCSORTHOREF
350
CCD
  3
UCSORTHOVIEW
350
CCE
  3
VERSIONGUID
350
CC1
  0
DICTIONARY
  5
CAD
102
{ACAD_REACTORS
330
C
102
}
330
C
100
AcDbDictionary
  3
DIMASSOC
350
CAE
  0
DICTIONARY
  5
540
102
{ACAD_REACTORS
330
C
102
}
330
C
100
AcDbDictionary
  3
VERSION
350
560
  0
XRECORD
  5
CD9
102
{ACAD_REACTORS
330
CD8
102
}
330
CD8
100
AcDbXrecord
340
1A
  0
XRECORD
  5
CD7
102
{ACAD_REACTORS
330
CD6
102
}
330
CD6
100
AcDbXrecord
340
17
  0
GROUP
  5
5FC
102
{ACAD_REACTORS
330
D
102
}
330
D
100
AcDbGroup
300

 70
     0
 71
     1
1001
GRPNAME
1000
DREC-
1001
GPARA
1000
xsiz
1000
44.182
1000
ysiz
1000
40.677
1000
angl
1000
0
1000
ctyp
1000
0
1000
csiz
1000
5
1000
lfnt
1000
cont
1000
hcnt
1000
hoff
1000
vcnt
1000
voff
1000
opnt
1000
4
1000
dxpt
1000
0
1000
dypt
1000
0
  0
GROUP
  5
654
102
{ACAD_REACTORS
330
D
102
}
330
D
100
AcDbGroup
300

 70
     0
 71
     1
1001
GRPNAME
1000
DREC-
1001
GPARA
1000
xsiz
1000
54.592
1000
ysiz
1000
53.036
1000
angl
1000
0
1000
ctyp
1000
0
1000
csiz
1000
5
1000
lfnt
1000
cont
1000
hcnt
1000
hoff
1000
vcnt
1000
voff
1000
opnt
1000
4
1000
dxpt
1000
0
1000
dypt
1000
0
  0
GROUP
  5
673
102
{ACAD_REACTORS
330
D
102
}
330
D
100
AcDbGroup
300

 70
     0
 71
     1
1001
GRPNAME
1000
DREC-
1001
GPARA
1000
xsiz
1000
30.363
1000
ysiz
1000
36.175
1000
angl
1000
0
1000
ctyp
1000
0
1000
csiz
1000
5
1000
lfnt
1000
cont
1000
hcnt
1000
hoff
1000
vcnt
1000
voff
1000
opnt
1000
4
1000
dxpt
1000
0
1000
dypt
1000
0
  0
MLINESTYLE
  5
13
102
{ACAD_REACTORS
330
E
102
}
330
E
100
AcDbMlineStyle
  2
STANDARD
 70
     0
  3

 62
     0
 51
90.0
 52
90.0
 71
     2
 49
0.5
 62
   256
  6
BYLAYER
 49
-0.5
 62
   256
  6
BYLAYER
  0
ACDBPLACEHOLDER
  5
564
102
{ACAD_REACTORS
330
563
102
}
330
563
100
AcDbPlaceHolder
280
     0
  0
XRECORD
  5
CBF
102
{ACAD_REACTORS
330
CB5
102
}
330
CB5
100
AcDbXrecord
 90
        0
  0
XRECORD
  5
CC3
102
{ACAD_REACTORS
330
CB5
102
}
330
CB5
100
AcDbXrecord
1000
DSTYLE
1002
{
1070
    79
 70
     2
1070
   179
 70
     3
1070
   289
 70
     2
1070
   341
340
594
1070
   342
340
594
1070
   371
 70
    -1
1070
   372
 70
    -1
1002
}
  0
XRECORD
  5
CC0
102
{ACAD_REACTORS
330
CB5
102
}
330
CB5
100
AcDbXrecord
  1
{51294030-9CB4-11D3-8E18-00A0C925D94D}
  0
XRECORD
  5
CB8
102
{ACAD_REACTORS
330
CB5
102
}
330
CB5
100
AcDbXrecord
  1

  0
XRECORD
  5
CBE
102
{ACAD_REACTORS
330
CB5
102
}
330
CB5
100
AcDbXrecord
 90
        0
  0
XRECORD
  5
CBA
102
{ACAD_REACTORS
330
CB5
102
}
330
CB5
100
AcDbXrecord
340
565
  0
XRECORD
  5
CBD
102
{ACAD_REACTORS
330
CB5
102
}
330
CB5
100
AcDbXrecord
 90
    10781
  0
XRECORD
  5
CBB
102
{ACAD_REACTORS
330
CB5
102
}
330
CB5
100
AcDbXrecord
340
566
  0
XRECORD
  5
CBC
102
{ACAD_REACTORS
330
CB5
102
}
330
CB5
100
AcDbXrecord
340
563
  0
XRECORD
  5
CC2
102
{ACAD_REACTORS
330
CB5
102
}
330
CB5
100
AcDbXrecord
 40
0.0
  0
XRECORD
  5
CC6
102
{ACAD_REACTORS
330
CB5
102
}
330
CB5
100
AcDbXrecord
340
0
  0
XRECORD
  5
CCC
102
{ACAD_REACTORS
330
CB5
102
}
330
CB5
100
AcDbXrecord
 10
0.0
 20
0.0
 30
0.0
  0
XRECORD
  5
CC8
102
{ACAD_REACTORS
330
CB5
102
}
330
CB5
100
AcDbXrecord
 10
0.0
 20
0.0
 30
0.0
  0
XRECORD
  5
CCB
102
{ACAD_REACTORS
330
CB5
102
}
330
CB5
100
AcDbXrecord
 10
0.0
 20
0.0
 30
0.0
  0
XRECORD
  5
CC9
102
{ACAD_REACTORS
330
CB5
102
}
330
CB5
100
AcDbXrecord
 10
0.0
 20
0.0
 30
0.0
  0
XRECORD
  5
CCA
102
{ACAD_REACTORS
330
CB5
102
}
330
CB5
100
AcDbXrecord
 10
0.0
 20
0.0
 30
0.0
  0
XRECORD
  5
CC7
102
{ACAD_REACTORS
330
CB5
102
}
330
CB5
100
AcDbXrecord
 10
0.0
 20
0.0
 30
0.0
  0
XRECORD
  5
CC4
102
{ACAD_REACTORS
330
CB5
102
}
330
CB5
100
AcDbXrecord
340
0
  0
XRECORD
  5
CC5
102
{ACAD_REACTORS
330
CB5
102
}
330
CB5
100
AcDbXrecord
 70
     0
  0
XRECORD
  5
CB9
102
{ACAD_REACTORS
330
CB5
102
}
330
CB5
100
AcDbXrecord
  1
big.ctb
  0
XRECORD
  5
CB6
102
{ACAD_REACTORS
330
CB5
102
}
330
CB5
100
AcDbXrecord
 90
        1
  0
XRECORD
  5
CB7
102
{ACAD_REACTORS
330
CB5
102
}
330
CB5
100
AcDbXrecord
 90
       70
  0
XRECORD
  5
CCF
102
{ACAD_REACTORS
330
CB5
102
}
330
CB5
100
AcDbXrecord
340
0
  0
XRECORD
  5
CD5
102
{ACAD_REACTORS
330
CB5
102
}
330
CB5
100
AcDbXrecord
 10
0.0
 20
0.0
 30
0.0
  0
XRECORD
  5
CD1
102
{ACAD_REACTORS
330
CB5
102
}
330
CB5
100
AcDbXrecord
 10
0.0
 20
0.0
 30
0.0
  0
XRECORD
  5
CD4
102
{ACAD_REACTORS
330
CB5
102
}
330
CB5
100
AcDbXrecord
 10
0.0
 20
0.0
 30
0.0
  0
XRECORD
  5
CD2
102
{ACAD_REACTORS
330
CB5
102
}
330
CB5
100
AcDbXrecord
 10
0.0
 20
0.0
 30
0.0
  0
XRECORD
  5
CD3
102
{ACAD_REACTORS
330
CB5
102
}
330
CB5
100
AcDbXrecord
 10
0.0
 20
0.0
 30
0.0
  0
XRECORD
  5
CD0
102
{ACAD_REACTORS
330
CB5
102
}
330
CB5
100
AcDbXrecord
 10
0.0
 20
0.0
 30
0.0
  0
XRECORD
  5
CCD
102
{ACAD_REACTORS
330
CB5
102
}
330
CB5
100
AcDbXrecord
340
0
  0
XRECORD
  5
CCE
102
{ACAD_REACTORS
330
CB5
102
}
330
CB5
100
AcDbXrecord
 70
     0
  0
XRECORD
  5
CC1
102
{ACAD_REACTORS
330
CB5
102
}
330
CB5
100
AcDbXrecord
  1
{83C0C81C-6665-11D6-95D9-006094EB2375}
  0
DICTIONARYVAR
  5
CAE
102
{ACAD_REACTORS
330
CAD
102
}
330
CAD
100
DictionaryVariables
280
     0
  1
1
  0
XRECORD
  5
560
102
{ACAD_REACTORS
330
540
102
}
330
540
100
AcDbXrecord
  1
2.0.0
  0
ENDSEC
  0
EOF
