  0
SECTION
  2
HEADER
  9
$ACADVER
  1
AC1014
  9
$ACADMAINTVER
 70
     9
  9
$DWGCODEPAGE
  3
ANSI_932
  9
$INSBASE
 10
0.0
 20
0.0
 30
0.0
  9
$EXTMIN
 10
-110.0357756788976
 20
-64.01836966162966
 30
-0.0000000349181948
  9
$EXTMAX
 10
323.0443052192872
 20
89.00522912816587
 30
0.0000000814935746
  9
$LIMMIN
 10
-11.54487628280571
 20
0.0
  9
$LIMMAX
 10
594.0
 20
420.0
  9
$ORTHOMODE
 70
     0
  9
$REGENMODE
 70
     1
  9
$FILLMODE
 70
     1
  9
$QTEXTMODE
 70
     0
  9
$MIRRTEXT
 70
     1
  9
$DRAGMODE
 70
     2
  9
$LTSCALE
 40
10.0
  9
$OSMODE
 70
   613
  9
$ATTMODE
 70
     1
  9
$TEXTSIZE
 40
3.0
  9
$TRACEWID
 40
1.0
  9
$TEXTSTYLE
  7
YOKO
  9
$CLAYER
  8
240
  9
$CELTYPE
  6
BYLAYER
  9
$CECOLOR
 62
   256
  9
$CELTSCALE
 40
1.0
  9
$DELOBJ
 70
     1
  9
$DISPSILH
 70
     0
  9
$DIMSCALE
 40
1.0
  9
$DIMASZ
 40
2.229999999999999
  9
$DIMEXO
 40
0.5
  9
$DIMDLI
 40
2.5
  9
$DIMRND
 40
0.0
  9
$DIMDLE
 40
0.0
  9
$DIMEXE
 40
1.0
  9
$DIMTP
 40
0.0
  9
$DIMTM
 40
0.0
  9
$DIMTXT
 40
3.0
  9
$DIMCEN
 40
0.0
  9
$DIMTSZ
 40
0.0
  9
$DIMTOL
 70
     0
  9
$DIMLIM
 70
     0
  9
$DIMTIH
 70
     0
  9
$DIMTOH
 70
     0
  9
$DIMSE1
 70
     0
  9
$DIMSE2
 70
     0
  9
$DIMTAD
 70
     3
  9
$DIMZIN
 70
     8
  9
$DIMBLK
  1
OPEN
  9
$DIMASO
 70
     1
  9
$DIMSHO
 70
     1
  9
$DIMPOST
  1

  9
$DIMAPOST
  1

  9
$DIMALT
 70
     0
  9
$DIMALTD
 70
     2
  9
$DIMALTF
 40
25.4
  9
$DIMLFAC
 40
1.0
  9
$DIMTOFL
 70
     1
  9
$DIMTVP
 40
0.0
  9
$DIMTIX
 70
     0
  9
$DIMSOXD
 70
     0
  9
$DIMSAH
 70
     0
  9
$DIMBLK1
  1

  9
$DIMBLK2
  1

  9
$DIMSTYLE
  2
BIGT
  9
$DIMCLRD
 70
   256
  9
$DIMCLRE
 70
   256
  9
$DIMCLRT
 70
    40
  9
$DIMTFAC
 40
1.0
  9
$DIMGAP
 40
1.0
  9
$DIMJUST
 70
     0
  9
$DIMSD1
 70
     0
  9
$DIMSD2
 70
     0
  9
$DIMTOLJ
 70
     1
  9
$DIMTZIN
 70
     8
  9
$DIMALTZ
 70
     0
  9
$DIMALTTZ
 70
     0
  9
$DIMFIT
 70
     2
  9
$DIMUPT
 70
     0
  9
$DIMUNIT
 70
     2
  9
$DIMDEC
 70
     3
  9
$DIMTDEC
 70
     3
  9
$DIMALTU
 70
     2
  9
$DIMALTTD
 70
     2
  9
$DIMTXSTY
  7
STANDARD
  9
$DIMAUNIT
 70
     0
  9
$LUNITS
 70
     2
  9
$LUPREC
 70
     3
  9
$SKETCHINC
 40
1.0
  9
$FILLETRAD
 40
0.0
  9
$AUNITS
 70
     0
  9
$AUPREC
 70
     3
  9
$MENU
  1
.
  9
$ELEVATION
 40
0.0
  9
$PELEVATION
 40
0.0
  9
$THICKNESS
 40
0.0
  9
$LIMCHECK
 70
     0
  9
$BLIPMODE
 70
     0
  9
$CHAMFERA
 40
10.0
  9
$CHAMFERB
 40
10.0
  9
$CHAMFERC
 40
0.0
  9
$CHAMFERD
 40
0.0
  9
$SKPOLY
 70
     0
  9
$TDCREATE
 40
2452178.403237477
  9
$TDUPDATE
 40
2452408.990900787
  9
$TDINDWG
 40
0.0376095949
  9
$TDUSRTIMER
 40
0.0376095949
  9
$USRTIMER
 70
     1
  9
$ANGBASE
 50
0.0
  9
$ANGDIR
 70
     0
  9
$PDMODE
 70
    35
  9
$PDSIZE
 40
-5.0
  9
$PLINEWID
 40
0.0
  9
$COORDS
 70
     0
  9
$SPLFRAME
 70
     0
  9
$SPLINETYPE
 70
     6
  9
$SPLINESEGS
 70
     8
  9
$ATTDIA
 70
     0
  9
$ATTREQ
 70
     0
  9
$HANDLING
 70
 22529
  9
$HANDSEED
  5
FAA
  9
$SURFTAB1
 70
     6
  9
$SURFTAB2
 70
     6
  9
$SURFTYPE
 70
     6
  9
$SURFU
 70
     6
  9
$SURFV
 70
     6
  9
$UCSNAME
  2

  9
$UCSORG
 10
0.0
 20
0.0
 30
0.0
  9
$UCSXDIR
 10
1.0
 20
0.0
 30
0.0
  9
$UCSYDIR
 10
0.0
 20
1.0
 30
0.0
  9
$PUCSNAME
  2

  9
$PUCSORG
 10
0.0
 20
0.0
 30
0.0
  9
$PUCSXDIR
 10
1.0
 20
0.0
 30
0.0
  9
$PUCSYDIR
 10
0.0
 20
1.0
 30
0.0
  9
$USERI1
 70
     1
  9
$USERI2
 70
     0
  9
$USERI3
 70
     0
  9
$USERI4
 70
     0
  9
$USERI5
 70
     0
  9
$USERR1
 40
0.0
  9
$USERR2
 40
0.0
  9
$USERR3
 40
0.0
  9
$USERR4
 40
0.0
  9
$USERR5
 40
0.0
  9
$WORLDVIEW
 70
     1
  9
$SHADEDGE
 70
     3
  9
$SHADEDIF
 70
    70
  9
$TILEMODE
 70
     1
  9
$MAXACTVP
 70
    16
  9
$PINSBASE
 10
0.0
 20
0.0
 30
0.0
  9
$PLIMCHECK
 70
     0
  9
$PEXTMIN
 10
1.000000000000000E+20
 20
1.000000000000000E+20
 30
1.000000000000000E+20
  9
$PEXTMAX
 10
-1.000000000000000E+20
 20
-1.000000000000000E+20
 30
-1.000000000000000E+20
  9
$PLIMMIN
 10
0.0
 20
0.0
  9
$PLIMMAX
 10
420.0
 20
297.0
  9
$UNITMODE
 70
     0
  9
$VISRETAIN
 70
     0
  9
$PLINEGEN
 70
     0
  9
$PSLTSCALE
 70
     1
  9
$TREEDEPTH
 70
  3020
  9
$PICKSTYLE
 70
     0
  9
$CMLSTYLE
  2
STANDARD
  9
$CMLJUST
 70
     0
  9
$CMLSCALE
 40
1.0
  9
$PROXYGRAPHICS
 70
     1
  9
$MEASUREMENT
 70
     1
  0
ENDSEC
  0
SECTION
  2
CLASSES
  0
CLASS
  1
XRECORD
  2
AcDbXrecord
  3
AutoCAD 2000
 90
        0
280
     0
281
     0
  0
CLASS
  1
ACDBDICTIONARYWDFLT
  2
AcDbDictionaryWithDefault
  3
AutoCAD 2000
 90
        0
280
     0
281
     0
  0
CLASS
  1
ACDBPLACEHOLDER
  2
AcDbPlaceHolder
  3
AutoCAD 2000
 90
        0
280
     0
281
     0
  0
CLASS
  1
LAYOUT
  2
AcDbLayout
  3
AutoCAD 2000
 90
        0
280
     0
281
     0
  0
CLASS
  1
DICTIONARYVAR
  2
AcDbDictionaryVar
  3
AutoCAD 2000
 90
        0
280
     0
281
     0
  0
CLASS
  1
LONG_TRANSACTION
  2
AcDbLongTransaction
  3
AutoCAD 2000
 90
        0
280
     0
281
     0
  0
CLASS
  1
LWPOLYLINE
  2
AcDbPolyline
  3
AutoCAD 2000
 90
        0
280
     0
281
     1
  0
CLASS
  1
HATCH
  2
AcDbHatch
  3
AutoCAD 2000
 90
        0
280
     0
281
     1
  0
CLASS
  1
XRECORD
  2
AcDbXrecord
  3
AutoCAD 2000
 90
        0
280
     0
281
     0
  0
ENDSEC
  0
SECTION
  2
TABLES
  0
TABLE
  2
VPORT
  5
8
330
0
100
AcDbSymbolTable
 70
     2
  0
VPORT
  5
F7B
330
8
100
AcDbSymbolTableRecord
100
AcDbViewportTableRecord
  2
*ACTIVE
 70
     0
 10
0.0
 20
0.0
 11
1.0
 21
1.0
 12
106.4992314634122
 22
12.50015333585923
 13
0.0
 23
0.0
 14
7.0
 24
7.0
 15
7.0
 25
7.0
 16
0.0
 26
0.0
 36
1.0
 17
0.0
 27
0.0
 37
0.0
 40
284.1185747285582
 41
1.53185955786736
 42
50.0
 43
0.0
 44
0.0
 50
0.0
 51
0.0
 71
     0
 72
  2000
 73
     1
 74
     0
 75
     0
 76
     0
 77
     0
 78
     0
  0
ENDTAB
  0
TABLE
  2
LTYPE
  5
5
330
0
100
AcDbSymbolTable
 70
     4
  0
LTYPE
  5
14
330
5
100
AcDbSymbolTableRecord
100
AcDbLinetypeTableRecord
  2
BYBLOCK
 70
     0
  3

 72
    65
 73
     0
 40
0.0
  0
LTYPE
  5
15
330
5
100
AcDbSymbolTableRecord
100
AcDbLinetypeTableRecord
  2
BYLAYER
 70
     0
  3

 72
    65
 73
     0
 40
0.0
  0
LTYPE
  5
16
330
5
100
AcDbSymbolTableRecord
100
AcDbLinetypeTableRecord
  2
CONTINUOUS
 70
     0
  3
Solid line
 72
    65
 73
     0
 40
0.0
  0
LTYPE
  5
258
330
5
100
AcDbSymbolTableRecord
100
AcDbLinetypeTableRecord
  2
CENTER2
 70
     0
  3
___ _ ___ _ ___ _ ___ _ ___ _ ___ _ ___ _ ___ _
 72
    65
 73
     4
 40
1.125
 49
0.75
 74
     0
 49
-0.125
 74
     0
 49
0.125
 74
     0
 49
-0.125
 74
     0
  0
LTYPE
  5
25C
330
5
100
AcDbSymbolTableRecord
100
AcDbLinetypeTableRecord
  2
HIDDEN2
 70
     0
  3
_ _ _ _ _ _ _ _ _ _ _ _ _ _ _ _ _ _ _ _ _ _ _ _
 72
    65
 73
     2
 40
0.1875
 49
0.125
 74
     0
 49
-0.0625
 74
     0
  0
LTYPE
  5
25D
330
5
100
AcDbSymbolTableRecord
100
AcDbLinetypeTableRecord
  2
PHANTOM2
 70
     0
  3
___ _ _ ___ _ _ ___ _ _ ___ _ _ ___ _ _ ___ _ _
 72
    65
 73
     6
 40
1.25
 49
0.625
 74
     0
 49
-0.125
 74
     0
 49
0.125
 74
     0
 49
-0.125
 74
     0
 49
0.125
 74
     0
 49
-0.125
 74
     0
  0
ENDTAB
  0
TABLE
  2
LAYER
  5
2
330
0
100
AcDbSymbolTable
 70
    10
  0
LAYER
  5
F
330
2
100
AcDbSymbolTableRecord
100
AcDbLayerTableRecord
  2
0
 70
     0
 62
     7
  6
CONTINUOUS
  0
LAYER
  5
1AA
330
2
100
AcDbSymbolTableRecord
100
AcDbLayerTableRecord
  2
240
 70
     0
 62
     4
  6
CONTINUOUS
  0
LAYER
  5
1AB
330
2
100
AcDbSymbolTableRecord
100
AcDbLayerTableRecord
  2
241
 70
     0
 62
   211
  6
CONTINUOUS
  0
LAYER
  5
1AC
330
2
100
AcDbSymbolTableRecord
100
AcDbLayerTableRecord
  2
242
 70
     0
 62
     3
  6
CONTINUOUS
  0
LAYER
  5
1AD
330
2
100
AcDbSymbolTableRecord
100
AcDbLayerTableRecord
  2
243
 70
     0
 62
   211
  6
HIDDEN2
  0
LAYER
  5
1AF
330
2
100
AcDbSymbolTableRecord
100
AcDbLayerTableRecord
  2
245
 70
     0
 62
     2
  6
CENTER2
  0
LAYER
  5
21A
330
2
100
AcDbSymbolTableRecord
100
AcDbLayerTableRecord
  2
246
 70
     0
 62
     3
  6
PHANTOM2
  0
LAYER
  5
21B
330
2
100
AcDbSymbolTableRecord
100
AcDbLayerTableRecord
  2
247
 70
     0
 62
    60
  6
CONTINUOUS
  0
LAYER
  5
21E
330
2
100
AcDbSymbolTableRecord
100
AcDbLayerTableRecord
  2
250
 70
     0
 62
     3
  6
CONTINUOUS
  0
LAYER
  5
5C4
330
2
100
AcDbSymbolTableRecord
100
AcDbLayerTableRecord
  2
DEFPOINTS
 70
     0
 62
     7
  6
CONTINUOUS
  0
ENDTAB
  0
TABLE
  2
STYLE
  5
3
330
0
100
AcDbSymbolTable
 70
     2
  0
STYLE
  5
10
330
3
100
AcDbSymbolTableRecord
100
AcDbTextStyleTableRecord
  2
STANDARD
 70
     0
 40
0.0
 41
1.0
 50
0.0
 71
     0
 42
3.0
  3
romans.shx
  4
BIGFONT.SHX
  0
STYLE
  5
339
330
3
100
AcDbSymbolTableRecord
100
AcDbTextStyleTableRecord
  2
YOKO
 70
     0
 40
0.0
 41
1.0
 50
0.0
 71
     0
 42
3.0
  3
romans.shx
  4
extfont.shx
  0
ENDTAB
  0
TABLE
  2
VIEW
  5
6
330
0
100
AcDbSymbolTable
 70
     0
  0
ENDTAB
  0
TABLE
  2
UCS
  5
7
330
0
100
AcDbSymbolTable
 70
     0
  0
ENDTAB
  0
TABLE
  2
APPID
  5
9
330
0
100
AcDbSymbolTable
 70
     9
  0
APPID
  5
11
330
9
100
AcDbSymbolTableRecord
100
AcDbRegAppTableRecord
  2
ACAD
 70
     0
  0
APPID
  5
1B1
330
9
100
AcDbSymbolTableRecord
100
AcDbRegAppTableRecord
  2
GLOBAL
 70
     0
  0
APPID
  5
2A4
330
9
100
AcDbSymbolTableRecord
100
AcDbRegAppTableRecord
  2
DETAIL
 70
     0
  0
APPID
  5
5FD
330
9
100
AcDbSymbolTableRecord
100
AcDbRegAppTableRecord
  2
GRPNAME
 70
     0
  0
APPID
  5
5FE
330
9
100
AcDbSymbolTableRecord
100
AcDbRegAppTableRecord
  2
GPARA
 70
     0
  0
APPID
  5
7D2
330
9
100
AcDbSymbolTableRecord
100
AcDbRegAppTableRecord
  2
ITEMNAME
 70
     0
  0
APPID
  5
7D3
330
9
100
AcDbSymbolTableRecord
100
AcDbRegAppTableRecord
  2
HATCH_TYPE
 70
     0
  0
APPID
  5
7D4
330
9
100
AcDbSymbolTableRecord
100
AcDbRegAppTableRecord
  2
HATCH_DISPLAY
 70
     0
  0
APPID
  5
7D5
330
9
100
AcDbSymbolTableRecord
100
AcDbRegAppTableRecord
  2
HATCH_DISTANCE
 70
     0
  0
ENDTAB
  0
TABLE
  2
DIMSTYLE
  5
A
330
0
100
AcDbSymbolTable
 70
     1
  0
DIMSTYLE
105
59A
102
{ACAD_REACTORS
330
EE8
330
EE9
330
EEF
330
EF0
330
EF1
330
EF2
102
}
330
A
100
AcDbSymbolTableRecord
100
AcDbDimStyleTableRecord
  2
BIGT
 70
     0
  3

  4

  5
OPEN
  6

  7

 40
1.0
 41
2.229999999999999
 42
0.5
 43
2.5
 44
1.0
 45
0.0
 46
0.0
 47
0.0
 48
0.0
140
3.5
141
0.0
142
0.0
143
25.4
144
1.0
145
0.0
146
1.0
147
1.0
 71
     0
 72
     0
 73
     0
 74
     0
 75
     0
 76
     0
 77
     3
 78
     9
170
     0
171
     2
172
     1
173
     0
174
     0
175
     0
176
   256
177
   256
178
    40
270
     2
271
     3
272
     3
273
     2
274
     2
340
10
275
     0
280
     0
281
     0
282
     0
283
     1
284
     8
285
     0
286
     0
287
     2
288
     0
  0
ENDTAB
  0
TABLE
  2
BLOCK_RECORD
  5
1
330
0
100
AcDbSymbolTable
 70
     8
  0
BLOCK_RECORD
  5
1A
102
{ACAD_XDICTIONARY
360
F9F
102
}
330
1
100
AcDbSymbolTableRecord
100
AcDbBlockTableRecord
  2
*MODEL_SPACE
  0
BLOCK_RECORD
  5
17
102
{ACAD_XDICTIONARY
360
F9D
102
}
330
1
100
AcDbSymbolTableRecord
100
AcDbBlockTableRecord
  2
*PAPER_SPACE
  0
BLOCK_RECORD
  5
594
330
1
100
AcDbSymbolTableRecord
100
AcDbBlockTableRecord
  2
_OPEN
  0
BLOCK_RECORD
  5
CC6
330
1
100
AcDbSymbolTableRecord
100
AcDbBlockTableRecord
  2
A$C30671B24
  0
BLOCK_RECORD
  5
EF3
330
1
100
AcDbSymbolTableRecord
100
AcDbBlockTableRecord
  2
*D2
  0
BLOCK_RECORD
  5
EFF
330
1
100
AcDbSymbolTableRecord
100
AcDbBlockTableRecord
  2
*D3
  0
BLOCK_RECORD
  5
F0B
330
1
100
AcDbSymbolTableRecord
100
AcDbBlockTableRecord
  2
*D4
  0
BLOCK_RECORD
  5
F17
330
1
100
AcDbSymbolTableRecord
100
AcDbBlockTableRecord
  2
*D5
  0
BLOCK_RECORD
  5
F23
330
1
100
AcDbSymbolTableRecord
100
AcDbBlockTableRecord
  2
*D6
  0
BLOCK_RECORD
  5
F2F
330
1
100
AcDbSymbolTableRecord
100
AcDbBlockTableRecord
  2
*D7
  0
ENDTAB
  0
ENDSEC
  0
SECTION
  2
BLOCKS
  0
BLOCK
  5
1B
330
1A
100
AcDbEntity
  8
0
100
AcDbBlockBegin
  2
*MODEL_SPACE
 70
     0
 10
0.0
 20
0.0
 30
0.0
  3
*MODEL_SPACE
  1

  0
ENDBLK
  5
1C
330
1A
100
AcDbEntity
  8
0
100
AcDbBlockEnd
  0
BLOCK
  5
18
330
17
100
AcDbEntity
 67
     1
  8
0
100
AcDbBlockBegin
  2
*PAPER_SPACE
 70
     0
 10
0.0
 20
0.0
 30
0.0
  3
*PAPER_SPACE
  1

  0
ENDBLK
  5
19
330
17
100
AcDbEntity
 67
     1
  8
0
100
AcDbBlockEnd
  0
BLOCK
  5
598
330
594
100
AcDbEntity
  8
0
100
AcDbBlockBegin
  2
_OPEN
 70
     0
 10
0.0
 20
0.0
 30
0.0
  3
_OPEN
  1

  0
LINE
  5
595
330
594
100
AcDbEntity
  8
0
  6
BYBLOCK
 62
     0
100
AcDbLine
 10
-1.0
 20
0.1666666666666666
 30
0.0
 11
0.0
 21
0.0
 31
0.0
  0
LINE
  5
596
330
594
100
AcDbEntity
  8
0
  6
BYBLOCK
 62
     0
100
AcDbLine
 10
-1.0
 20
-0.1666666666666666
 30
0.0
 11
0.0
 21
0.0
 31
0.0
  0
LINE
  5
597
330
594
100
AcDbEntity
  8
0
  6
BYBLOCK
 62
     0
100
AcDbLine
 10
0.0
 20
0.0
 30
0.0
 11
-1.0
 21
0.0
 31
0.0
  0
ENDBLK
  5
599
330
594
100
AcDbEntity
  8
0
100
AcDbBlockEnd
  0
BLOCK
  5
DB5
330
CC6
100
AcDbEntity
  8
0
100
AcDbBlockBegin
  2
A$C30671B24
 70
     0
 10
0.0
 20
0.0
 30
0.0
  3
A$C30671B24
  1

  0
LINE
  5
CC7
330
CC6
100
AcDbEntity
  8
240
100
AcDbLine
 10
53.00000000000015
 20
17.25
 30
0.0
 11
278.5
 21
17.25
 31
0.0
  0
LINE
  5
CC8
330
CC6
100
AcDbEntity
  8
240
100
AcDbLine
 10
53.00000000000001
 20
-17.25
 30
0.0
 11
278.5
 21
-17.25
 31
0.0
  0
LINE
  5
CC9
330
CC6
100
AcDbEntity
  8
245
100
AcDbLine
 10
-109.9940848146646
 20
0.0
 30
0.0
 11
305.6564226203192
 21
0.0
 31
0.0
  0
LINE
  5
CCA
330
CC6
100
AcDbEntity
  8
243
100
AcDbLine
 10
33.99999999999995
 20
-35.30000000000012
 30
0.0
 11
2.999999999999957
 21
-35.30000000000012
 31
0.0
  0
ARC
  5
CCB
330
CC6
100
AcDbEntity
  8
240
100
AcDbCircle
 10
4.299999999999627
 20
-48.69999999999965
 30
0.0
 40
1.300000000000011
100
AcDbArc
 50
180.0
 51
270.0
  0
LINE
  5
CCC
330
CC6
100
AcDbEntity
  8
243
100
AcDbLine
 10
33.99999999999995
 20
35.29999999999995
 30
0.0
 11
2.999999999999957
 21
35.29999999999995
 31
0.0
  0
ARC
  5
CCD
330
CC6
100
AcDbEntity
  8
240
100
AcDbCircle
 10
4.300000000000025
 20
48.70000000000039
 30
0.0
 40
1.300000000000011
100
AcDbArc
 50
90.0
 51
180.0
  0
LINE
  5
CCE
330
CC6
100
AcDbEntity
  8
240
100
AcDbLine
 10
-0.0000000000002132
 20
-34.92499999999961
 30
0.0
 11
-100.9443068930718
 21
-20.20395524475952
 31
0.0
  0
LINE
  5
CCF
330
CC6
100
AcDbEntity
  8
240
100
AcDbLine
 10
0.0000000000000142
 20
34.92500000000041
 30
0.0
 11
-100.9443068930717
 21
20.20395524476112
 31
0.0
  0
LINE
  5
CD0
330
CC6
100
AcDbEntity
  8
240
100
AcDbLine
 10
-101.8
 20
19.21442226369788
 30
0.0
 11
-101.8000000000001
 21
-19.21442226369618
 31
0.0
  0
ARC
  5
CD1
330
CC6
100
AcDbEntity
  8
240
100
AcDbCircle
 10
-100.8000000000001
 20
-19.21442226369618
 30
0.0
 40
1.0
100
AcDbArc
 50
180.0
 51
261.7028550301627
  0
ARC
  5
CD2
330
CC6
100
AcDbEntity
  8
240
100
AcDbCircle
 10
-100.8
 20
19.21442226369788
 30
0.0
 40
0.9999999999999818
100
AcDbArc
 50
98.29714496983728
 51
180.0
  0
LINE
  5
CD3
330
CC6
100
AcDbEntity
  8
241
100
AcDbLine
 10
0.0000000000000142
 20
-34.92499999999961
 30
0.0
 11
0.0000000000000142
 21
34.92500000000041
 31
0.0
  0
LINE
  5
CD4
330
CC6
100
AcDbEntity
  8
241
100
AcDbLine
 10
2.999999999999616
 20
-34.92499999999961
 30
0.0
 11
2.999999999999616
 21
34.92500000000041
 31
0.0
  0
LINE
  5
CD5
330
CC6
100
AcDbEntity
  8
240
100
AcDbLine
 10
2.999999999999729
 20
-34.92499999999961
 30
0.0
 11
2.999999999999673
 21
-48.69999999999965
 31
0.0
  0
LINE
  5
CD6
330
CC6
100
AcDbEntity
  8
240
100
AcDbLine
 10
-0.0000000000002132
 20
-34.92499999999961
 30
0.0
 11
2.999999999999616
 21
-34.92499999999961
 31
0.0
  0
LINE
  5
CD7
330
CC6
100
AcDbEntity
  8
240
100
AcDbLine
 10
2.999999999999786
 20
48.69999999999982
 30
0.0
 11
2.999999999999786
 21
34.92500000000041
 31
0.0
  0
LINE
  5
CD8
330
CC6
100
AcDbEntity
  8
240
100
AcDbLine
 10
0.0000000000000142
 20
34.92500000000041
 30
0.0
 11
2.999999999999616
 21
34.92500000000041
 31
0.0
  0
LINE
  5
CD9
330
CC6
100
AcDbEntity
  8
241
100
AcDbLine
 10
37.99999999999993
 20
32.25
 30
0.0
 11
38.00000000000004
 21
-32.25
 31
0.0
  0
LINE
  5
CDA
330
CC6
100
AcDbEntity
  8
241
100
AcDbLine
 10
19.94352447854346
 20
42.49999999999943
 30
0.0
 11
19.94352447854346
 21
-42.49999999999966
 31
0.0
  0
LINE
  5
CDB
330
CC6
100
AcDbEntity
  8
241
100
AcDbLine
 10
26.45647552145597
 20
42.49999999999943
 30
0.0
 11
26.45647552145597
 21
-42.49999999999966
 31
0.0
  0
LINE
  5
CDC
330
CC6
100
AcDbEntity
  8
241
100
AcDbLine
 10
15.69999999999966
 20
-49.99999999999966
 30
0.0
 11
15.69999999999966
 21
49.99999999999943
 31
0.0
  0
LINE
  5
CDD
330
CC6
100
AcDbEntity
  8
241
100
AcDbLine
 10
30.6999999999996
 20
-49.99999999999971
 30
0.0
 11
30.6999999999996
 21
49.99999999999943
 31
0.0
  0
MTEXT
  5
CDE
330
CC6
100
AcDbEntity
  8
247
100
AcDbMText
 10
12.69999999999963
 20
-12.28678511522821
 30
0.0
 40
3.0
 41
0.0
 71
     7
 72
     5
  1
BT50-NBS13-300
  7
YOKO
 11
0.0000000000000001
 21
1.0
 31
0.0
1001
ITEMNAME
1000
DI010
1001
ACAD
1000
MTEXTBEGIN
1070
    73
1070
     1
1070
    44
1040
1.0
1070
    74
1070
     0
1000
MTEXTEND
  0
ARC
  5
CDF
330
CC6
100
AcDbEntity
  8
240
100
AcDbCircle
 10
53.00000000000001
 20
-32.25
 30
0.0
 40
15.0
100
AcDbArc
 50
90.0
 51
180.0
  0
LINE
  5
CE0
330
CC6
100
AcDbEntity
  8
240
100
AcDbLine
 10
38.00000000000001
 20
-48.7000000000001
 30
0.0
 11
38.00000000000001
 21
-32.25
 31
0.0
  0
LINE
  5
CE1
330
CC6
100
AcDbEntity
  8
240
100
AcDbLine
 10
26.45647552145597
 20
-42.64999999999969
 30
0.0
 11
30.6999999999996
 21
-49.99999999999971
 31
0.0
  0
LINE
  5
CE2
330
CC6
100
AcDbEntity
  8
240
100
AcDbLine
 10
15.69999999999966
 20
-49.99999999999966
 30
0.0
 11
4.299999999999627
 21
-49.99999999999966
 31
0.0
  0
LINE
  5
CE3
330
CC6
100
AcDbEntity
  8
240
100
AcDbLine
 10
26.19666790032063
 20
-42.49999999999966
 30
0.0
 11
20.2033320996788
 21
-42.49999999999966
 31
0.0
  0
ARC
  5
CE4
330
CC6
100
AcDbEntity
  8
240
100
AcDbCircle
 10
20.20333209967874
 20
-42.79999999999967
 30
0.0
 40
0.3000000000000114
100
AcDbArc
 50
89.99999999998861
 51
149.9999999999857
  0
LINE
  5
CE5
330
CC6
100
AcDbEntity
  8
240
100
AcDbLine
 10
19.94352447854346
 20
-42.64999999999964
 30
0.0
 11
15.69999999999966
 21
-49.99999999999966
 31
0.0
  0
ARC
  5
CE6
330
CC6
100
AcDbEntity
  8
240
100
AcDbCircle
 10
26.19666790032058
 20
-42.79999999999967
 30
0.0
 40
0.3000000000000428
100
AcDbArc
 50
29.99999999999246
 51
89.99999999998861
  0
ARC
  5
CE7
330
CC6
100
AcDbEntity
  8
240
100
AcDbCircle
 10
36.7
 20
-48.7000000000001
 30
0.0
 40
1.300000000000011
100
AcDbArc
 50
270.0
 51
0.0
  0
LINE
  5
CE8
330
CC6
100
AcDbEntity
  8
243
100
AcDbLine
 10
33.99999999999995
 20
-35.30000000000012
 30
0.0
 11
34.00000000000001
 21
-49.99999999999971
 31
0.0
  0
LINE
  5
CE9
330
CC6
100
AcDbEntity
  8
240
100
AcDbLine
 10
30.6999999999996
 20
-49.99999999999971
 30
0.0
 11
36.69999999999966
 21
-49.99999999999977
 31
0.0
  0
HATCH
  5
CEA
330
CC6
100
AcDbEntity
  8
247
100
AcDbHatch
 10
0.0
 20
0.0
 30
0.0
210
0.0
220
0.0
230
1.0
  2
ANSI31
 70
     0
 71
     1
 91
        1
 92
       33
 93
       10
 72
     1
 10
8.968175236465597
 20
-25.63329980515414
 11
9.372350041153097
 21
-25.74919030808382
 72
     1
 10
8.968175236465597
 20
-26.46797082566195
 11
8.968175236465597
 21
-25.63329980515414
 72
     1
 10
9.372350041153097
 20
-26.46797082566195
 11
9.372350041153097
 21
-25.74919030808382
 72
     2
 10
11.0900777022859
 20
-26.46797082566195
 40
1.717727661132812
 50
180.0
 51
360.0
 73
     1
 72
     2
 10
11.0900777022859
 20
-26.46797082566195
 40
2.121902465820312
 50
180.0
 51
360.0
 73
     1
 72
     1
 10
13.21198063454149
 20
-26.46797082566195
 11
13.21198063454149
 21
-18.26327417038851
 72
     1
 10
12.80780584025588
 20
-26.46797082566195
 11
12.80780584025588
 21
-18.26327417038851
 72
     2
 10
11.0900777022859
 20
-18.26327417038851
 40
2.121902465820312
 50
0.0
 51
194.7707939660973
 73
     1
 72
     2
 10
11.0900777022859
 20
-18.26327417038851
 40
1.717727661132812
 50
0.0
 51
194.1274364964151
 73
     1
 72
     1
 10
9.424290959121847
 20
-18.68253991745882
 11
9.038289372207785
 21
-18.80425927781038
 97
       10
330
CFC
330
CFD
330
CFE
330
CFB
330
CFA
330
CF9
330
CF8
330
CEB
330
CEC
330
D20
 75
     0
 76
     1
 52
90.0
 41
0.1
 77
     0
 78
     1
 53
135.0
 43
28.96197063136305
 44
-148.3898599400418
 45
-0.2245064030267288
 46
-0.2245064030267288
 79
     0
 98
        1
 10
28.96197063136305
 20
-148.3898599400418
  0
ARC
  5
CEB
102
{ACAD_REACTORS
330
CEA
102
}
330
CC6
100
AcDbEntity
  8
247
100
AcDbCircle
 10
11.0900777022859
 20
-18.26327417038851
 30
0.0
 40
2.121902465820312
100
AcDbArc
 50
0.0
 51
194.7707939660973
  0
ARC
  5
CEC
102
{ACAD_REACTORS
330
CEA
102
}
330
CC6
100
AcDbEntity
  8
247
100
AcDbCircle
 10
11.0900777022859
 20
-18.26327417038851
 30
0.0
 40
1.717727661132812
100
AcDbArc
 50
0.0
 51
194.1274364964151
  0
LINE
  5
CED
330
CC6
100
AcDbEntity
  8
247
100
AcDbLine
 10
12.60571843791213
 20
-26.25588891648226
 30
0.0
 11
12.60571843791213
 21
-24.57864282273226
 31
0.0
  0
LINE
  5
CEE
330
CC6
100
AcDbEntity
  8
247
100
AcDbLine
 10
12.60571843791213
 20
-25.61757271192152
 30
0.0
 11
12.08585956274991
 21
-25.09771383675922
 31
0.0
  0
LINE
  5
CEF
330
CC6
100
AcDbEntity
  8
247
100
AcDbLine
 10
12.60571843791213
 20
-26.06658551797488
 30
0.0
 11
11.45634189566727
 21
-24.91720897573009
 31
0.0
  0
LINE
  5
CF0
330
CC6
100
AcDbEntity
  8
247
100
AcDbLine
 10
12.24159947790785
 20
-26.15147936402411
 30
0.0
 11
10.53149351601122
 21
-24.44137340212751
 31
0.0
  0
LINE
  5
CF1
330
CC6
100
AcDbEntity
  8
247
100
AcDbLine
 10
10.982545541329
 20
-25.79045103955218
 30
0.0
 11
9.56776589392534
 21
-24.37567139214843
 31
0.0
  0
LINE
  5
CF2
330
CC6
100
AcDbEntity
  8
247
100
AcDbLine
 10
11.61207250961844
 20
-25.97096520178808
 30
0.0
 11
10.19728690393863
 21
-24.55617959610833
 31
0.0
  0
LINE
  5
CF3
330
CC6
100
AcDbEntity
  8
247
100
AcDbLine
 10
8.968175236465597
 20
-25.42307946823985
 30
0.0
 11
9.372350041153097
 21
-25.53896997117021
 31
0.0
  0
LINE
  5
CF4
330
CC6
100
AcDbEntity
  8
247
100
AcDbLine
 10
9.372350041153154
 20
-25.5272939575367
 30
0.0
 11
8.968175236465626
 21
-25.1231191528492
 31
0.0
  0
LINE
  5
CF5
330
CC6
100
AcDbEntity
  8
247
100
AcDbLine
 10
9.372350041153097
 20
-25.53896997117021
 30
0.0
 11
9.372350041154291
 21
-25.32873437546709
 31
0.0
  0
LINE
  5
CF6
330
CC6
100
AcDbEntity
  8
247
100
AcDbLine
 10
10.35301857303956
 20
-25.60993687731615
 30
0.0
 11
8.968175236465739
 21
-24.22509354074236
 31
0.0
  0
LINE
  5
CF7
330
CC6
100
AcDbEntity
  8
247
100
AcDbLine
 10
12.60571843791213
 20
-26.25588891648226
 30
0.0
 11
9.372350041154291
 21
-25.32873437546709
 31
0.0
  0
LINE
  5
CF8
102
{ACAD_REACTORS
330
CEA
102
}
330
CC6
100
AcDbEntity
  8
247
100
AcDbLine
 10
12.80780584025588
 20
-26.46797082566195
 30
0.0
 11
12.80780584025588
 21
-18.26327417038851
 31
0.0
  0
LINE
  5
CF9
102
{ACAD_REACTORS
330
CEA
102
}
330
CC6
100
AcDbEntity
  8
247
100
AcDbLine
 10
13.21198063454149
 20
-26.46797082566195
 30
0.0
 11
13.21198063454149
 21
-18.26327417038851
 31
0.0
  0
ARC
  5
CFA
102
{ACAD_REACTORS
330
CEA
102
}
330
CC6
100
AcDbEntity
  8
247
100
AcDbCircle
 10
11.0900777022859
 20
-26.46797082566195
 30
0.0
 40
2.121902465820312
100
AcDbArc
 50
180.0
 51
0.0
  0
ARC
  5
CFB
102
{ACAD_REACTORS
330
CEA
102
}
330
CC6
100
AcDbEntity
  8
247
100
AcDbCircle
 10
11.0900777022859
 20
-26.46797082566195
 30
0.0
 40
1.717727661132812
100
AcDbArc
 50
180.0
 51
0.0
  0
LINE
  5
CFC
102
{ACAD_REACTORS
330
CEA
102
}
330
CC6
100
AcDbEntity
  8
247
100
AcDbLine
 10
8.968175236465597
 20
-25.63329980515414
 30
0.0
 11
9.372350041153097
 21
-25.74919030808382
 31
0.0
  0
LINE
  5
CFD
102
{ACAD_REACTORS
330
CEA
102
}
330
CC6
100
AcDbEntity
  8
247
100
AcDbLine
 10
8.968175236465597
 20
-26.46797082566195
 30
0.0
 11
8.968175236465597
 21
-25.63329980515414
 31
0.0
  0
LINE
  5
CFE
102
{ACAD_REACTORS
330
CEA
102
}
330
CC6
100
AcDbEntity
  8
247
100
AcDbLine
 10
9.372350041153097
 20
-26.46797082566195
 30
0.0
 11
9.372350041153097
 21
-25.74919030808382
 31
0.0
  0
HATCH
  5
CFF
330
CC6
100
AcDbEntity
  8
247
100
AcDbHatch
 10
0.0
 20
0.0
 30
0.0
210
0.0
220
0.0
230
1.0
  2
ANSI31
 70
     0
 71
     1
 91
        1
 92
       33
 93
       15
 72
     1
 10
9.485066715957785
 20
-18.87527368210726
 11
9.099065129043722
 21
-18.99699304245882
 72
     2
 10
11.0900777022859
 20
-18.26327417038851
 40
1.717732429504394
 50
200.8721834020705
 51
222.5419489373881
 73
     1
 72
     2
 10
9.83714801478591
 20
-19.84887597702913
 40
0.4243833422660828
 50
91.71012138206446
 51
253.9983983544486
 73
     1
 72
     1
 10
11.61977130580153
 20
-20.80152795456819
 11
9.720158879043722
 21
-20.25681970261507
 72
     2
 10
11.73674518275465
 20
-20.39358422898226
 40
0.4243830442428589
 50
254.0002730571842
 51
434.0002730571843
 73
     1
 72
     1
 10
11.85371905970778
 20
-19.98564050339632
 11
10.94861346888747
 21
-19.72610376023226
 72
     1
 10
10.94861346888747
 20
-20.06246850632601
 11
10.94861346888747
 21
-19.72610376023226
 72
     1
 10
10.94861346888747
 20
-20.06246850632601
 11
10.54443866419997
 21
-19.94657800339632
 72
     1
 10
10.54443866419997
 20
-19.94657800339632
 11
10.54443866419997
 21
-18.76928613327913
 72
     1
 10
12.60571843791213
 20
-19.36035058640413
 11
10.54443866419997
 21
-18.76928613327913
 72
     1
 10
12.36864263224807
 20
-19.59744165085726
 11
12.60571843791213
 21
-19.36035058640413
 72
     2
 10
11.29216510462966
 20
-20.35018823288851
 40
1.313568115234375
 50
253.9997507017268
 51
394.9638732916281
 73
     1
 72
     2
 10
11.36122638392653
 20
-18.20257470749788
 40
3.43743896484375
 50
245.2051773698423
 51
262.7948259620501
 73
     1
 72
     2
 10
10.28172809291091
 20
-20.06045434616976
 40
1.313554763793945
 50
143.4440121970604
 51
254.0001843876854
 73
     1
 72
     2
 10
11.0900777022859
 20
-18.26327417038851
 40
2.121903419494628
 50
200.2296450633231
 51
208.5716889237166
 73
     1
 97
       15
330
D03
330
D3B
330
D02
330
D3E
330
D3D
330
D45
330
D44
330
D43
330
D40
330
D41
330
D42
330
D3C
330
D3F
330
D00
330
D1F
 75
     0
 76
     1
 52
90.0
 41
0.1
 77
     0
 78
     1
 53
135.0
 43
28.96197063136305
 44
-148.3898599400418
 45
-0.2245064030267288
 46
-0.2245064030267288
 79
     0
 98
        1
 10
28.96197063136305
 20
-148.3898599400418
  0
ARC
  5
D00
102
{ACAD_REACTORS
330
CFF
102
}
330
CC6
100
AcDbEntity
  8
247
100
AcDbCircle
 10
10.28172809291091
 20
-20.06045434616976
 30
0.0
 40
1.313554763793945
100
AcDbArc
 50
143.4440121970604
 51
254.0001843876854
  0
LINE
  5
D01
330
CC6
100
AcDbEntity
  8
247
100
AcDbLine
 10
12.60571843791213
 20
-22.45072839402132
 30
0.0
 11
8.968175236465597
 21
-21.40768335007601
 31
0.0
  0
ARC
  5
D02
102
{ACAD_REACTORS
330
CFF
102
}
330
CC6
100
AcDbEntity
  8
247
100
AcDbCircle
 10
9.83714801478591
 20
-19.84887597702913
 30
0.0
 40
0.4243833422660828
100
AcDbArc
 50
91.71012138206446
 51
253.9983983544486
  0
LINE
  5
D03
102
{ACAD_REACTORS
330
CFF
102
}
330
CC6
100
AcDbEntity
  8
247
100
AcDbLine
 10
9.485066715957785
 20
-18.87527368210726
 30
0.0
 11
9.099065129043722
 21
-18.99699304245882
 31
0.0
  0
LINE
  5
D04
330
CC6
100
AcDbEntity
  8
247
100
AcDbLine
 10
9.723491604750122
 20
-25.42942271508024
 30
0.0
 11
8.968175236465683
 21
-24.67410634679572
 31
0.0
  0
LINE
  5
D05
330
CC6
100
AcDbEntity
  8
247
100
AcDbLine
 10
10.06279634164072
 20
-23.972676227757
 30
0.0
 11
9.386448824886045
 21
-23.29632871100227
 31
0.0
  0
LINE
  5
D06
330
CC6
100
AcDbEntity
  8
247
100
AcDbLine
 10
9.665587270221308
 20
-24.02447996239095
 30
0.0
 11
9.161611158830581
 21
-23.52050385100028
 31
0.0
  0
LINE
  5
D07
330
CC6
100
AcDbEntity
  8
247
100
AcDbLine
 10
9.382914148697707
 20
-24.32266719371966
 30
0.0
 11
10.53802994073159
 21
-24.65388390240628
 31
0.0
  0
ARC
  5
D08
330
CC6
100
AcDbEntity
  8
247
100
AcDbCircle
 10
9.938191715957785
 20
-24.56597802781038
 30
0.0
 40
0.6062452793121338
100
AcDbArc
 50
351.6626016879261
 51
156.3381550951899
  0
ARC
  5
D09
330
CC6
100
AcDbEntity
  8
247
100
AcDbCircle
 10
9.978596989395285
 20
-24.11506555222445
 30
0.0
 40
1.010430335998535
100
AcDbArc
 50
17.66957754739792
 51
180.2361598426716
  0
HATCH
  5
D0A
330
CC6
100
AcDbEntity
  8
247
100
AcDbHatch
 10
0.0
 20
0.0
 30
0.0
210
0.0
220
0.0
230
1.0
  2
ANSI31
 70
     0
 71
     0
 91
        1
 92
        7
 72
     0
 73
     1
 93
        6
 10
8.968175236465626
 20
-21.40768335007601
 10
8.968175236465569
 20
-22.45883081101351
 10
9.412755314590626
 20
-22.5863179936307
 10
9.412755314590597
 20
-22.43914697312288
 10
12.60571843791216
 20
-23.35472009324007
 10
12.60571843791216
 20
-22.45072839402132
 97
        0
 75
     0
 76
     1
 52
90.0
 41
0.1
 77
     0
 78
     1
 53
135.0
 43
28.96197063136305
 44
-148.3898599400418
 45
-0.2245064030267288
 46
-0.2245064030267288
 79
     0
 47
0.0134348504236232
 98
        1
 10
10.69169962313056
 20
-22.35266561501487
  0
POLYLINE
  5
D0B
330
CC6
100
AcDbEntity
  8
247
100
AcDb2dPolyline
 66
     1
 10
0.0
 20
0.0
 30
0.0
 70
     1
  0
VERTEX
  5
D0C
330
D0B
100
AcDbEntity
  8
247
100
AcDbVertex
100
AcDb2dVertex
 10
8.968175236465597
 20
-22.45883081101351
 30
0.0
  0
VERTEX
  5
D0D
330
D0B
100
AcDbEntity
  8
247
100
AcDbVertex
100
AcDb2dVertex
 10
9.412755314590597
 20
-22.5863179936307
 30
0.0
  0
VERTEX
  5
D0E
330
D0B
100
AcDbEntity
  8
247
100
AcDbVertex
100
AcDb2dVertex
 10
9.412755314590597
 20
-22.43914697312288
 30
0.0
  0
VERTEX
  5
D0F
330
D0B
100
AcDbEntity
  8
247
100
AcDbVertex
100
AcDb2dVertex
 10
12.60571843791213
 20
-23.35472009324007
 30
0.0
  0
VERTEX
  5
D10
330
D0B
100
AcDbEntity
  8
247
100
AcDbVertex
100
AcDb2dVertex
 10
12.60571843791213
 20
-22.45072839402132
 30
0.0
  0
VERTEX
  5
D11
330
D0B
100
AcDbEntity
  8
247
100
AcDbVertex
100
AcDb2dVertex
 10
8.968175236465597
 20
-21.40768335007601
 30
0.0
  0
SEQEND
  5
D12
330
D0B
100
AcDbEntity
  8
247
  0
POLYLINE
  5
D13
330
CC6
100
AcDbEntity
  8
247
100
AcDb2dPolyline
 66
     1
 10
0.0
 20
0.0
 30
0.0
 70
     1
1001
HATCH_DISTANCE
1040
1.0
1001
HATCH_DISPLAY
1070
     0
1001
HATCH_TYPE
1070
     7
  0
VERTEX
  5
D14
330
D13
100
AcDbEntity
  8
247
100
AcDbVertex
100
AcDb2dVertex
 10
8.968175236465597
 20
-22.45883081101351
 30
0.0
  0
VERTEX
  5
D15
330
D13
100
AcDbEntity
  8
247
100
AcDbVertex
100
AcDb2dVertex
 10
9.412755314590597
 20
-22.5863179936307
 30
0.0
  0
VERTEX
  5
D16
330
D13
100
AcDbEntity
  8
247
100
AcDbVertex
100
AcDb2dVertex
 10
9.412755314590597
 20
-22.43914697312288
 30
0.0
  0
VERTEX
  5
D17
330
D13
100
AcDbEntity
  8
247
100
AcDbVertex
100
AcDb2dVertex
 10
12.60571843791213
 20
-23.35472009324007
 30
0.0
  0
VERTEX
  5
D18
330
D13
100
AcDbEntity
  8
247
100
AcDbVertex
100
AcDb2dVertex
 10
12.60571843791213
 20
-22.45072839402132
 30
0.0
  0
VERTEX
  5
D19
330
D13
100
AcDbEntity
  8
247
100
AcDbVertex
100
AcDb2dVertex
 10
8.968175236465597
 20
-21.40768335007601
 30
0.0
  0
SEQEND
  5
D1A
330
D13
100
AcDbEntity
  8
247
  0
LINE
  5
D1B
330
CC6
100
AcDbEntity
  8
247
100
AcDbLine
 10
12.60571843791213
 20
-23.35472009324007
 30
0.0
 11
9.412755314590597
 21
-22.43914697312288
 31
0.0
  0
LINE
  5
D1C
330
CC6
100
AcDbEntity
  8
247
100
AcDbLine
 10
9.412755314590597
 20
-22.5863179936307
 30
0.0
 11
8.968175236465597
 21
-22.45883081101351
 31
0.0
  0
LINE
  5
D1D
330
CC6
100
AcDbEntity
  8
247
100
AcDbLine
 10
8.968175236465597
 20
-22.45883081101351
 30
0.0
 11
8.968175236465597
 21
-21.40768335007601
 31
0.0
  0
LINE
  5
D1E
330
CC6
100
AcDbEntity
  8
247
100
AcDbLine
 10
9.412755314590597
 20
-22.5863179936307
 30
0.0
 11
9.412755314590597
 21
-22.43914697312288
 31
0.0
  0
ARC
  5
D1F
102
{ACAD_REACTORS
330
CFF
102
}
330
CC6
100
AcDbEntity
  8
247
100
AcDbCircle
 10
11.0900777022859
 20
-18.26327417038851
 30
0.0
 40
2.121903419494628
100
AcDbArc
 50
200.2296450633231
 51
208.5716889237166
  0
LINE
  5
D20
102
{ACAD_REACTORS
330
CEA
102
}
330
CC6
100
AcDbEntity
  8
247
100
AcDbLine
 10
9.424290959121847
 20
-18.68253991745882
 30
0.0
 11
9.038289372207785
 21
-18.80425927781038
 31
0.0
  0
POLYLINE
  5
D21
330
CC6
100
AcDbEntity
  8
247
100
AcDb2dPolyline
 66
     1
 10
0.0
 20
0.0
 30
0.0
 70
     1
  0
VERTEX
  5
D22
330
D21
100
AcDbEntity
  8
247
100
AcDbVertex
100
AcDb2dVertex
 10
9.424290959121847
 20
-18.68253991745882
 30
0.0
  0
VERTEX
  5
D23
330
D21
100
AcDbEntity
  8
247
100
AcDbVertex
100
AcDb2dVertex
 10
9.038289372207785
 20
-18.80425927781038
 30
0.0
  0
VERTEX
  5
D24
330
D21
100
AcDbEntity
  8
247
100
AcDbVertex
100
AcDb2dVertex
 10
9.038289372207785
 20
-18.80425927781038
 30
0.0
  0
VERTEX
  5
D25
330
D21
100
AcDbEntity
  8
247
100
AcDbVertex
100
AcDb2dVertex
 10
9.424290959121847
 20
-18.68253991745882
 30
0.0
  0
SEQEND
  5
D26
330
D21
100
AcDbEntity
  8
247
  0
POLYLINE
  5
D27
330
CC6
100
AcDbEntity
  8
247
100
AcDb2dPolyline
 66
     1
 10
0.0
 20
0.0
 30
0.0
 70
     1
1001
HATCH_DISTANCE
1040
1.0
1001
HATCH_DISPLAY
1070
     0
1001
HATCH_TYPE
1070
     7
  0
VERTEX
  5
D28
330
D27
100
AcDbEntity
  8
247
100
AcDbVertex
100
AcDb2dVertex
 10
9.424290959121847
 20
-18.68253991745882
 30
0.0
  0
VERTEX
  5
D29
330
D27
100
AcDbEntity
  8
247
100
AcDbVertex
100
AcDb2dVertex
 10
9.038289372207785
 20
-18.80425927781038
 30
0.0
  0
VERTEX
  5
D2A
330
D27
100
AcDbEntity
  8
247
100
AcDbVertex
100
AcDb2dVertex
 10
9.038289372207785
 20
-18.80425927781038
 30
0.0
  0
VERTEX
  5
D2B
330
D27
100
AcDbEntity
  8
247
100
AcDbVertex
100
AcDb2dVertex
 10
9.424290959121847
 20
-18.68253991745882
 30
0.0
  0
SEQEND
  5
D2C
330
D27
100
AcDbEntity
  8
247
  0
POLYLINE
  5
D2D
330
CC6
100
AcDbEntity
  8
247
100
AcDb2dPolyline
 66
     1
 10
0.0
 20
0.0
 30
0.0
 70
     1
  0
VERTEX
  5
D2E
330
D2D
100
AcDbEntity
  8
247
100
AcDbVertex
100
AcDb2dVertex
 10
9.424290959121847
 20
-18.68253991745882
 30
0.0
  0
VERTEX
  5
D2F
330
D2D
100
AcDbEntity
  8
247
100
AcDbVertex
100
AcDb2dVertex
 10
9.038289372207785
 20
-18.80425927781038
 30
0.0
  0
VERTEX
  5
D30
330
D2D
100
AcDbEntity
  8
247
100
AcDbVertex
100
AcDb2dVertex
 10
9.038289372207785
 20
-18.80425927781038
 30
0.0
  0
VERTEX
  5
D31
330
D2D
100
AcDbEntity
  8
247
100
AcDbVertex
100
AcDb2dVertex
 10
9.424290959121847
 20
-18.68253991745882
 30
0.0
  0
SEQEND
  5
D32
330
D2D
100
AcDbEntity
  8
247
  0
POLYLINE
  5
D33
330
CC6
100
AcDbEntity
  8
247
100
AcDb2dPolyline
 66
     1
 10
0.0
 20
0.0
 30
0.0
 70
     1
1001
HATCH_DISTANCE
1040
1.0
1001
HATCH_DISPLAY
1070
     0
1001
HATCH_TYPE
1070
     7
  0
VERTEX
  5
D34
330
D33
100
AcDbEntity
  8
247
100
AcDbVertex
100
AcDb2dVertex
 10
9.424290959121847
 20
-18.68253991745882
 30
0.0
  0
VERTEX
  5
D35
330
D33
100
AcDbEntity
  8
247
100
AcDbVertex
100
AcDb2dVertex
 10
9.038289372207785
 20
-18.80425927781038
 30
0.0
  0
VERTEX
  5
D36
330
D33
100
AcDbEntity
  8
247
100
AcDbVertex
100
AcDb2dVertex
 10
9.038289372207785
 20
-18.80425927781038
 30
0.0
  0
VERTEX
  5
D37
330
D33
100
AcDbEntity
  8
247
100
AcDbVertex
100
AcDb2dVertex
 10
9.424290959121847
 20
-18.68253991745882
 30
0.0
  0
SEQEND
  5
D38
330
D33
100
AcDbEntity
  8
247
  0
LINE
  5
D39
330
CC6
100
AcDbEntity
  8
247
100
AcDbLine
 10
8.968175236465597
 20
-25.42307946823985
 30
0.0
 11
8.968175236465739
 21
-24.11923029866045
 31
0.0
  0
LINE
  5
D3A
330
CC6
100
AcDbEntity
  8
247
100
AcDbLine
 10
9.429018845698877
 20
-24.23692434392205
 30
0.0
 11
9.012182206186437
 21
-23.82008770440961
 31
0.0
  0
ARC
  5
D3B
102
{ACAD_REACTORS
330
CFF
102
}
330
CC6
100
AcDbEntity
  8
247
100
AcDbCircle
 10
11.0900777022859
 20
-18.26327417038851
 30
0.0
 40
1.717732429504394
100
AcDbArc
 50
200.8721834020705
 51
222.5419489373881
  0
ARC
  5
D3C
102
{ACAD_REACTORS
330
CFF
102
}
330
CC6
100
AcDbEntity
  8
247
100
AcDbCircle
 10
11.29216510462966
 20
-20.35018823288851
 30
0.0
 40
1.313568115234375
100
AcDbArc
 50
253.9997507017268
 51
34.96387329162816
  0
ARC
  5
D3D
102
{ACAD_REACTORS
330
CFF
102
}
330
CC6
100
AcDbEntity
  8
247
100
AcDbCircle
 10
11.73674518275465
 20
-20.39358422898226
 30
0.0
 40
0.4243830442428589
100
AcDbArc
 50
254.0002730571842
 51
74.00027305718428
  0
LINE
  5
D3E
102
{ACAD_REACTORS
330
CFF
102
}
330
CC6
100
AcDbEntity
  8
247
100
AcDbLine
 10
11.61977130580153
 20
-20.80152795456819
 30
0.0
 11
9.720158879043722
 21
-20.25681970261507
 31
0.0
  0
ARC
  5
D3F
102
{ACAD_REACTORS
330
CFF
102
}
330
CC6
100
AcDbEntity
  8
247
100
AcDbCircle
 10
11.36122638392653
 20
-18.20257470749788
 30
0.0
 40
3.43743896484375
100
AcDbArc
 50
245.2051773698423
 51
262.7948259620501
  0
LINE
  5
D40
102
{ACAD_REACTORS
330
CFF
102
}
330
CC6
100
AcDbEntity
  8
247
100
AcDbLine
 10
10.54443866419997
 20
-19.94657800339632
 30
0.0
 11
10.54443866419997
 21
-18.76928613327913
 31
0.0
  0
LINE
  5
D41
102
{ACAD_REACTORS
330
CFF
102
}
330
CC6
100
AcDbEntity
  8
247
100
AcDbLine
 10
12.60571843791213
 20
-19.36035058640413
 30
0.0
 11
10.54443866419997
 21
-18.76928613327913
 31
0.0
  0
LINE
  5
D42
102
{ACAD_REACTORS
330
CFF
102
}
330
CC6
100
AcDbEntity
  8
247
100
AcDbLine
 10
12.36864263224807
 20
-19.59744165085726
 30
0.0
 11
12.60571843791213
 21
-19.36035058640413
 31
0.0
  0
LINE
  5
D43
102
{ACAD_REACTORS
330
CFF
102
}
330
CC6
100
AcDbEntity
  8
247
100
AcDbLine
 10
10.94861346888747
 20
-20.06246850632601
 30
0.0
 11
10.54443866419997
 21
-19.94657800339632
 31
0.0
  0
LINE
  5
D44
102
{ACAD_REACTORS
330
CFF
102
}
330
CC6
100
AcDbEntity
  8
247
100
AcDbLine
 10
10.94861346888747
 20
-20.06246850632601
 30
0.0
 11
10.94861346888747
 21
-19.72610376023226
 31
0.0
  0
LINE
  5
D45
102
{ACAD_REACTORS
330
CFF
102
}
330
CC6
100
AcDbEntity
  8
247
100
AcDbLine
 10
11.85371905970778
 20
-19.98564050339632
 30
0.0
 11
10.94861346888747
 21
-19.72610376023226
 31
0.0
  0
ARC
  5
D46
330
CC6
100
AcDbEntity
  8
247
100
AcDbCircle
 10
11.59529620814528
 20
-24.57864282273226
 30
0.0
 40
1.010421752929687
100
AcDbArc
 50
0.0
 51
130.3298406541697
  0
LINE
  5
D47
330
CC6
100
AcDbEntity
  8
247
100
AcDbLine
 10
12.52996169456254
 20
-24.19477755041146
 30
0.0
 11
11.97916148046608
 21
-23.64397733631506
 31
0.0
  0
LINE
  5
D48
330
CC6
100
AcDbEntity
  8
247
100
AcDbLine
 10
12.60571843791213
 20
-25.16855990586805
 30
0.0
 11
11.12270918476851
 21
-23.68555065272437
 31
0.0
  0
ARC
  5
D49
330
CC6
100
AcDbEntity
  8
247
100
AcDbCircle
 10
11.55487567591872
 20
-25.0295552983182
 30
0.0
 40
0.6062626242637635
100
AcDbArc
 50
351.6628542111489
 51
156.3381921591167
  0
LINE
  5
D4A
330
CC6
100
AcDbEntity
  8
247
100
AcDbLine
 10
10.9995812853874
 20
-24.78623964032715
 30
0.0
 11
12.15473133930963
 21
-25.11746179794727
 31
0.0
  0
LINE
  5
D4B
330
CC6
100
AcDbEntity
  8
247
100
AcDbLine
 10
12.60571843791216
 20
-24.71954709981457
 30
0.0
 11
11.46308014810013
 21
-23.57690881000257
 31
0.0
  0
LINE
  5
D4C
330
CC6
100
AcDbEntity
  8
247
100
AcDbLine
 10
11.13314516820766
 20
-24.59401224827036
 30
0.0
 11
9.686814224741354
 21
-23.1476813048041
 31
0.0
  0
LINE
  5
D4D
330
CC6
100
AcDbEntity
  8
247
100
AcDbLine
 10
11.42542084116975
 20
-24.43727511517909
 30
0.0
 11
10.10011460659451
 21
-23.11196888060385
 31
0.0
  0
LINE
  5
D4E
330
CC6
100
AcDbEntity
  8
247
100
AcDbLine
 10
12.60571843791213
 20
-23.35472009324007
 30
0.0
 11
12.60571843791213
 21
-22.45072839402132
 31
0.0
  0
ARC
  5
D4F
330
CC6
100
AcDbEntity
  8
240
100
AcDbCircle
 10
53.00000000000015
 20
32.25
 30
0.0
 40
15.0
100
AcDbArc
 50
180.0
 51
270.0
  0
LINE
  5
D50
330
CC6
100
AcDbEntity
  8
240
100
AcDbLine
 10
26.45647552145597
 20
42.64999999999941
 30
0.0
 11
30.6999999999996
 21
49.99999999999954
 31
0.0
  0
LINE
  5
D51
330
CC6
100
AcDbEntity
  8
240
100
AcDbLine
 10
19.94352447854346
 20
42.64999999999941
 30
0.0
 11
15.69999999999966
 21
49.99999999999943
 31
0.0
  0
LINE
  5
D52
330
CC6
100
AcDbEntity
  8
240
100
AcDbLine
 10
26.19666790032063
 20
42.49999999999943
 30
0.0
 11
20.2033320996788
 21
42.49999999999943
 31
0.0
  0
ARC
  5
D53
330
CC6
100
AcDbEntity
  8
240
100
AcDbCircle
 10
20.20333209967874
 20
42.7999999999995
 30
0.0
 40
0.2999999999999727
100
AcDbArc
 50
210.0000000000142
 51
270.0000000000114
  0
ARC
  5
D54
330
CC6
100
AcDbEntity
  8
240
100
AcDbCircle
 10
26.19666790032058
 20
42.7999999999995
 30
0.0
 40
0.3000000000000114
100
AcDbArc
 50
270.0000000000114
 51
330.0000000000075
  0
LINE
  5
D55
330
CC6
100
AcDbEntity
  8
240
100
AcDbLine
 10
15.69999999999966
 20
49.99999999999943
 30
0.0
 11
4.299999999999627
 21
49.99999999999943
 31
0.0
  0
LINE
  5
D56
330
CC6
100
AcDbEntity
  8
243
100
AcDbLine
 10
33.99999999999995
 20
35.29999999999995
 30
0.0
 11
34.00000000000001
 21
49.99999999999954
 31
0.0
  0
LINE
  5
D57
330
CC6
100
AcDbEntity
  8
240
100
AcDbLine
 10
38.00000000000018
 20
48.70000000000004
 30
0.0
 11
38.00000000000015
 21
32.25
 31
0.0
  0
LINE
  5
D58
330
CC6
100
AcDbEntity
  8
240
100
AcDbLine
 10
30.6999999999996
 20
49.99999999999954
 30
0.0
 11
36.69999999999966
 21
49.99999999999954
 31
0.0
  0
ARC
  5
D59
330
CC6
100
AcDbEntity
  8
240
100
AcDbCircle
 10
36.7
 20
48.69999999999982
 30
0.0
 40
1.300000000000011
100
AcDbArc
 50
0.0
 51
90.0
  0
LINE
  5
D5A
330
CC6
100
AcDbEntity
  8
246
100
AcDbLine
 10
294.3999999999999
 20
10.25
 30
0.0
 11
268.9999999999999
 21
7.580352424251827
 31
0.0
  0
LINE
  5
D5B
330
CC6
100
AcDbEntity
  8
246
100
AcDbLine
 10
268.9999999999999
 20
6.5
 30
0.0
 11
300.0
 21
6.5
 31
0.0
  0
LINE
  5
D5C
330
CC6
100
AcDbEntity
  8
246
100
AcDbLine
 10
294.3999999999999
 20
-10.25
 30
0.0
 11
268.9999999999999
 21
-7.580352424251827
 31
0.0
  0
LINE
  5
D5D
330
CC6
100
AcDbEntity
  8
246
100
AcDbLine
 10
268.9999999999999
 20
-6.5
 30
0.0
 11
300.0
 21
-6.5
 31
0.0
  0
LINE
  5
D5E
330
CC6
100
AcDbEntity
  8
240
100
AcDbLine
 10
285.2999999999999
 20
-17.5
 30
0.0
 11
298.4186291501014
 21
-17.5
 31
0.0
  0
LINE
  5
D5F
330
CC6
100
AcDbEntity
  8
241
100
AcDbLine
 10
293.5
 20
-2.0
 30
0.0
 11
284.4999999999998
 21
-2.0
 31
0.0
  0
LINE
  5
D60
330
CC6
100
AcDbEntity
  8
241
100
AcDbLine
 10
293.5
 20
2.0
 30
0.0
 11
284.4999999999998
 21
2.0
 31
0.0
  0
LINE
  5
D61
330
CC6
100
AcDbEntity
  8
241
100
AcDbLine
 10
293.5
 20
-16.05614492491349
 30
0.0
 11
284.4999999999998
 21
-16.05614492491349
 31
0.0
  0
LINE
  5
D62
330
CC6
100
AcDbEntity
  8
241
100
AcDbLine
 10
293.5
 20
-14.05614492491349
 30
0.0
 11
284.4999999999998
 21
-14.05614492491349
 31
0.0
  0
LINE
  5
D63
330
CC6
100
AcDbEntity
  8
240
100
AcDbLine
 10
285.2999999999999
 20
17.5
 30
0.0
 11
298.4186291501014
 21
17.5
 31
0.0
  0
LINE
  5
D64
330
CC6
100
AcDbEntity
  8
241
100
AcDbLine
 10
293.5
 20
16.05614492491349
 30
0.0
 11
284.4999999999998
 21
16.05614492491349
 31
0.0
  0
LINE
  5
D65
330
CC6
100
AcDbEntity
  8
241
100
AcDbLine
 10
293.5
 20
14.05614492491361
 30
0.0
 11
284.4999999999998
 21
14.05614492491361
 31
0.0
  0
LINE
  5
D66
330
CC6
100
AcDbEntity
  8
246
100
AcDbLine
 10
269.0000000000001
 20
7.580352424251941
 30
0.0
 11
269.0000000000001
 21
-7.580352424251941
 31
0.0
  0
LINE
  5
D67
330
CC6
100
AcDbEntity
  8
241
100
AcDbLine
 10
284.0
 20
-13.0
 30
0.0
 11
284.0
 21
0.0
 31
0.0
  0
LINE
  5
D68
330
CC6
100
AcDbEntity
  8
241
100
AcDbLine
 10
284.4999999999998
 20
-15.0
 30
0.0
 11
284.5
 21
0.0
 31
0.0
  0
LINE
  5
D69
330
CC6
100
AcDbEntity
  8
241
100
AcDbLine
 10
279.4999999999999
 20
-14.0
 30
0.0
 11
279.4999999999999
 21
0.0
 31
0.0
  0
LINE
  5
D6A
330
CC6
100
AcDbEntity
  8
241
100
AcDbLine
 10
281.4999999999999
 20
-12.5
 30
0.0
 11
281.4999999999999
 21
0.0
 31
0.0
  0
LINE
  5
D6B
330
CC6
100
AcDbEntity
  8
246
100
AcDbLine
 10
242.3987174742354
 20
-2.309401076758604
 30
0.0
 11
242.3987174742354
 21
2.309401076758604
 31
0.0
  0
LINE
  5
D6C
330
CC6
100
AcDbEntity
  8
246
100
AcDbLine
 10
246.3094010767584
 20
-2.309401076758604
 30
0.0
 11
246.3094010767584
 21
2.309401076758604
 31
0.0
  0
LINE
  5
D6D
330
CC6
100
AcDbEntity
  8
246
100
AcDbLine
 10
249.9999999999999
 20
6.299999999999954
 30
0.0
 11
249.9999999999999
 21
-6.299999999999954
 31
0.0
  0
LINE
  5
D6E
330
CC6
100
AcDbEntity
  8
246
100
AcDbLine
 10
230.0
 20
-5.25
 30
0.0
 11
230.0
 21
5.25
 31
0.0
  0
LINE
  5
D6F
330
CC6
100
AcDbEntity
  8
246
100
AcDbLine
 10
235.3999999999999
 20
-6.65000000000009
 30
0.0
 11
249.6499999999999
 21
-6.65000000000009
 31
0.0
  0
LINE
  5
D70
330
CC6
100
AcDbEntity
  8
246
100
AcDbLine
 10
235.7499999999999
 20
-7.0
 30
0.0
 11
249.2999999999999
 21
-7.0
 31
0.0
  0
LINE
  5
D71
330
CC6
100
AcDbEntity
  8
246
100
AcDbLine
 10
242.0
 20
-3.0
 30
0.0
 11
230.0
 21
-3.0
 31
0.0
  0
LINE
  5
D72
330
CC6
100
AcDbEntity
  8
246
100
AcDbLine
 10
231.0
 20
-6.25
 30
0.0
 11
235.0
 21
-6.25
 31
0.0
  0
ARC
  5
D73
330
CC6
100
AcDbEntity
  8
246
100
AcDbCircle
 10
231.0
 20
-5.25
 30
0.0
 40
1.0
100
AcDbArc
 50
180.0
 51
270.0
  0
LINE
  5
D74
330
CC6
100
AcDbEntity
  8
246
100
AcDbLine
 10
235.0
 20
-6.25
 30
0.0
 11
235.7499999999999
 21
-7.0
 31
0.0
  0
LINE
  5
D75
330
CC6
100
AcDbEntity
  8
246
100
AcDbLine
 10
242.3987174742354
 20
-2.309401076758604
 30
0.0
 11
246.3094010767584
 21
-2.309401076758604
 31
0.0
  0
LINE
  5
D76
330
CC6
100
AcDbEntity
  8
246
100
AcDbLine
 10
242.3987174742354
 20
-1.154700538379302
 30
0.0
 11
246.3094010767584
 21
-1.154700538379302
 31
0.0
  0
LINE
  5
D77
330
CC6
100
AcDbEntity
  8
246
100
AcDbLine
 10
242.0
 20
-3.0
 30
0.0
 11
242.0
 21
-1.772515030365866
 31
0.0
  0
LINE
  5
D78
330
CC6
100
AcDbEntity
  8
246
100
AcDbLine
 10
242.3987174742354
 20
-2.309401076758604
 30
0.0
 11
241.9999999999999
 21
-3.0
 31
0.0
  0
LINE
  5
D79
330
CC6
100
AcDbEntity
  8
246
100
AcDbLine
 10
250.0
 20
-6.0
 30
0.0
 11
246.3094010767584
 21
-2.309401076758604
 31
0.0
  0
LINE
  5
D7A
330
CC6
100
AcDbEntity
  8
246
100
AcDbLine
 10
249.2999999999999
 20
-7.0
 30
0.0
 11
249.9999999999999
 21
-6.299999999999954
 31
0.0
  0
ARC
  5
D7B
330
CC6
100
AcDbEntity
  8
240
100
AcDbCircle
 10
285.2999999999999
 20
-16.70000000000004
 30
0.0
 40
0.8000000000000113
100
AcDbArc
 50
180.0
 51
270.0
  0
ARC
  5
D7C
330
CC6
100
AcDbEntity
  8
240
100
AcDbCircle
 10
278.5
 20
-16.25
 30
0.0
 40
1.0
100
AcDbArc
 50
270.0
 51
0.0
  0
LINE
  5
D7D
330
CC6
100
AcDbEntity
  8
240
100
AcDbLine
 10
280.5
 20
-13.0
 30
0.0
 11
284.0
 21
-13.0
 31
0.0
  0
LINE
  5
D7E
330
CC6
100
AcDbEntity
  8
242
100
AcDbLine
 10
281.4999999999999
 20
-12.5
 30
0.0
 11
281.0
 21
-13.0
 31
0.0
  0
ARC
  5
D7F
330
CC6
100
AcDbEntity
  8
240
100
AcDbCircle
 10
280.5
 20
-14.0
 30
0.0
 40
1.0
100
AcDbArc
 50
90.0
 51
180.0
  0
LINE
  5
D80
330
CC6
100
AcDbEntity
  8
240
100
AcDbLine
 10
279.4999999999999
 20
-16.25
 30
0.0
 11
279.4999999999999
 21
-14.0
 31
0.0
  0
LINE
  5
D81
330
CC6
100
AcDbEntity
  8
242
100
AcDbLine
 10
284.0
 20
-12.5
 30
0.0
 11
281.4999999999999
 21
-12.5
 31
0.0
  0
LINE
  5
D82
330
CC6
100
AcDbEntity
  8
240
100
AcDbLine
 10
284.0
 20
-14.5
 30
0.0
 11
284.0
 21
-13.0
 31
0.0
  0
LINE
  5
D83
330
CC6
100
AcDbEntity
  8
240
100
AcDbLine
 10
284.4999999999998
 20
-16.70000000000004
 30
0.0
 11
284.4999999999998
 21
-15.0
 31
0.0
  0
LINE
  5
D84
330
CC6
100
AcDbEntity
  8
240
100
AcDbLine
 10
284.0
 20
-14.5
 30
0.0
 11
284.5
 21
-15.0
 31
0.0
  0
LINE
  5
D85
330
CC6
100
AcDbEntity
  8
246
100
AcDbLine
 10
235.3999999999999
 20
6.65000000000009
 30
0.0
 11
249.6499999999999
 21
6.65000000000009
 31
0.0
  0
LINE
  5
D86
330
CC6
100
AcDbEntity
  8
246
100
AcDbLine
 10
235.7499999999999
 20
7.0
 30
0.0
 11
249.2999999999999
 21
7.0
 31
0.0
  0
LINE
  5
D87
330
CC6
100
AcDbEntity
  8
246
100
AcDbLine
 10
242.0
 20
3.0
 30
0.0
 11
230.0
 21
3.0
 31
0.0
  0
LINE
  5
D88
330
CC6
100
AcDbEntity
  8
246
100
AcDbLine
 10
231.0
 20
6.25
 30
0.0
 11
235.0
 21
6.25
 31
0.0
  0
ARC
  5
D89
330
CC6
100
AcDbEntity
  8
246
100
AcDbCircle
 10
231.0
 20
5.25
 30
0.0
 40
1.0
100
AcDbArc
 50
90.0
 51
180.0
  0
LINE
  5
D8A
330
CC6
100
AcDbEntity
  8
246
100
AcDbLine
 10
235.0
 20
6.25
 30
0.0
 11
235.7499999999999
 21
7.0
 31
0.0
  0
LINE
  5
D8B
330
CC6
100
AcDbEntity
  8
246
100
AcDbLine
 10
242.3987174742354
 20
2.309401076758604
 30
0.0
 11
246.3094010767584
 21
2.309401076758604
 31
0.0
  0
LINE
  5
D8C
330
CC6
100
AcDbEntity
  8
246
100
AcDbLine
 10
242.3987174742354
 20
1.154700538379302
 30
0.0
 11
246.3094010767584
 21
1.154700538379302
 31
0.0
  0
LINE
  5
D8D
330
CC6
100
AcDbEntity
  8
246
100
AcDbLine
 10
242.3987174742354
 20
2.309401076758604
 30
0.0
 11
241.9999999999999
 21
3.0
 31
0.0
  0
LINE
  5
D8E
330
CC6
100
AcDbEntity
  8
246
100
AcDbLine
 10
242.0
 20
3.0
 30
0.0
 11
242.0
 21
1.772515030365866
 31
0.0
  0
LINE
  5
D8F
330
CC6
100
AcDbEntity
  8
246
100
AcDbLine
 10
250.0
 20
6.0
 30
0.0
 11
246.3094010767584
 21
2.309401076758604
 31
0.0
  0
LINE
  5
D90
330
CC6
100
AcDbEntity
  8
246
100
AcDbLine
 10
249.9999999999999
 20
6.299999999999954
 30
0.0
 11
249.2999999999999
 21
7.0
 31
0.0
  0
LINE
  5
D91
330
CC6
100
AcDbEntity
  8
240
100
AcDbLine
 10
284.4999999999998
 20
16.70000000000004
 30
0.0
 11
284.4999999999998
 21
15.0
 31
0.0
  0
LINE
  5
D92
330
CC6
100
AcDbEntity
  8
240
100
AcDbLine
 10
279.4999999999999
 20
16.25
 30
0.0
 11
279.4999999999999
 21
14.0
 31
0.0
  0
LINE
  5
D93
330
CC6
100
AcDbEntity
  8
241
100
AcDbLine
 10
284.0
 20
13.0
 30
0.0
 11
284.0
 21
0.0
 31
0.0
  0
LINE
  5
D94
330
CC6
100
AcDbEntity
  8
241
100
AcDbLine
 10
279.4999999999999
 20
14.0
 30
0.0
 11
279.4999999999999
 21
0.0
 31
0.0
  0
LINE
  5
D95
330
CC6
100
AcDbEntity
  8
241
100
AcDbLine
 10
281.4999999999999
 20
12.5
 30
0.0
 11
281.4999999999999
 21
0.0
 31
0.0
  0
LINE
  5
D96
330
CC6
100
AcDbEntity
  8
241
100
AcDbLine
 10
284.4999999999998
 20
15.0
 30
0.0
 11
284.5
 21
0.0
 31
0.0
  0
LINE
  5
D97
330
CC6
100
AcDbEntity
  8
240
100
AcDbLine
 10
280.5
 20
13.0
 30
0.0
 11
284.0
 21
13.0
 31
0.0
  0
LINE
  5
D98
330
CC6
100
AcDbEntity
  8
242
100
AcDbLine
 10
281.4999999999999
 20
12.5
 30
0.0
 11
281.0
 21
13.0
 31
0.0
  0
ARC
  5
D99
330
CC6
100
AcDbEntity
  8
240
100
AcDbCircle
 10
280.5
 20
14.0
 30
0.0
 40
1.0
100
AcDbArc
 50
180.0
 51
270.0
  0
LINE
  5
D9A
330
CC6
100
AcDbEntity
  8
242
100
AcDbLine
 10
284.0
 20
12.5
 30
0.0
 11
281.4999999999999
 21
12.5
 31
0.0
  0
LINE
  5
D9B
330
CC6
100
AcDbEntity
  8
240
100
AcDbLine
 10
284.0
 20
14.5
 30
0.0
 11
284.5
 21
15.0
 31
0.0
  0
LINE
  5
D9C
330
CC6
100
AcDbEntity
  8
240
100
AcDbLine
 10
284.0
 20
14.5
 30
0.0
 11
284.0
 21
13.0
 31
0.0
  0
ARC
  5
D9D
330
CC6
100
AcDbEntity
  8
240
100
AcDbCircle
 10
278.5
 20
16.25
 30
0.0
 40
1.0
100
AcDbArc
 50
0.0
 51
90.0
  0
ARC
  5
D9E
330
CC6
100
AcDbEntity
  8
240
100
AcDbCircle
 10
285.2999999999999
 20
16.70000000000004
 30
0.0
 40
0.799999999999983
100
AcDbArc
 50
90.0
 51
180.0
  0
LINE
  5
D9F
330
CC6
100
AcDbEntity
  8
241
100
AcDbLine
 10
293.5
 20
-2.0
 30
0.0
 11
293.5
 21
0.0
 31
0.0
  0
LINE
  5
DA0
330
CC6
100
AcDbEntity
  8
241
100
AcDbLine
 10
298.4186291501014
 20
17.00094607379378
 30
0.0
 11
298.4186291501014
 21
-17.15231788079472
 31
0.0
  0
LINE
  5
DA1
330
CC6
100
AcDbEntity
  8
240
100
AcDbLine
 10
300.0
 20
15.9600505063388
 30
0.0
 11
300.0
 21
-15.9600505063388
 31
0.0
  0
LINE
  5
DA2
330
CC6
100
AcDbEntity
  8
240
100
AcDbLine
 10
298.9843145750506
 20
-17.26568542494919
 30
0.0
 11
299.7949747468305
 21
-16.45502525316942
 31
0.0
  0
ARC
  5
DA3
330
CC6
100
AcDbEntity
  8
240
100
AcDbCircle
 10
298.4186291501014
 20
-16.70000000000004
 30
0.0
 40
0.7999999999999972
100
AcDbArc
 50
270.0
 51
315.0
  0
LINE
  5
DA4
330
CC6
100
AcDbEntity
  8
246
100
AcDbLine
 10
297.0
 20
-10.25
 30
0.0
 11
300.0
 21
-8.51794919243116
 31
0.0
  0
LINE
  5
DA5
330
CC6
100
AcDbEntity
  8
246
100
AcDbLine
 10
294.3999999999999
 20
-10.25
 30
0.0
 11
294.3999999999999
 21
-8.75
 31
0.0
  0
LINE
  5
DA6
330
CC6
100
AcDbEntity
  8
246
100
AcDbLine
 10
296.7999999999999
 20
-8.75
 30
0.0
 11
296.7999999999999
 21
-10.25
 31
0.0
  0
LINE
  5
DA7
330
CC6
100
AcDbEntity
  8
246
100
AcDbLine
 10
296.7999999999999
 20
-10.25
 30
0.0
 11
297.0
 21
-10.25
 31
0.0
  0
LINE
  5
DA8
330
CC6
100
AcDbEntity
  8
241
100
AcDbLine
 10
293.5
 20
-16.05614492491349
 30
0.0
 11
293.5
 21
-14.05614492491349
 31
0.0
  0
LINE
  5
DA9
330
CC6
100
AcDbEntity
  8
246
100
AcDbLine
 10
294.3999999999999
 20
-8.75
 30
0.0
 11
296.7999999999999
 21
-8.75
 31
0.0
  0
ARC
  5
DAA
330
CC6
100
AcDbEntity
  8
240
100
AcDbCircle
 10
299.2999999999999
 20
-15.9600505063388
 30
0.0
 40
0.7000000000000137
100
AcDbArc
 50
315.0
 51
0.0
  0
LINE
  5
DAB
330
CC6
100
AcDbEntity
  8
241
100
AcDbLine
 10
293.5
 20
16.05614492491349
 30
0.0
 11
293.5
 21
14.05614492491361
 31
0.0
  0
LINE
  5
DAC
330
CC6
100
AcDbEntity
  8
246
100
AcDbLine
 10
297.0
 20
10.25
 30
0.0
 11
300.0
 21
8.51794919243116
 31
0.0
  0
LINE
  5
DAD
330
CC6
100
AcDbEntity
  8
241
100
AcDbLine
 10
293.5
 20
2.0
 30
0.0
 11
293.5
 21
0.0
 31
0.0
  0
LINE
  5
DAE
330
CC6
100
AcDbEntity
  8
246
100
AcDbLine
 10
296.7999999999999
 20
10.25
 30
0.0
 11
297.0
 21
10.25
 31
0.0
  0
LINE
  5
DAF
330
CC6
100
AcDbEntity
  8
246
100
AcDbLine
 10
294.3999999999999
 20
8.75
 30
0.0
 11
296.7999999999999
 21
8.75
 31
0.0
  0
LINE
  5
DB0
330
CC6
100
AcDbEntity
  8
246
100
AcDbLine
 10
294.3999999999999
 20
10.25
 30
0.0
 11
294.3999999999999
 21
8.75
 31
0.0
  0
LINE
  5
DB1
330
CC6
100
AcDbEntity
  8
246
100
AcDbLine
 10
296.7999999999999
 20
8.75
 30
0.0
 11
296.7999999999999
 21
10.25
 31
0.0
  0
LINE
  5
DB2
330
CC6
100
AcDbEntity
  8
240
100
AcDbLine
 10
299.7949747468305
 20
16.45502525316942
 30
0.0
 11
298.9843145750506
 21
17.26568542494919
 31
0.0
  0
ARC
  5
DB3
330
CC6
100
AcDbEntity
  8
240
100
AcDbCircle
 10
298.4186291501014
 20
16.70000000000004
 30
0.0
 40
0.7999999999999984
100
AcDbArc
 50
45.0
 51
90.0
  0
ARC
  5
DB4
330
CC6
100
AcDbEntity
  8
240
100
AcDbCircle
 10
299.2999999999999
 20
15.9600505063388
 30
0.0
 40
0.7000000000000171
100
AcDbArc
 50
0.0
 51
45.0
  0
ENDBLK
  5
DB6
330
CC6
100
AcDbEntity
  8
0
100
AcDbBlockEnd
  0
BLOCK
  5
EFD
330
EF3
100
AcDbEntity
  8
0
100
AcDbBlockBegin
  2
*D2
 70
     1
 10
0.0
 20
0.0
 30
0.0
  3
*D2
  1

  0
LINE
  5
F3B
330
EF3
100
AcDbEntity
  8
250
100
AcDbLine
 10
0.0
 20
35.42500000000041
 30
0.0
 11
0.0000000000000022
 21
71.0
 31
0.0
  0
LINE
  5
F3C
330
EF3
100
AcDbEntity
  8
250
100
AcDbLine
 10
300.0
 20
9.592893218813401
 30
0.0
 11
300.0
 21
71.0
 31
0.0
  0
LINE
  5
F3D
330
EF3
100
AcDbEntity
  8
250
100
AcDbLine
 10
2.230000000000002
 20
70.0
 30
0.0
 11
297.77
 21
70.0
 31
0.0
  0
INSERT
  5
F3E
330
EF3
100
AcDbEntity
  8
250
100
AcDbBlockReference
  2
_OPEN
 10
0.0000000000000021
 20
70.0
 30
0.0
 41
2.229999999999999
 42
2.229999999999999
 43
2.229999999999999
 50
180.0
  0
INSERT
  5
F3F
330
EF3
100
AcDbEntity
  8
250
100
AcDbBlockReference
  2
_OPEN
 10
300.0
 20
70.0
 30
0.0
 41
2.229999999999999
 42
2.229999999999999
 43
2.229999999999999
  0
MTEXT
  5
F40
330
EF3
100
AcDbEntity
  8
250
 62
    40
100
AcDbMText
 10
150.0
 20
72.5
 30
0.0
 40
3.0
 41
0.0
 71
     5
 72
     1
  1
\A1;300
1001
ACAD
1000
MTEXTBEGIN
1070
    73
1070
     1
1070
    44
1040
1.0
1070
    74
1070
     0
1000
MTEXTEND
  0
POINT
  5
F41
330
EF3
100
AcDbEntity
  8
DEFPOINTS
 62
     0
100
AcDbPoint
 10
0.0
 20
34.92500000000041
 30
0.0
  0
POINT
  5
F42
330
EF3
100
AcDbEntity
  8
DEFPOINTS
 62
     0
100
AcDbPoint
 10
300.0
 20
9.092893218813401
 30
0.0
  0
POINT
  5
F43
330
EF3
100
AcDbEntity
  8
DEFPOINTS
 62
     0
100
AcDbPoint
 10
300.0
 20
70.0
 30
0.0
  0
ENDBLK
  5
EFE
330
EF3
100
AcDbEntity
  8
0
100
AcDbBlockEnd
  0
BLOCK
  5
F09
330
EFF
100
AcDbEntity
  8
0
100
AcDbBlockBegin
  2
*D3
 70
     1
 10
0.0
 20
0.0
 30
0.0
  3
*D3
  1

  0
LINE
  5
F44
330
EFF
100
AcDbEntity
  8
250
100
AcDbLine
 10
38.00000000000017
 20
49.20000000000005
 30
0.0
 11
38.00000000000017
 21
64.0
 31
0.0
  0
LINE
  5
F45
330
EFF
100
AcDbEntity
  8
250
100
AcDbLine
 10
300.0
 20
9.592893218813401
 30
0.0
 11
300.0
 21
64.0
 31
0.0
  0
LINE
  5
F46
330
EFF
100
AcDbEntity
  8
250
100
AcDbLine
 10
40.23000000000016
 20
63.0
 30
0.0
 11
297.77
 21
63.0
 31
0.0
  0
INSERT
  5
F47
330
EFF
100
AcDbEntity
  8
250
100
AcDbBlockReference
  2
_OPEN
 10
38.00000000000017
 20
63.0
 30
0.0
 41
2.229999999999999
 42
2.229999999999999
 43
2.229999999999999
 50
180.0
  0
INSERT
  5
F48
330
EFF
100
AcDbEntity
  8
250
100
AcDbBlockReference
  2
_OPEN
 10
300.0
 20
63.0
 30
0.0
 41
2.229999999999999
 42
2.229999999999999
 43
2.229999999999999
  0
MTEXT
  5
F49
330
EFF
100
AcDbEntity
  8
250
 62
    40
100
AcDbMText
 10
169.0
 20
65.5
 30
0.0
 40
3.0
 41
0.0
 71
     5
 72
     1
  1
\A1;262
1001
ACAD
1000
MTEXTBEGIN
1070
    73
1070
     1
1070
    44
1040
1.0
1070
    74
1070
     0
1000
MTEXTEND
  0
POINT
  5
F4A
330
EFF
100
AcDbEntity
  8
DEFPOINTS
 62
     0
100
AcDbPoint
 10
38.00000000000017
 20
48.70000000000004
 30
0.0
  0
POINT
  5
F4B
330
EFF
100
AcDbEntity
  8
DEFPOINTS
 62
     0
100
AcDbPoint
 10
300.0
 20
9.092893218813401
 30
0.0
  0
POINT
  5
F4C
330
EFF
100
AcDbEntity
  8
DEFPOINTS
 62
     0
100
AcDbPoint
 10
300.0
 20
63.0
 30
0.0
  0
ENDBLK
  5
F0A
330
EFF
100
AcDbEntity
  8
0
100
AcDbBlockEnd
  0
BLOCK
  5
F15
330
F0B
100
AcDbEntity
  8
0
100
AcDbBlockBegin
  2
*D4
 70
     1
 10
0.0
 20
0.0
 30
0.0
  3
*D4
  1

  0
LINE
  5
F4D
330
F0B
100
AcDbEntity
  8
250
100
AcDbLine
 10
0.0
 20
35.42500000000041
 30
0.0
 11
0.0000000000000018
 21
64.0
 31
0.0
  0
LINE
  5
F4E
330
F0B
100
AcDbEntity
  8
250
100
AcDbLine
 10
38.00000000000017
 20
49.20000000000005
 30
0.0
 11
38.00000000000017
 21
64.0
 31
0.0
  0
LINE
  5
F4F
330
F0B
100
AcDbEntity
  8
250
100
AcDbLine
 10
2.230000000000001
 20
63.0
 30
0.0
 11
35.77000000000017
 21
63.0
 31
0.0
  0
INSERT
  5
F50
330
F0B
100
AcDbEntity
  8
250
100
AcDbBlockReference
  2
_OPEN
 10
0.0000000000000017
 20
63.0
 30
0.0
 41
2.229999999999999
 42
2.229999999999999
 43
2.229999999999999
 50
180.0
  0
INSERT
  5
F51
330
F0B
100
AcDbEntity
  8
250
100
AcDbBlockReference
  2
_OPEN
 10
38.00000000000017
 20
63.0
 30
0.0
 41
2.229999999999999
 42
2.229999999999999
 43
2.229999999999999
  0
MTEXT
  5
F52
330
F0B
100
AcDbEntity
  8
250
 62
    40
100
AcDbMText
 10
19.00000000000009
 20
65.5
 30
0.0
 40
3.0
 41
0.0
 71
     5
 72
     1
  1
\A1;38
1001
ACAD
1000
MTEXTBEGIN
1070
    73
1070
     1
1070
    44
1040
1.0
1070
    74
1070
     0
1000
MTEXTEND
  0
POINT
  5
F53
330
F0B
100
AcDbEntity
  8
DEFPOINTS
 62
     0
100
AcDbPoint
 10
0.0
 20
34.92500000000041
 30
0.0
  0
POINT
  5
F54
330
F0B
100
AcDbEntity
  8
DEFPOINTS
 62
     0
100
AcDbPoint
 10
38.00000000000017
 20
48.70000000000004
 30
0.0
  0
POINT
  5
F55
330
F0B
100
AcDbEntity
  8
DEFPOINTS
 62
     0
100
AcDbPoint
 10
38.00000000000017
 20
63.0
 30
0.0
  0
ENDBLK
  5
F16
330
F0B
100
AcDbEntity
  8
0
100
AcDbBlockEnd
  0
BLOCK
  5
F21
330
F17
100
AcDbEntity
  8
0
100
AcDbBlockBegin
  2
*D5
 70
     1
 10
0.0
 20
0.0
 30
0.0
  3
*D5
  1

  0
LINE
  5
FA1
330
F17
100
AcDbEntity
  8
250
100
AcDbLine
 10
300.4999999999999
 20
-6.5
 30
0.0
 11
316.0
 21
-6.500000000000004
 31
0.0
  0
LINE
  5
FA2
330
F17
100
AcDbEntity
  8
250
100
AcDbLine
 10
300.4999999999999
 20
6.5
 30
0.0
 11
316.0
 21
6.499999999999995
 31
0.0
  0
LINE
  5
FA3
330
F17
100
AcDbEntity
  8
250
100
AcDbLine
 10
315.0
 20
-4.270000000000004
 30
0.0
 11
315.0
 21
4.269999999999995
 31
0.0
  0
MTEXT
  5
FA4
330
F17
100
AcDbEntity
  8
250
 62
    40
100
AcDbMText
 10
312.3807894550546
 20
2.954444241290275
 30
0.0
 40
3.0
 41
0.0
 71
     5
 72
     1
  1
\A1;MAX.%%c13
 11
0.0000000000000001
 21
1.0
 31
0.0
  0
INSERT
  5
FA5
330
F17
100
AcDbEntity
  8
250
100
AcDbBlockReference
  2
_OPEN
 10
315.0
 20
-6.500000000000004
 30
0.0
 41
2.229999999999999
 42
2.229999999999999
 43
2.229999999999999
 50
270.0
  0
INSERT
  5
FA6
330
F17
100
AcDbEntity
  8
250
100
AcDbBlockReference
  2
_OPEN
 10
315.0
 20
6.499999999999995
 30
0.0
 41
2.229999999999999
 42
2.229999999999999
 43
2.229999999999999
 50
90.0
  0
POINT
  5
FA7
330
F17
100
AcDbEntity
  8
DEFPOINTS
 62
     0
100
AcDbPoint
 10
300.0
 20
-6.5
 30
0.0
  0
POINT
  5
FA8
330
F17
100
AcDbEntity
  8
DEFPOINTS
 62
     0
100
AcDbPoint
 10
300.0
 20
6.5
 30
0.0
  0
POINT
  5
FA9
330
F17
100
AcDbEntity
  8
DEFPOINTS
 62
     0
100
AcDbPoint
 10
315.0
 20
6.499999999999995
 30
0.0
  0
ENDBLK
  5
F22
330
F17
100
AcDbEntity
  8
0
100
AcDbBlockEnd
  0
BLOCK
  5
F2D
330
F23
100
AcDbEntity
  8
0
100
AcDbBlockBegin
  2
*D6
 70
     1
 10
0.0
 20
0.0
 30
0.0
  3
*D6
  1

  0
LINE
  5
F5F
330
F23
100
AcDbEntity
  8
250
100
AcDbLine
 10
298.9186291501014
 20
-17.5
 30
0.0
 11
323.0
 21
-17.5
 31
0.0
  0
LINE
  5
F60
330
F23
100
AcDbEntity
  8
250
100
AcDbLine
 10
298.9186291501014
 20
17.5
 30
0.0
 11
323.0
 21
17.49999999999999
 31
0.0
  0
LINE
  5
F61
330
F23
100
AcDbEntity
  8
250
100
AcDbLine
 10
322.0
 20
-15.27
 30
0.0
 11
322.0
 21
15.26999999999999
 31
0.0
  0
INSERT
  5
F62
330
F23
100
AcDbEntity
  8
250
100
AcDbBlockReference
  2
_OPEN
 10
322.0
 20
-17.5
 30
0.0
 41
2.229999999999999
 42
2.229999999999999
 43
2.229999999999999
 50
270.0
  0
INSERT
  5
F63
330
F23
100
AcDbEntity
  8
250
100
AcDbBlockReference
  2
_OPEN
 10
322.0
 20
17.49999999999999
 30
0.0
 41
2.229999999999999
 42
2.229999999999999
 43
2.229999999999999
 50
90.0
  0
MTEXT
  5
F64
330
F23
100
AcDbEntity
  8
250
 62
    40
100
AcDbMText
 10
319.5
 20
0.0000000000000481
 30
0.0
 40
3.0
 41
0.0
 71
     5
 72
     1
  1
\A1;{\H3;\U+2205}35
 11
0.0000000000000001
 21
1.0
 31
0.0
1001
ACAD
1000
MTEXTBEGIN
1070
    73
1070
     1
1070
    44
1040
1.0
1070
    74
1070
     0
1000
MTEXTEND
  0
POINT
  5
F65
330
F23
100
AcDbEntity
  8
DEFPOINTS
 62
     0
100
AcDbPoint
 10
298.4186291501014
 20
-17.5
 30
0.0
  0
POINT
  5
F66
330
F23
100
AcDbEntity
  8
DEFPOINTS
 62
     0
100
AcDbPoint
 10
298.4186291501014
 20
17.5
 30
0.0
  0
POINT
  5
F67
330
F23
100
AcDbEntity
  8
DEFPOINTS
 62
     0
100
AcDbPoint
 10
322.0
 20
17.49999999999999
 30
0.0
  0
ENDBLK
  5
F2E
330
F23
100
AcDbEntity
  8
0
100
AcDbBlockEnd
  0
BLOCK
  5
F39
330
F2F
100
AcDbEntity
  8
0
100
AcDbBlockBegin
  2
*D7
 70
     1
 10
0.0
 20
0.0
 30
0.0
  3
*D7
  1

  0
LINE
  5
F68
330
F2F
100
AcDbEntity
  8
250
100
AcDbLine
 10
249.9999999999999
 20
-6.5
 30
0.0
 11
249.9999999999999
 21
-64.0
 31
0.0
  0
LINE
  5
F69
330
F2F
100
AcDbEntity
  8
250
100
AcDbLine
 10
300.0
 20
-16.4600505063388
 30
0.0
 11
300.0
 21
-64.0
 31
0.0
  0
LINE
  5
F6A
330
F2F
100
AcDbEntity
  8
250
100
AcDbLine
 10
252.2299999999999
 20
-63.0
 30
0.0
 11
297.77
 21
-63.0
 31
0.0
  0
INSERT
  5
F6B
330
F2F
100
AcDbEntity
  8
250
100
AcDbBlockReference
  2
_OPEN
 10
249.9999999999999
 20
-63.0
 30
0.0
 41
2.229999999999999
 42
2.229999999999999
 43
2.229999999999999
 50
180.0
  0
INSERT
  5
F6C
330
F2F
100
AcDbEntity
  8
250
100
AcDbBlockReference
  2
_OPEN
 10
300.0
 20
-63.0
 30
0.0
 41
2.229999999999999
 42
2.229999999999999
 43
2.229999999999999
  0
MTEXT
  5
F6D
330
F2F
100
AcDbEntity
  8
250
 62
    40
100
AcDbMText
 10
274.9999999999999
 20
-60.5
 30
0.0
 40
3.0
 41
0.0
 71
     5
 72
     1
  1
\A1;41～60
1001
ACAD
1000
MTEXTBEGIN
1070
    73
1070
     1
1070
    44
1040
1.0
1070
    74
1070
     0
1000
MTEXTEND
  0
POINT
  5
F6E
330
F2F
100
AcDbEntity
  8
DEFPOINTS
 62
     0
100
AcDbPoint
 10
249.9999999999999
 20
-6.0
 30
0.0
  0
POINT
  5
F6F
330
F2F
100
AcDbEntity
  8
DEFPOINTS
 62
     0
100
AcDbPoint
 10
300.0
 20
-15.9600505063388
 30
0.0
  0
POINT
  5
F70
330
F2F
100
AcDbEntity
  8
DEFPOINTS
 62
     0
100
AcDbPoint
 10
300.0
 20
-63.0
 30
0.0
  0
ENDBLK
  5
F3A
330
F2F
100
AcDbEntity
  8
0
100
AcDbBlockEnd
  0
ENDSEC
  0
SECTION
  2
ENTITIES
  0
DIMENSION
  5
EE8
330
1A
100
AcDbEntity
  8
250
100
AcDbDimension
  2
*D2
 10
300.0
 20
70.0
 30
0.0
 11
150.0
 21
72.5
 31
0.0
 70
    32
  3
BIGT
100
AcDbAlignedDimension
 13
0.0
 23
34.92500000000041
 33
0.0
 14
300.0
 24
9.092893218813401
 34
0.0
100
AcDbRotatedDimension
1001
ACAD
1000
DSTYLE
1002
{
1070
    78
1070
     8
1070
   140
1040
3.0
1002
}
  0
DIMENSION
  5
EE9
330
1A
100
AcDbEntity
  8
250
100
AcDbDimension
  2
*D3
 10
300.0
 20
63.0
 30
0.0
 11
169.0
 21
65.5
 31
0.0
 70
    32
  3
BIGT
100
AcDbAlignedDimension
 13
38.00000000000017
 23
48.70000000000004
 33
0.0
 14
300.0
 24
9.092893218813401
 34
0.0
100
AcDbRotatedDimension
1001
ACAD
1000
DSTYLE
1002
{
1070
    78
1070
     8
1070
   140
1040
3.0
1002
}
  0
INSERT
  5
EEA
330
1A
100
AcDbEntity
  8
240
100
AcDbBlockReference
  2
A$C30671B24
 10
0.0
 20
0.0
 30
0.0
  0
MTEXT
  5
EEB
330
1A
100
AcDbEntity
  8
250
 62
    40
100
AcDbMText
 10
-61.70262733519035
 20
-41.0
 30
0.0
 40
3.0
 41
0.0
 71
     7
 72
     1
  1
BT50
  7
YOKO
1001
ITEMNAME
1000
LNSP3
1001
ACAD
1000
MTEXTBEGIN
1070
    73
1070
     1
1070
    44
1040
1.0
1070
    74
1070
     0
1000
MTEXTEND
  0
LINE
  5
EEC
330
1A
100
AcDbEntity
  8
250
100
AcDbLine
 10
-48.70262733519036
 20
-42.0
 30
0.0
 11
-64.70262733519035
 21
-42.0
 31
0.0
1001
ITEMNAME
1000
LNSP2
  0
LEADER
  5
EED
330
1A
100
AcDbEntity
  8
250
100
AcDbLeader
  3
BIGT
 76
     2
 10
-41.15292489211465
 20
-28.92353178656605
 30
0.0
 10
-48.70262733519036
 20
-42.0
 30
0.0
1001
ACAD
1000
DSTYLE
1002
{
1070
     5
1000
OPEN
1070
    78
1070
     8
1070
   140
1040
3.0
1002
}
  0
TEXT
  5
EEE
330
1A
100
AcDbEntity
  8
241
100
AcDbText
 10
-98.0
 20
84.0
 30
0.0
 40
5.0
  1
BT50-NBS13-300
  7
YOKO
 11
-98.0
 21
84.0
 31
0.0
100
AcDbText
 73
     1
  0
DIMENSION
  5
EEF
330
1A
100
AcDbEntity
  8
250
100
AcDbDimension
  2
*D4
 10
38.00000000000017
 20
63.0
 30
0.0
 11
19.00000000000009
 21
65.5
 31
0.0
 70
    32
  3
BIGT
100
AcDbAlignedDimension
 13
0.0
 23
34.92500000000041
 33
0.0
 14
38.00000000000017
 24
48.70000000000004
 34
0.0
100
AcDbRotatedDimension
1001
ACAD
1000
DSTYLE
1002
{
1070
    78
1070
     8
1070
   140
1040
3.0
1002
}
  0
DIMENSION
  5
EF0
330
1A
100
AcDbEntity
  8
250
100
AcDbDimension
  2
*D5
 10
315.0
 20
6.499999999999995
 30
0.0
 11
312.3807894550546
 21
2.954444241290275
 31
0.0
 70
   160
  1
MAX.%%c<>
  3
BIGT
100
AcDbAlignedDimension
 13
300.0
 23
-6.5
 33
0.0
 14
300.0
 24
6.5
 34
0.0
 50
90.0
100
AcDbRotatedDimension
1001
ACAD
1000
DSTYLE
1002
{
1070
   287
1070
     5
1070
    78
1070
     8
1070
   140
1040
3.0
1070
   279
1070
     2
1002
}
  0
DIMENSION
  5
EF1
330
1A
100
AcDbEntity
  8
250
100
AcDbDimension
  2
*D6
 10
322.0
 20
17.49999999999999
 30
0.0
 11
319.5
 21
0.0000000000000481
 31
0.0
 70
    32
  1
{\H3;\U+2205}<>
  3
BIGT
100
AcDbAlignedDimension
 13
298.4186291501014
 23
-17.5
 33
0.0
 14
298.4186291501014
 24
17.5
 34
0.0
 50
90.0
100
AcDbRotatedDimension
1001
ACAD
1000
DSTYLE
1002
{
1070
    78
1070
     8
1070
   140
1040
3.0
1002
}
  0
DIMENSION
  5
EF2
330
1A
100
AcDbEntity
  8
250
100
AcDbDimension
  2
*D7
 10
300.0
 20
-63.0
 30
0.0
 11
274.9999999999999
 21
-60.5
 31
0.0
 70
    32
  1
41～60
  3
BIGT
100
AcDbAlignedDimension
 13
249.9999999999999
 23
-6.0
 33
0.0
 14
300.0
 24
-15.9600505063388
 34
0.0
100
AcDbRotatedDimension
1001
ACAD
1000
DSTYLE
1002
{
1070
    78
1070
     8
1070
   140
1040
3.0
1002
}
  0
VIEWPORT
  5
22
330
17
100
AcDbEntity
 67
     1
  8
0
100
AcDbViewport
 10
261.5176991150442
 20
148.5
 30
0.0
 40
523.0353982300885
 41
297.0
 68
     1
 69
     1
1001
ACAD
1000
MVIEW
1002
{
1070
    16
1010
0.0
1020
0.0
1030
0.0
1010
0.0
1020
0.0
1030
1.0
1040
0.0
1040
297.0
1040
261.5176991150442
1040
148.5
1040
50.0
1040
0.0
1040
0.0
1070
     0
1070
   100
1070
     1
1070
     1
1070
     0
1070
     0
1070
     0
1070
     0
1040
0.0
1040
0.0
1040
0.0
1040
1.0
1040
1.0
1040
10.0
1040
10.0
1070
     0
1002
{
1002
}
1002
}
  0
ENDSEC
  0
SECTION
  2
OBJECTS
  0
DICTIONARY
  5
C
330
0
100
AcDbDictionary
  3
ACAD_GROUP
350
D
  3
ACAD_LAYOUT
350
565
  3
ACAD_MLINESTYLE
350
E
  3
ACAD_PLOTSETTINGS
350
566
  3
ACAD_PLOTSTYLENAME
350
563
  3
ACDBHEADERROUNDTRIPXREC
350
F7C
  3
ACDBVARIABLEDICTIONARY
350
F73
  3
DWGPROPS
350
F7A
  3
GRADE_DWG
350
540
  0
DICTIONARY
  5
F9F
330
1A
100
AcDbDictionary
280
     1
  3
ACAD_LAYOUTSELFREF
360
FA0
  0
DICTIONARY
  5
F9D
330
17
100
AcDbDictionary
280
     1
  3
ACAD_LAYOUTSELFREF
360
F9E
  0
DICTIONARY
  5
D
102
{ACAD_REACTORS
330
C
102
}
330
C
100
AcDbDictionary
  3
DREC-1
350
5FC
  3
DREC-2
350
654
  3
DREC-3
350
673
  0
DICTIONARY
  5
565
102
{ACAD_REACTORS
330
C
102
}
330
C
100
AcDbDictionary
  0
DICTIONARY
  5
E
102
{ACAD_REACTORS
330
C
102
}
330
C
100
AcDbDictionary
  3
STANDARD
350
13
  0
DICTIONARY
  5
566
102
{ACAD_REACTORS
330
C
102
}
330
C
100
AcDbDictionary
  0
ACDBDICTIONARYWDFLT
  5
563
102
{ACAD_REACTORS
330
C
102
}
330
C
100
AcDbDictionary
281
     1
  3
Normal
350
564
100
AcDbDictionaryWithDefault
340
564
  0
DICTIONARY
  5
F7C
102
{ACAD_REACTORS
330
C
102
}
330
C
100
AcDbDictionary
  3
CEPSNTYPE
350
F86
  3
DIMSTYLEDATA
350
F8A
  3
FINGERPRINTGUID
350
F87
  3
HYPERLINKBASE
350
F7F
  3
INSUNITS
350
F85
  3
LAYOUTDICT
350
F81
  3
LWETCUNION
350
F84
  3
PLOTSETDICT
350
F82
  3
PLOTSTYLNAMDICT
350
F83
  3
PSVPSCALE
350
F89
  3
PUCSBASE
350
F8D
  3
PUCSORGBACK
350
F93
  3
PUCSORGBOTTOM
350
F8F
  3
PUCSORGFRONT
350
F92
  3
PUCSORGLEFT
350
F90
  3
PUCSORGRIGHT
350
F91
  3
PUCSORGTOP
350
F8E
  3
PUCSORTHOREF
350
F8B
  3
PUCSORTHOVIEW
350
F8C
  3
STYLESHEET
350
F80
  3
TSTACKALIGN
350
F7D
  3
TSTACKSIZE
350
F7E
  3
UCSBASE
350
F96
  3
UCSORGBACK
350
F9C
  3
UCSORGBOTTOM
350
F98
  3
UCSORGFRONT
350
F9B
  3
UCSORGLEFT
350
F99
  3
UCSORGRIGHT
350
F9A
  3
UCSORGTOP
350
F97
  3
UCSORTHOREF
350
F94
  3
UCSORTHOVIEW
350
F95
  3
VERSIONGUID
350
F88
  0
DICTIONARY
  5
F73
102
{ACAD_REACTORS
330
C
102
}
330
C
100
AcDbDictionary
  3
DIMASSOC
350
F74
  0
XRECORD
  5
F7A
102
{ACAD_REACTORS
330
C
102
}
330
C
100
AcDbXrecord
  1
DWGPROPS COOKIE
  2

  3

  4

  6

  7

  8
ymat
  9

300
=
301
=
302
=
303
=
304
=
305
=
306
=
307
=
308
=
309
=
 40
0.0376086921296296
 41
2452178.403237477
 42
2452408.990900787
  1

 90
        0
  0
DICTIONARY
  5
540
102
{ACAD_REACTORS
330
C
102
}
330
C
100
AcDbDictionary
  3
VERSION
350
560
  0
XRECORD
  5
FA0
102
{ACAD_REACTORS
330
F9F
102
}
330
F9F
100
AcDbXrecord
340
1A
  0
XRECORD
  5
F9E
102
{ACAD_REACTORS
330
F9D
102
}
330
F9D
100
AcDbXrecord
340
17
  0
GROUP
  5
5FC
102
{ACAD_REACTORS
330
D
102
}
330
D
100
AcDbGroup
300

 70
     0
 71
     1
1001
GRPNAME
1000
DREC-
1001
GPARA
1000
xsiz
1000
44.182
1000
ysiz
1000
40.677
1000
angl
1000
0
1000
ctyp
1000
0
1000
csiz
1000
5
1000
lfnt
1000
cont
1000
hcnt
1000
hoff
1000
vcnt
1000
voff
1000
opnt
1000
4
1000
dxpt
1000
0
1000
dypt
1000
0
  0
GROUP
  5
654
102
{ACAD_REACTORS
330
D
102
}
330
D
100
AcDbGroup
300

 70
     0
 71
     1
1001
GRPNAME
1000
DREC-
1001
GPARA
1000
xsiz
1000
54.592
1000
ysiz
1000
53.036
1000
angl
1000
0
1000
ctyp
1000
0
1000
csiz
1000
5
1000
lfnt
1000
cont
1000
hcnt
1000
hoff
1000
vcnt
1000
voff
1000
opnt
1000
4
1000
dxpt
1000
0
1000
dypt
1000
0
  0
GROUP
  5
673
102
{ACAD_REACTORS
330
D
102
}
330
D
100
AcDbGroup
300

 70
     0
 71
     1
1001
GRPNAME
1000
DREC-
1001
GPARA
1000
xsiz
1000
30.363
1000
ysiz
1000
36.175
1000
angl
1000
0
1000
ctyp
1000
0
1000
csiz
1000
5
1000
lfnt
1000
cont
1000
hcnt
1000
hoff
1000
vcnt
1000
voff
1000
opnt
1000
4
1000
dxpt
1000
0
1000
dypt
1000
0
  0
MLINESTYLE
  5
13
102
{ACAD_REACTORS
330
E
102
}
330
E
100
AcDbMlineStyle
  2
STANDARD
 70
     0
  3

 62
     0
 51
90.0
 52
90.0
 71
     2
 49
0.5
 62
   256
  6
BYLAYER
 49
-0.5
 62
   256
  6
BYLAYER
  0
ACDBPLACEHOLDER
  5
564
102
{ACAD_REACTORS
330
563
102
}
330
563
100
AcDbPlaceHolder
280
     0
  0
XRECORD
  5
F86
102
{ACAD_REACTORS
330
F7C
102
}
330
F7C
100
AcDbXrecord
 90
        0
  0
XRECORD
  5
F8A
102
{ACAD_REACTORS
330
F7C
102
}
330
F7C
100
AcDbXrecord
1000
DSTYLE
1002
{
1070
    79
 70
     2
1070
   179
 70
     3
1070
   289
 70
     2
1070
   341
340
594
1070
   342
340
594
1070
   371
 70
    -1
1070
   372
 70
    -1
1002
}
  0
XRECORD
  5
F87
102
{ACAD_REACTORS
330
F7C
102
}
330
F7C
100
AcDbXrecord
  1
{51294030-9CB4-11D3-8E18-00A0C925D94D}
  0
XRECORD
  5
F7F
102
{ACAD_REACTORS
330
F7C
102
}
330
F7C
100
AcDbXrecord
  1

  0
XRECORD
  5
F85
102
{ACAD_REACTORS
330
F7C
102
}
330
F7C
100
AcDbXrecord
 90
        0
  0
XRECORD
  5
F81
102
{ACAD_REACTORS
330
F7C
102
}
330
F7C
100
AcDbXrecord
340
565
  0
XRECORD
  5
F84
102
{ACAD_REACTORS
330
F7C
102
}
330
F7C
100
AcDbXrecord
 90
    10781
  0
XRECORD
  5
F82
102
{ACAD_REACTORS
330
F7C
102
}
330
F7C
100
AcDbXrecord
340
566
  0
XRECORD
  5
F83
102
{ACAD_REACTORS
330
F7C
102
}
330
F7C
100
AcDbXrecord
340
563
  0
XRECORD
  5
F89
102
{ACAD_REACTORS
330
F7C
102
}
330
F7C
100
AcDbXrecord
 40
0.0
  0
XRECORD
  5
F8D
102
{ACAD_REACTORS
330
F7C
102
}
330
F7C
100
AcDbXrecord
340
0
  0
XRECORD
  5
F93
102
{ACAD_REACTORS
330
F7C
102
}
330
F7C
100
AcDbXrecord
 10
0.0
 20
0.0
 30
0.0
  0
XRECORD
  5
F8F
102
{ACAD_REACTORS
330
F7C
102
}
330
F7C
100
AcDbXrecord
 10
0.0
 20
0.0
 30
0.0
  0
XRECORD
  5
F92
102
{ACAD_REACTORS
330
F7C
102
}
330
F7C
100
AcDbXrecord
 10
0.0
 20
0.0
 30
0.0
  0
XRECORD
  5
F90
102
{ACAD_REACTORS
330
F7C
102
}
330
F7C
100
AcDbXrecord
 10
0.0
 20
0.0
 30
0.0
  0
XRECORD
  5
F91
102
{ACAD_REACTORS
330
F7C
102
}
330
F7C
100
AcDbXrecord
 10
0.0
 20
0.0
 30
0.0
  0
XRECORD
  5
F8E
102
{ACAD_REACTORS
330
F7C
102
}
330
F7C
100
AcDbXrecord
 10
0.0
 20
0.0
 30
0.0
  0
XRECORD
  5
F8B
102
{ACAD_REACTORS
330
F7C
102
}
330
F7C
100
AcDbXrecord
340
0
  0
XRECORD
  5
F8C
102
{ACAD_REACTORS
330
F7C
102
}
330
F7C
100
AcDbXrecord
 70
     0
  0
XRECORD
  5
F80
102
{ACAD_REACTORS
330
F7C
102
}
330
F7C
100
AcDbXrecord
  1
big.ctb
  0
XRECORD
  5
F7D
102
{ACAD_REACTORS
330
F7C
102
}
330
F7C
100
AcDbXrecord
 90
        1
  0
XRECORD
  5
F7E
102
{ACAD_REACTORS
330
F7C
102
}
330
F7C
100
AcDbXrecord
 90
       70
  0
XRECORD
  5
F96
102
{ACAD_REACTORS
330
F7C
102
}
330
F7C
100
AcDbXrecord
340
0
  0
XRECORD
  5
F9C
102
{ACAD_REACTORS
330
F7C
102
}
330
F7C
100
AcDbXrecord
 10
0.0
 20
0.0
 30
0.0
  0
XRECORD
  5
F98
102
{ACAD_REACTORS
330
F7C
102
}
330
F7C
100
AcDbXrecord
 10
0.0
 20
0.0
 30
0.0
  0
XRECORD
  5
F9B
102
{ACAD_REACTORS
330
F7C
102
}
330
F7C
100
AcDbXrecord
 10
0.0
 20
0.0
 30
0.0
  0
XRECORD
  5
F99
102
{ACAD_REACTORS
330
F7C
102
}
330
F7C
100
AcDbXrecord
 10
0.0
 20
0.0
 30
0.0
  0
XRECORD
  5
F9A
102
{ACAD_REACTORS
330
F7C
102
}
330
F7C
100
AcDbXrecord
 10
0.0
 20
0.0
 30
0.0
  0
XRECORD
  5
F97
102
{ACAD_REACTORS
330
F7C
102
}
330
F7C
100
AcDbXrecord
 10
0.0
 20
0.0
 30
0.0
  0
XRECORD
  5
F94
102
{ACAD_REACTORS
330
F7C
102
}
330
F7C
100
AcDbXrecord
340
0
  0
XRECORD
  5
F95
102
{ACAD_REACTORS
330
F7C
102
}
330
F7C
100
AcDbXrecord
 70
     0
  0
XRECORD
  5
F88
102
{ACAD_REACTORS
330
F7C
102
}
330
F7C
100
AcDbXrecord
  1
{83C0C8DA-6665-11D6-95D9-006094EB2375}
  0
DICTIONARYVAR
  5
F74
102
{ACAD_REACTORS
330
F73
102
}
330
F73
100
DictionaryVariables
280
     0
  1
1
  0
XRECORD
  5
560
102
{ACAD_REACTORS
330
540
102
}
330
540
100
AcDbXrecord
  1
2.0.0
  0
ENDSEC
  0
EOF
