  0
SECTION
  2
HEADER
  9
$ACADVER
  1
AC1014
  9
$ACADMAINTVER
 70
     9
  9
$DWGCODEPAGE
  3
ANSI_932
  9
$INSBASE
 10
0.0
 20
0.0
 30
0.0
  9
$EXTMIN
 10
-109.0408006717557
 20
-64.00506347206669
 30
-0.0000000349181948
  9
$EXTMAX
 10
274.0290403852384
 20
89.00053134908217
 30
0.0000000814935746
  9
$LIMMIN
 10
0.0
 20
0.0
  9
$LIMMAX
 10
420.0
 20
297.0
  9
$ORTHOMODE
 70
     0
  9
$REGENMODE
 70
     1
  9
$FILLMODE
 70
     1
  9
$QTEXTMODE
 70
     0
  9
$MIRRTEXT
 70
     1
  9
$DRAGMODE
 70
     2
  9
$LTSCALE
 40
10.0
  9
$OSMODE
 70
   613
  9
$ATTMODE
 70
     1
  9
$TEXTSIZE
 40
3.0
  9
$TRACEWID
 40
1.0
  9
$TEXTSTYLE
  7
YOKO
  9
$CLAYER
  8
240
  9
$CELTYPE
  6
BYLAYER
  9
$CECOLOR
 62
   256
  9
$CELTSCALE
 40
1.0
  9
$DELOBJ
 70
     1
  9
$DISPSILH
 70
     0
  9
$DIMSCALE
 40
1.0
  9
$DIMASZ
 40
2.229999999999999
  9
$DIMEXO
 40
0.5
  9
$DIMDLI
 40
2.5
  9
$DIMRND
 40
0.0
  9
$DIMDLE
 40
0.0
  9
$DIMEXE
 40
1.0
  9
$DIMTP
 40
0.0
  9
$DIMTM
 40
0.0
  9
$DIMTXT
 40
3.0
  9
$DIMCEN
 40
0.0
  9
$DIMTSZ
 40
0.0
  9
$DIMTOL
 70
     0
  9
$DIMLIM
 70
     0
  9
$DIMTIH
 70
     0
  9
$DIMTOH
 70
     0
  9
$DIMSE1
 70
     0
  9
$DIMSE2
 70
     0
  9
$DIMTAD
 70
     3
  9
$DIMZIN
 70
     8
  9
$DIMBLK
  1
OPEN
  9
$DIMASO
 70
     1
  9
$DIMSHO
 70
     1
  9
$DIMPOST
  1

  9
$DIMAPOST
  1

  9
$DIMALT
 70
     0
  9
$DIMALTD
 70
     2
  9
$DIMALTF
 40
25.4
  9
$DIMLFAC
 40
1.0
  9
$DIMTOFL
 70
     1
  9
$DIMTVP
 40
0.0
  9
$DIMTIX
 70
     0
  9
$DIMSOXD
 70
     0
  9
$DIMSAH
 70
     0
  9
$DIMBLK1
  1

  9
$DIMBLK2
  1

  9
$DIMSTYLE
  2
BIGT
  9
$DIMCLRD
 70
   256
  9
$DIMCLRE
 70
   256
  9
$DIMCLRT
 70
    40
  9
$DIMTFAC
 40
1.0
  9
$DIMGAP
 40
1.0
  9
$DIMJUST
 70
     0
  9
$DIMSD1
 70
     0
  9
$DIMSD2
 70
     0
  9
$DIMTOLJ
 70
     1
  9
$DIMTZIN
 70
     8
  9
$DIMALTZ
 70
     0
  9
$DIMALTTZ
 70
     0
  9
$DIMFIT
 70
     2
  9
$DIMUPT
 70
     0
  9
$DIMUNIT
 70
     2
  9
$DIMDEC
 70
     3
  9
$DIMTDEC
 70
     3
  9
$DIMALTU
 70
     2
  9
$DIMALTTD
 70
     2
  9
$DIMTXSTY
  7
STANDARD
  9
$DIMAUNIT
 70
     0
  9
$LUNITS
 70
     2
  9
$LUPREC
 70
     3
  9
$SKETCHINC
 40
1.0
  9
$FILLETRAD
 40
0.0
  9
$AUNITS
 70
     0
  9
$AUPREC
 70
     3
  9
$MENU
  1
.
  9
$ELEVATION
 40
0.0
  9
$PELEVATION
 40
0.0
  9
$THICKNESS
 40
0.0
  9
$LIMCHECK
 70
     0
  9
$BLIPMODE
 70
     0
  9
$CHAMFERA
 40
10.0
  9
$CHAMFERB
 40
10.0
  9
$CHAMFERC
 40
0.0
  9
$CHAMFERD
 40
0.0
  9
$SKPOLY
 70
     0
  9
$TDCREATE
 40
2452174.435286991
  9
$TDUPDATE
 40
2452408.982100150
  9
$TDINDWG
 40
0.0493608796
  9
$TDUSRTIMER
 40
0.0493608796
  9
$USRTIMER
 70
     1
  9
$ANGBASE
 50
0.0
  9
$ANGDIR
 70
     0
  9
$PDMODE
 70
    35
  9
$PDSIZE
 40
-5.0
  9
$PLINEWID
 40
0.0
  9
$COORDS
 70
     0
  9
$SPLFRAME
 70
     0
  9
$SPLINETYPE
 70
     6
  9
$SPLINESEGS
 70
     8
  9
$ATTDIA
 70
     0
  9
$ATTREQ
 70
     0
  9
$HANDLING
 70
 22529
  9
$HANDSEED
  5
C84
  9
$SURFTAB1
 70
     6
  9
$SURFTAB2
 70
     6
  9
$SURFTYPE
 70
     6
  9
$SURFU
 70
     6
  9
$SURFV
 70
     6
  9
$UCSNAME
  2

  9
$UCSORG
 10
0.0
 20
0.0
 30
0.0
  9
$UCSXDIR
 10
1.0
 20
0.0
 30
0.0
  9
$UCSYDIR
 10
0.0
 20
1.0
 30
0.0
  9
$PUCSNAME
  2

  9
$PUCSORG
 10
0.0
 20
0.0
 30
0.0
  9
$PUCSXDIR
 10
1.0
 20
0.0
 30
0.0
  9
$PUCSYDIR
 10
0.0
 20
1.0
 30
0.0
  9
$USERI1
 70
     1
  9
$USERI2
 70
     0
  9
$USERI3
 70
     0
  9
$USERI4
 70
     0
  9
$USERI5
 70
     0
  9
$USERR1
 40
0.0
  9
$USERR2
 40
0.0
  9
$USERR3
 40
0.0
  9
$USERR4
 40
0.0
  9
$USERR5
 40
0.0
  9
$WORLDVIEW
 70
     1
  9
$SHADEDGE
 70
     3
  9
$SHADEDIF
 70
    70
  9
$TILEMODE
 70
     1
  9
$MAXACTVP
 70
    16
  9
$PINSBASE
 10
0.0
 20
0.0
 30
0.0
  9
$PLIMCHECK
 70
     0
  9
$PEXTMIN
 10
1.000000000000000E+20
 20
1.000000000000000E+20
 30
1.000000000000000E+20
  9
$PEXTMAX
 10
-1.000000000000000E+20
 20
-1.000000000000000E+20
 30
-1.000000000000000E+20
  9
$PLIMMIN
 10
0.0
 20
0.0
  9
$PLIMMAX
 10
420.0
 20
297.0
  9
$UNITMODE
 70
     0
  9
$VISRETAIN
 70
     0
  9
$PLINEGEN
 70
     0
  9
$PSLTSCALE
 70
     1
  9
$TREEDEPTH
 70
  3020
  9
$PICKSTYLE
 70
     0
  9
$CMLSTYLE
  2
STANDARD
  9
$CMLJUST
 70
     0
  9
$CMLSCALE
 40
1.0
  9
$PROXYGRAPHICS
 70
     1
  9
$MEASUREMENT
 70
     1
  0
ENDSEC
  0
SECTION
  2
CLASSES
  0
CLASS
  1
XRECORD
  2
AcDbXrecord
  3
AutoCAD 2000
 90
        0
280
     0
281
     0
  0
CLASS
  1
ACDBDICTIONARYWDFLT
  2
AcDbDictionaryWithDefault
  3
AutoCAD 2000
 90
        0
280
     0
281
     0
  0
CLASS
  1
ACDBPLACEHOLDER
  2
AcDbPlaceHolder
  3
AutoCAD 2000
 90
        0
280
     0
281
     0
  0
CLASS
  1
LAYOUT
  2
AcDbLayout
  3
AutoCAD 2000
 90
        0
280
     0
281
     0
  0
CLASS
  1
DICTIONARYVAR
  2
AcDbDictionaryVar
  3
AutoCAD 2000
 90
        0
280
     0
281
     0
  0
CLASS
  1
LONG_TRANSACTION
  2
AcDbLongTransaction
  3
AutoCAD 2000
 90
        0
280
     0
281
     0
  0
CLASS
  1
LWPOLYLINE
  2
AcDbPolyline
  3
AutoCAD 2000
 90
        0
280
     0
281
     1
  0
CLASS
  1
HATCH
  2
AcDbHatch
  3
AutoCAD 2000
 90
        0
280
     0
281
     1
  0
CLASS
  1
XRECORD
  2
AcDbXrecord
  3
AutoCAD 2000
 90
        0
280
     0
281
     0
  0
ENDSEC
  0
SECTION
  2
TABLES
  0
TABLE
  2
VPORT
  5
8
330
0
100
AcDbSymbolTable
 70
     2
  0
VPORT
  5
C55
330
8
100
AcDbSymbolTableRecord
100
AcDbViewportTableRecord
  2
*ACTIVE
 70
     0
 10
0.0
 20
0.0
 11
1.0
 21
1.0
 12
82.49908530211438
 22
12.49887138279024
 13
0.0
 23
0.0
 14
7.0
 24
7.0
 15
7.0
 25
7.0
 16
0.0
 26
0.0
 36
1.0
 17
0.0
 27
0.0
 37
0.0
 40
251.3443062061256
 41
1.53185955786736
 42
50.0
 43
0.0
 44
0.0
 50
0.0
 51
0.0
 71
     0
 72
  2000
 73
     1
 74
     0
 75
     0
 76
     0
 77
     0
 78
     0
  0
ENDTAB
  0
TABLE
  2
LTYPE
  5
5
330
0
100
AcDbSymbolTable
 70
     4
  0
LTYPE
  5
14
330
5
100
AcDbSymbolTableRecord
100
AcDbLinetypeTableRecord
  2
BYBLOCK
 70
     0
  3

 72
    65
 73
     0
 40
0.0
  0
LTYPE
  5
15
330
5
100
AcDbSymbolTableRecord
100
AcDbLinetypeTableRecord
  2
BYLAYER
 70
     0
  3

 72
    65
 73
     0
 40
0.0
  0
LTYPE
  5
16
330
5
100
AcDbSymbolTableRecord
100
AcDbLinetypeTableRecord
  2
CONTINUOUS
 70
     0
  3
Solid line
 72
    65
 73
     0
 40
0.0
  0
LTYPE
  5
258
330
5
100
AcDbSymbolTableRecord
100
AcDbLinetypeTableRecord
  2
CENTER2
 70
     0
  3
___ _ ___ _ ___ _ ___ _ ___ _ ___ _ ___ _ ___ _
 72
    65
 73
     4
 40
1.125
 49
0.75
 74
     0
 49
-0.125
 74
     0
 49
0.125
 74
     0
 49
-0.125
 74
     0
  0
LTYPE
  5
25C
330
5
100
AcDbSymbolTableRecord
100
AcDbLinetypeTableRecord
  2
HIDDEN2
 70
     0
  3
_ _ _ _ _ _ _ _ _ _ _ _ _ _ _ _ _ _ _ _ _ _ _ _
 72
    65
 73
     2
 40
0.1875
 49
0.125
 74
     0
 49
-0.0625
 74
     0
  0
LTYPE
  5
25D
330
5
100
AcDbSymbolTableRecord
100
AcDbLinetypeTableRecord
  2
PHANTOM2
 70
     0
  3
___ _ _ ___ _ _ ___ _ _ ___ _ _ ___ _ _ ___ _ _
 72
    65
 73
     6
 40
1.25
 49
0.625
 74
     0
 49
-0.125
 74
     0
 49
0.125
 74
     0
 49
-0.125
 74
     0
 49
0.125
 74
     0
 49
-0.125
 74
     0
  0
ENDTAB
  0
TABLE
  2
LAYER
  5
2
330
0
100
AcDbSymbolTable
 70
    10
  0
LAYER
  5
F
330
2
100
AcDbSymbolTableRecord
100
AcDbLayerTableRecord
  2
0
 70
     0
 62
     7
  6
CONTINUOUS
  0
LAYER
  5
1AA
330
2
100
AcDbSymbolTableRecord
100
AcDbLayerTableRecord
  2
240
 70
     0
 62
     4
  6
CONTINUOUS
  0
LAYER
  5
1AB
330
2
100
AcDbSymbolTableRecord
100
AcDbLayerTableRecord
  2
241
 70
     0
 62
   211
  6
CONTINUOUS
  0
LAYER
  5
1AC
330
2
100
AcDbSymbolTableRecord
100
AcDbLayerTableRecord
  2
242
 70
     0
 62
     3
  6
CONTINUOUS
  0
LAYER
  5
1AD
330
2
100
AcDbSymbolTableRecord
100
AcDbLayerTableRecord
  2
243
 70
     0
 62
   211
  6
HIDDEN2
  0
LAYER
  5
1AF
330
2
100
AcDbSymbolTableRecord
100
AcDbLayerTableRecord
  2
245
 70
     0
 62
     2
  6
CENTER2
  0
LAYER
  5
21A
330
2
100
AcDbSymbolTableRecord
100
AcDbLayerTableRecord
  2
246
 70
     0
 62
     3
  6
PHANTOM2
  0
LAYER
  5
21B
330
2
100
AcDbSymbolTableRecord
100
AcDbLayerTableRecord
  2
247
 70
     0
 62
    60
  6
CONTINUOUS
  0
LAYER
  5
21E
330
2
100
AcDbSymbolTableRecord
100
AcDbLayerTableRecord
  2
250
 70
     0
 62
     3
  6
CONTINUOUS
  0
LAYER
  5
5C4
330
2
100
AcDbSymbolTableRecord
100
AcDbLayerTableRecord
  2
DEFPOINTS
 70
     0
 62
     7
  6
CONTINUOUS
  0
ENDTAB
  0
TABLE
  2
STYLE
  5
3
330
0
100
AcDbSymbolTable
 70
     2
  0
STYLE
  5
10
330
3
100
AcDbSymbolTableRecord
100
AcDbTextStyleTableRecord
  2
STANDARD
 70
     0
 40
0.0
 41
1.0
 50
0.0
 71
     0
 42
3.0
  3
romans.shx
  4
BIGFONT.SHX
  0
STYLE
  5
339
330
3
100
AcDbSymbolTableRecord
100
AcDbTextStyleTableRecord
  2
YOKO
 70
     0
 40
0.0
 41
1.0
 50
0.0
 71
     0
 42
3.0
  3
romans.shx
  4
extfont.shx
  0
ENDTAB
  0
TABLE
  2
VIEW
  5
6
330
0
100
AcDbSymbolTable
 70
     0
  0
ENDTAB
  0
TABLE
  2
UCS
  5
7
330
0
100
AcDbSymbolTable
 70
     0
  0
ENDTAB
  0
TABLE
  2
APPID
  5
9
330
0
100
AcDbSymbolTable
 70
     9
  0
APPID
  5
11
330
9
100
AcDbSymbolTableRecord
100
AcDbRegAppTableRecord
  2
ACAD
 70
     0
  0
APPID
  5
1B1
330
9
100
AcDbSymbolTableRecord
100
AcDbRegAppTableRecord
  2
GLOBAL
 70
     0
  0
APPID
  5
2A4
330
9
100
AcDbSymbolTableRecord
100
AcDbRegAppTableRecord
  2
DETAIL
 70
     0
  0
APPID
  5
5FD
330
9
100
AcDbSymbolTableRecord
100
AcDbRegAppTableRecord
  2
GRPNAME
 70
     0
  0
APPID
  5
5FE
330
9
100
AcDbSymbolTableRecord
100
AcDbRegAppTableRecord
  2
GPARA
 70
     0
  0
APPID
  5
7D3
330
9
100
AcDbSymbolTableRecord
100
AcDbRegAppTableRecord
  2
ITEMNAME
 70
     0
  0
APPID
  5
7D4
330
9
100
AcDbSymbolTableRecord
100
AcDbRegAppTableRecord
  2
HATCH_TYPE
 70
     0
  0
APPID
  5
7D5
330
9
100
AcDbSymbolTableRecord
100
AcDbRegAppTableRecord
  2
HATCH_DISPLAY
 70
     0
  0
APPID
  5
7D6
330
9
100
AcDbSymbolTableRecord
100
AcDbRegAppTableRecord
  2
HATCH_DISTANCE
 70
     0
  0
ENDTAB
  0
TABLE
  2
DIMSTYLE
  5
A
330
0
100
AcDbSymbolTable
 70
     1
  0
DIMSTYLE
105
59A
102
{ACAD_REACTORS
330
BC2
330
BC3
330
BC9
330
BCA
330
BCB
330
BCC
102
}
330
A
100
AcDbSymbolTableRecord
100
AcDbDimStyleTableRecord
  2
BIGT
 70
     0
  3

  4

  5
OPEN
  6

  7

 40
1.0
 41
2.229999999999999
 42
0.5
 43
2.5
 44
1.0
 45
0.0
 46
0.0
 47
0.0
 48
0.0
140
3.5
141
0.0
142
0.0
143
25.4
144
1.0
145
0.0
146
1.0
147
1.0
 71
     0
 72
     0
 73
     0
 74
     0
 75
     0
 76
     0
 77
     3
 78
     9
170
     0
171
     2
172
     1
173
     0
174
     0
175
     0
176
   256
177
   256
178
    40
270
     2
271
     3
272
     3
273
     2
274
     2
340
10
275
     0
280
     0
281
     0
282
     0
283
     1
284
     8
285
     0
286
     0
287
     2
288
     0
  0
ENDTAB
  0
TABLE
  2
BLOCK_RECORD
  5
1
330
0
100
AcDbSymbolTable
 70
     8
  0
BLOCK_RECORD
  5
1A
102
{ACAD_XDICTIONARY
360
C79
102
}
330
1
100
AcDbSymbolTableRecord
100
AcDbBlockTableRecord
  2
*MODEL_SPACE
  0
BLOCK_RECORD
  5
17
102
{ACAD_XDICTIONARY
360
C77
102
}
330
1
100
AcDbSymbolTableRecord
100
AcDbBlockTableRecord
  2
*PAPER_SPACE
  0
BLOCK_RECORD
  5
594
330
1
100
AcDbSymbolTableRecord
100
AcDbBlockTableRecord
  2
_OPEN
  0
BLOCK_RECORD
  5
99C
330
1
100
AcDbSymbolTableRecord
100
AcDbBlockTableRecord
  2
A$C483D1F05
  0
BLOCK_RECORD
  5
BCD
330
1
100
AcDbSymbolTableRecord
100
AcDbBlockTableRecord
  2
*D2
  0
BLOCK_RECORD
  5
BD9
330
1
100
AcDbSymbolTableRecord
100
AcDbBlockTableRecord
  2
*D3
  0
BLOCK_RECORD
  5
BE5
330
1
100
AcDbSymbolTableRecord
100
AcDbBlockTableRecord
  2
*D4
  0
BLOCK_RECORD
  5
BF1
330
1
100
AcDbSymbolTableRecord
100
AcDbBlockTableRecord
  2
*D5
  0
BLOCK_RECORD
  5
BFD
330
1
100
AcDbSymbolTableRecord
100
AcDbBlockTableRecord
  2
*D6
  0
BLOCK_RECORD
  5
C09
330
1
100
AcDbSymbolTableRecord
100
AcDbBlockTableRecord
  2
*D7
  0
ENDTAB
  0
ENDSEC
  0
SECTION
  2
BLOCKS
  0
BLOCK
  5
1B
330
1A
100
AcDbEntity
  8
0
100
AcDbBlockBegin
  2
*MODEL_SPACE
 70
     0
 10
0.0
 20
0.0
 30
0.0
  3
*MODEL_SPACE
  1

  0
ENDBLK
  5
1C
330
1A
100
AcDbEntity
  8
0
100
AcDbBlockEnd
  0
BLOCK
  5
18
330
17
100
AcDbEntity
 67
     1
  8
0
100
AcDbBlockBegin
  2
*PAPER_SPACE
 70
     0
 10
0.0
 20
0.0
 30
0.0
  3
*PAPER_SPACE
  1

  0
ENDBLK
  5
19
330
17
100
AcDbEntity
 67
     1
  8
0
100
AcDbBlockEnd
  0
BLOCK
  5
598
330
594
100
AcDbEntity
  8
0
100
AcDbBlockBegin
  2
_OPEN
 70
     0
 10
0.0
 20
0.0
 30
0.0
  3
_OPEN
  1

  0
LINE
  5
595
330
594
100
AcDbEntity
  8
0
  6
BYBLOCK
 62
     0
100
AcDbLine
 10
-1.0
 20
0.1666666666666666
 30
0.0
 11
0.0
 21
0.0
 31
0.0
  0
LINE
  5
596
330
594
100
AcDbEntity
  8
0
  6
BYBLOCK
 62
     0
100
AcDbLine
 10
-1.0
 20
-0.1666666666666666
 30
0.0
 11
0.0
 21
0.0
 31
0.0
  0
LINE
  5
597
330
594
100
AcDbEntity
  8
0
  6
BYBLOCK
 62
     0
100
AcDbLine
 10
0.0
 20
0.0
 30
0.0
 11
-1.0
 21
0.0
 31
0.0
  0
ENDBLK
  5
599
330
594
100
AcDbEntity
  8
0
100
AcDbBlockEnd
  0
BLOCK
  5
A8C
330
99C
100
AcDbEntity
  8
0
100
AcDbBlockBegin
  2
A$C483D1F05
 70
     0
 10
0.0
 20
0.0
 30
0.0
  3
A$C483D1F05
  1

  0
LINE
  5
99D
330
99C
100
AcDbEntity
  8
245
  6
CENTER2
100
AcDbLine
 10
-109.0007565054974
 20
0.0
 30
0.0
 11
254.8038270210883
 21
0.0
 31
0.0
  0
LINE
  5
99E
330
99C
100
AcDbEntity
  8
240
100
AcDbLine
 10
15.69999999999964
 20
49.99999999999943
 30
0.0
 11
4.299999999999613
 21
49.99999999999943
 31
0.0
  0
LINE
  5
99F
330
99C
100
AcDbEntity
  8
243
100
AcDbLine
 10
33.99999999999994
 20
35.2999999999999
 30
0.0
 11
2.999999999999943
 21
35.2999999999999
 31
0.0
  0
LINE
  5
9A0
330
99C
100
AcDbEntity
  8
243
100
AcDbLine
 10
33.99999999999994
 20
-35.30000000000012
 30
0.0
 11
2.999999999999943
 21
-35.30000000000012
 31
0.0
  0
LINE
  5
9A1
330
99C
100
AcDbEntity
  8
240
100
AcDbLine
 10
15.69999999999964
 20
-49.99999999999966
 30
0.0
 11
4.299999999999613
 21
-49.99999999999966
 31
0.0
  0
TEXT
  5
9A2
330
99C
100
AcDbEntity
  8
247
100
AcDbText
 10
12.69999999999962
 20
-12.28678511522821
 30
0.0
 40
3.0
  1
BT50-NBS10-250
 50
90.0
  7
YOKO
 11
12.69999999999962
 21
-12.28678511522821
 31
0.0
100
AcDbText
 73
     1
  0
LINE
  5
9A3
330
99C
100
AcDbEntity
  8
241
100
AcDbLine
 10
0.0
 20
-34.92499999999961
 30
0.0
 11
0.0
 21
34.92500000000041
 31
0.0
  0
LINE
  5
9A4
330
99C
100
AcDbEntity
  8
241
100
AcDbLine
 10
2.999999999999602
 20
-34.92499999999961
 30
0.0
 11
2.999999999999602
 21
34.92500000000035
 31
0.0
  0
LINE
  5
9A5
330
99C
100
AcDbEntity
  8
240
100
AcDbLine
 10
-101.8
 20
19.21442226369788
 30
0.0
 11
-101.8000000000001
 21
-19.21442226369618
 31
0.0
  0
LINE
  5
9A6
330
99C
100
AcDbEntity
  8
240
100
AcDbLine
 10
-0.0000000000002274
 20
-34.92499999999961
 30
0.0
 11
-100.9443068930718
 21
-20.20395524475952
 31
0.0
  0
ARC
  5
9A7
330
99C
100
AcDbEntity
  8
240
100
AcDbCircle
 10
-100.8000000000001
 20
-19.21442226369618
 30
0.0
 40
1.0
100
AcDbArc
 50
180.0
 51
261.7028550301631
  0
LINE
  5
9A8
330
99C
100
AcDbEntity
  8
247
100
AcDbLine
 10
12.52996169456253
 20
-24.19477755041146
 30
0.0
 11
11.97916148046607
 21
-23.64397733631506
 31
0.0
  0
LINE
  5
9A9
330
99C
100
AcDbEntity
  8
247
100
AcDbLine
 10
12.60571843791214
 20
-24.71954709981457
 30
0.0
 11
11.46308014810011
 21
-23.57690881000257
 31
0.0
  0
LINE
  5
9AA
330
99C
100
AcDbEntity
  8
247
100
AcDbLine
 10
9.665587270221294
 20
-24.02447996239095
 30
0.0
 11
9.161611158830567
 21
-23.52050385100028
 31
0.0
  0
ARC
  5
9AB
330
99C
100
AcDbEntity
  8
247
100
AcDbCircle
 10
11.59529620814527
 20
-24.57864282273226
 30
0.0
 40
1.010421752929687
100
AcDbArc
 50
0.0
 51
130.3298406541676
  0
LINE
  5
9AC
330
99C
100
AcDbEntity
  8
247
100
AcDbLine
 10
10.0627963416407
 20
-23.972676227757
 30
0.0
 11
9.386448824886031
 21
-23.29632871100227
 31
0.0
  0
LINE
  5
9AD
330
99C
100
AcDbEntity
  8
247
100
AcDbLine
 10
11.42542084116973
 20
-24.43727511517909
 30
0.0
 11
10.1001146065945
 21
-23.11196888060385
 31
0.0
  0
LINE
  5
9AE
330
99C
100
AcDbEntity
  8
247
100
AcDbLine
 10
11.13314516820764
 20
-24.59401224827036
 30
0.0
 11
9.68681422474134
 21
-23.1476813048041
 31
0.0
  0
ARC
  5
9AF
330
99C
100
AcDbEntity
  8
247
100
AcDbCircle
 10
9.978596989395271
 20
-24.11506555222445
 30
0.0
 40
1.010430335998535
100
AcDbArc
 50
17.66957754739816
 51
180.2361598426716
  0
LINE
  5
9B0
102
{ACAD_REACTORS
330
9B2
102
}
330
99C
100
AcDbEntity
  8
247
100
AcDbLine
 10
13.21198063454147
 20
-26.46797082566195
 30
0.0
 11
13.21198063454147
 21
-18.26327417038856
 31
0.0
  0
LINE
  5
9B1
102
{ACAD_REACTORS
330
9B2
102
}
330
99C
100
AcDbEntity
  8
247
100
AcDbLine
 10
12.80780584025586
 20
-26.46797082566195
 30
0.0
 11
12.80780584025586
 21
-18.26327417038856
 31
0.0
  0
HATCH
  5
9B2
330
99C
100
AcDbEntity
  8
247
100
AcDbHatch
 10
0.0
 20
0.0
 30
0.0
210
0.0
220
0.0
230
1.0
  2
ANSI31
 70
     0
 71
     1
 91
        1
 92
       33
 93
       10
 72
     1
 10
8.968175236465583
 20
-25.63329980515414
 11
9.372350041153083
 21
-25.74919030808382
 72
     1
 10
8.968175236465583
 20
-26.46797082566195
 11
8.968175236465583
 21
-25.63329980515414
 72
     1
 10
9.372350041153083
 20
-26.46797082566195
 11
9.372350041153083
 21
-25.74919030808382
 72
     2
 10
11.09007770228589
 20
-26.46797082566195
 40
1.717727661132812
 50
180.0
 51
360.0
 73
     1
 72
     2
 10
11.09007770228589
 20
-26.46797082566195
 40
2.121902465820312
 50
180.0
 51
360.0
 73
     1
 72
     1
 10
13.21198063454147
 20
-26.46797082566195
 11
13.21198063454147
 21
-18.26327417038856
 72
     1
 10
12.80780584025586
 20
-26.46797082566195
 11
12.80780584025586
 21
-18.26327417038856
 72
     2
 10
11.09007770228589
 20
-18.26327417038856
 40
2.121902465820312
 50
0.0
 51
194.7707939660939
 73
     1
 72
     2
 10
11.09007770228589
 20
-18.26327417038856
 40
1.717727661132812
 50
0.0
 51
194.1274364964119
 73
     1
 72
     1
 10
9.424290959121833
 20
-18.68253991745888
 11
9.038289372207771
 21
-18.80425927781038
 97
       10
330
9C3
330
9C6
330
9C5
330
9B6
330
9B7
330
9B0
330
9B1
330
9D2
330
9D1
330
A0B
 75
     0
 76
     1
 52
90.0
 41
0.1
 77
     0
 78
     1
 53
135.0
 43
28.96197063136304
 44
-148.3898599400418
 45
-0.2245064030267288
 46
-0.2245064030267288
 79
     0
 98
        1
 10
28.96197063136304
 20
-148.3898599400418
  0
LINE
  5
9B3
330
99C
100
AcDbEntity
  8
240
100
AcDbLine
 10
2.999999999999715
 20
-34.92499999999961
 30
0.0
 11
2.999999999999658
 21
-48.69999999999965
 31
0.0
  0
ARC
  5
9B4
330
99C
100
AcDbEntity
  8
240
100
AcDbCircle
 10
4.299999999999613
 20
-48.69999999999965
 30
0.0
 40
1.300000000000011
100
AcDbArc
 50
180.0
 51
270.0
  0
LINE
  5
9B5
330
99C
100
AcDbEntity
  8
240
100
AcDbLine
 10
-0.0000000000002274
 20
-34.92499999999961
 30
0.0
 11
2.999999999999602
 21
-34.92499999999961
 31
0.0
  0
ARC
  5
9B6
102
{ACAD_REACTORS
330
9B2
102
}
330
99C
100
AcDbEntity
  8
247
100
AcDbCircle
 10
11.09007770228589
 20
-26.46797082566195
 30
0.0
 40
1.717727661132812
100
AcDbArc
 50
180.0
 51
0.0
  0
ARC
  5
9B7
102
{ACAD_REACTORS
330
9B2
102
}
330
99C
100
AcDbEntity
  8
247
100
AcDbCircle
 10
11.09007770228589
 20
-26.46797082566195
 30
0.0
 40
2.121902465820312
100
AcDbArc
 50
180.0
 51
0.0
  0
ARC
  5
9B8
330
99C
100
AcDbEntity
  8
247
100
AcDbCircle
 10
9.938191715957771
 20
-24.56597802781038
 30
0.0
 40
0.6062452793121338
100
AcDbArc
 50
351.6626016879293
 51
156.3381550951899
  0
LINE
  5
9B9
330
99C
100
AcDbEntity
  8
247
100
AcDbLine
 10
9.382914148697693
 20
-24.32266719371966
 30
0.0
 11
10.53802994073157
 21
-24.65388390240628
 31
0.0
  0
LINE
  5
9BA
330
99C
100
AcDbEntity
  8
247
100
AcDbLine
 10
10.98254554132898
 20
-25.79045103955218
 30
0.0
 11
9.567765893925326
 21
-24.37567139214843
 31
0.0
  0
LINE
  5
9BB
330
99C
100
AcDbEntity
  8
247
100
AcDbLine
 10
11.61207250961842
 20
-25.97096520178808
 30
0.0
 11
10.19728690393861
 21
-24.55617959610833
 31
0.0
  0
LINE
  5
9BC
330
99C
100
AcDbEntity
  8
247
100
AcDbLine
 10
12.60571843791211
 20
-26.25588891648226
 30
0.0
 11
9.372350041154277
 21
-25.32873437546709
 31
0.0
  0
LINE
  5
9BD
330
99C
100
AcDbEntity
  8
247
100
AcDbLine
 10
9.372350041153083
 20
-25.53896997117021
 30
0.0
 11
9.372350041154277
 21
-25.32873437546709
 31
0.0
  0
LINE
  5
9BE
330
99C
100
AcDbEntity
  8
247
100
AcDbLine
 10
8.968175236465583
 20
-25.42307946823985
 30
0.0
 11
8.968175236465725
 21
-24.11923029866045
 31
0.0
  0
LINE
  5
9BF
330
99C
100
AcDbEntity
  8
247
100
AcDbLine
 10
9.723491604750108
 20
-25.42942271508024
 30
0.0
 11
8.968175236465668
 21
-24.67410634679572
 31
0.0
  0
LINE
  5
9C0
330
99C
100
AcDbEntity
  8
247
100
AcDbLine
 10
10.35301857303954
 20
-25.60993687731615
 30
0.0
 11
8.968175236465725
 21
-24.22509354074236
 31
0.0
  0
LINE
  5
9C1
330
99C
100
AcDbEntity
  8
247
100
AcDbLine
 10
9.37235004115314
 20
-25.5272939575367
 30
0.0
 11
8.968175236465611
 21
-25.1231191528492
 31
0.0
  0
LINE
  5
9C2
330
99C
100
AcDbEntity
  8
247
100
AcDbLine
 10
8.968175236465583
 20
-25.42307946823985
 30
0.0
 11
9.372350041153083
 21
-25.53896997117021
 31
0.0
  0
LINE
  5
9C3
102
{ACAD_REACTORS
330
9B2
102
}
330
99C
100
AcDbEntity
  8
247
100
AcDbLine
 10
8.968175236465583
 20
-25.63329980515414
 30
0.0
 11
9.372350041153083
 21
-25.74919030808382
 31
0.0
  0
LINE
  5
9C4
330
99C
100
AcDbEntity
  8
247
100
AcDbLine
 10
9.429018845698863
 20
-24.23692434392205
 30
0.0
 11
9.012182206186423
 21
-23.82008770440961
 31
0.0
  0
LINE
  5
9C5
102
{ACAD_REACTORS
330
9B2
102
}
330
99C
100
AcDbEntity
  8
247
100
AcDbLine
 10
9.372350041153083
 20
-26.46797082566195
 30
0.0
 11
9.372350041153083
 21
-25.74919030808382
 31
0.0
  0
LINE
  5
9C6
102
{ACAD_REACTORS
330
9B2
102
}
330
99C
100
AcDbEntity
  8
247
100
AcDbLine
 10
8.968175236465583
 20
-26.46797082566195
 30
0.0
 11
8.968175236465583
 21
-25.63329980515414
 31
0.0
  0
LINE
  5
9C7
330
99C
100
AcDbEntity
  8
247
100
AcDbLine
 10
12.60571843791211
 20
-25.61757271192152
 30
0.0
 11
12.0858595627499
 21
-25.09771383675922
 31
0.0
  0
LINE
  5
9C8
330
99C
100
AcDbEntity
  8
247
100
AcDbLine
 10
10.99958128538739
 20
-24.78623964032715
 30
0.0
 11
12.15473133930962
 21
-25.11746179794727
 31
0.0
  0
ARC
  5
9C9
330
99C
100
AcDbEntity
  8
247
100
AcDbCircle
 10
11.5548756759187
 20
-25.0295552983182
 30
0.0
 40
0.6062626242637635
100
AcDbArc
 50
351.6628542111488
 51
156.3381921591137
  0
LINE
  5
9CA
330
99C
100
AcDbEntity
  8
247
100
AcDbLine
 10
12.60571843791211
 20
-25.16855990586805
 30
0.0
 11
11.12270918476849
 21
-23.68555065272437
 31
0.0
  0
LINE
  5
9CB
330
99C
100
AcDbEntity
  8
247
100
AcDbLine
 10
12.60571843791211
 20
-26.25588891648226
 30
0.0
 11
12.60571843791211
 21
-24.57864282273226
 31
0.0
  0
LINE
  5
9CC
330
99C
100
AcDbEntity
  8
247
100
AcDbLine
 10
12.24159947790784
 20
-26.15147936402411
 30
0.0
 11
10.5314935160112
 21
-24.44137340212751
 31
0.0
  0
LINE
  5
9CD
330
99C
100
AcDbEntity
  8
247
100
AcDbLine
 10
12.60571843791211
 20
-26.06658551797488
 30
0.0
 11
11.45634189566726
 21
-24.91720897573009
 31
0.0
  0
LINE
  5
9CE
102
{ACAD_REACTORS
330
9D4
102
}
330
99C
100
AcDbEntity
  8
247
100
AcDbLine
 10
12.36864263224805
 20
-19.59744165085726
 30
0.0
 11
12.60571843791211
 21
-19.36035058640413
 31
0.0
  0
ARC
  5
9CF
102
{ACAD_REACTORS
330
9D4
102
}
330
99C
100
AcDbEntity
  8
247
100
AcDbCircle
 10
9.837148014785896
 20
-19.84887597702913
 30
0.0
 40
0.4243833422660828
100
AcDbArc
 50
91.71012138206434
 51
253.9983983544486
  0
ARC
  5
9D0
102
{ACAD_REACTORS
330
9D4
102
}
330
99C
100
AcDbEntity
  8
247
100
AcDbCircle
 10
10.28172809291089
 20
-20.06045434616976
 30
0.0
 40
1.313554763793945
100
AcDbArc
 50
143.4440121970578
 51
254.0001843876854
  0
ARC
  5
9D1
102
{ACAD_REACTORS
330
9B2
102
}
330
99C
100
AcDbEntity
  8
247
100
AcDbCircle
 10
11.09007770228589
 20
-18.26327417038856
 30
0.0
 40
1.717727661132812
100
AcDbArc
 50
0.0
 51
194.1274364964119
  0
ARC
  5
9D2
102
{ACAD_REACTORS
330
9B2
102
}
330
99C
100
AcDbEntity
  8
247
100
AcDbCircle
 10
11.09007770228589
 20
-18.26327417038856
 30
0.0
 40
2.121902465820312
100
AcDbArc
 50
0.0
 51
194.7707939660939
  0
LINE
  5
9D3
102
{ACAD_REACTORS
330
9D4
102
}
330
99C
100
AcDbEntity
  8
247
100
AcDbLine
 10
10.54443866419995
 20
-19.94657800339632
 30
0.0
 11
10.54443866419995
 21
-18.76928613327919
 31
0.0
  0
HATCH
  5
9D4
330
99C
100
AcDbEntity
  8
247
100
AcDbHatch
 10
0.0
 20
0.0
 30
0.0
210
0.0
220
0.0
230
1.0
  2
ANSI31
 70
     0
 71
     1
 91
        1
 92
       33
 93
       15
 72
     1
 10
9.485066715957771
 20
-18.87527368210726
 11
9.099065129043708
 21
-18.99699304245882
 72
     2
 10
11.09007770228589
 20
-18.26327417038856
 40
1.717732429504394
 50
200.8721834020736
 51
222.5419489373881
 73
     1
 72
     2
 10
9.837148014785896
 20
-19.84887597702913
 40
0.4243833422660828
 50
91.71012138206434
 51
253.9983983544486
 73
     1
 72
     1
 10
11.61977130580152
 20
-20.80152795456819
 11
9.720158879043708
 21
-20.25681970261507
 72
     2
 10
11.73674518275464
 20
-20.39358422898226
 40
0.4243830442428589
 50
254.0002730571842
 51
434.0002730571843
 73
     1
 72
     1
 10
11.85371905970777
 20
-19.98564050339632
 11
10.94861346888745
 21
-19.72610376023226
 72
     1
 10
10.94861346888745
 20
-20.06246850632601
 11
10.94861346888745
 21
-19.72610376023226
 72
     1
 10
10.94861346888745
 20
-20.06246850632601
 11
10.54443866419995
 21
-19.94657800339632
 72
     1
 10
10.54443866419995
 20
-19.94657800339632
 11
10.54443866419995
 21
-18.76928613327919
 72
     1
 10
12.60571843791211
 20
-19.36035058640413
 11
10.54443866419995
 21
-18.76928613327919
 72
     1
 10
12.36864263224805
 20
-19.59744165085726
 11
12.60571843791211
 21
-19.36035058640413
 72
     2
 10
11.29216510462964
 20
-20.35018823288851
 40
1.313568115234375
 50
253.9997507017277
 51
394.9638732916308
 73
     1
 72
     2
 10
11.36122638392652
 20
-18.20257470749794
 40
3.43743896484375
 50
245.2051773698423
 51
262.7948259620506
 73
     1
 72
     2
 10
10.28172809291089
 20
-20.06045434616976
 40
1.313554763793945
 50
143.4440121970578
 51
254.0001843876854
 73
     1
 72
     2
 10
11.09007770228589
 20
-18.26327417038856
 40
2.121903419494628
 50
200.2296450633201
 51
208.5716889237166
 73
     1
 97
       15
330
A0C
330
A0D
330
9CF
330
9D6
330
9EF
330
9F0
330
9EE
330
9F1
330
9D3
330
A0F
330
9CE
330
9ED
330
9D7
330
9D0
330
A0E
 75
     0
 76
     1
 52
90.0
 41
0.1
 77
     0
 78
     1
 53
135.0
 43
28.96197063136304
 44
-148.3898599400418
 45
-0.2245064030267288
 46
-0.2245064030267288
 79
     0
 98
        1
 10
28.96197063136304
 20
-148.3898599400418
  0
LINE
  5
9D5
330
99C
100
AcDbEntity
  8
247
100
AcDbLine
 10
12.60571843791211
 20
-22.45072839402132
 30
0.0
 11
8.968175236465583
 21
-21.40768335007601
 31
0.0
  0
LINE
  5
9D6
102
{ACAD_REACTORS
330
9D4
102
}
330
99C
100
AcDbEntity
  8
247
100
AcDbLine
 10
11.61977130580152
 20
-20.80152795456819
 30
0.0
 11
9.720158879043708
 21
-20.25681970261507
 31
0.0
  0
ARC
  5
9D7
102
{ACAD_REACTORS
330
9D4
102
}
330
99C
100
AcDbEntity
  8
247
100
AcDbCircle
 10
11.36122638392652
 20
-18.20257470749794
 30
0.0
 40
3.43743896484375
100
AcDbArc
 50
245.2051773698423
 51
262.7948259620506
  0
POLYLINE
  5
9D8
330
99C
100
AcDbEntity
  8
247
100
AcDb2dPolyline
 66
     1
 10
0.0
 20
0.0
 30
0.0
 70
     1
1001
HATCH_DISTANCE
1040
1.0
1001
HATCH_DISPLAY
1070
     0
1001
HATCH_TYPE
1070
     7
  0
VERTEX
  5
9D9
330
9D8
100
AcDbEntity
  8
247
  6
CONTINUOUS
100
AcDbVertex
100
AcDb2dVertex
 10
8.968175236465583
 20
-22.45883081101351
 30
0.0
  0
VERTEX
  5
9DA
330
9D8
100
AcDbEntity
  8
247
  6
CONTINUOUS
100
AcDbVertex
100
AcDb2dVertex
 10
9.412755314590583
 20
-22.5863179936307
 30
0.0
  0
VERTEX
  5
9DB
330
9D8
100
AcDbEntity
  8
247
  6
CONTINUOUS
100
AcDbVertex
100
AcDb2dVertex
 10
9.412755314590583
 20
-22.43914697312288
 30
0.0
  0
VERTEX
  5
9DC
330
9D8
100
AcDbEntity
  8
247
  6
CONTINUOUS
100
AcDbVertex
100
AcDb2dVertex
 10
12.60571843791211
 20
-23.35472009324007
 30
0.0
  0
VERTEX
  5
9DD
330
9D8
100
AcDbEntity
  8
247
  6
CONTINUOUS
100
AcDbVertex
100
AcDb2dVertex
 10
12.60571843791211
 20
-22.45072839402132
 30
0.0
  0
VERTEX
  5
9DE
330
9D8
100
AcDbEntity
  8
247
  6
CONTINUOUS
100
AcDbVertex
100
AcDb2dVertex
 10
8.968175236465583
 20
-21.40768335007601
 30
0.0
  0
SEQEND
  5
9DF
330
9D8
100
AcDbEntity
  8
247
  6
CONTINUOUS
  0
POLYLINE
  5
9E0
330
99C
100
AcDbEntity
  8
247
100
AcDb2dPolyline
 66
     1
 10
0.0
 20
0.0
 30
0.0
 70
     1
  0
VERTEX
  5
9E1
330
9E0
100
AcDbEntity
  8
247
  6
CONTINUOUS
100
AcDbVertex
100
AcDb2dVertex
 10
8.968175236465583
 20
-22.45883081101351
 30
0.0
  0
VERTEX
  5
9E2
330
9E0
100
AcDbEntity
  8
247
  6
CONTINUOUS
100
AcDbVertex
100
AcDb2dVertex
 10
9.412755314590583
 20
-22.5863179936307
 30
0.0
  0
VERTEX
  5
9E3
330
9E0
100
AcDbEntity
  8
247
  6
CONTINUOUS
100
AcDbVertex
100
AcDb2dVertex
 10
9.412755314590583
 20
-22.43914697312288
 30
0.0
  0
VERTEX
  5
9E4
330
9E0
100
AcDbEntity
  8
247
  6
CONTINUOUS
100
AcDbVertex
100
AcDb2dVertex
 10
12.60571843791211
 20
-23.35472009324007
 30
0.0
  0
VERTEX
  5
9E5
330
9E0
100
AcDbEntity
  8
247
  6
CONTINUOUS
100
AcDbVertex
100
AcDb2dVertex
 10
12.60571843791211
 20
-22.45072839402132
 30
0.0
  0
VERTEX
  5
9E6
330
9E0
100
AcDbEntity
  8
247
  6
CONTINUOUS
100
AcDbVertex
100
AcDb2dVertex
 10
8.968175236465583
 20
-21.40768335007601
 30
0.0
  0
SEQEND
  5
9E7
330
9E0
100
AcDbEntity
  8
247
  6
CONTINUOUS
  0
HATCH
  5
9E8
330
99C
100
AcDbEntity
  8
247
100
AcDbHatch
 10
0.0
 20
0.0
 30
0.0
210
0.0
220
0.0
230
1.0
  2
ANSI31
 70
     0
 71
     0
 91
        1
 92
        7
 72
     0
 73
     1
 93
        6
 10
8.968175236465611
 20
-21.40768335007601
 10
8.968175236465555
 20
-22.45883081101351
 10
9.412755314590611
 20
-22.5863179936307
 10
9.412755314590583
 20
-22.43914697312288
 10
12.60571843791214
 20
-23.35472009324007
 10
12.60571843791214
 20
-22.45072839402132
 97
        0
 75
     0
 76
     1
 52
90.0
 41
0.1
 77
     0
 78
     1
 53
135.0
 43
28.96197063136304
 44
-148.3898599400418
 45
-0.2245064030267288
 46
-0.2245064030267288
 79
     0
 47
0.0134348504236232
 98
        1
 10
10.69169962313054
 20
-22.35266561501487
  0
LINE
  5
9E9
330
99C
100
AcDbEntity
  8
247
100
AcDbLine
 10
12.60571843791211
 20
-23.35472009324007
 30
0.0
 11
9.412755314590583
 21
-22.43914697312288
 31
0.0
  0
LINE
  5
9EA
330
99C
100
AcDbEntity
  8
247
100
AcDbLine
 10
8.968175236465583
 20
-22.45883081101351
 30
0.0
 11
8.968175236465583
 21
-21.40768335007601
 31
0.0
  0
LINE
  5
9EB
330
99C
100
AcDbEntity
  8
247
100
AcDbLine
 10
9.412755314590583
 20
-22.5863179936307
 30
0.0
 11
9.412755314590583
 21
-22.43914697312288
 31
0.0
  0
LINE
  5
9EC
330
99C
100
AcDbEntity
  8
247
100
AcDbLine
 10
9.412755314590583
 20
-22.5863179936307
 30
0.0
 11
8.968175236465583
 21
-22.45883081101351
 31
0.0
  0
ARC
  5
9ED
102
{ACAD_REACTORS
330
9D4
102
}
330
99C
100
AcDbEntity
  8
247
100
AcDbCircle
 10
11.29216510462964
 20
-20.35018823288851
 30
0.0
 40
1.313568115234375
100
AcDbArc
 50
253.9997507017277
 51
34.96387329163082
  0
LINE
  5
9EE
102
{ACAD_REACTORS
330
9D4
102
}
330
99C
100
AcDbEntity
  8
247
100
AcDbLine
 10
10.94861346888745
 20
-20.06246850632601
 30
0.0
 11
10.94861346888745
 21
-19.72610376023226
 31
0.0
  0
ARC
  5
9EF
102
{ACAD_REACTORS
330
9D4
102
}
330
99C
100
AcDbEntity
  8
247
100
AcDbCircle
 10
11.73674518275464
 20
-20.39358422898226
 30
0.0
 40
0.4243830442428589
100
AcDbArc
 50
254.0002730571842
 51
74.00027305718428
  0
LINE
  5
9F0
102
{ACAD_REACTORS
330
9D4
102
}
330
99C
100
AcDbEntity
  8
247
100
AcDbLine
 10
11.85371905970777
 20
-19.98564050339632
 30
0.0
 11
10.94861346888745
 21
-19.72610376023226
 31
0.0
  0
LINE
  5
9F1
102
{ACAD_REACTORS
330
9D4
102
}
330
99C
100
AcDbEntity
  8
247
100
AcDbLine
 10
10.94861346888745
 20
-20.06246850632601
 30
0.0
 11
10.54443866419995
 21
-19.94657800339632
 31
0.0
  0
LINE
  5
9F2
330
99C
100
AcDbEntity
  8
247
100
AcDbLine
 10
12.60571843791211
 20
-23.35472009324007
 30
0.0
 11
12.60571843791211
 21
-22.45072839402132
 31
0.0
  0
POLYLINE
  5
9F3
330
99C
100
AcDbEntity
  8
247
100
AcDb2dPolyline
 66
     1
 10
0.0
 20
0.0
 30
0.0
 70
     1
1001
HATCH_DISTANCE
1040
1.0
1001
HATCH_DISPLAY
1070
     0
1001
HATCH_TYPE
1070
     7
  0
VERTEX
  5
9F4
330
9F3
100
AcDbEntity
  8
247
  6
CONTINUOUS
100
AcDbVertex
100
AcDb2dVertex
 10
9.424290959121833
 20
-18.68253991745888
 30
0.0
  0
VERTEX
  5
9F5
330
9F3
100
AcDbEntity
  8
247
  6
CONTINUOUS
100
AcDbVertex
100
AcDb2dVertex
 10
9.038289372207771
 20
-18.80425927781038
 30
0.0
  0
VERTEX
  5
9F6
330
9F3
100
AcDbEntity
  8
247
  6
CONTINUOUS
100
AcDbVertex
100
AcDb2dVertex
 10
9.038289372207771
 20
-18.80425927781038
 30
0.0
  0
VERTEX
  5
9F7
330
9F3
100
AcDbEntity
  8
247
  6
CONTINUOUS
100
AcDbVertex
100
AcDb2dVertex
 10
9.424290959121833
 20
-18.68253991745888
 30
0.0
  0
SEQEND
  5
9F8
330
9F3
100
AcDbEntity
  8
247
  6
CONTINUOUS
  0
POLYLINE
  5
9F9
330
99C
100
AcDbEntity
  8
247
100
AcDb2dPolyline
 66
     1
 10
0.0
 20
0.0
 30
0.0
 70
     1
  0
VERTEX
  5
9FA
330
9F9
100
AcDbEntity
  8
247
  6
CONTINUOUS
100
AcDbVertex
100
AcDb2dVertex
 10
9.424290959121833
 20
-18.68253991745888
 30
0.0
  0
VERTEX
  5
9FB
330
9F9
100
AcDbEntity
  8
247
  6
CONTINUOUS
100
AcDbVertex
100
AcDb2dVertex
 10
9.038289372207771
 20
-18.80425927781038
 30
0.0
  0
VERTEX
  5
9FC
330
9F9
100
AcDbEntity
  8
247
  6
CONTINUOUS
100
AcDbVertex
100
AcDb2dVertex
 10
9.038289372207771
 20
-18.80425927781038
 30
0.0
  0
VERTEX
  5
9FD
330
9F9
100
AcDbEntity
  8
247
  6
CONTINUOUS
100
AcDbVertex
100
AcDb2dVertex
 10
9.424290959121833
 20
-18.68253991745888
 30
0.0
  0
SEQEND
  5
9FE
330
9F9
100
AcDbEntity
  8
247
  6
CONTINUOUS
  0
POLYLINE
  5
9FF
330
99C
100
AcDbEntity
  8
247
100
AcDb2dPolyline
 66
     1
 10
0.0
 20
0.0
 30
0.0
 70
     1
1001
HATCH_DISTANCE
1040
1.0
1001
HATCH_DISPLAY
1070
     0
1001
HATCH_TYPE
1070
     7
  0
VERTEX
  5
A00
330
9FF
100
AcDbEntity
  8
247
  6
CONTINUOUS
100
AcDbVertex
100
AcDb2dVertex
 10
9.424290959121833
 20
-18.68253991745888
 30
0.0
  0
VERTEX
  5
A01
330
9FF
100
AcDbEntity
  8
247
  6
CONTINUOUS
100
AcDbVertex
100
AcDb2dVertex
 10
9.038289372207771
 20
-18.80425927781038
 30
0.0
  0
VERTEX
  5
A02
330
9FF
100
AcDbEntity
  8
247
  6
CONTINUOUS
100
AcDbVertex
100
AcDb2dVertex
 10
9.038289372207771
 20
-18.80425927781038
 30
0.0
  0
VERTEX
  5
A03
330
9FF
100
AcDbEntity
  8
247
  6
CONTINUOUS
100
AcDbVertex
100
AcDb2dVertex
 10
9.424290959121833
 20
-18.68253991745888
 30
0.0
  0
SEQEND
  5
A04
330
9FF
100
AcDbEntity
  8
247
  6
CONTINUOUS
  0
POLYLINE
  5
A05
330
99C
100
AcDbEntity
  8
247
100
AcDb2dPolyline
 66
     1
 10
0.0
 20
0.0
 30
0.0
 70
     1
  0
VERTEX
  5
A06
330
A05
100
AcDbEntity
  8
247
  6
CONTINUOUS
100
AcDbVertex
100
AcDb2dVertex
 10
9.424290959121833
 20
-18.68253991745888
 30
0.0
  0
VERTEX
  5
A07
330
A05
100
AcDbEntity
  8
247
  6
CONTINUOUS
100
AcDbVertex
100
AcDb2dVertex
 10
9.038289372207771
 20
-18.80425927781038
 30
0.0
  0
VERTEX
  5
A08
330
A05
100
AcDbEntity
  8
247
  6
CONTINUOUS
100
AcDbVertex
100
AcDb2dVertex
 10
9.038289372207771
 20
-18.80425927781038
 30
0.0
  0
VERTEX
  5
A09
330
A05
100
AcDbEntity
  8
247
  6
CONTINUOUS
100
AcDbVertex
100
AcDb2dVertex
 10
9.424290959121833
 20
-18.68253991745888
 30
0.0
  0
SEQEND
  5
A0A
330
A05
100
AcDbEntity
  8
247
  6
CONTINUOUS
  0
LINE
  5
A0B
102
{ACAD_REACTORS
330
9B2
102
}
330
99C
100
AcDbEntity
  8
247
100
AcDbLine
 10
9.424290959121833
 20
-18.68253991745888
 30
0.0
 11
9.038289372207771
 21
-18.80425927781038
 31
0.0
  0
LINE
  5
A0C
102
{ACAD_REACTORS
330
9D4
102
}
330
99C
100
AcDbEntity
  8
247
100
AcDbLine
 10
9.485066715957771
 20
-18.87527368210726
 30
0.0
 11
9.099065129043708
 21
-18.99699304245882
 31
0.0
  0
ARC
  5
A0D
102
{ACAD_REACTORS
330
9D4
102
}
330
99C
100
AcDbEntity
  8
247
100
AcDbCircle
 10
11.09007770228589
 20
-18.26327417038856
 30
0.0
 40
1.717732429504394
100
AcDbArc
 50
200.8721834020736
 51
222.5419489373881
  0
ARC
  5
A0E
102
{ACAD_REACTORS
330
9D4
102
}
330
99C
100
AcDbEntity
  8
247
100
AcDbCircle
 10
11.09007770228589
 20
-18.26327417038856
 30
0.0
 40
2.121903419494628
100
AcDbArc
 50
200.2296450633201
 51
208.5716889237166
  0
LINE
  5
A0F
102
{ACAD_REACTORS
330
9D4
102
}
330
99C
100
AcDbEntity
  8
247
100
AcDbLine
 10
12.60571843791211
 20
-19.36035058640413
 30
0.0
 11
10.54443866419995
 21
-18.76928613327919
 31
0.0
  0
LINE
  5
A10
330
99C
100
AcDbEntity
  8
240
100
AcDbLine
 10
0.0
 20
34.92500000000041
 30
0.0
 11
-100.9443068930717
 21
20.20395524476112
 31
0.0
  0
ARC
  5
A11
330
99C
100
AcDbEntity
  8
240
100
AcDbCircle
 10
-100.8
 20
19.21442226369788
 30
0.0
 40
0.9999999999999818
100
AcDbArc
 50
98.29714496983683
 51
180.0
  0
LINE
  5
A12
330
99C
100
AcDbEntity
  8
240
100
AcDbLine
 10
2.999999999999772
 20
48.69999999999976
 30
0.0
 11
2.999999999999772
 21
34.92500000000035
 31
0.0
  0
LINE
  5
A13
330
99C
100
AcDbEntity
  8
240
100
AcDbLine
 10
0.0
 20
34.92500000000041
 30
0.0
 11
2.999999999999602
 21
34.92500000000046
 31
0.0
  0
ARC
  5
A14
330
99C
100
AcDbEntity
  8
240
100
AcDbCircle
 10
4.300000000000011
 20
48.70000000000039
 30
0.0
 40
1.300000000000011
100
AcDbArc
 50
90.0
 51
180.0
  0
LINE
  5
A15
330
99C
100
AcDbEntity
  8
240
100
AcDbLine
 10
250.0
 20
13.85147186257609
 30
0.0
 11
250.0
 21
0.0
 31
0.0
  0
LINE
  5
A16
330
99C
100
AcDbEntity
  8
241
100
AcDbLine
 10
248.8100505063388
 20
14.50331125827813
 30
0.0
 11
248.8100505063388
 21
-14.70198675496686
 31
0.0
  0
LINE
  5
A17
330
99C
100
AcDbEntity
  8
241
100
AcDbLine
 10
235.0
 20
10.0
 30
0.0
 11
235.0
 21
0.0
 31
0.0
  0
LINE
  5
A18
330
99C
100
AcDbEntity
  8
241
100
AcDbLine
 10
237.85
 20
0.0
 30
0.0
 11
237.85
 21
11.59999999999996
 31
0.0
  0
LINE
  5
A19
330
99C
100
AcDbEntity
  8
241
100
AcDbLine
 10
233.0
 20
11.5
 30
0.0
 11
233.0
 21
0.0
 31
0.0
  0
LINE
  5
A1A
330
99C
100
AcDbEntity
  8
241
100
AcDbLine
 10
237.5
 20
0.0
 30
0.0
 11
237.5
 21
10.5
 31
0.0
  0
LINE
  5
A1B
330
99C
100
AcDbEntity
  8
241
100
AcDbLine
 10
37.99999999999988
 20
29.75000000000005
 30
0.0
 11
37.99999999999994
 21
-29.75000000000005
 31
0.0
  0
LINE
  5
A1C
330
99C
100
AcDbEntity
  8
241
100
AcDbLine
 10
30.69999999999959
 20
-49.99999999999971
 30
0.0
 11
30.69999999999959
 21
49.99999999999943
 31
0.0
  0
LINE
  5
A1D
330
99C
100
AcDbEntity
  8
241
100
AcDbLine
 10
15.69999999999964
 20
-49.99999999999966
 30
0.0
 11
15.69999999999964
 21
49.99999999999943
 31
0.0
  0
LINE
  5
A1E
330
99C
100
AcDbEntity
  8
241
100
AcDbLine
 10
26.45647552145595
 20
42.49999999999943
 30
0.0
 11
26.45647552145595
 21
-42.49999999999966
 31
0.0
  0
LINE
  5
A1F
330
99C
100
AcDbEntity
  8
241
100
AcDbLine
 10
19.94352447854345
 20
42.49999999999943
 30
0.0
 11
19.94352447854345
 21
-42.49999999999966
 31
0.0
  0
LINE
  5
A20
330
99C
100
AcDbEntity
  8
246
100
AcDbLine
 10
198.3999999999999
 20
-5.199999999999988
 30
0.0
 11
209.85
 21
-5.199999999999988
 31
0.0
  0
LINE
  5
A21
330
99C
100
AcDbEntity
  8
246
100
AcDbLine
 10
198.75
 20
-5.5
 30
0.0
 11
209.5
 21
-5.5
 31
0.0
  0
LINE
  5
A22
330
99C
100
AcDbEntity
  8
246
100
AcDbLine
 10
194.0
 20
-2.5
 30
0.0
 11
204.0
 21
-2.5
 31
0.0
  0
LINE
  5
A23
330
99C
100
AcDbEntity
  8
246
100
AcDbLine
 10
194.0
 20
2.5
 30
0.0
 11
204.0
 21
2.5
 31
0.0
  0
LINE
  5
A24
330
99C
100
AcDbEntity
  8
246
100
AcDbLine
 10
198.3999999999999
 20
5.199999999999988
 30
0.0
 11
209.85
 21
5.199999999999988
 31
0.0
  0
LINE
  5
A25
330
99C
100
AcDbEntity
  8
246
100
AcDbLine
 10
198.75
 20
5.5
 30
0.0
 11
209.5
 21
5.5
 31
0.0
  0
LINE
  5
A26
330
99C
100
AcDbEntity
  8
240
100
AcDbLine
 10
53.00000000000003
 20
-14.75
 30
0.0
 11
232.0
 21
-14.75
 31
0.0
  0
ARC
  5
A27
330
99C
100
AcDbEntity
  8
240
100
AcDbCircle
 10
53.00000000000003
 20
-29.75
 30
0.0
 40
15.0
100
AcDbArc
 50
90.0
 51
180.0
  0
LINE
  5
A28
330
99C
100
AcDbEntity
  8
240
100
AcDbLine
 10
30.69999999999959
 20
-49.99999999999971
 30
0.0
 11
36.69999999999964
 21
-49.99999999999977
 31
0.0
  0
LINE
  5
A29
330
99C
100
AcDbEntity
  8
243
100
AcDbLine
 10
33.99999999999994
 20
-35.30000000000012
 30
0.0
 11
34.0
 21
-49.99999999999971
 31
0.0
  0
LINE
  5
A2A
330
99C
100
AcDbEntity
  8
240
100
AcDbLine
 10
26.19666790032062
 20
-42.49999999999966
 30
0.0
 11
20.20333209967879
 21
-42.49999999999966
 31
0.0
  0
LINE
  5
A2B
330
99C
100
AcDbEntity
  8
240
100
AcDbLine
 10
19.94352447854345
 20
-42.64999999999964
 30
0.0
 11
15.69999999999964
 21
-49.99999999999966
 31
0.0
  0
ARC
  5
A2C
330
99C
100
AcDbEntity
  8
240
100
AcDbCircle
 10
20.20333209967873
 20
-42.79999999999967
 30
0.0
 40
0.3000000000000114
100
AcDbArc
 50
89.99999999998861
 51
149.9999999999885
  0
LINE
  5
A2D
330
99C
100
AcDbEntity
  8
240
100
AcDbLine
 10
26.45647552145595
 20
-42.64999999999969
 30
0.0
 11
30.69999999999959
 21
-49.99999999999971
 31
0.0
  0
ARC
  5
A2E
330
99C
100
AcDbEntity
  8
240
100
AcDbCircle
 10
26.19666790032056
 20
-42.79999999999967
 30
0.0
 40
0.3000000000000428
100
AcDbArc
 50
29.99999999999246
 51
89.99999999998861
  0
LINE
  5
A2F
330
99C
100
AcDbEntity
  8
240
100
AcDbLine
 10
38.0
 20
-48.7000000000001
 30
0.0
 11
38.00000000000002
 21
-29.75
 31
0.0
  0
ARC
  5
A30
330
99C
100
AcDbEntity
  8
240
100
AcDbCircle
 10
36.69999999999999
 20
-48.7000000000001
 30
0.0
 40
1.300000000000011
100
AcDbArc
 50
270.0
 51
0.0
  0
LINE
  5
A31
330
99C
100
AcDbEntity
  8
246
100
AcDbLine
 10
194.0
 20
3.75
 30
0.0
 11
194.0
 21
-3.75
 31
0.0
  0
LINE
  5
A32
330
99C
100
AcDbEntity
  8
246
100
AcDbLine
 10
195.0
 20
-4.75
 30
0.0
 11
198.0
 21
-4.75
 31
0.0
  0
ARC
  5
A33
330
99C
100
AcDbEntity
  8
246
100
AcDbCircle
 10
195.0
 20
-3.75
 30
0.0
 40
1.0
100
AcDbArc
 50
180.0
 51
270.0
  0
LINE
  5
A34
330
99C
100
AcDbEntity
  8
246
100
AcDbLine
 10
198.0
 20
-4.75
 30
0.0
 11
198.75
 21
-5.5
 31
0.0
  0
LINE
  5
A35
330
99C
100
AcDbEntity
  8
246
100
AcDbLine
 10
198.0
 20
4.75
 30
0.0
 11
198.75
 21
5.5
 31
0.0
  0
LINE
  5
A36
330
99C
100
AcDbEntity
  8
246
100
AcDbLine
 10
195.0
 20
4.75
 30
0.0
 11
198.0
 21
4.75
 31
0.0
  0
ARC
  5
A37
330
99C
100
AcDbEntity
  8
246
100
AcDbCircle
 10
195.0
 20
3.75
 30
0.0
 40
1.0
100
AcDbArc
 50
90.0
 51
180.0
  0
LINE
  5
A38
330
99C
100
AcDbEntity
  8
246
100
AcDbLine
 10
245.3999999999999
 20
7.0
 30
0.0
 11
247.5
 21
7.0
 31
0.0
  0
LINE
  5
A39
330
99C
100
AcDbEntity
  8
241
100
AcDbLine
 10
245.5
 20
1.5
 30
0.0
 11
237.85
 21
1.5
 31
0.0
  0
LINE
  5
A3A
330
99C
100
AcDbEntity
  8
246
100
AcDbLine
 10
245.3999999999999
 20
-7.0
 30
0.0
 11
247.5
 21
-7.0
 31
0.0
  0
LINE
  5
A3B
330
99C
100
AcDbEntity
  8
241
100
AcDbLine
 10
245.5
 20
-1.5
 30
0.0
 11
237.85
 21
-1.5
 31
0.0
  0
LINE
  5
A3C
330
99C
100
AcDbEntity
  8
240
100
AcDbLine
 10
238.5499999999999
 20
-15.0
 30
0.0
 11
248.8100505063388
 21
-15.0
 31
0.0
  0
LINE
  5
A3D
330
99C
100
AcDbEntity
  8
241
100
AcDbLine
 10
245.5
 20
-12.17526595471065
 30
0.0
 11
237.85
 21
-12.17526595471065
 31
0.0
  0
LINE
  5
A3E
330
99C
100
AcDbEntity
  8
241
100
AcDbLine
 10
245.5
 20
-13.67526595471059
 30
0.0
 11
237.85
 21
-13.67526595471059
 31
0.0
  0
LINE
  5
A3F
330
99C
100
AcDbEntity
  8
246
100
AcDbLine
 10
223.0
 20
-5.0
 30
0.0
 11
250.0
 21
-5.0
 31
0.0
  0
LINE
  5
A40
330
99C
100
AcDbEntity
  8
246
100
AcDbLine
 10
223.0
 20
5.0
 30
0.0
 11
250.0
 21
5.0
 31
0.0
  0
LINE
  5
A41
330
99C
100
AcDbEntity
  8
246
100
AcDbLine
 10
210.0
 20
5.0
 30
0.0
 11
210.0
 21
-5.0
 31
0.0
  0
LINE
  5
A42
330
99C
100
AcDbEntity
  8
246
100
AcDbLine
 10
204.443375672974
 20
-1.732050807568896
 30
0.0
 11
204.4433756729741
 21
1.732050807568896
 31
0.0
  0
LINE
  5
A43
330
99C
100
AcDbEntity
  8
246
100
AcDbLine
 10
206.9820508075689
 20
-1.732050807568896
 30
0.0
 11
206.9820508075689
 21
1.732050807568896
 31
0.0
  0
LINE
  5
A44
330
99C
100
AcDbEntity
  8
246
100
AcDbLine
 10
206.9820508075688
 20
-0.8660254037844197
 30
0.0
 11
204.443375672974
 21
-0.8660254037844197
 31
0.0
  0
LINE
  5
A45
330
99C
100
AcDbEntity
  8
246
100
AcDbLine
 10
206.9820508075688
 20
0.8660254037844197
 30
0.0
 11
204.443375672974
 21
0.8660254037844197
 31
0.0
  0
LINE
  5
A46
330
99C
100
AcDbEntity
  8
246
100
AcDbLine
 10
206.9820508075688
 20
-1.732050807568896
 30
0.0
 11
204.443375672974
 21
-1.732050807568896
 31
0.0
  0
LINE
  5
A47
330
99C
100
AcDbEntity
  8
246
100
AcDbLine
 10
204.443375672974
 20
-1.732050807568896
 30
0.0
 11
204.0
 21
-2.5
 31
0.0
  0
LINE
  5
A48
330
99C
100
AcDbEntity
  8
246
100
AcDbLine
 10
204.0
 20
-1.332132938627296
 30
0.0
 11
204.0
 21
-2.5
 31
0.0
  0
LINE
  5
A49
330
99C
100
AcDbEntity
  8
246
100
AcDbLine
 10
206.9820508075688
 20
-1.732050807568896
 30
0.0
 11
210.0
 21
-4.750000000000056
 31
0.0
  0
LINE
  5
A4A
330
99C
100
AcDbEntity
  8
246
100
AcDbLine
 10
209.5
 20
-5.5
 30
0.0
 11
210.0
 21
-5.0
 31
0.0
  0
LINE
  5
A4B
330
99C
100
AcDbEntity
  8
246
100
AcDbLine
 10
206.9820508075688
 20
1.732050807568896
 30
0.0
 11
204.443375672974
 21
1.732050807568896
 31
0.0
  0
LINE
  5
A4C
330
99C
100
AcDbEntity
  8
246
100
AcDbLine
 10
204.443375672974
 20
1.732050807568896
 30
0.0
 11
204.0
 21
2.5
 31
0.0
  0
LINE
  5
A4D
330
99C
100
AcDbEntity
  8
246
100
AcDbLine
 10
204.0
 20
1.332132938627296
 30
0.0
 11
204.0
 21
2.5
 31
0.0
  0
LINE
  5
A4E
330
99C
100
AcDbEntity
  8
246
100
AcDbLine
 10
210.0
 20
5.0
 30
0.0
 11
209.5
 21
5.5
 31
0.0
  0
LINE
  5
A4F
330
99C
100
AcDbEntity
  8
246
100
AcDbLine
 10
206.9820508075688
 20
1.732050807568896
 30
0.0
 11
210.0
 21
4.750000000000056
 31
0.0
  0
LINE
  5
A50
330
99C
100
AcDbEntity
  8
241
100
AcDbLine
 10
237.85
 20
0.0
 30
0.0
 11
237.85
 21
-11.60000000000002
 31
0.0
  0
LINE
  5
A51
330
99C
100
AcDbEntity
  8
241
100
AcDbLine
 10
233.0
 20
-11.5
 30
0.0
 11
233.0
 21
0.0
 31
0.0
  0
LINE
  5
A52
330
99C
100
AcDbEntity
  8
241
100
AcDbLine
 10
235.0
 20
-10.0
 30
0.0
 11
235.0
 21
0.0
 31
0.0
  0
LINE
  5
A53
330
99C
100
AcDbEntity
  8
241
100
AcDbLine
 10
237.5
 20
0.0
 30
0.0
 11
237.5
 21
-10.5
 31
0.0
  0
LINE
  5
A54
330
99C
100
AcDbEntity
  8
246
100
AcDbLine
 10
245.3999999999999
 20
-7.0
 30
0.0
 11
245.3999999999999
 21
-8.25
 31
0.0
  0
LINE
  5
A55
330
99C
100
AcDbEntity
  8
246
100
AcDbLine
 10
245.3999999999999
 20
-8.25
 30
0.0
 11
223.0
 21
-5.895665130048826
 31
0.0
  0
ARC
  5
A56
330
99C
100
AcDbEntity
  8
240
100
AcDbCircle
 10
234.0
 20
-11.5
 30
0.0
 40
1.0
100
AcDbArc
 50
90.0
 51
180.0
  0
LINE
  5
A57
330
99C
100
AcDbEntity
  8
240
100
AcDbLine
 10
233.0
 20
-13.75
 30
0.0
 11
233.0
 21
-11.5
 31
0.0
  0
ARC
  5
A58
330
99C
100
AcDbEntity
  8
240
100
AcDbCircle
 10
232.0
 20
-13.75
 30
0.0
 40
1.0
100
AcDbArc
 50
270.0
 51
0.0
  0
LINE
  5
A59
330
99C
100
AcDbEntity
  8
240
100
AcDbLine
 10
237.5
 20
-11.25
 30
0.0
 11
237.85
 21
-11.60000000000002
 31
0.0
  0
ARC
  5
A5A
330
99C
100
AcDbEntity
  8
240
100
AcDbCircle
 10
238.5499999999999
 20
-14.30000000000001
 30
0.0
 40
0.6999999999999887
100
AcDbArc
 50
180.0
 51
270.0
  0
LINE
  5
A5B
330
99C
100
AcDbEntity
  8
240
100
AcDbLine
 10
237.85
 20
-14.30000000000001
 30
0.0
 11
237.85
 21
-11.60000000000002
 31
0.0
  0
LINE
  5
A5C
330
99C
100
AcDbEntity
  8
242
100
AcDbLine
 10
237.5
 20
-10.0
 30
0.0
 11
235.0
 21
-10.0
 31
0.0
  0
LINE
  5
A5D
330
99C
100
AcDbEntity
  8
240
100
AcDbLine
 10
234.0
 20
-10.5
 30
0.0
 11
237.5
 21
-10.5
 31
0.0
  0
LINE
  5
A5E
330
99C
100
AcDbEntity
  8
242
100
AcDbLine
 10
235.0
 20
-10.0
 30
0.0
 11
234.5000000000001
 21
-10.5
 31
0.0
  0
LINE
  5
A5F
330
99C
100
AcDbEntity
  8
240
100
AcDbLine
 10
237.5
 20
-10.5
 30
0.0
 11
237.5
 21
-11.25
 31
0.0
  0
LINE
  5
A60
330
99C
100
AcDbEntity
  8
246
100
AcDbLine
 10
223.0
 20
5.866415294686476
 30
0.0
 11
245.3999999999999
 21
8.25
 31
0.0
  0
LINE
  5
A61
330
99C
100
AcDbEntity
  8
246
100
AcDbLine
 10
222.9999999999996
 20
5.866415294686191
 30
0.0
 11
223.000000000001
 21
-5.895665130049337
 31
0.0
  0
LINE
  5
A62
330
99C
100
AcDbEntity
  8
246
100
AcDbLine
 10
245.3999999999999
 20
7.0
 30
0.0
 11
245.3999999999999
 21
8.25
 31
0.0
  0
LINE
  5
A63
330
99C
100
AcDbEntity
  8
240
100
AcDbLine
 10
250.0
 20
-13.85147186257609
 30
0.0
 11
250.0
 21
0.0
 31
0.0
  0
LINE
  5
A64
330
99C
100
AcDbEntity
  8
246
100
AcDbLine
 10
247.5
 20
-8.25
 30
0.0
 11
247.5
 21
-7.0
 31
0.0
  0
LINE
  5
A65
330
99C
100
AcDbEntity
  8
246
100
AcDbLine
 10
250.0
 20
-6.922094380863825
 30
0.0
 11
247.7
 21
-8.25
 31
0.0
  0
LINE
  5
A66
330
99C
100
AcDbEntity
  8
241
100
AcDbLine
 10
245.5
 20
-12.17526595471065
 30
0.0
 11
245.5
 21
-13.67526595471059
 31
0.0
  0
LINE
  5
A67
330
99C
100
AcDbEntity
  8
240
100
AcDbLine
 10
249.3050252531693
 20
-14.79497474683057
 30
0.0
 11
249.8242640687119
 21
-14.27573593128806
 31
0.0
  0
ARC
  5
A68
330
99C
100
AcDbEntity
  8
240
100
AcDbCircle
 10
249.3999999999999
 20
-13.85147186257609
 30
0.0
 40
0.6000000000000089
100
AcDbArc
 50
315.0
 51
0.0
  0
ARC
  5
A69
330
99C
100
AcDbEntity
  8
240
100
AcDbCircle
 10
248.8100505063388
 20
-14.30000000000001
 30
0.0
 40
0.7000000000000029
100
AcDbArc
 50
270.0
 51
315.0
  0
LINE
  5
A6A
330
99C
100
AcDbEntity
  8
246
100
AcDbLine
 10
247.5
 20
-8.25
 30
0.0
 11
247.7
 21
-8.25
 31
0.0
  0
LINE
  5
A6B
330
99C
100
AcDbEntity
  8
241
100
AcDbLine
 10
245.5
 20
1.5
 30
0.0
 11
245.5
 21
0.0
 31
0.0
  0
LINE
  5
A6C
330
99C
100
AcDbEntity
  8
241
100
AcDbLine
 10
245.5
 20
-1.5
 30
0.0
 11
245.5
 21
0.0
 31
0.0
  0
LINE
  5
A6D
330
99C
100
AcDbEntity
  8
246
100
AcDbLine
 10
250.0
 20
6.922094380863825
 30
0.0
 11
247.7
 21
8.25
 31
0.0
  0
LINE
  5
A6E
330
99C
100
AcDbEntity
  8
246
100
AcDbLine
 10
247.5
 20
8.25
 30
0.0
 11
247.5
 21
7.0
 31
0.0
  0
LINE
  5
A6F
330
99C
100
AcDbEntity
  8
246
100
AcDbLine
 10
247.5
 20
8.25
 30
0.0
 11
247.7
 21
8.25
 31
0.0
  0
LINE
  5
A70
330
99C
100
AcDbEntity
  8
240
100
AcDbLine
 10
53.00000000000011
 20
14.75000000000005
 30
0.0
 11
232.0
 21
14.75
 31
0.0
  0
LINE
  5
A71
330
99C
100
AcDbEntity
  8
240
100
AcDbLine
 10
38.00000000000017
 20
48.7000000000001
 30
0.0
 11
38.00000000000011
 21
29.75000000000011
 31
0.0
  0
LINE
  5
A72
330
99C
100
AcDbEntity
  8
243
100
AcDbLine
 10
33.99999999999994
 20
35.2999999999999
 30
0.0
 11
34.0
 21
49.99999999999949
 31
0.0
  0
ARC
  5
A73
330
99C
100
AcDbEntity
  8
240
100
AcDbCircle
 10
53.00000000000011
 20
29.75000000000005
 30
0.0
 40
15.0
100
AcDbArc
 50
180.0
 51
270.0
  0
LINE
  5
A74
330
99C
100
AcDbEntity
  8
240
100
AcDbLine
 10
30.69999999999959
 20
49.99999999999949
 30
0.0
 11
36.69999999999964
 21
49.99999999999954
 31
0.0
  0
LINE
  5
A75
330
99C
100
AcDbEntity
  8
240
100
AcDbLine
 10
26.19666790032062
 20
42.49999999999943
 30
0.0
 11
20.20333209967879
 21
42.49999999999943
 31
0.0
  0
LINE
  5
A76
330
99C
100
AcDbEntity
  8
240
100
AcDbLine
 10
19.94352447854345
 20
42.64999999999941
 30
0.0
 11
15.69999999999964
 21
49.99999999999943
 31
0.0
  0
ARC
  5
A77
330
99C
100
AcDbEntity
  8
240
100
AcDbCircle
 10
20.20333209967873
 20
42.79999999999944
 30
0.0
 40
0.2999999999999727
100
AcDbArc
 50
210.0000000000114
 51
270.0000000000114
  0
LINE
  5
A78
330
99C
100
AcDbEntity
  8
240
100
AcDbLine
 10
26.45647552145595
 20
42.64999999999946
 30
0.0
 11
30.69999999999959
 21
49.99999999999949
 31
0.0
  0
ARC
  5
A79
330
99C
100
AcDbEntity
  8
240
100
AcDbCircle
 10
26.19666790032056
 20
42.79999999999944
 30
0.0
 40
0.3000000000000114
100
AcDbArc
 50
270.0000000000114
 51
330.0000000000075
  0
ARC
  5
A7A
330
99C
100
AcDbEntity
  8
240
100
AcDbCircle
 10
36.69999999999999
 20
48.69999999999987
 30
0.0
 40
1.300000000000011
100
AcDbArc
 50
0.0
 51
90.0
  0
LINE
  5
A7B
330
99C
100
AcDbEntity
  8
241
100
AcDbLine
 10
245.5
 20
12.17526595471059
 30
0.0
 11
237.85
 21
12.17526595471059
 31
0.0
  0
LINE
  5
A7C
330
99C
100
AcDbEntity
  8
240
100
AcDbLine
 10
238.5499999999999
 20
15.0
 30
0.0
 11
248.8100505063388
 21
15.0
 31
0.0
  0
LINE
  5
A7D
330
99C
100
AcDbEntity
  8
241
100
AcDbLine
 10
245.5
 20
13.67526595471059
 30
0.0
 11
237.85
 21
13.67526595471059
 31
0.0
  0
ARC
  5
A7E
330
99C
100
AcDbEntity
  8
240
100
AcDbCircle
 10
234.0
 20
11.5
 30
0.0
 40
1.0
100
AcDbArc
 50
180.0
 51
270.0
  0
LINE
  5
A7F
330
99C
100
AcDbEntity
  8
240
100
AcDbLine
 10
233.0
 20
13.75
 30
0.0
 11
233.0
 21
11.5
 31
0.0
  0
ARC
  5
A80
330
99C
100
AcDbEntity
  8
240
100
AcDbCircle
 10
232.0
 20
13.75
 30
0.0
 40
1.0
100
AcDbArc
 50
0.0
 51
90.0
  0
LINE
  5
A81
330
99C
100
AcDbEntity
  8
240
100
AcDbLine
 10
237.85
 20
14.30000000000001
 30
0.0
 11
237.85
 21
11.59999999999996
 31
0.0
  0
LINE
  5
A82
330
99C
100
AcDbEntity
  8
242
100
AcDbLine
 10
237.5
 20
10.0
 30
0.0
 11
235.0
 21
10.0
 31
0.0
  0
LINE
  5
A83
330
99C
100
AcDbEntity
  8
240
100
AcDbLine
 10
234.0
 20
10.5
 30
0.0
 11
237.5
 21
10.5
 31
0.0
  0
LINE
  5
A84
330
99C
100
AcDbEntity
  8
242
100
AcDbLine
 10
235.0
 20
10.0
 30
0.0
 11
234.5000000000001
 21
10.5
 31
0.0
  0
LINE
  5
A85
330
99C
100
AcDbEntity
  8
240
100
AcDbLine
 10
237.5
 20
10.5
 30
0.0
 11
237.5
 21
11.25
 31
0.0
  0
LINE
  5
A86
330
99C
100
AcDbEntity
  8
240
100
AcDbLine
 10
237.5
 20
11.25
 30
0.0
 11
237.85
 21
11.59999999999996
 31
0.0
  0
ARC
  5
A87
330
99C
100
AcDbEntity
  8
240
100
AcDbCircle
 10
238.5499999999999
 20
14.30000000000001
 30
0.0
 40
0.6999999999999887
100
AcDbArc
 50
90.0
 51
180.0
  0
LINE
  5
A88
330
99C
100
AcDbEntity
  8
241
100
AcDbLine
 10
245.5
 20
12.17526595471059
 30
0.0
 11
245.5
 21
13.67526595471059
 31
0.0
  0
LINE
  5
A89
330
99C
100
AcDbEntity
  8
240
100
AcDbLine
 10
249.8242640687119
 20
14.27573593128806
 30
0.0
 11
249.3050252531693
 21
14.79497474683057
 31
0.0
  0
ARC
  5
A8A
330
99C
100
AcDbEntity
  8
240
100
AcDbCircle
 10
249.3999999999999
 20
13.85147186257609
 30
0.0
 40
0.5999999999999944
100
AcDbArc
 50
0.0
 51
45.0
  0
ARC
  5
A8B
330
99C
100
AcDbEntity
  8
240
100
AcDbCircle
 10
248.8100505063388
 20
14.30000000000001
 30
0.0
 40
0.7000000000000137
100
AcDbArc
 50
45.0
 51
90.0
  0
ENDBLK
  5
A8D
330
99C
100
AcDbEntity
  8
0
100
AcDbBlockEnd
  0
BLOCK
  5
BD7
330
BCD
100
AcDbEntity
  8
0
100
AcDbBlockBegin
  2
*D2
 70
     1
 10
0.0
 20
0.0
 30
0.0
  3
*D2
  1

  0
LINE
  5
C15
330
BCD
100
AcDbEntity
  8
250
  6
CONTINUOUS
100
AcDbLine
 10
0.0
 20
35.42500000000041
 30
0.0
 11
0.0000000000000022
 21
71.0
 31
0.0
  0
LINE
  5
C16
330
BCD
100
AcDbEntity
  8
250
  6
CONTINUOUS
100
AcDbLine
 10
250.0
 20
9.592893218813401
 30
0.0
 11
250.0
 21
71.0
 31
0.0
  0
LINE
  5
C17
330
BCD
100
AcDbEntity
  8
250
  6
CONTINUOUS
100
AcDbLine
 10
2.230000000000002
 20
70.0
 30
0.0
 11
247.77
 21
70.0
 31
0.0
  0
INSERT
  5
C18
330
BCD
100
AcDbEntity
  8
250
  6
CONTINUOUS
100
AcDbBlockReference
  2
_OPEN
 10
0.0000000000000021
 20
70.0
 30
0.0
 41
2.229999999999999
 42
2.229999999999999
 43
2.229999999999999
 50
180.0
  0
INSERT
  5
C19
330
BCD
100
AcDbEntity
  8
250
  6
CONTINUOUS
100
AcDbBlockReference
  2
_OPEN
 10
250.0
 20
70.0
 30
0.0
 41
2.229999999999999
 42
2.229999999999999
 43
2.229999999999999
  0
MTEXT
  5
C1A
330
BCD
100
AcDbEntity
  8
250
  6
CONTINUOUS
 62
    40
100
AcDbMText
 10
125.0
 20
72.5
 30
0.0
 40
3.0
 41
0.0
 71
     5
 72
     1
  1
\A1;250
1001
ACAD
1000
MTEXTBEGIN
1070
    73
1070
     1
1070
    44
1040
1.0
1070
    74
1070
     0
1000
MTEXTEND
  0
POINT
  5
C1B
330
BCD
100
AcDbEntity
  8
DEFPOINTS
  6
CONTINUOUS
 62
     0
100
AcDbPoint
 10
0.0
 20
34.92500000000041
 30
0.0
  0
POINT
  5
C1C
330
BCD
100
AcDbEntity
  8
DEFPOINTS
  6
CONTINUOUS
 62
     0
100
AcDbPoint
 10
250.0
 20
9.092893218813401
 30
0.0
  0
POINT
  5
C1D
330
BCD
100
AcDbEntity
  8
DEFPOINTS
  6
CONTINUOUS
 62
     0
100
AcDbPoint
 10
250.0
 20
70.0
 30
0.0
  0
ENDBLK
  5
BD8
330
BCD
100
AcDbEntity
  8
0
100
AcDbBlockEnd
  0
BLOCK
  5
BE3
330
BD9
100
AcDbEntity
  8
0
100
AcDbBlockBegin
  2
*D3
 70
     1
 10
0.0
 20
0.0
 30
0.0
  3
*D3
  1

  0
LINE
  5
C1E
330
BD9
100
AcDbEntity
  8
250
  6
CONTINUOUS
100
AcDbLine
 10
38.00000000000017
 20
49.2000000000001
 30
0.0
 11
38.00000000000017
 21
64.0
 31
0.0
  0
LINE
  5
C1F
330
BD9
100
AcDbEntity
  8
250
  6
CONTINUOUS
100
AcDbLine
 10
250.0
 20
9.592893218813401
 30
0.0
 11
250.0
 21
64.0
 31
0.0
  0
LINE
  5
C20
330
BD9
100
AcDbEntity
  8
250
  6
CONTINUOUS
100
AcDbLine
 10
40.23000000000016
 20
63.0
 30
0.0
 11
247.77
 21
63.0
 31
0.0
  0
INSERT
  5
C21
330
BD9
100
AcDbEntity
  8
250
  6
CONTINUOUS
100
AcDbBlockReference
  2
_OPEN
 10
38.00000000000017
 20
63.0
 30
0.0
 41
2.229999999999999
 42
2.229999999999999
 43
2.229999999999999
 50
180.0
  0
INSERT
  5
C22
330
BD9
100
AcDbEntity
  8
250
  6
CONTINUOUS
100
AcDbBlockReference
  2
_OPEN
 10
250.0
 20
63.0
 30
0.0
 41
2.229999999999999
 42
2.229999999999999
 43
2.229999999999999
  0
MTEXT
  5
C23
330
BD9
100
AcDbEntity
  8
250
  6
CONTINUOUS
 62
    40
100
AcDbMText
 10
144.0
 20
65.5
 30
0.0
 40
3.0
 41
0.0
 71
     5
 72
     1
  1
\A1;212
1001
ACAD
1000
MTEXTBEGIN
1070
    73
1070
     1
1070
    44
1040
1.0
1070
    74
1070
     0
1000
MTEXTEND
  0
POINT
  5
C24
330
BD9
100
AcDbEntity
  8
DEFPOINTS
  6
CONTINUOUS
 62
     0
100
AcDbPoint
 10
38.00000000000017
 20
48.7000000000001
 30
0.0
  0
POINT
  5
C25
330
BD9
100
AcDbEntity
  8
DEFPOINTS
  6
CONTINUOUS
 62
     0
100
AcDbPoint
 10
250.0
 20
9.092893218813401
 30
0.0
  0
POINT
  5
C26
330
BD9
100
AcDbEntity
  8
DEFPOINTS
  6
CONTINUOUS
 62
     0
100
AcDbPoint
 10
250.0
 20
63.0
 30
0.0
  0
ENDBLK
  5
BE4
330
BD9
100
AcDbEntity
  8
0
100
AcDbBlockEnd
  0
BLOCK
  5
BEF
330
BE5
100
AcDbEntity
  8
0
100
AcDbBlockBegin
  2
*D4
 70
     1
 10
0.0
 20
0.0
 30
0.0
  3
*D4
  1

  0
LINE
  5
C27
330
BE5
100
AcDbEntity
  8
250
  6
CONTINUOUS
100
AcDbLine
 10
0.0
 20
35.42500000000041
 30
0.0
 11
0.0000000000000018
 21
64.0
 31
0.0
  0
LINE
  5
C28
330
BE5
100
AcDbEntity
  8
250
  6
CONTINUOUS
100
AcDbLine
 10
38.00000000000017
 20
49.2000000000001
 30
0.0
 11
38.00000000000017
 21
64.0
 31
0.0
  0
LINE
  5
C29
330
BE5
100
AcDbEntity
  8
250
  6
CONTINUOUS
100
AcDbLine
 10
2.230000000000001
 20
63.0
 30
0.0
 11
35.77000000000017
 21
63.0
 31
0.0
  0
INSERT
  5
C2A
330
BE5
100
AcDbEntity
  8
250
  6
CONTINUOUS
100
AcDbBlockReference
  2
_OPEN
 10
0.0000000000000017
 20
63.0
 30
0.0
 41
2.229999999999999
 42
2.229999999999999
 43
2.229999999999999
 50
180.0
  0
INSERT
  5
C2B
330
BE5
100
AcDbEntity
  8
250
  6
CONTINUOUS
100
AcDbBlockReference
  2
_OPEN
 10
38.00000000000017
 20
63.0
 30
0.0
 41
2.229999999999999
 42
2.229999999999999
 43
2.229999999999999
  0
MTEXT
  5
C2C
330
BE5
100
AcDbEntity
  8
250
  6
CONTINUOUS
 62
    40
100
AcDbMText
 10
19.00000000000009
 20
65.5
 30
0.0
 40
3.0
 41
0.0
 71
     5
 72
     1
  1
\A1;38
1001
ACAD
1000
MTEXTBEGIN
1070
    73
1070
     1
1070
    44
1040
1.0
1070
    74
1070
     0
1000
MTEXTEND
  0
POINT
  5
C2D
330
BE5
100
AcDbEntity
  8
DEFPOINTS
  6
CONTINUOUS
 62
     0
100
AcDbPoint
 10
0.0
 20
34.92500000000041
 30
0.0
  0
POINT
  5
C2E
330
BE5
100
AcDbEntity
  8
DEFPOINTS
  6
CONTINUOUS
 62
     0
100
AcDbPoint
 10
38.00000000000017
 20
48.7000000000001
 30
0.0
  0
POINT
  5
C2F
330
BE5
100
AcDbEntity
  8
DEFPOINTS
  6
CONTINUOUS
 62
     0
100
AcDbPoint
 10
38.00000000000017
 20
63.0
 30
0.0
  0
ENDBLK
  5
BF0
330
BE5
100
AcDbEntity
  8
0
100
AcDbBlockEnd
  0
BLOCK
  5
BFB
330
BF1
100
AcDbEntity
  8
0
100
AcDbBlockBegin
  2
*D5
 70
     1
 10
0.0
 20
0.0
 30
0.0
  3
*D5
  1

  0
LINE
  5
C7B
330
BF1
100
AcDbEntity
  8
250
  6
CONTINUOUS
100
AcDbLine
 10
250.4999999999999
 20
-5.0
 30
0.0
 11
267.0
 21
-5.000000000000005
 31
0.0
  0
LINE
  5
C7C
330
BF1
100
AcDbEntity
  8
250
  6
CONTINUOUS
100
AcDbLine
 10
250.4999999999999
 20
4.999999999999999
 30
0.0
 11
267.0
 21
4.999999999999994
 31
0.0
  0
LINE
  5
C7D
330
BF1
100
AcDbEntity
  8
250
  6
CONTINUOUS
100
AcDbLine
 10
266.0
 20
-2.770000000000004
 30
0.0
 11
266.0
 21
2.769999999999995
 31
0.0
  0
MTEXT
  5
C7E
330
BF1
100
AcDbEntity
  8
250
  6
CONTINUOUS
 62
    40
100
AcDbMText
 10
263.3348787143322
 20
5.596851958649267
 30
0.0
 40
3.0
 41
0.0
 71
     5
 72
     1
  1
\A1;MAX.%%c10
 11
0.0000000000000001
 21
1.0
 31
0.0
  0
INSERT
  5
C7F
330
BF1
100
AcDbEntity
  8
250
  6
CONTINUOUS
100
AcDbBlockReference
  2
_OPEN
 10
266.0
 20
-5.000000000000005
 30
0.0
 41
2.229999999999999
 42
2.229999999999999
 43
2.229999999999999
 50
270.0
  0
INSERT
  5
C80
330
BF1
100
AcDbEntity
  8
250
  6
CONTINUOUS
100
AcDbBlockReference
  2
_OPEN
 10
266.0
 20
4.999999999999994
 30
0.0
 41
2.229999999999999
 42
2.229999999999999
 43
2.229999999999999
 50
90.0
  0
POINT
  5
C81
330
BF1
100
AcDbEntity
  8
DEFPOINTS
  6
CONTINUOUS
 62
     0
100
AcDbPoint
 10
250.0
 20
-5.0
 30
0.0
  0
POINT
  5
C82
330
BF1
100
AcDbEntity
  8
DEFPOINTS
  6
CONTINUOUS
 62
     0
100
AcDbPoint
 10
250.0
 20
5.0
 30
0.0
  0
POINT
  5
C83
330
BF1
100
AcDbEntity
  8
DEFPOINTS
  6
CONTINUOUS
 62
     0
100
AcDbPoint
 10
266.0
 20
4.999999999999994
 30
0.0
  0
ENDBLK
  5
BFC
330
BF1
100
AcDbEntity
  8
0
100
AcDbBlockEnd
  0
BLOCK
  5
C07
330
BFD
100
AcDbEntity
  8
0
100
AcDbBlockBegin
  2
*D6
 70
     1
 10
0.0
 20
0.0
 30
0.0
  3
*D6
  1

  0
LINE
  5
C39
330
BFD
100
AcDbEntity
  8
250
  6
CONTINUOUS
100
AcDbLine
 10
249.3100505063388
 20
-15.0
 30
0.0
 11
274.0
 21
-15.0
 31
0.0
  0
LINE
  5
C3A
330
BFD
100
AcDbEntity
  8
250
  6
CONTINUOUS
100
AcDbLine
 10
249.3100505063388
 20
15.0
 30
0.0
 11
274.0
 21
14.99999999999999
 31
0.0
  0
LINE
  5
C3B
330
BFD
100
AcDbEntity
  8
250
  6
CONTINUOUS
100
AcDbLine
 10
273.0
 20
-12.77
 30
0.0
 11
273.0
 21
12.76999999999999
 31
0.0
  0
INSERT
  5
C3C
330
BFD
100
AcDbEntity
  8
250
  6
CONTINUOUS
100
AcDbBlockReference
  2
_OPEN
 10
273.0
 20
-15.0
 30
0.0
 41
2.229999999999999
 42
2.229999999999999
 43
2.229999999999999
 50
270.0
  0
INSERT
  5
C3D
330
BFD
100
AcDbEntity
  8
250
  6
CONTINUOUS
100
AcDbBlockReference
  2
_OPEN
 10
273.0
 20
14.99999999999999
 30
0.0
 41
2.229999999999999
 42
2.229999999999999
 43
2.229999999999999
 50
90.0
  0
MTEXT
  5
C3E
330
BFD
100
AcDbEntity
  8
250
  6
CONTINUOUS
 62
    40
100
AcDbMText
 10
270.5
 20
0.0000000000000369
 30
0.0
 40
3.0
 41
0.0
 71
     5
 72
     1
  1
\A1;{\H3;\U+2205}30
 11
0.0000000000000001
 21
1.0
 31
0.0
1001
ACAD
1000
MTEXTBEGIN
1070
    73
1070
     1
1070
    44
1040
1.0
1070
    74
1070
     0
1000
MTEXTEND
  0
POINT
  5
C3F
330
BFD
100
AcDbEntity
  8
DEFPOINTS
  6
CONTINUOUS
 62
     0
100
AcDbPoint
 10
248.8100505063388
 20
-15.0
 30
0.0
  0
POINT
  5
C40
330
BFD
100
AcDbEntity
  8
DEFPOINTS
  6
CONTINUOUS
 62
     0
100
AcDbPoint
 10
248.8100505063388
 20
15.0
 30
0.0
  0
POINT
  5
C41
330
BFD
100
AcDbEntity
  8
DEFPOINTS
  6
CONTINUOUS
 62
     0
100
AcDbPoint
 10
273.0
 20
14.99999999999999
 30
0.0
  0
ENDBLK
  5
C08
330
BFD
100
AcDbEntity
  8
0
100
AcDbBlockEnd
  0
BLOCK
  5
C13
330
C09
100
AcDbEntity
  8
0
100
AcDbBlockBegin
  2
*D7
 70
     1
 10
0.0
 20
0.0
 30
0.0
  3
*D7
  1

  0
LINE
  5
C42
330
C09
100
AcDbEntity
  8
250
  6
CONTINUOUS
100
AcDbLine
 10
210.0
 20
-5.5
 30
0.0
 11
210.0
 21
-64.0
 31
0.0
  0
LINE
  5
C43
330
C09
100
AcDbEntity
  8
250
  6
CONTINUOUS
100
AcDbLine
 10
250.0
 20
-14.35147186257609
 30
0.0
 11
250.0
 21
-64.0
 31
0.0
  0
LINE
  5
C44
330
C09
100
AcDbEntity
  8
250
  6
CONTINUOUS
100
AcDbLine
 10
212.23
 20
-63.0
 30
0.0
 11
247.77
 21
-63.0
 31
0.0
  0
INSERT
  5
C45
330
C09
100
AcDbEntity
  8
250
  6
CONTINUOUS
100
AcDbBlockReference
  2
_OPEN
 10
210.0
 20
-63.0
 30
0.0
 41
2.229999999999999
 42
2.229999999999999
 43
2.229999999999999
 50
180.0
  0
INSERT
  5
C46
330
C09
100
AcDbEntity
  8
250
  6
CONTINUOUS
100
AcDbBlockReference
  2
_OPEN
 10
250.0
 20
-63.0
 30
0.0
 41
2.229999999999999
 42
2.229999999999999
 43
2.229999999999999
  0
MTEXT
  5
C47
330
C09
100
AcDbEntity
  8
250
  6
CONTINUOUS
 62
    40
100
AcDbMText
 10
230.0
 20
-60.5
 30
0.0
 40
3.0
 41
0.0
 71
     5
 72
     1
  1
\A1;35～45
1001
ACAD
1000
MTEXTBEGIN
1070
    73
1070
     1
1070
    44
1040
1.0
1070
    74
1070
     0
1000
MTEXTEND
  0
POINT
  5
C48
330
C09
100
AcDbEntity
  8
DEFPOINTS
  6
CONTINUOUS
 62
     0
100
AcDbPoint
 10
210.0
 20
-5.0
 30
0.0
  0
POINT
  5
C49
330
C09
100
AcDbEntity
  8
DEFPOINTS
  6
CONTINUOUS
 62
     0
100
AcDbPoint
 10
250.0
 20
-13.85147186257609
 30
0.0
  0
POINT
  5
C4A
330
C09
100
AcDbEntity
  8
DEFPOINTS
  6
CONTINUOUS
 62
     0
100
AcDbPoint
 10
250.0
 20
-63.0
 30
0.0
  0
ENDBLK
  5
C14
330
C09
100
AcDbEntity
  8
0
100
AcDbBlockEnd
  0
ENDSEC
  0
SECTION
  2
ENTITIES
  0
DIMENSION
  5
BC2
330
1A
100
AcDbEntity
  8
250
  6
CONTINUOUS
100
AcDbDimension
  2
*D2
 10
250.0
 20
70.0
 30
0.0
 11
125.0
 21
72.5
 31
0.0
 70
    32
  3
BIGT
100
AcDbAlignedDimension
 13
0.0
 23
34.92500000000041
 33
0.0
 14
250.0
 24
9.092893218813401
 34
0.0
100
AcDbRotatedDimension
1001
ACAD
1000
DSTYLE
1002
{
1070
    78
1070
     8
1070
   140
1040
3.0
1002
}
  0
DIMENSION
  5
BC3
330
1A
100
AcDbEntity
  8
250
  6
CONTINUOUS
100
AcDbDimension
  2
*D3
 10
250.0
 20
63.0
 30
0.0
 11
144.0
 21
65.5
 31
0.0
 70
    32
  3
BIGT
100
AcDbAlignedDimension
 13
38.00000000000017
 23
48.7000000000001
 33
0.0
 14
250.0
 24
9.092893218813401
 34
0.0
100
AcDbRotatedDimension
1001
ACAD
1000
DSTYLE
1002
{
1070
    78
1070
     8
1070
   140
1040
3.0
1002
}
  0
INSERT
  5
BC4
330
1A
100
AcDbEntity
  8
240
100
AcDbBlockReference
  2
A$C483D1F05
 10
0.0
 20
0.0
 30
0.0
  0
LEADER
  5
BC5
330
1A
100
AcDbEntity
  8
250
  6
CONTINUOUS
100
AcDbLeader
  3
BIGT
 76
     2
 10
-41.15292489211467
 20
-28.92353178656605
 30
0.0
 10
-48.70262733519037
 20
-42.0
 30
0.0
1001
ACAD
1000
DSTYLE
1002
{
1070
     5
1000
OPEN
1070
    78
1070
     8
1070
   140
1040
3.0
1002
}
  0
LINE
  5
BC6
330
1A
100
AcDbEntity
  8
250
  6
CONTINUOUS
100
AcDbLine
 10
-48.70262733519037
 20
-42.0
 30
0.0
 11
-64.70262733519037
 21
-42.0
 31
0.0
1001
ITEMNAME
1000
LNSP2
  0
MTEXT
  5
BC7
330
1A
100
AcDbEntity
  8
250
  6
CONTINUOUS
 62
    40
100
AcDbMText
 10
-61.70262733519037
 20
-41.0
 30
0.0
 40
3.0
 41
0.0
 71
     7
 72
     1
  1
BT50
  7
YOKO
1001
ITEMNAME
1000
LNSP3
1001
ACAD
1000
MTEXTBEGIN
1070
    73
1070
     1
1070
    44
1040
1.0
1070
    74
1070
     0
1000
MTEXTEND
  0
TEXT
  5
BC8
330
1A
100
AcDbEntity
  8
241
100
AcDbText
 10
-98.0
 20
84.0
 30
0.0
 40
5.0
  1
BT50-NBS10-250
  7
YOKO
 11
-98.0
 21
84.0
 31
0.0
100
AcDbText
 73
     1
  0
DIMENSION
  5
BC9
330
1A
100
AcDbEntity
  8
250
  6
CONTINUOUS
100
AcDbDimension
  2
*D4
 10
38.00000000000017
 20
63.0
 30
0.0
 11
19.00000000000009
 21
65.5
 31
0.0
 70
    32
  3
BIGT
100
AcDbAlignedDimension
 13
0.0
 23
34.92500000000041
 33
0.0
 14
38.00000000000017
 24
48.7000000000001
 34
0.0
100
AcDbRotatedDimension
1001
ACAD
1000
DSTYLE
1002
{
1070
    78
1070
     8
1070
   140
1040
3.0
1002
}
  0
DIMENSION
  5
BCA
330
1A
100
AcDbEntity
  8
250
  6
CONTINUOUS
100
AcDbDimension
  2
*D5
 10
266.0
 20
4.999999999999994
 30
0.0
 11
263.3348787143322
 21
5.596851958649267
 31
0.0
 70
   160
  1
MAX.%%c<>
  3
BIGT
100
AcDbAlignedDimension
 13
250.0
 23
-5.0
 33
0.0
 14
250.0
 24
5.0
 34
0.0
 50
90.0
100
AcDbRotatedDimension
1001
ACAD
1000
DSTYLE
1002
{
1070
   287
1070
     5
1070
    78
1070
     8
1070
   140
1040
3.0
1070
   279
1070
     2
1002
}
  0
DIMENSION
  5
BCB
330
1A
100
AcDbEntity
  8
250
  6
CONTINUOUS
100
AcDbDimension
  2
*D6
 10
273.0
 20
14.99999999999999
 30
0.0
 11
270.5
 21
0.0000000000000369
 31
0.0
 70
    32
  1
{\H3;\U+2205}<>
  3
BIGT
100
AcDbAlignedDimension
 13
248.8100505063388
 23
-15.0
 33
0.0
 14
248.8100505063388
 24
15.0
 34
0.0
 50
90.0
100
AcDbRotatedDimension
1001
ACAD
1000
DSTYLE
1002
{
1070
    78
1070
     8
1070
   140
1040
3.0
1002
}
  0
DIMENSION
  5
BCC
330
1A
100
AcDbEntity
  8
250
  6
CONTINUOUS
100
AcDbDimension
  2
*D7
 10
250.0
 20
-63.0
 30
0.0
 11
230.0
 21
-60.5
 31
0.0
 70
    32
  1
35～45
  3
BIGT
100
AcDbAlignedDimension
 13
210.0
 23
-5.0
 33
0.0
 14
250.0
 24
-13.85147186257609
 34
0.0
100
AcDbRotatedDimension
1001
ACAD
1000
DSTYLE
1002
{
1070
    78
1070
     8
1070
   140
1040
3.0
1002
}
  0
VIEWPORT
  5
22
330
17
100
AcDbEntity
 67
     1
  8
0
100
AcDbViewport
 10
261.5176991150442
 20
148.5
 30
0.0
 40
523.0353982300885
 41
297.0
 68
     1
 69
     1
1001
ACAD
1000
MVIEW
1002
{
1070
    16
1010
0.0
1020
0.0
1030
0.0
1010
0.0
1020
0.0
1030
1.0
1040
0.0
1040
297.0
1040
261.5176991150442
1040
148.5
1040
50.0
1040
0.0
1040
0.0
1070
     0
1070
   100
1070
     1
1070
     1
1070
     0
1070
     0
1070
     0
1070
     0
1040
0.0
1040
0.0
1040
0.0
1040
1.0
1040
1.0
1040
10.0
1040
10.0
1070
     0
1002
{
1002
}
1002
}
  0
ENDSEC
  0
SECTION
  2
OBJECTS
  0
DICTIONARY
  5
C
330
0
100
AcDbDictionary
  3
ACAD_GROUP
350
D
  3
ACAD_LAYOUT
350
565
  3
ACAD_MLINESTYLE
350
E
  3
ACAD_PLOTSETTINGS
350
566
  3
ACAD_PLOTSTYLENAME
350
563
  3
ACDBHEADERROUNDTRIPXREC
350
C56
  3
ACDBVARIABLEDICTIONARY
350
C4D
  3
DWGPROPS
350
C54
  3
GRADE_DWG
350
540
  0
DICTIONARY
  5
C79
330
1A
100
AcDbDictionary
280
     1
  3
ACAD_LAYOUTSELFREF
360
C7A
  0
DICTIONARY
  5
C77
330
17
100
AcDbDictionary
280
     1
  3
ACAD_LAYOUTSELFREF
360
C78
  0
DICTIONARY
  5
D
102
{ACAD_REACTORS
330
C
102
}
330
C
100
AcDbDictionary
  3
DREC-1
350
5FC
  3
DREC-2
350
654
  3
DREC-3
350
673
  0
DICTIONARY
  5
565
102
{ACAD_REACTORS
330
C
102
}
330
C
100
AcDbDictionary
  0
DICTIONARY
  5
E
102
{ACAD_REACTORS
330
C
102
}
330
C
100
AcDbDictionary
  3
STANDARD
350
13
  0
DICTIONARY
  5
566
102
{ACAD_REACTORS
330
C
102
}
330
C
100
AcDbDictionary
  0
ACDBDICTIONARYWDFLT
  5
563
102
{ACAD_REACTORS
330
C
102
}
330
C
100
AcDbDictionary
281
     1
  3
Normal
350
564
100
AcDbDictionaryWithDefault
340
564
  0
DICTIONARY
  5
C56
102
{ACAD_REACTORS
330
C
102
}
330
C
100
AcDbDictionary
  3
CEPSNTYPE
350
C60
  3
DIMSTYLEDATA
350
C64
  3
FINGERPRINTGUID
350
C61
  3
HYPERLINKBASE
350
C59
  3
INSUNITS
350
C5F
  3
LAYOUTDICT
350
C5B
  3
LWETCUNION
350
C5E
  3
PLOTSETDICT
350
C5C
  3
PLOTSTYLNAMDICT
350
C5D
  3
PSVPSCALE
350
C63
  3
PUCSBASE
350
C67
  3
PUCSORGBACK
350
C6D
  3
PUCSORGBOTTOM
350
C69
  3
PUCSORGFRONT
350
C6C
  3
PUCSORGLEFT
350
C6A
  3
PUCSORGRIGHT
350
C6B
  3
PUCSORGTOP
350
C68
  3
PUCSORTHOREF
350
C65
  3
PUCSORTHOVIEW
350
C66
  3
STYLESHEET
350
C5A
  3
TSTACKALIGN
350
C57
  3
TSTACKSIZE
350
C58
  3
UCSBASE
350
C70
  3
UCSORGBACK
350
C76
  3
UCSORGBOTTOM
350
C72
  3
UCSORGFRONT
350
C75
  3
UCSORGLEFT
350
C73
  3
UCSORGRIGHT
350
C74
  3
UCSORGTOP
350
C71
  3
UCSORTHOREF
350
C6E
  3
UCSORTHOVIEW
350
C6F
  3
VERSIONGUID
350
C62
  0
DICTIONARY
  5
C4D
102
{ACAD_REACTORS
330
C
102
}
330
C
100
AcDbDictionary
  3
DIMASSOC
350
C4E
  0
XRECORD
  5
C54
102
{ACAD_REACTORS
330
C
102
}
330
C
100
AcDbXrecord
  1
DWGPROPS COOKIE
  2

  3

  4

  6

  7

  8
ymat
  9

300
=
301
=
302
=
303
=
304
=
305
=
306
=
307
=
308
=
309
=
 40
0.049360162037037
 41
2452174.435286991
 42
2452408.98210015
  1

 90
        0
  0
DICTIONARY
  5
540
102
{ACAD_REACTORS
330
C
102
}
330
C
100
AcDbDictionary
  3
VERSION
350
560
  0
XRECORD
  5
C7A
102
{ACAD_REACTORS
330
C79
102
}
330
C79
100
AcDbXrecord
340
1A
  0
XRECORD
  5
C78
102
{ACAD_REACTORS
330
C77
102
}
330
C77
100
AcDbXrecord
340
17
  0
GROUP
  5
5FC
102
{ACAD_REACTORS
330
D
102
}
330
D
100
AcDbGroup
300

 70
     0
 71
     1
1001
GRPNAME
1000
DREC-
1001
GPARA
1000
xsiz
1000
44.182
1000
ysiz
1000
40.677
1000
angl
1000
0
1000
ctyp
1000
0
1000
csiz
1000
5
1000
lfnt
1000
cont
1000
hcnt
1000
hoff
1000
vcnt
1000
voff
1000
opnt
1000
4
1000
dxpt
1000
0
1000
dypt
1000
0
  0
GROUP
  5
654
102
{ACAD_REACTORS
330
D
102
}
330
D
100
AcDbGroup
300

 70
     0
 71
     1
1001
GRPNAME
1000
DREC-
1001
GPARA
1000
xsiz
1000
54.592
1000
ysiz
1000
53.036
1000
angl
1000
0
1000
ctyp
1000
0
1000
csiz
1000
5
1000
lfnt
1000
cont
1000
hcnt
1000
hoff
1000
vcnt
1000
voff
1000
opnt
1000
4
1000
dxpt
1000
0
1000
dypt
1000
0
  0
GROUP
  5
673
102
{ACAD_REACTORS
330
D
102
}
330
D
100
AcDbGroup
300

 70
     0
 71
     1
1001
GRPNAME
1000
DREC-
1001
GPARA
1000
xsiz
1000
30.363
1000
ysiz
1000
36.175
1000
angl
1000
0
1000
ctyp
1000
0
1000
csiz
1000
5
1000
lfnt
1000
cont
1000
hcnt
1000
hoff
1000
vcnt
1000
voff
1000
opnt
1000
4
1000
dxpt
1000
0
1000
dypt
1000
0
  0
MLINESTYLE
  5
13
102
{ACAD_REACTORS
330
E
102
}
330
E
100
AcDbMlineStyle
  2
STANDARD
 70
     0
  3

 62
     0
 51
90.0
 52
90.0
 71
     2
 49
0.5
 62
   256
  6
BYLAYER
 49
-0.5
 62
   256
  6
BYLAYER
  0
ACDBPLACEHOLDER
  5
564
102
{ACAD_REACTORS
330
563
102
}
330
563
100
AcDbPlaceHolder
280
     0
  0
XRECORD
  5
C60
102
{ACAD_REACTORS
330
C56
102
}
330
C56
100
AcDbXrecord
 90
        0
  0
XRECORD
  5
C64
102
{ACAD_REACTORS
330
C56
102
}
330
C56
100
AcDbXrecord
1000
DSTYLE
1002
{
1070
    79
 70
     2
1070
   179
 70
     3
1070
   289
 70
     2
1070
   341
340
594
1070
   342
340
594
1070
   371
 70
    -1
1070
   372
 70
    -1
1002
}
  0
XRECORD
  5
C61
102
{ACAD_REACTORS
330
C56
102
}
330
C56
100
AcDbXrecord
  1
{51294030-9CB4-11D3-8E18-00A0C925D94D}
  0
XRECORD
  5
C59
102
{ACAD_REACTORS
330
C56
102
}
330
C56
100
AcDbXrecord
  1

  0
XRECORD
  5
C5F
102
{ACAD_REACTORS
330
C56
102
}
330
C56
100
AcDbXrecord
 90
        0
  0
XRECORD
  5
C5B
102
{ACAD_REACTORS
330
C56
102
}
330
C56
100
AcDbXrecord
340
565
  0
XRECORD
  5
C5E
102
{ACAD_REACTORS
330
C56
102
}
330
C56
100
AcDbXrecord
 90
    10781
  0
XRECORD
  5
C5C
102
{ACAD_REACTORS
330
C56
102
}
330
C56
100
AcDbXrecord
340
566
  0
XRECORD
  5
C5D
102
{ACAD_REACTORS
330
C56
102
}
330
C56
100
AcDbXrecord
340
563
  0
XRECORD
  5
C63
102
{ACAD_REACTORS
330
C56
102
}
330
C56
100
AcDbXrecord
 40
0.0
  0
XRECORD
  5
C67
102
{ACAD_REACTORS
330
C56
102
}
330
C56
100
AcDbXrecord
340
0
  0
XRECORD
  5
C6D
102
{ACAD_REACTORS
330
C56
102
}
330
C56
100
AcDbXrecord
 10
0.0
 20
0.0
 30
0.0
  0
XRECORD
  5
C69
102
{ACAD_REACTORS
330
C56
102
}
330
C56
100
AcDbXrecord
 10
0.0
 20
0.0
 30
0.0
  0
XRECORD
  5
C6C
102
{ACAD_REACTORS
330
C56
102
}
330
C56
100
AcDbXrecord
 10
0.0
 20
0.0
 30
0.0
  0
XRECORD
  5
C6A
102
{ACAD_REACTORS
330
C56
102
}
330
C56
100
AcDbXrecord
 10
0.0
 20
0.0
 30
0.0
  0
XRECORD
  5
C6B
102
{ACAD_REACTORS
330
C56
102
}
330
C56
100
AcDbXrecord
 10
0.0
 20
0.0
 30
0.0
  0
XRECORD
  5
C68
102
{ACAD_REACTORS
330
C56
102
}
330
C56
100
AcDbXrecord
 10
0.0
 20
0.0
 30
0.0
  0
XRECORD
  5
C65
102
{ACAD_REACTORS
330
C56
102
}
330
C56
100
AcDbXrecord
340
0
  0
XRECORD
  5
C66
102
{ACAD_REACTORS
330
C56
102
}
330
C56
100
AcDbXrecord
 70
     0
  0
XRECORD
  5
C5A
102
{ACAD_REACTORS
330
C56
102
}
330
C56
100
AcDbXrecord
  1
big.ctb
  0
XRECORD
  5
C57
102
{ACAD_REACTORS
330
C56
102
}
330
C56
100
AcDbXrecord
 90
        1
  0
XRECORD
  5
C58
102
{ACAD_REACTORS
330
C56
102
}
330
C56
100
AcDbXrecord
 90
       70
  0
XRECORD
  5
C70
102
{ACAD_REACTORS
330
C56
102
}
330
C56
100
AcDbXrecord
340
0
  0
XRECORD
  5
C76
102
{ACAD_REACTORS
330
C56
102
}
330
C56
100
AcDbXrecord
 10
0.0
 20
0.0
 30
0.0
  0
XRECORD
  5
C72
102
{ACAD_REACTORS
330
C56
102
}
330
C56
100
AcDbXrecord
 10
0.0
 20
0.0
 30
0.0
  0
XRECORD
  5
C75
102
{ACAD_REACTORS
330
C56
102
}
330
C56
100
AcDbXrecord
 10
0.0
 20
0.0
 30
0.0
  0
XRECORD
  5
C73
102
{ACAD_REACTORS
330
C56
102
}
330
C56
100
AcDbXrecord
 10
0.0
 20
0.0
 30
0.0
  0
XRECORD
  5
C74
102
{ACAD_REACTORS
330
C56
102
}
330
C56
100
AcDbXrecord
 10
0.0
 20
0.0
 30
0.0
  0
XRECORD
  5
C71
102
{ACAD_REACTORS
330
C56
102
}
330
C56
100
AcDbXrecord
 10
0.0
 20
0.0
 30
0.0
  0
XRECORD
  5
C6E
102
{ACAD_REACTORS
330
C56
102
}
330
C56
100
AcDbXrecord
340
0
  0
XRECORD
  5
C6F
102
{ACAD_REACTORS
330
C56
102
}
330
C56
100
AcDbXrecord
 70
     0
  0
XRECORD
  5
C62
102
{ACAD_REACTORS
330
C56
102
}
330
C56
100
AcDbXrecord
  1
{83C0C893-6665-11D6-95D9-006094EB2375}
  0
DICTIONARYVAR
  5
C4E
102
{ACAD_REACTORS
330
C4D
102
}
330
C4D
100
DictionaryVariables
280
     0
  1
1
  0
XRECORD
  5
560
102
{ACAD_REACTORS
330
540
102
}
330
540
100
AcDbXrecord
  1
2.0.0
  0
ENDSEC
  0
EOF
