  0
SECTION
  2
HEADER
  9
$ACADVER
  1
AC1014
  9
$ACADMAINTVER
 70
     9
  9
$DWGCODEPAGE
  3
ANSI_932
  9
$INSBASE
 10
0.0
 20
0.0
 30
0.0
  9
$EXTMIN
 10
-102.81595337
 20
-62.01095497
 30
-0.00152582
  9
$EXTMAX
 10
299.83800767
 20
89.01489317
 30
0.00000003
  9
$LIMMIN
 10
0.0
 20
0.0
  9
$LIMMAX
 10
420.0
 20
297.0
  9
$ORTHOMODE
 70
     1
  9
$REGENMODE
 70
     1
  9
$FILLMODE
 70
     1
  9
$QTEXTMODE
 70
     0
  9
$MIRRTEXT
 70
     1
  9
$DRAGMODE
 70
     2
  9
$LTSCALE
 40
10.0
  9
$OSMODE
 70
   549
  9
$ATTMODE
 70
     1
  9
$TEXTSIZE
 40
3.0
  9
$TRACEWID
 40
1.0
  9
$TEXTSTYLE
  7
YOKO
  9
$CLAYER
  8
245
  9
$CELTYPE
  6
BYLAYER
  9
$CECOLOR
 62
   256
  9
$CELTSCALE
 40
1.0
  9
$DELOBJ
 70
     1
  9
$DISPSILH
 70
     0
  9
$DIMSCALE
 40
1.0
  9
$DIMASZ
 40
2.23
  9
$DIMEXO
 40
0.5
  9
$DIMDLI
 40
2.5
  9
$DIMRND
 40
0.0
  9
$DIMDLE
 40
0.0
  9
$DIMEXE
 40
1.0
  9
$DIMTP
 40
0.0
  9
$DIMTM
 40
0.0
  9
$DIMTXT
 40
2.8
  9
$DIMCEN
 40
0.0
  9
$DIMTSZ
 40
0.0
  9
$DIMTOL
 70
     0
  9
$DIMLIM
 70
     0
  9
$DIMTIH
 70
     0
  9
$DIMTOH
 70
     0
  9
$DIMSE1
 70
     0
  9
$DIMSE2
 70
     0
  9
$DIMTAD
 70
     3
  9
$DIMZIN
 70
     8
  9
$DIMBLK
  1

  9
$DIMASO
 70
     1
  9
$DIMSHO
 70
     1
  9
$DIMPOST
  1

  9
$DIMAPOST
  1

  9
$DIMALT
 70
     0
  9
$DIMALTD
 70
     2
  9
$DIMALTF
 40
25.4
  9
$DIMLFAC
 40
1.0
  9
$DIMTOFL
 70
     1
  9
$DIMTVP
 40
0.0
  9
$DIMTIX
 70
     1
  9
$DIMSOXD
 70
     0
  9
$DIMSAH
 70
     1
  9
$DIMBLK1
  1
OPEN
  9
$DIMBLK2
  1
OPEN
  9
$DIMSTYLE
  2
BIGT
  9
$DIMCLRD
 70
   256
  9
$DIMCLRE
 70
   256
  9
$DIMCLRT
 70
    40
  9
$DIMTFAC
 40
1.0
  9
$DIMGAP
 40
1.0
  9
$DIMJUST
 70
     0
  9
$DIMSD1
 70
     0
  9
$DIMSD2
 70
     0
  9
$DIMTOLJ
 70
     1
  9
$DIMTZIN
 70
     8
  9
$DIMALTZ
 70
     0
  9
$DIMALTTZ
 70
     0
  9
$DIMFIT
 70
     3
  9
$DIMUPT
 70
     0
  9
$DIMUNIT
 70
     2
  9
$DIMDEC
 70
     3
  9
$DIMTDEC
 70
     3
  9
$DIMALTU
 70
     2
  9
$DIMALTTD
 70
     2
  9
$DIMTXSTY
  7
STANDARD
  9
$DIMAUNIT
 70
     0
  9
$LUNITS
 70
     2
  9
$LUPREC
 70
     3
  9
$SKETCHINC
 40
1.0
  9
$FILLETRAD
 40
5.0
  9
$AUNITS
 70
     0
  9
$AUPREC
 70
     3
  9
$MENU
  1
.
  9
$ELEVATION
 40
0.0
  9
$PELEVATION
 40
0.0
  9
$THICKNESS
 40
0.0
  9
$LIMCHECK
 70
     0
  9
$BLIPMODE
 70
     0
  9
$CHAMFERA
 40
0.2
  9
$CHAMFERB
 40
0.2
  9
$CHAMFERC
 40
0.0
  9
$CHAMFERD
 40
0.0
  9
$SKPOLY
 70
     0
  9
$TDCREATE
 40
2455107.554141886
  9
$TDUPDATE
 40
2455392.379342083
  9
$TDINDWG
 40
0.0174171759
  9
$TDUSRTIMER
 40
0.0174171759
  9
$USRTIMER
 70
     1
  9
$ANGBASE
 50
0.0
  9
$ANGDIR
 70
     0
  9
$PDMODE
 70
     1
  9
$PDSIZE
 40
-5.0
  9
$PLINEWID
 40
0.0
  9
$COORDS
 70
     1
  9
$SPLFRAME
 70
     0
  9
$SPLINETYPE
 70
     6
  9
$SPLINESEGS
 70
     8
  9
$ATTDIA
 70
     0
  9
$ATTREQ
 70
     1
  9
$HANDLING
 70
-16383
  9
$HANDSEED
  5
288C
  9
$SURFTAB1
 70
     6
  9
$SURFTAB2
 70
     6
  9
$SURFTYPE
 70
     6
  9
$SURFU
 70
     6
  9
$SURFV
 70
     6
  9
$UCSNAME
  2

  9
$UCSORG
 10
0.0
 20
0.0
 30
0.0
  9
$UCSXDIR
 10
1.0
 20
0.0
 30
0.0
  9
$UCSYDIR
 10
0.0
 20
1.0
 30
0.0
  9
$PUCSNAME
  2

  9
$PUCSORG
 10
0.0
 20
0.0
 30
0.0
  9
$PUCSXDIR
 10
1.0
 20
0.0
 30
0.0
  9
$PUCSYDIR
 10
0.0
 20
1.0
 30
0.0
  9
$USERI1
 70
     1
  9
$USERI2
 70
     0
  9
$USERI3
 70
     0
  9
$USERI4
 70
     0
  9
$USERI5
 70
     0
  9
$USERR1
 40
0.0
  9
$USERR2
 40
0.0
  9
$USERR3
 40
0.0
  9
$USERR4
 40
0.0
  9
$USERR5
 40
0.0
  9
$WORLDVIEW
 70
     1
  9
$SHADEDGE
 70
     3
  9
$SHADEDIF
 70
    70
  9
$TILEMODE
 70
     1
  9
$MAXACTVP
 70
    16
  9
$PINSBASE
 10
0.0
 20
0.0
 30
0.0
  9
$PLIMCHECK
 70
     0
  9
$PEXTMIN
 10
1.00000000E+20
 20
1.00000000E+20
 30
1.00000000E+20
  9
$PEXTMAX
 10
-1.00000000E+20
 20
-1.00000000E+20
 30
-1.00000000E+20
  9
$PLIMMIN
 10
0.0
 20
0.0
  9
$PLIMMAX
 10
420.0
 20
297.0
  9
$UNITMODE
 70
     0
  9
$VISRETAIN
 70
     0
  9
$PLINEGEN
 70
     0
  9
$PSLTSCALE
 70
     1
  9
$TREEDEPTH
 70
  3020
  9
$PICKSTYLE
 70
     0
  9
$CMLSTYLE
  2
STANDARD
  9
$CMLJUST
 70
     0
  9
$CMLSCALE
 40
1.0
  9
$PROXYGRAPHICS
 70
     1
  9
$MEASUREMENT
 70
     1
  0
ENDSEC
  0
SECTION
  2
CLASSES
  0
CLASS
  1
XRECORD
  2
AcDbXrecord
  3
AutoCAD 2000
 90
        0
280
     0
281
     0
  0
CLASS
  1
ACDBDICTIONARYWDFLT
  2
AcDbDictionaryWithDefault
  3
AutoCAD 2000
 90
        0
280
     0
281
     0
  0
CLASS
  1
ACDBPLACEHOLDER
  2
AcDbPlaceHolder
  3
AutoCAD 2000
 90
        0
280
     0
281
     0
  0
CLASS
  1
LAYOUT
  2
AcDbLayout
  3
AutoCAD 2000
 90
        0
280
     0
281
     0
  0
CLASS
  1
PLOTSETTINGS
  2
AcDbPlotSettings
  3
AutoCAD 2000
 90
        0
280
     0
281
     0
  0
CLASS
  1
LONG_TRANSACTION
  2
AcDbLongTransaction
  3
AutoCAD 2000
 90
        0
280
     0
281
     0
  0
CLASS
  1
LWPOLYLINE
  2
AcDbPolyline
  3
AutoCAD 2000
 90
        0
280
     0
281
     1
  0
CLASS
  1
HATCH
  2
AcDbHatch
  3
AutoCAD 2000
 90
        0
280
     0
281
     1
  0
CLASS
  1
XRECORD
  2
AcDbXrecord
  3
AutoCAD 2000
 90
        0
280
     0
281
     0
  0
CLASS
  1
LONG_TRANSACTION
  2
AcDbLongTransaction
  3
AutoCAD 2000
 90
        0
280
     0
281
     0
  0
CLASS
  1
LWPOLYLINE
  2
AcDbPolyline
  3
AutoCAD 2000
 90
        0
280
     0
281
     1
  0
CLASS
  1
HATCH
  2
AcDbHatch
  3
AutoCAD 2000
 90
        0
280
     0
281
     1
  0
CLASS
  1
XRECORD
  2
AcDbXrecord
  3
AutoCAD 2000
 90
        0
280
     0
281
     0
  0
ENDSEC
  0
SECTION
  2
TABLES
  0
TABLE
  2
VPORT
  5
8
330
0
100
AcDbSymbolTable
 70
     2
  0
VPORT
  5
2861
330
8
100
AcDbSymbolTableRecord
100
AcDbViewportTableRecord
  2
*ACTIVE
 70
     0
 10
0.0
 20
0.0
 11
1.0
 21
1.0
 12
98.51102715
 22
13.5019691
 13
0.0
 23
0.0
 14
7.0
 24
7.0
 15
7.0
 25
7.0
 16
0.0
 26
0.0
 36
1.0
 17
0.0
 27
0.0
 37
0.0
 40
278.03029079
 41
1.45595855
 42
50.0
 43
0.0
 44
0.0
 50
0.0
 51
0.0
 71
     0
 72
  2000
 73
     1
 74
     0
 75
     0
 76
     0
 77
     0
 78
     0
  0
ENDTAB
  0
TABLE
  2
LTYPE
  5
5
330
0
100
AcDbSymbolTable
 70
     4
  0
LTYPE
  5
14
330
5
100
AcDbSymbolTableRecord
100
AcDbLinetypeTableRecord
  2
BYBLOCK
 70
     0
  3

 72
    65
 73
     0
 40
0.0
  0
LTYPE
  5
15
330
5
100
AcDbSymbolTableRecord
100
AcDbLinetypeTableRecord
  2
BYLAYER
 70
     0
  3

 72
    65
 73
     0
 40
0.0
  0
LTYPE
  5
16
330
5
100
AcDbSymbolTableRecord
100
AcDbLinetypeTableRecord
  2
CONTINUOUS
 70
     0
  3
Solid line
 72
    65
 73
     0
 40
0.0
  0
LTYPE
  5
258
330
5
100
AcDbSymbolTableRecord
100
AcDbLinetypeTableRecord
  2
CENTER2
 70
     0
  3
___ _ ___ _ ___ _ ___ _ ___ _ ___ _ ___ _ ___ _
 72
    65
 73
     4
 40
1.125
 49
0.75
 74
     0
 49
-0.125
 74
     0
 49
0.125
 74
     0
 49
-0.125
 74
     0
  0
LTYPE
  5
25C
330
5
100
AcDbSymbolTableRecord
100
AcDbLinetypeTableRecord
  2
HIDDEN2
 70
     0
  3
_ _ _ _ _ _ _ _ _ _ _ _ _ _ _ _ _ _ _ _ _ _ _ _
 72
    65
 73
     2
 40
0.1875
 49
0.125
 74
     0
 49
-0.0625
 74
     0
  0
LTYPE
  5
25D
330
5
100
AcDbSymbolTableRecord
100
AcDbLinetypeTableRecord
  2
PHANTOM2
 70
     0
  3
___ _ _ ___ _ _ ___ _ _ ___ _ _ ___ _ _ ___ _ _
 72
    65
 73
     6
 40
1.25
 49
0.625
 74
     0
 49
-0.125
 74
     0
 49
0.125
 74
     0
 49
-0.125
 74
     0
 49
0.125
 74
     0
 49
-0.125
 74
     0
  0
ENDTAB
  0
TABLE
  2
LAYER
  5
2
330
0
100
AcDbSymbolTable
 70
    10
  0
LAYER
  5
F
330
2
100
AcDbSymbolTableRecord
100
AcDbLayerTableRecord
  2
0
 70
     0
 62
     7
  6
CONTINUOUS
  0
LAYER
  5
1AA
330
2
100
AcDbSymbolTableRecord
100
AcDbLayerTableRecord
  2
240
 70
     0
 62
     4
  6
CONTINUOUS
  0
LAYER
  5
1AB
330
2
100
AcDbSymbolTableRecord
100
AcDbLayerTableRecord
  2
241
 70
     0
 62
   211
  6
CONTINUOUS
  0
LAYER
  5
1AC
330
2
100
AcDbSymbolTableRecord
100
AcDbLayerTableRecord
  2
242
 70
     0
 62
     3
  6
CONTINUOUS
  0
LAYER
  5
1AD
330
2
100
AcDbSymbolTableRecord
100
AcDbLayerTableRecord
  2
243
 70
     0
 62
   211
  6
HIDDEN2
  0
LAYER
  5
1AF
330
2
100
AcDbSymbolTableRecord
100
AcDbLayerTableRecord
  2
245
 70
     0
 62
     2
  6
CENTER2
  0
LAYER
  5
21E
330
2
100
AcDbSymbolTableRecord
100
AcDbLayerTableRecord
  2
250
 70
     0
 62
     3
  6
CONTINUOUS
  0
LAYER
  5
21F
330
2
100
AcDbSymbolTableRecord
100
AcDbLayerTableRecord
  2
251
 70
     0
 62
    40
  6
CONTINUOUS
  0
LAYER
  5
5C4
330
2
100
AcDbSymbolTableRecord
100
AcDbLayerTableRecord
  2
DEFPOINTS
 70
     0
 62
     7
  6
CONTINUOUS
  0
ENDTAB
  0
TABLE
  2
STYLE
  5
3
330
0
100
AcDbSymbolTable
 70
     2
  0
STYLE
  5
10
330
3
100
AcDbSymbolTableRecord
100
AcDbTextStyleTableRecord
  2
STANDARD
 70
     0
 40
0.0
 41
1.0
 50
0.0
 71
     0
 42
3.0
  3
romans.shx
  4
BIGFONT.SHX
  0
STYLE
  5
339
330
3
100
AcDbSymbolTableRecord
100
AcDbTextStyleTableRecord
  2
YOKO
 70
     0
 40
0.0
 41
1.0
 50
0.0
 71
     0
 42
3.0
  3
romans.shx
  4
extfont.shx
  0
ENDTAB
  0
TABLE
  2
VIEW
  5
6
330
0
100
AcDbSymbolTable
 70
     0
  0
ENDTAB
  0
TABLE
  2
UCS
  5
7
330
0
100
AcDbSymbolTable
 70
     0
  0
ENDTAB
  0
TABLE
  2
APPID
  5
9
330
0
100
AcDbSymbolTable
 70
     9
  0
APPID
  5
11
330
9
100
AcDbSymbolTableRecord
100
AcDbRegAppTableRecord
  2
ACAD
 70
     0
  0
APPID
  5
1B1
330
9
100
AcDbSymbolTableRecord
100
AcDbRegAppTableRecord
  2
GLOBAL
 70
     0
  0
APPID
  5
2A4
330
9
100
AcDbSymbolTableRecord
100
AcDbRegAppTableRecord
  2
DETAIL
 70
     0
  0
APPID
  5
5FD
330
9
100
AcDbSymbolTableRecord
100
AcDbRegAppTableRecord
  2
GRPNAME
 70
     0
  0
APPID
  5
5FE
330
9
100
AcDbSymbolTableRecord
100
AcDbRegAppTableRecord
  2
GPARA
 70
     0
  0
APPID
  5
6C4
330
9
100
AcDbSymbolTableRecord
100
AcDbRegAppTableRecord
  2
DCO15
 70
     0
  0
APPID
  5
6C5
330
9
100
AcDbSymbolTableRecord
100
AcDbRegAppTableRecord
  2
ITEMNAME
 70
     0
  0
APPID
  5
6C6
330
9
100
AcDbSymbolTableRecord
100
AcDbRegAppTableRecord
  2
GRADE_0
 70
     0
  0
APPID
  5
1C6E
330
9
100
AcDbSymbolTableRecord
100
AcDbRegAppTableRecord
  2
CONTENTBLOCKICON
 70
     0
  0
ENDTAB
  0
TABLE
  2
DIMSTYLE
  5
A
330
0
100
AcDbSymbolTable
 70
     1
  0
DIMSTYLE
105
725
102
{ACAD_REACTORS
330
9BC
330
1565
330
1574
330
1594
330
15A3
330
15C3
102
}
330
A
100
AcDbSymbolTableRecord
100
AcDbDimStyleTableRecord
  2
BIGT
 70
     0
  3

  4

  5

  6
OPEN
  7
OPEN
 40
1.0
 41
2.23
 42
0.5
 43
2.5
 44
1.0
 45
0.0
 46
0.0
 47
0.0
 48
0.0
140
2.8
141
0.0
142
0.0
143
25.4
144
1.0
145
0.0
146
1.0
147
1.0
 71
     0
 72
     0
 73
     0
 74
     0
 75
     0
 76
     0
 77
     3
 78
     8
170
     0
171
     2
172
     1
173
     1
174
     1
175
     0
176
   256
177
   256
178
    40
270
     2
271
     3
272
     3
273
     2
274
     2
340
10
275
     0
280
     0
281
     0
282
     0
283
     1
284
     8
285
     0
286
     0
287
     3
288
     0
  0
ENDTAB
  0
TABLE
  2
BLOCK_RECORD
  5
1
330
0
100
AcDbSymbolTable
 70
    10
  0
BLOCK_RECORD
  5
1A
102
{ACAD_XDICTIONARY
360
1C6C
102
}
330
1
100
AcDbSymbolTableRecord
100
AcDbBlockTableRecord
  2
*MODEL_SPACE
  0
BLOCK_RECORD
  5
17
102
{ACAD_XDICTIONARY
360
1C6A
102
}
330
1
100
AcDbSymbolTableRecord
100
AcDbBlockTableRecord
  2
*PAPER_SPACE
  0
BLOCK_RECORD
  5
594
330
1
100
AcDbSymbolTableRecord
100
AcDbBlockTableRecord
  2
_OPEN
  0
BLOCK_RECORD
  5
6E3
330
1
100
AcDbSymbolTableRecord
100
AcDbBlockTableRecord
  2
矢印なし
  0
BLOCK_RECORD
  5
95A
330
1
100
AcDbSymbolTableRecord
100
AcDbBlockTableRecord
  2
1
1001
CONTENTBLOCKICON
1071
        0
1004
2800000020000000200000000100080000000000000400000000000000000000000000000000000000000000000080000080000000808000800000008000800080800000C0C0C000C0DCC000F0CAA6000020400000206000002080000020A0000020C0000020E00000400000004020000040400000406000004080000040A0
1004
000040C0000040E00000600000006020000060400000606000006080000060A0000060C0000060E00000800000008020000080400000806000008080000080A0000080C0000080E00000A0000000A0200000A0400000A0600000A0800000A0A00000A0C00000A0E00000C0000000C0200000C0400000C0600000C0800000C0
1004
A00000C0C00000C0E00000E0000000E0200000E0400000E0600000E0800000E0A00000E0C00000E0E00040000000400020004000400040006000400080004000A0004000C0004000E00040200000402020004020400040206000402080004020A0004020C0004020E000404000004040200040404000404060004040800040
1004
40A0004040C0004040E00040600000406020004060400040606000406080004060A0004060C0004060E00040800000408020004080400040806000408080004080A0004080C0004080E00040A0000040A0200040A0400040A0600040A0800040A0A00040A0C00040A0E00040C0000040C0200040C0400040C0600040C08000
1004
40C0A00040C0C00040C0E00040E0000040E0200040E0400040E0600040E0800040E0A00040E0C00040E0E00080000000800020008000400080006000800080008000A0008000C0008000E00080200000802020008020400080206000802080008020A0008020C0008020E00080400000804020008040400080406000804080
1004
008040A0008040C0008040E00080600000806020008060400080606000806080008060A0008060C0008060E00080800000808020008080400080806000808080008080A0008080C0008080E00080A0000080A0200080A0400080A0600080A0800080A0A00080A0C00080A0E00080C0000080C0200080C0400080C0600080C0
1004
800080C0A00080C0C00080C0E00080E0000080E0200080E0400080E0600080E0800080E0A00080E0C00080E0E000C0000000C0002000C0004000C0006000C0008000C000A000C000C000C000E000C0200000C0202000C0204000C0206000C0208000C020A000C020C000C020E000C0400000C0402000C0404000C0406000C0
1004
408000C040A000C040C000C040E000C0600000C0602000C0604000C0606000C0608000C060A000C060C000C060E000C0800000C0802000C0804000C0806000C0808000C080A000C080C000C080E000C0A00000C0A02000C0A04000C0A06000C0A08000C0A0A000C0A0C000C0A0E000C0C00000C0C02000C0C04000C0C06000
1004
C0C08000C0C0A000F0FBFF00A4A0A000808080000000FF0000FF000000FFFF00FF000000FF00FF00FFFF0000FFFFFF0000000000000000000000000000000000000000000000000000000000000000000000000000000000000000000000000000000000000000000000000000000000000000000000000000000000000000
1004
00000000000000000000000000000000000000000000000000000000000000000000000000000000000000000000000000000000000000000000000000000000000000000000000000000000000000000000000000000000000000000000000000000000000000000000000000000000000000000000000000000000000000
1004
00000000000000000000000000000000000000000000000000000000000000000000000000000000000000000000000000000000000000000000000000000000000000000000000000000000000000000000000000000000000000000000000000000000000000000000000000000000000000000000000000000000000000
1004
00000000000000000000000000000000000000000000000000000000000000000000000000000000000000FAFAFA0000000000000000000000000000FEFEE7FE000000000000000000FAFEE7E7FEFAFA000000000000000000FEFEFEFEE7E700FEFEFEFE0000000000FAE7E7E7E7E7E7FA000000FEFEFEFEFE000000E7E7E7
1004
0000000000FE000000FAFEE700FB000000FA000000FE00000000000000E7E7E70000000000FE000000FAFEE700FB000000FA000000FEFBFBFBFBFBFBFBE7E7E7FBFBFBFBFBFBFE0000FBFEE7E7E7E7E7E7FEFB0000FEFEFEFEFE000000E7E7E7E7E7E7E7E7E7E7FE00FAFEE7E7E7E7E7E7FE0000000000000000FEFEFEFEE7
1004
E7E7E7E7E7E7E7E7FE0000FAE7E7E700E7E7FE0000000000000000000000FEFEFEE7E7FBE7E7E7E7FE0000FAFAE7E7FEFEFE000000000000000000000000000000000000000000000000000000FAFAFA0000000000000000000000000000000000000000000000000000000000000000000000000000000000000000000000
1004
00000000000000000000000000000000000000000000000000000000000000000000000000000000000000000000000000000000000000000000000000000000000000000000000000000000000000000000000000000000000000000000000000000000000000000000000000000000000000000000000000000000000000
1004
00000000000000000000000000000000000000000000000000000000000000000000000000000000000000000000000000000000000000000000000000000000000000000000000000000000000000000000000000000000000000000000000000000000000000000000000000000000000000000000000000000000000000
1004
0000000000000000000000000000000000000000000000000000000000000000000000000000000000000000000000000000000000000000
  0
BLOCK_RECORD
  5
9C9
330
1
100
AcDbSymbolTableRecord
100
AcDbBlockTableRecord
  2
*D3
  0
BLOCK_RECORD
  5
1566
330
1
100
AcDbSymbolTableRecord
100
AcDbBlockTableRecord
  2
*D4
  0
BLOCK_RECORD
  5
1575
330
1
100
AcDbSymbolTableRecord
100
AcDbBlockTableRecord
  2
*D5
  0
BLOCK_RECORD
  5
1595
330
1
100
AcDbSymbolTableRecord
100
AcDbBlockTableRecord
  2
*D6
  0
BLOCK_RECORD
  5
15A4
330
1
100
AcDbSymbolTableRecord
100
AcDbBlockTableRecord
  2
*D7
  0
BLOCK_RECORD
  5
15C4
330
1
100
AcDbSymbolTableRecord
100
AcDbBlockTableRecord
  2
*D8
  0
ENDTAB
  0
ENDSEC
  0
SECTION
  2
BLOCKS
  0
BLOCK
  5
1B
330
1A
100
AcDbEntity
  8
0
100
AcDbBlockBegin
  2
*MODEL_SPACE
 70
     0
 10
0.0
 20
0.0
 30
0.0
  3
*MODEL_SPACE
  1

  0
ENDBLK
  5
1C
330
1A
100
AcDbEntity
  8
0
100
AcDbBlockEnd
  0
BLOCK
  5
18
330
17
100
AcDbEntity
 67
     1
  8
0
100
AcDbBlockBegin
  2
*PAPER_SPACE
 70
     0
 10
0.0
 20
0.0
 30
0.0
  3
*PAPER_SPACE
  1

  0
ENDBLK
  5
19
330
17
100
AcDbEntity
 67
     1
  8
0
100
AcDbBlockEnd
  0
BLOCK
  5
598
330
594
100
AcDbEntity
  8
0
100
AcDbBlockBegin
  2
_OPEN
 70
     0
 10
0.0
 20
0.0
 30
0.0
  3
_OPEN
  1

  0
LINE
  5
595
330
594
100
AcDbEntity
  8
0
  6
BYBLOCK
 62
     0
100
AcDbLine
 10
-1.0
 20
0.16666667
 30
0.0
 11
0.0
 21
0.0
 31
0.0
  0
LINE
  5
596
330
594
100
AcDbEntity
  8
0
  6
BYBLOCK
 62
     0
100
AcDbLine
 10
-1.0
 20
-0.16666667
 30
0.0
 11
0.0
 21
0.0
 31
0.0
  0
LINE
  5
597
330
594
100
AcDbEntity
  8
0
  6
BYBLOCK
 62
     0
100
AcDbLine
 10
0.0
 20
0.0
 30
0.0
 11
-1.0
 21
0.0
 31
0.0
  0
ENDBLK
  5
599
330
594
100
AcDbEntity
  8
0
100
AcDbBlockEnd
  0
BLOCK
  5
6E4
330
6E3
100
AcDbEntity
  8
0
100
AcDbBlockBegin
  2
矢印なし
 70
     0
 10
0.0
 20
0.0
 30
0.0
  3
矢印なし
  1

  0
ENDBLK
  5
6E5
330
6E3
100
AcDbEntity
  8
0
100
AcDbBlockEnd
  0
BLOCK
  5
9AE
330
95A
100
AcDbEntity
  8
0
100
AcDbBlockBegin
  2
1
 70
     0
 10
0.0
 20
0.0
 30
0.0
  3
1
  1

  0
LINE
  5
22A4
330
95A
100
AcDbEntity
  8
240
100
AcDbLine
 10
0.0
 20
34.925
 30
0.0
 11
-99.23292068
 21
20.4535324
 31
0.0
  0
LINE
  5
22A5
330
95A
100
AcDbEntity
  8
240
100
AcDbLine
 10
0.0
 20
-34.925
 30
0.0
 11
-99.23292068
 21
-20.4535324
 31
0.0
  0
LINE
  5
22A6
330
95A
100
AcDbEntity
  8
245
100
AcDbLine
 10
-102.8
 20
0.0
 30
0.0
 11
127.0
 21
0.0
 31
0.0
  0
LINE
  5
22A7
330
95A
100
AcDbEntity
  8
240
100
AcDbLine
 10
-101.8
 20
17.48493346
 30
0.0
 11
-101.8
 21
0.0
 31
0.0
  0
LINE
  5
22A8
330
95A
100
AcDbEntity
  8
240
100
AcDbLine
 10
-101.8
 20
-17.48493346
 30
0.0
 11
-101.8
 21
0.0
 31
0.0
  0
ARC
  5
22A9
330
95A
100
AcDbEntity
  8
240
100
AcDbCircle
 10
-98.8
 20
-17.48493346
 30
0.0
 40
3.0
100
AcDbArc
 50
180.0
 51
261.70285503
  0
ARC
  5
22AA
330
95A
100
AcDbEntity
  8
240
100
AcDbCircle
 10
-98.8
 20
17.48493346
 30
0.0
 40
3.0
100
AcDbArc
 50
98.29714497
 51
180.0
  0
LINE
  5
22AB
330
95A
100
AcDbEntity
  8
245
  6
CENTER2
100
AcDbLine
 10
23.2
 20
-50.0
 30
0.0
 11
23.2
 21
50.0
 31
0.0
  0
LINE
  5
22AC
330
95A
100
AcDbEntity
  8
241
  6
CONTINUOUS
100
AcDbLine
 10
38.0
 20
50.0
 30
0.0
 11
38.0
 21
0.0
 31
0.0
  0
LINE
  5
22AD
330
95A
100
AcDbEntity
  8
241
100
AcDbLine
 10
0.0
 20
34.925
 30
0.0
 11
0.0
 21
0.0
 31
0.0
  0
LINE
  5
22AE
330
95A
100
AcDbEntity
  8
241
100
AcDbLine
 10
1.5
 20
34.925
 30
0.0
 11
1.5
 21
0.0
 31
0.0
  0
ARC
  5
22AF
330
95A
100
AcDbEntity
  8
241
100
AcDbCircle
 10
21.3
 20
0.0
 30
0.0
 40
12.7000000000001
100
AcDbArc
 50
0.0
 51
90.0000176
  0
LINE
  5
22B0
330
95A
100
AcDbEntity
  8
240
100
AcDbLine
 10
95.57680848
 20
-29.42319152
 30
0.0
 11
136.48528137
 21
11.48528137
 31
0.0
  0
LINE
  5
22B1
330
95A
100
AcDbEntity
  8
240
100
AcDbLine
 10
80.97334296
 20
-38.72662511
 30
0.0
 11
50.0
 21
-50.0
 31
0.0
  0
LINE
  5
22B2
330
95A
100
AcDbEntity
  8
240
100
AcDbLine
 10
30.7
 20
-50.0
 30
0.0
 11
50.0
 21
-50.0
 31
0.0
  0
ARC
  5
22B3
330
95A
100
AcDbEntity
  8
241
100
AcDbCircle
 10
21.3
 20
0.0
 30
0.0
 40
12.7000000000001
100
AcDbArc
 50
269.9999824
 51
0.0
  0
LINE
  5
22B4
330
95A
100
AcDbEntity
  8
241
100
AcDbLine
 10
26.36987298
 20
-11.64415682
 30
0.0
 11
26.36987298
 21
-42.5
 31
0.0
  0
LINE
  5
22B5
330
95A
100
AcDbEntity
  8
241
100
AcDbLine
 10
15.7
 20
-12.7
 30
0.0
 11
15.7
 21
-50.0
 31
0.0
  0
LINE
  5
22B6
330
95A
100
AcDbEntity
  8
241
100
AcDbLine
 10
30.7
 20
-8.53990632
 30
0.0
 11
30.7
 21
-50.0
 31
0.0
  0
LINE
  5
22B7
330
95A
100
AcDbEntity
  8
241
100
AcDbLine
 10
1.5
 20
-34.925
 30
0.0
 11
1.5
 21
0.0
 31
0.0
  0
LINE
  5
22B8
330
95A
100
AcDbEntity
  8
241
100
AcDbLine
 10
0.0
 20
-34.925
 30
0.0
 11
0.0
 21
0.0
 31
0.0
  0
LINE
  5
22B9
330
95A
100
AcDbEntity
  8
241
100
AcDbLine
 10
20.03012702
 20
-12.7
 30
0.0
 11
20.03012702
 21
-42.5
 31
0.0
  0
LINE
  5
22BA
330
95A
100
AcDbEntity
  8
240
100
AcDbLine
 10
2.5
 20
-50.0
 30
0.0
 11
15.7
 21
-50.0
 31
0.0
  0
LINE
  5
22BB
330
95A
100
AcDbEntity
  8
240
100
AcDbLine
 10
1.5
 20
-49.0
 30
0.0
 11
1.5
 21
-34.925
 31
0.0
  0
ARC
  5
22BC
330
95A
100
AcDbEntity
  8
240
100
AcDbCircle
 10
2.5
 20
-49.0
 30
0.0
 40
1.0
100
AcDbArc
 50
180.0
 51
270.0
  0
LINE
  5
22BD
330
95A
100
AcDbEntity
  8
240
100
AcDbLine
 10
0.0
 20
-34.925
 30
0.0
 11
1.5
 21
-34.925
 31
0.0
  0
LINE
  5
22BE
330
95A
100
AcDbEntity
  8
240
100
AcDbLine
 10
26.36987298
 20
-42.5
 30
0.0
 11
20.03012702
 21
-42.5
 31
0.0
  0
LINE
  5
22BF
330
95A
100
AcDbEntity
  8
240
100
AcDbLine
 10
20.03012702
 20
-42.5
 30
0.0
 11
15.7
 21
-50.0
 31
0.0
  0
LINE
  5
22C0
330
95A
100
AcDbEntity
  8
240
100
AcDbLine
 10
26.36987298
 20
-42.5
 30
0.0
 11
30.7
 21
-50.0
 31
0.0
  0
LINE
  5
22C1
330
95A
100
AcDbEntity
  8
241
100
AcDbLine
 10
4.0
 20
-12.7
 30
0.0
 11
21.3
 21
-12.7
 31
0.0
  0
LINE
  5
22C2
330
95A
100
AcDbEntity
  8
241
100
AcDbLine
 10
4.0
 20
-12.7
 30
0.0
 11
1.5
 21
-15.2
 31
0.0
  0
LINE
  5
22C3
330
95A
100
AcDbEntity
  8
241
  6
CONTINUOUS
100
AcDbLine
 10
38.0
 20
-50.0
 30
0.0
 11
38.0
 21
0.0
 31
0.0
  0
ARC
  5
22C4
330
95A
100
AcDbEntity
  8
240
100
AcDbCircle
 10
67.29253723
 20
-1.13892027
 30
0.0
 40
40.0
100
AcDbArc
 50
290.0
 51
315.0
  0
LINE
  5
22C5
330
95A
100
AcDbEntity
  8
240
100
AcDbLine
 10
138.39757329
 20
50.0
 30
0.0
 11
30.7
 21
50.0
 31
0.0
  0
LINE
  5
22C6
330
95A
100
AcDbEntity
  8
245
100
AcDbLine
 10
63.0
 20
37.49937506
 30
0.0
 11
133.0
 21
37.49937506
 31
0.0
  0
LINE
  5
22C7
330
95A
100
AcDbEntity
  8
243
100
AcDbLine
 10
50.0
 20
24.999375
 30
0.0
 11
139.99999999
 21
24.99937516
 31
0.0
  0
LINE
  5
22C8
330
95A
100
AcDbEntity
  8
241
100
AcDbLine
 10
15.7
 20
12.7
 30
0.0
 11
15.7
 21
50.0
 31
0.0
  0
LINE
  5
22C9
330
95A
100
AcDbEntity
  8
241
100
AcDbLine
 10
26.36987298
 20
11.64415682
 30
0.0
 11
26.36987298
 21
42.5
 31
0.0
  0
LINE
  5
22CA
330
95A
100
AcDbEntity
  8
241
100
AcDbLine
 10
20.03012702
 20
12.7
 30
0.0
 11
20.03012702
 21
42.5
 31
0.0
  0
LINE
  5
22CB
330
95A
100
AcDbEntity
  8
241
100
AcDbLine
 10
30.7
 20
8.53990632
 30
0.0
 11
30.7
 21
50.0
 31
0.0
  0
LINE
  5
22CC
330
95A
100
AcDbEntity
  8
241
100
AcDbLine
 10
4.0
 20
12.7
 30
0.0
 11
21.3
 21
12.7
 31
0.0
  0
LINE
  5
22CD
330
95A
100
AcDbEntity
  8
241
100
AcDbLine
 10
4.0
 20
12.7
 30
0.0
 11
1.5
 21
15.2
 31
0.0
  0
LINE
  5
22CE
330
95A
100
AcDbEntity
  8
240
100
AcDbLine
 10
2.5
 20
50.0
 30
0.0
 11
15.7
 21
50.0
 31
0.0
  0
LINE
  5
22CF
330
95A
100
AcDbEntity
  8
240
100
AcDbLine
 10
1.5
 20
49.0
 30
0.0
 11
1.5
 21
34.925
 31
0.0
  0
LINE
  5
22D0
330
95A
100
AcDbEntity
  8
240
100
AcDbLine
 10
0.0
 20
34.925
 30
0.0
 11
1.5
 21
34.925
 31
0.0
  0
ARC
  5
22D1
330
95A
100
AcDbEntity
  8
240
100
AcDbCircle
 10
2.5
 20
49.0
 30
0.0
 40
1.0
100
AcDbArc
 50
90.0
 51
180.0
  0
LINE
  5
22D2
330
95A
100
AcDbEntity
  8
240
100
AcDbLine
 10
26.36987298
 20
42.5
 30
0.0
 11
30.7
 21
50.0
 31
0.0
  0
LINE
  5
22D3
330
95A
100
AcDbEntity
  8
240
100
AcDbLine
 10
20.03012702
 20
42.5
 30
0.0
 11
15.7
 21
50.0
 31
0.0
  0
LINE
  5
22D4
330
95A
100
AcDbEntity
  8
240
100
AcDbLine
 10
26.36987298
 20
42.5
 30
0.0
 11
20.03012702
 21
42.5
 31
0.0
  0
CIRCLE
  5
22D5
330
95A
100
AcDbEntity
  8
241
100
AcDbCircle
 10
70.0
 20
37.49937506
 30
0.0
 40
6.0
  0
CIRCLE
  5
22D6
330
95A
100
AcDbEntity
  8
242
100
AcDbCircle
 10
70.0
 20
37.49937506
 30
0.0
 40
5.125
  0
LINE
  5
22D7
330
95A
100
AcDbEntity
  8
245
100
AcDbLine
 10
70.0
 20
44.49937506
 30
0.0
 11
70.0
 21
30.49937506
 31
0.0
  0
LINE
  5
22D8
330
95A
100
AcDbEntity
  8
243
100
AcDbLine
 10
50.0
 20
24.999375
 30
0.0
 11
50.0
 21
50.0
 31
0.0
  0
LINE
  5
22D9
330
95A
100
AcDbEntity
  8
241
100
AcDbLine
 10
67.0
 20
39.23142587
 30
0.0
 11
70.0
 21
40.96347668
 31
0.0
  0
LINE
  5
22DA
330
95A
100
AcDbEntity
  8
241
100
AcDbLine
 10
70.0
 20
40.96347668
 30
0.0
 11
73.0
 21
39.23142587
 31
0.0
  0
LINE
  5
22DB
330
95A
100
AcDbEntity
  8
241
100
AcDbLine
 10
73.0
 20
35.76732425
 30
0.0
 11
70.0
 21
34.03527345
 31
0.0
  0
LINE
  5
22DC
330
95A
100
AcDbEntity
  8
241
100
AcDbLine
 10
67.0
 20
35.76732425
 30
0.0
 11
67.0
 21
39.23142587
 31
0.0
  0
LINE
  5
22DD
330
95A
100
AcDbEntity
  8
241
100
AcDbLine
 10
70.0
 20
34.03527345
 30
0.0
 11
67.0
 21
35.76732425
 31
0.0
  0
LINE
  5
22DE
330
95A
100
AcDbEntity
  8
241
100
AcDbLine
 10
73.0
 20
39.23142587
 30
0.0
 11
73.0
 21
35.76732425
 31
0.0
  0
LINE
  5
22DF
330
95A
100
AcDbEntity
  8
245
100
AcDbLine
 10
98.0
 20
44.49937506
 30
0.0
 11
98.0
 21
30.49937506
 31
0.0
  0
CIRCLE
  5
22E0
330
95A
100
AcDbEntity
  8
242
100
AcDbCircle
 10
98.0
 20
37.49937506
 30
0.0
 40
5.125
  0
CIRCLE
  5
22E1
330
95A
100
AcDbEntity
  8
241
100
AcDbCircle
 10
98.0
 20
37.49937506
 30
0.0
 40
6.0
  0
LINE
  5
22E2
330
95A
100
AcDbEntity
  8
241
100
AcDbLine
 10
98.0
 20
34.03527345
 30
0.0
 11
95.0
 21
35.76732425
 31
0.0
  0
LINE
  5
22E3
330
95A
100
AcDbEntity
  8
241
100
AcDbLine
 10
95.0
 20
39.23142587
 30
0.0
 11
98.0
 21
40.96347668
 31
0.0
  0
LINE
  5
22E4
330
95A
100
AcDbEntity
  8
241
100
AcDbLine
 10
95.0
 20
35.76732425
 30
0.0
 11
95.0
 21
39.23142587
 31
0.0
  0
LINE
  5
22E5
330
95A
100
AcDbEntity
  8
241
100
AcDbLine
 10
98.0
 20
40.96347668
 30
0.0
 11
101.0
 21
39.23142587
 31
0.0
  0
LINE
  5
22E6
330
95A
100
AcDbEntity
  8
241
100
AcDbLine
 10
101.0
 20
39.23142587
 30
0.0
 11
101.0
 21
35.76732425
 31
0.0
  0
LINE
  5
22E7
330
95A
100
AcDbEntity
  8
241
100
AcDbLine
 10
101.0
 20
35.76732425
 30
0.0
 11
98.0
 21
34.03527345
 31
0.0
  0
LINE
  5
22E8
330
95A
100
AcDbEntity
  8
245
100
AcDbLine
 10
126.0
 20
44.49937506
 30
0.0
 11
126.0
 21
30.49937506
 31
0.0
  0
CIRCLE
  5
22E9
330
95A
100
AcDbEntity
  8
242
100
AcDbCircle
 10
126.0
 20
37.49937506
 30
0.0
 40
5.125
  0
CIRCLE
  5
22EA
330
95A
100
AcDbEntity
  8
241
100
AcDbCircle
 10
126.0
 20
37.49937506
 30
0.0
 40
6.0
  0
LINE
  5
22EB
330
95A
100
AcDbEntity
  8
240
100
AcDbLine
 10
139.99999996
 20
45.46950303
 30
0.0
 11
140.0
 21
19.97056275
 31
0.0
  0
ARC
  5
22EC
330
95A
100
AcDbEntity
  8
240
100
AcDbCircle
 10
128.0
 20
19.97056275
 30
0.0
 40
12.0
100
AcDbArc
 50
315.0
 51
0.0
  0
LINE
  5
22ED
330
95A
100
AcDbEntity
  8
241
100
AcDbLine
 10
129.0
 20
35.76732425
 30
0.0
 11
126.0
 21
34.03527345
 31
0.0
  0
LINE
  5
22EE
330
95A
100
AcDbEntity
  8
241
100
AcDbLine
 10
126.0
 20
40.96347668
 30
0.0
 11
129.0
 21
39.23142587
 31
0.0
  0
LINE
  5
22EF
330
95A
100
AcDbEntity
  8
241
100
AcDbLine
 10
123.0
 20
39.23142587
 30
0.0
 11
126.0
 21
40.96347668
 31
0.0
  0
LINE
  5
22F0
330
95A
100
AcDbEntity
  8
241
100
AcDbLine
 10
123.0
 20
35.76732425
 30
0.0
 11
123.0
 21
39.23142587
 31
0.0
  0
LINE
  5
22F1
330
95A
100
AcDbEntity
  8
241
100
AcDbLine
 10
126.0
 20
34.03527345
 30
0.0
 11
123.0
 21
35.76732425
 31
0.0
  0
LINE
  5
22F2
330
95A
100
AcDbEntity
  8
241
100
AcDbLine
 10
129.0
 20
39.23142587
 30
0.0
 11
129.0
 21
35.76732425
 31
0.0
  0
ARC
  5
22F3
330
95A
100
AcDbEntity
  8
240
100
AcDbCircle
 10
132.95597274
 20
45.52667233
 30
0.0
 40
7.044265542517161
100
AcDbArc
 50
359.52873628
 51
39.42229086
  0
ARC
  5
22F4
330
95A
100
AcDbEntity
  8
240
100
AcDbCircle
 10
231.0
 20
0.0
 30
0.0
 40
50.0
100
AcDbArc
 50
90.83559161
 51
180.0
  0
LINE
  5
22F5
330
95A
100
AcDbEntity
  8
241
100
AcDbLine
 10
199.0
 20
-18.0
 30
0.0
 11
199.0
 21
9.0
 31
0.0
  0
ARC
  5
22F6
330
95A
100
AcDbEntity
  8
240
100
AcDbCircle
 10
231.0
 20
7.0
 30
0.0
 40
57.0
100
AcDbArc
 50
270.0
 51
359.9999824
  0
LINE
  5
22F7
330
95A
100
AcDbEntity
  8
245
100
AcDbLine
 10
231.0
 20
62.0
 30
0.0
 11
231.0
 21
-62.0
 31
0.0
  0
CIRCLE
  5
22F8
330
95A
100
AcDbEntity
  8
242
  6
PHANTOM2
100
AcDbCircle
 10
231.0
 20
0.0
 30
0.0
 40
60.0
  0
LINE
  5
22F9
330
95A
100
AcDbEntity
  8
245
100
AcDbLine
 10
169.0
 20
0.0
 30
0.0
 11
293.0
 21
0.0
 31
0.0
  0
LINE
  5
22FA
330
95A
100
AcDbEntity
  8
241
100
AcDbLine
 10
275.48600039
 20
-28.637
 30
0.0
 11
200.81963832
 21
-28.637
 31
0.0
  0
LINE
  5
22FB
330
95A
100
AcDbEntity
  8
241
100
AcDbLine
 10
205.97208758
 20
-37.94
 30
0.0
 11
266.06274946
 21
-37.94
 31
0.0
  0
ARC
  5
22FC
330
95A
100
AcDbEntity
  8
240
100
AcDbCircle
 10
231.0
 20
0.0
 30
0.0
 40
50.0
100
AcDbArc
 50
180.0
 51
269.16440839
  0
ARC
  5
22FD
330
95A
100
AcDbEntity
  8
241
100
AcDbCircle
 10
231.0
 20
-18.0
 30
0.0
 40
32.0
100
AcDbArc
 50
180.0
 51
270.0
  0
LINE
  5
22FE
330
95A
100
AcDbEntity
  8
241
100
AcDbLine
 10
255.8
 20
25.0
 30
0.0
 11
230.7
 21
25.0
 31
0.0
  0
LINE
  5
22FF
330
95A
100
AcDbEntity
  8
241
100
AcDbLine
 10
281.17147221
 20
19.97056275
 30
0.0
 11
205.07478289
 21
19.97056275
 31
0.0
  0
LINE
  5
2300
330
95A
100
AcDbEntity
  8
240
100
AcDbLine
 10
261.00000014
 20
49.99999991
 30
0.0
 11
231.00000014
 21
50.0
 31
0.0
  0
LINE
  5
2301
330
95A
100
AcDbEntity
  8
241
100
AcDbLine
 10
233.97001767
 20
11.48528137
 30
0.0
 11
287.99767596
 21
11.48528137
 31
0.0
  0
POLYLINE
  5
2302
330
95A
100
AcDbEntity
  8
241
100
AcDb3dPolyline
 66
     1
 10
0.0
 20
0.0
 30
0.0
 70
     8
  0
VERTEX
  5
2303
330
2302
100
AcDbEntity
  8
241
100
AcDbVertex
100
AcDb3dPolylineVertex
 10
205.0748
 20
19.9706
 30
0.0
 70
    32
  0
VERTEX
  5
2304
330
2302
100
AcDbEntity
  8
241
100
AcDbVertex
100
AcDb3dPolylineVertex
 10
205.0219
 20
19.9309
 30
0.0
 70
    32
  0
VERTEX
  5
2305
330
2302
100
AcDbEntity
  8
241
100
AcDbVertex
100
AcDb3dPolylineVertex
 10
204.969
 20
19.8913
 30
0.0
 70
    32
  0
VERTEX
  5
2306
330
2302
100
AcDbEntity
  8
241
100
AcDbVertex
100
AcDb3dPolylineVertex
 10
204.9162
 20
19.8516
 30
0.0
 70
    32
  0
VERTEX
  5
2307
330
2302
100
AcDbEntity
  8
241
100
AcDbVertex
100
AcDb3dPolylineVertex
 10
204.8634
 20
19.812
 30
0.0
 70
    32
  0
VERTEX
  5
2308
330
2302
100
AcDbEntity
  8
241
100
AcDbVertex
100
AcDb3dPolylineVertex
 10
204.8105
 20
19.7723
 30
0.0
 70
    32
  0
VERTEX
  5
2309
330
2302
100
AcDbEntity
  8
241
100
AcDbVertex
100
AcDb3dPolylineVertex
 10
204.7578
 20
19.7325
 30
0.0
 70
    32
  0
VERTEX
  5
230A
330
2302
100
AcDbEntity
  8
241
100
AcDbVertex
100
AcDb3dPolylineVertex
 10
204.705
 20
19.6928
 30
0.0
 70
    32
  0
VERTEX
  5
230B
330
2302
100
AcDbEntity
  8
241
100
AcDbVertex
100
AcDb3dPolylineVertex
 10
204.6523
 20
19.653
 30
0.0
 70
    32
  0
VERTEX
  5
230C
330
2302
100
AcDbEntity
  8
241
100
AcDbVertex
100
AcDb3dPolylineVertex
 10
204.5997
 20
19.6131
 30
0.0
 70
    32
  0
VERTEX
  5
230D
330
2302
100
AcDbEntity
  8
241
100
AcDbVertex
100
AcDb3dPolylineVertex
 10
204.5471
 20
19.5732
 30
0.0
 70
    32
  0
VERTEX
  5
230E
330
2302
100
AcDbEntity
  8
241
100
AcDbVertex
100
AcDb3dPolylineVertex
 10
204.4945
 20
19.5332
 30
0.0
 70
    32
  0
VERTEX
  5
230F
330
2302
100
AcDbEntity
  8
241
100
AcDbVertex
100
AcDb3dPolylineVertex
 10
204.4421
 20
19.4931
 30
0.0
 70
    32
  0
VERTEX
  5
2310
330
2302
100
AcDbEntity
  8
241
100
AcDbVertex
100
AcDb3dPolylineVertex
 10
204.3897
 20
19.453
 30
0.0
 70
    32
  0
VERTEX
  5
2311
330
2302
100
AcDbEntity
  8
241
100
AcDbVertex
100
AcDb3dPolylineVertex
 10
204.3373
 20
19.4128
 30
0.0
 70
    32
  0
VERTEX
  5
2312
330
2302
100
AcDbEntity
  8
241
100
AcDbVertex
100
AcDb3dPolylineVertex
 10
204.2851
 20
19.3725
 30
0.0
 70
    32
  0
VERTEX
  5
2313
330
2302
100
AcDbEntity
  8
241
100
AcDbVertex
100
AcDb3dPolylineVertex
 10
204.233
 20
19.3321
 30
0.0
 70
    32
  0
VERTEX
  5
2314
330
2302
100
AcDbEntity
  8
241
100
AcDbVertex
100
AcDb3dPolylineVertex
 10
204.1809
 20
19.2916
 30
0.0
 70
    32
  0
VERTEX
  5
2315
330
2302
100
AcDbEntity
  8
241
100
AcDbVertex
100
AcDb3dPolylineVertex
 10
204.129
 20
19.2509
 30
0.0
 70
    32
  0
VERTEX
  5
2316
330
2302
100
AcDbEntity
  8
241
100
AcDbVertex
100
AcDb3dPolylineVertex
 10
204.0771
 20
19.2102
 30
0.0
 70
    32
  0
VERTEX
  5
2317
330
2302
100
AcDbEntity
  8
241
100
AcDbVertex
100
AcDb3dPolylineVertex
 10
204.0254
 20
19.1694
 30
0.0
 70
    32
  0
VERTEX
  5
2318
330
2302
100
AcDbEntity
  8
241
100
AcDbVertex
100
AcDb3dPolylineVertex
 10
203.9738
 20
19.1284
 30
0.0
 70
    32
  0
VERTEX
  5
2319
330
2302
100
AcDbEntity
  8
241
100
AcDbVertex
100
AcDb3dPolylineVertex
 10
203.9224
 20
19.0873
 30
0.0
 70
    32
  0
VERTEX
  5
231A
330
2302
100
AcDbEntity
  8
241
100
AcDbVertex
100
AcDb3dPolylineVertex
 10
203.871
 20
19.046
 30
0.0
 70
    32
  0
VERTEX
  5
231B
330
2302
100
AcDbEntity
  8
241
100
AcDbVertex
100
AcDb3dPolylineVertex
 10
203.8198
 20
19.0046
 30
0.0
 70
    32
  0
VERTEX
  5
231C
330
2302
100
AcDbEntity
  8
241
100
AcDbVertex
100
AcDb3dPolylineVertex
 10
203.7688
 20
18.963
 30
0.0
 70
    32
  0
VERTEX
  5
231D
330
2302
100
AcDbEntity
  8
241
100
AcDbVertex
100
AcDb3dPolylineVertex
 10
203.7179
 20
18.9213
 30
0.0
 70
    32
  0
VERTEX
  5
231E
330
2302
100
AcDbEntity
  8
241
100
AcDbVertex
100
AcDb3dPolylineVertex
 10
203.6671
 20
18.8794
 30
0.0
 70
    32
  0
VERTEX
  5
231F
330
2302
100
AcDbEntity
  8
241
100
AcDbVertex
100
AcDb3dPolylineVertex
 10
203.6165
 20
18.8374
 30
0.0
 70
    32
  0
VERTEX
  5
2320
330
2302
100
AcDbEntity
  8
241
100
AcDbVertex
100
AcDb3dPolylineVertex
 10
203.5661
 20
18.7951
 30
0.0
 70
    32
  0
VERTEX
  5
2321
330
2302
100
AcDbEntity
  8
241
100
AcDbVertex
100
AcDb3dPolylineVertex
 10
203.5159
 20
18.7527
 30
0.0
 70
    32
  0
VERTEX
  5
2322
330
2302
100
AcDbEntity
  8
241
100
AcDbVertex
100
AcDb3dPolylineVertex
 10
203.4658
 20
18.7101
 30
0.0
 70
    32
  0
VERTEX
  5
2323
330
2302
100
AcDbEntity
  8
241
100
AcDbVertex
100
AcDb3dPolylineVertex
 10
203.416
 20
18.6673
 30
0.0
 70
    32
  0
VERTEX
  5
2324
330
2302
100
AcDbEntity
  8
241
100
AcDbVertex
100
AcDb3dPolylineVertex
 10
203.3663
 20
18.6242
 30
0.0
 70
    32
  0
VERTEX
  5
2325
330
2302
100
AcDbEntity
  8
241
100
AcDbVertex
100
AcDb3dPolylineVertex
 10
203.3168
 20
18.581
 30
0.0
 70
    32
  0
VERTEX
  5
2326
330
2302
100
AcDbEntity
  8
241
100
AcDbVertex
100
AcDb3dPolylineVertex
 10
203.2676
 20
18.5375
 30
0.0
 70
    32
  0
VERTEX
  5
2327
330
2302
100
AcDbEntity
  8
241
100
AcDbVertex
100
AcDb3dPolylineVertex
 10
203.2185
 20
18.4939
 30
0.0
 70
    32
  0
VERTEX
  5
2328
330
2302
100
AcDbEntity
  8
241
100
AcDbVertex
100
AcDb3dPolylineVertex
 10
203.1697
 20
18.45
 30
0.0
 70
    32
  0
VERTEX
  5
2329
330
2302
100
AcDbEntity
  8
241
100
AcDbVertex
100
AcDb3dPolylineVertex
 10
203.1211
 20
18.4058
 30
0.0
 70
    32
  0
VERTEX
  5
232A
330
2302
100
AcDbEntity
  8
241
100
AcDbVertex
100
AcDb3dPolylineVertex
 10
203.0727
 20
18.3614
 30
0.0
 70
    32
  0
VERTEX
  5
232B
330
2302
100
AcDbEntity
  8
241
100
AcDbVertex
100
AcDb3dPolylineVertex
 10
203.0245
 20
18.3168
 30
0.0
 70
    32
  0
VERTEX
  5
232C
330
2302
100
AcDbEntity
  8
241
100
AcDbVertex
100
AcDb3dPolylineVertex
 10
202.9766
 20
18.2719
 30
0.0
 70
    32
  0
VERTEX
  5
232D
330
2302
100
AcDbEntity
  8
241
100
AcDbVertex
100
AcDb3dPolylineVertex
 10
202.929
 20
18.2267
 30
0.0
 70
    32
  0
VERTEX
  5
232E
330
2302
100
AcDbEntity
  8
241
100
AcDbVertex
100
AcDb3dPolylineVertex
 10
202.8816
 20
18.1813
 30
0.0
 70
    32
  0
VERTEX
  5
232F
330
2302
100
AcDbEntity
  8
241
100
AcDbVertex
100
AcDb3dPolylineVertex
 10
202.8344
 20
18.1356
 30
0.0
 70
    32
  0
VERTEX
  5
2330
330
2302
100
AcDbEntity
  8
241
100
AcDbVertex
100
AcDb3dPolylineVertex
 10
202.7876
 20
18.0896
 30
0.0
 70
    32
  0
VERTEX
  5
2331
330
2302
100
AcDbEntity
  8
241
100
AcDbVertex
100
AcDb3dPolylineVertex
 10
202.741
 20
18.0433
 30
0.0
 70
    32
  0
VERTEX
  5
2332
330
2302
100
AcDbEntity
  8
241
100
AcDbVertex
100
AcDb3dPolylineVertex
 10
202.6946
 20
17.9967
 30
0.0
 70
    32
  0
VERTEX
  5
2333
330
2302
100
AcDbEntity
  8
241
100
AcDbVertex
100
AcDb3dPolylineVertex
 10
202.6486
 20
17.9498
 30
0.0
 70
    32
  0
VERTEX
  5
2334
330
2302
100
AcDbEntity
  8
241
100
AcDbVertex
100
AcDb3dPolylineVertex
 10
202.6028
 20
17.9026
 30
0.0
 70
    32
  0
VERTEX
  5
2335
330
2302
100
AcDbEntity
  8
241
100
AcDbVertex
100
AcDb3dPolylineVertex
 10
202.5574
 20
17.8551
 30
0.0
 70
    32
  0
VERTEX
  5
2336
330
2302
100
AcDbEntity
  8
241
100
AcDbVertex
100
AcDb3dPolylineVertex
 10
202.5122
 20
17.8073
 30
0.0
 70
    32
  0
VERTEX
  5
2337
330
2302
100
AcDbEntity
  8
241
100
AcDbVertex
100
AcDb3dPolylineVertex
 10
202.4674
 20
17.7592
 30
0.0
 70
    32
  0
VERTEX
  5
2338
330
2302
100
AcDbEntity
  8
241
100
AcDbVertex
100
AcDb3dPolylineVertex
 10
202.4228
 20
17.7108
 30
0.0
 70
    32
  0
VERTEX
  5
2339
330
2302
100
AcDbEntity
  8
241
100
AcDbVertex
100
AcDb3dPolylineVertex
 10
202.3785
 20
17.6621
 30
0.0
 70
    32
  0
VERTEX
  5
233A
330
2302
100
AcDbEntity
  8
241
100
AcDbVertex
100
AcDb3dPolylineVertex
 10
202.3345
 20
17.6131
 30
0.0
 70
    32
  0
VERTEX
  5
233B
330
2302
100
AcDbEntity
  8
241
100
AcDbVertex
100
AcDb3dPolylineVertex
 10
202.2908
 20
17.5639
 30
0.0
 70
    32
  0
VERTEX
  5
233C
330
2302
100
AcDbEntity
  8
241
100
AcDbVertex
100
AcDb3dPolylineVertex
 10
202.2474
 20
17.5143
 30
0.0
 70
    32
  0
VERTEX
  5
233D
330
2302
100
AcDbEntity
  8
241
100
AcDbVertex
100
AcDb3dPolylineVertex
 10
202.2043
 20
17.4644
 30
0.0
 70
    32
  0
VERTEX
  5
233E
330
2302
100
AcDbEntity
  8
241
100
AcDbVertex
100
AcDb3dPolylineVertex
 10
202.1615
 20
17.4143
 30
0.0
 70
    32
  0
VERTEX
  5
233F
330
2302
100
AcDbEntity
  8
241
100
AcDbVertex
100
AcDb3dPolylineVertex
 10
202.1189
 20
17.3639
 30
0.0
 70
    32
  0
VERTEX
  5
2340
330
2302
100
AcDbEntity
  8
241
100
AcDbVertex
100
AcDb3dPolylineVertex
 10
202.0767
 20
17.3132
 30
0.0
 70
    32
  0
VERTEX
  5
2341
330
2302
100
AcDbEntity
  8
241
100
AcDbVertex
100
AcDb3dPolylineVertex
 10
202.0347
 20
17.2622
 30
0.0
 70
    32
  0
VERTEX
  5
2342
330
2302
100
AcDbEntity
  8
241
100
AcDbVertex
100
AcDb3dPolylineVertex
 10
201.9931
 20
17.211
 30
0.0
 70
    32
  0
VERTEX
  5
2343
330
2302
100
AcDbEntity
  8
241
100
AcDbVertex
100
AcDb3dPolylineVertex
 10
201.9517
 20
17.1595
 30
0.0
 70
    32
  0
VERTEX
  5
2344
330
2302
100
AcDbEntity
  8
241
100
AcDbVertex
100
AcDb3dPolylineVertex
 10
201.9107
 20
17.1077
 30
0.0
 70
    32
  0
VERTEX
  5
2345
330
2302
100
AcDbEntity
  8
241
100
AcDbVertex
100
AcDb3dPolylineVertex
 10
201.8699
 20
17.0557
 30
0.0
 70
    32
  0
VERTEX
  5
2346
330
2302
100
AcDbEntity
  8
241
100
AcDbVertex
100
AcDb3dPolylineVertex
 10
201.8294
 20
17.0034
 30
0.0
 70
    32
  0
VERTEX
  5
2347
330
2302
100
AcDbEntity
  8
241
100
AcDbVertex
100
AcDb3dPolylineVertex
 10
201.7893
 20
16.9509
 30
0.0
 70
    32
  0
VERTEX
  5
2348
330
2302
100
AcDbEntity
  8
241
100
AcDbVertex
100
AcDb3dPolylineVertex
 10
201.7494
 20
16.8981
 30
0.0
 70
    32
  0
VERTEX
  5
2349
330
2302
100
AcDbEntity
  8
241
100
AcDbVertex
100
AcDb3dPolylineVertex
 10
201.7098
 20
16.845
 30
0.0
 70
    32
  0
VERTEX
  5
234A
330
2302
100
AcDbEntity
  8
241
100
AcDbVertex
100
AcDb3dPolylineVertex
 10
201.6705
 20
16.7917
 30
0.0
 70
    32
  0
VERTEX
  5
234B
330
2302
100
AcDbEntity
  8
241
100
AcDbVertex
100
AcDb3dPolylineVertex
 10
201.6315
 20
16.7382
 30
0.0
 70
    32
  0
VERTEX
  5
234C
330
2302
100
AcDbEntity
  8
241
100
AcDbVertex
100
AcDb3dPolylineVertex
 10
201.5928
 20
16.6844
 30
0.0
 70
    32
  0
VERTEX
  5
234D
330
2302
100
AcDbEntity
  8
241
100
AcDbVertex
100
AcDb3dPolylineVertex
 10
201.5544
 20
16.6304
 30
0.0
 70
    32
  0
VERTEX
  5
234E
330
2302
100
AcDbEntity
  8
241
100
AcDbVertex
100
AcDb3dPolylineVertex
 10
201.5162
 20
16.5761
 30
0.0
 70
    32
  0
VERTEX
  5
234F
330
2302
100
AcDbEntity
  8
241
100
AcDbVertex
100
AcDb3dPolylineVertex
 10
201.4784
 20
16.5216
 30
0.0
 70
    32
  0
VERTEX
  5
2350
330
2302
100
AcDbEntity
  8
241
100
AcDbVertex
100
AcDb3dPolylineVertex
 10
201.4409
 20
16.4669
 30
0.0
 70
    32
  0
VERTEX
  5
2351
330
2302
100
AcDbEntity
  8
241
100
AcDbVertex
100
AcDb3dPolylineVertex
 10
201.4037
 20
16.4119
 30
0.0
 70
    32
  0
VERTEX
  5
2352
330
2302
100
AcDbEntity
  8
241
100
AcDbVertex
100
AcDb3dPolylineVertex
 10
201.3667
 20
16.3568
 30
0.0
 70
    32
  0
VERTEX
  5
2353
330
2302
100
AcDbEntity
  8
241
100
AcDbVertex
100
AcDb3dPolylineVertex
 10
201.3301
 20
16.3014
 30
0.0
 70
    32
  0
VERTEX
  5
2354
330
2302
100
AcDbEntity
  8
241
100
AcDbVertex
100
AcDb3dPolylineVertex
 10
201.2937
 20
16.2457
 30
0.0
 70
    32
  0
VERTEX
  5
2355
330
2302
100
AcDbEntity
  8
241
100
AcDbVertex
100
AcDb3dPolylineVertex
 10
201.2577
 20
16.1899
 30
0.0
 70
    32
  0
VERTEX
  5
2356
330
2302
100
AcDbEntity
  8
241
100
AcDbVertex
100
AcDb3dPolylineVertex
 10
201.2219
 20
16.1338
 30
0.0
 70
    32
  0
VERTEX
  5
2357
330
2302
100
AcDbEntity
  8
241
100
AcDbVertex
100
AcDb3dPolylineVertex
 10
201.1865
 20
16.0776
 30
0.0
 70
    32
  0
VERTEX
  5
2358
330
2302
100
AcDbEntity
  8
241
100
AcDbVertex
100
AcDb3dPolylineVertex
 10
201.1513
 20
16.0211
 30
0.0
 70
    32
  0
VERTEX
  5
2359
330
2302
100
AcDbEntity
  8
241
100
AcDbVertex
100
AcDb3dPolylineVertex
 10
201.1164
 20
15.9644
 30
0.0
 70
    32
  0
VERTEX
  5
235A
330
2302
100
AcDbEntity
  8
241
100
AcDbVertex
100
AcDb3dPolylineVertex
 10
201.0819
 20
15.9075
 30
0.0
 70
    32
  0
VERTEX
  5
235B
330
2302
100
AcDbEntity
  8
241
100
AcDbVertex
100
AcDb3dPolylineVertex
 10
201.0476
 20
15.8505
 30
0.0
 70
    32
  0
VERTEX
  5
235C
330
2302
100
AcDbEntity
  8
241
100
AcDbVertex
100
AcDb3dPolylineVertex
 10
201.0136
 20
15.7932
 30
0.0
 70
    32
  0
VERTEX
  5
235D
330
2302
100
AcDbEntity
  8
241
100
AcDbVertex
100
AcDb3dPolylineVertex
 10
200.9799
 20
15.7357
 30
0.0
 70
    32
  0
VERTEX
  5
235E
330
2302
100
AcDbEntity
  8
241
100
AcDbVertex
100
AcDb3dPolylineVertex
 10
200.9465
 20
15.678
 30
0.0
 70
    32
  0
VERTEX
  5
235F
330
2302
100
AcDbEntity
  8
241
100
AcDbVertex
100
AcDb3dPolylineVertex
 10
200.9134
 20
15.6202
 30
0.0
 70
    32
  0
VERTEX
  5
2360
330
2302
100
AcDbEntity
  8
241
100
AcDbVertex
100
AcDb3dPolylineVertex
 10
200.8807
 20
15.5621
 30
0.0
 70
    32
  0
VERTEX
  5
2361
330
2302
100
AcDbEntity
  8
241
100
AcDbVertex
100
AcDb3dPolylineVertex
 10
200.8482
 20
15.5039
 30
0.0
 70
    32
  0
VERTEX
  5
2362
330
2302
100
AcDbEntity
  8
241
100
AcDbVertex
100
AcDb3dPolylineVertex
 10
200.816
 20
15.4455
 30
0.0
 70
    32
  0
VERTEX
  5
2363
330
2302
100
AcDbEntity
  8
241
100
AcDbVertex
100
AcDb3dPolylineVertex
 10
200.7841
 20
15.3869
 30
0.0
 70
    32
  0
VERTEX
  5
2364
330
2302
100
AcDbEntity
  8
241
100
AcDbVertex
100
AcDb3dPolylineVertex
 10
200.7525
 20
15.3282
 30
0.0
 70
    32
  0
VERTEX
  5
2365
330
2302
100
AcDbEntity
  8
241
100
AcDbVertex
100
AcDb3dPolylineVertex
 10
200.7211
 20
15.2693
 30
0.0
 70
    32
  0
VERTEX
  5
2366
330
2302
100
AcDbEntity
  8
241
100
AcDbVertex
100
AcDb3dPolylineVertex
 10
200.6901
 20
15.2102
 30
0.0
 70
    32
  0
VERTEX
  5
2367
330
2302
100
AcDbEntity
  8
241
100
AcDbVertex
100
AcDb3dPolylineVertex
 10
200.6594
 20
15.1509
 30
0.0
 70
    32
  0
VERTEX
  5
2368
330
2302
100
AcDbEntity
  8
241
100
AcDbVertex
100
AcDb3dPolylineVertex
 10
200.629
 20
15.0915
 30
0.0
 70
    32
  0
VERTEX
  5
2369
330
2302
100
AcDbEntity
  8
241
100
AcDbVertex
100
AcDb3dPolylineVertex
 10
200.5989
 20
15.0319
 30
0.0
 70
    32
  0
VERTEX
  5
236A
330
2302
100
AcDbEntity
  8
241
100
AcDbVertex
100
AcDb3dPolylineVertex
 10
200.5691
 20
14.9721
 30
0.0
 70
    32
  0
VERTEX
  5
236B
330
2302
100
AcDbEntity
  8
241
100
AcDbVertex
100
AcDb3dPolylineVertex
 10
200.5396
 20
14.9122
 30
0.0
 70
    32
  0
VERTEX
  5
236C
330
2302
100
AcDbEntity
  8
241
100
AcDbVertex
100
AcDb3dPolylineVertex
 10
200.5103
 20
14.8522
 30
0.0
 70
    32
  0
VERTEX
  5
236D
330
2302
100
AcDbEntity
  8
241
100
AcDbVertex
100
AcDb3dPolylineVertex
 10
200.4814
 20
14.792
 30
0.0
 70
    32
  0
VERTEX
  5
236E
330
2302
100
AcDbEntity
  8
241
100
AcDbVertex
100
AcDb3dPolylineVertex
 10
200.4528
 20
14.7316
 30
0.0
 70
    32
  0
VERTEX
  5
236F
330
2302
100
AcDbEntity
  8
241
100
AcDbVertex
100
AcDb3dPolylineVertex
 10
200.4245
 20
14.6711
 30
0.0
 70
    32
  0
VERTEX
  5
2370
330
2302
100
AcDbEntity
  8
241
100
AcDbVertex
100
AcDb3dPolylineVertex
 10
200.3964
 20
14.6105
 30
0.0
 70
    32
  0
VERTEX
  5
2371
330
2302
100
AcDbEntity
  8
241
100
AcDbVertex
100
AcDb3dPolylineVertex
 10
200.3687
 20
14.5497
 30
0.0
 70
    32
  0
VERTEX
  5
2372
330
2302
100
AcDbEntity
  8
241
100
AcDbVertex
100
AcDb3dPolylineVertex
 10
200.3413
 20
14.4888
 30
0.0
 70
    32
  0
VERTEX
  5
2373
330
2302
100
AcDbEntity
  8
241
100
AcDbVertex
100
AcDb3dPolylineVertex
 10
200.3141
 20
14.4278
 30
0.0
 70
    32
  0
VERTEX
  5
2374
330
2302
100
AcDbEntity
  8
241
100
AcDbVertex
100
AcDb3dPolylineVertex
 10
200.2873
 20
14.3666
 30
0.0
 70
    32
  0
VERTEX
  5
2375
330
2302
100
AcDbEntity
  8
241
100
AcDbVertex
100
AcDb3dPolylineVertex
 10
200.2608
 20
14.3053
 30
0.0
 70
    32
  0
VERTEX
  5
2376
330
2302
100
AcDbEntity
  8
241
100
AcDbVertex
100
AcDb3dPolylineVertex
 10
200.2346
 20
14.2439
 30
0.0
 70
    32
  0
VERTEX
  5
2377
330
2302
100
AcDbEntity
  8
241
100
AcDbVertex
100
AcDb3dPolylineVertex
 10
200.2086
 20
14.1824
 30
0.0
 70
    32
  0
VERTEX
  5
2378
330
2302
100
AcDbEntity
  8
241
100
AcDbVertex
100
AcDb3dPolylineVertex
 10
200.183
 20
14.1207
 30
0.0
 70
    32
  0
VERTEX
  5
2379
330
2302
100
AcDbEntity
  8
241
100
AcDbVertex
100
AcDb3dPolylineVertex
 10
200.1576
 20
14.0589
 30
0.0
 70
    32
  0
VERTEX
  5
237A
330
2302
100
AcDbEntity
  8
241
100
AcDbVertex
100
AcDb3dPolylineVertex
 10
200.1326
 20
13.997
 30
0.0
 70
    32
  0
VERTEX
  5
237B
330
2302
100
AcDbEntity
  8
241
100
AcDbVertex
100
AcDb3dPolylineVertex
 10
200.1079
 20
13.9351
 30
0.0
 70
    32
  0
VERTEX
  5
237C
330
2302
100
AcDbEntity
  8
241
100
AcDbVertex
100
AcDb3dPolylineVertex
 10
200.0834
 20
13.8729
 30
0.0
 70
    32
  0
VERTEX
  5
237D
330
2302
100
AcDbEntity
  8
241
100
AcDbVertex
100
AcDb3dPolylineVertex
 10
200.0593
 20
13.8107
 30
0.0
 70
    32
  0
VERTEX
  5
237E
330
2302
100
AcDbEntity
  8
241
100
AcDbVertex
100
AcDb3dPolylineVertex
 10
200.0355
 20
13.7484
 30
0.0
 70
    32
  0
VERTEX
  5
237F
330
2302
100
AcDbEntity
  8
241
100
AcDbVertex
100
AcDb3dPolylineVertex
 10
200.0119
 20
13.686
 30
0.0
 70
    32
  0
VERTEX
  5
2380
330
2302
100
AcDbEntity
  8
241
100
AcDbVertex
100
AcDb3dPolylineVertex
 10
199.9887
 20
13.6235
 30
0.0
 70
    32
  0
VERTEX
  5
2381
330
2302
100
AcDbEntity
  8
241
100
AcDbVertex
100
AcDb3dPolylineVertex
 10
199.9658
 20
13.5609
 30
0.0
 70
    32
  0
VERTEX
  5
2382
330
2302
100
AcDbEntity
  8
241
100
AcDbVertex
100
AcDb3dPolylineVertex
 10
199.9431
 20
13.4982
 30
0.0
 70
    32
  0
VERTEX
  5
2383
330
2302
100
AcDbEntity
  8
241
100
AcDbVertex
100
AcDb3dPolylineVertex
 10
199.9208
 20
13.4355
 30
0.0
 70
    32
  0
VERTEX
  5
2384
330
2302
100
AcDbEntity
  8
241
100
AcDbVertex
100
AcDb3dPolylineVertex
 10
199.8988
 20
13.3726
 30
0.0
 70
    32
  0
VERTEX
  5
2385
330
2302
100
AcDbEntity
  8
241
100
AcDbVertex
100
AcDb3dPolylineVertex
 10
199.8771
 20
13.3097
 30
0.0
 70
    32
  0
VERTEX
  5
2386
330
2302
100
AcDbEntity
  8
241
100
AcDbVertex
100
AcDb3dPolylineVertex
 10
199.8556
 20
13.2467
 30
0.0
 70
    32
  0
VERTEX
  5
2387
330
2302
100
AcDbEntity
  8
241
100
AcDbVertex
100
AcDb3dPolylineVertex
 10
199.8345
 20
13.1836
 30
0.0
 70
    32
  0
VERTEX
  5
2388
330
2302
100
AcDbEntity
  8
241
100
AcDbVertex
100
AcDb3dPolylineVertex
 10
199.8137
 20
13.1204
 30
0.0
 70
    32
  0
VERTEX
  5
2389
330
2302
100
AcDbEntity
  8
241
100
AcDbVertex
100
AcDb3dPolylineVertex
 10
199.7931
 20
13.0572
 30
0.0
 70
    32
  0
VERTEX
  5
238A
330
2302
100
AcDbEntity
  8
241
100
AcDbVertex
100
AcDb3dPolylineVertex
 10
199.7729
 20
12.9938
 30
0.0
 70
    32
  0
VERTEX
  5
238B
330
2302
100
AcDbEntity
  8
241
100
AcDbVertex
100
AcDb3dPolylineVertex
 10
199.753
 20
12.9305
 30
0.0
 70
    32
  0
VERTEX
  5
238C
330
2302
100
AcDbEntity
  8
241
100
AcDbVertex
100
AcDb3dPolylineVertex
 10
199.7334
 20
12.867
 30
0.0
 70
    32
  0
VERTEX
  5
238D
330
2302
100
AcDbEntity
  8
241
100
AcDbVertex
100
AcDb3dPolylineVertex
 10
199.7141
 20
12.8036
 30
0.0
 70
    32
  0
VERTEX
  5
238E
330
2302
100
AcDbEntity
  8
241
100
AcDbVertex
100
AcDb3dPolylineVertex
 10
199.6951
 20
12.74
 30
0.0
 70
    32
  0
VERTEX
  5
238F
330
2302
100
AcDbEntity
  8
241
100
AcDbVertex
100
AcDb3dPolylineVertex
 10
199.6763
 20
12.6764
 30
0.0
 70
    32
  0
VERTEX
  5
2390
330
2302
100
AcDbEntity
  8
241
100
AcDbVertex
100
AcDb3dPolylineVertex
 10
199.6579
 20
12.6128
 30
0.0
 70
    32
  0
VERTEX
  5
2391
330
2302
100
AcDbEntity
  8
241
100
AcDbVertex
100
AcDb3dPolylineVertex
 10
199.6398
 20
12.5491
 30
0.0
 70
    32
  0
VERTEX
  5
2392
330
2302
100
AcDbEntity
  8
241
100
AcDbVertex
100
AcDb3dPolylineVertex
 10
199.622
 20
12.4853
 30
0.0
 70
    32
  0
VERTEX
  5
2393
330
2302
100
AcDbEntity
  8
241
100
AcDbVertex
100
AcDb3dPolylineVertex
 10
199.6045
 20
12.4215
 30
0.0
 70
    32
  0
VERTEX
  5
2394
330
2302
100
AcDbEntity
  8
241
100
AcDbVertex
100
AcDb3dPolylineVertex
 10
199.5873
 20
12.3577
 30
0.0
 70
    32
  0
VERTEX
  5
2395
330
2302
100
AcDbEntity
  8
241
100
AcDbVertex
100
AcDb3dPolylineVertex
 10
199.5703
 20
12.2938
 30
0.0
 70
    32
  0
VERTEX
  5
2396
330
2302
100
AcDbEntity
  8
241
100
AcDbVertex
100
AcDb3dPolylineVertex
 10
199.5537
 20
12.2299
 30
0.0
 70
    32
  0
VERTEX
  5
2397
330
2302
100
AcDbEntity
  8
241
100
AcDbVertex
100
AcDb3dPolylineVertex
 10
199.5373
 20
12.1659
 30
0.0
 70
    32
  0
VERTEX
  5
2398
330
2302
100
AcDbEntity
  8
241
100
AcDbVertex
100
AcDb3dPolylineVertex
 10
199.5211
 20
12.1019
 30
0.0
 70
    32
  0
VERTEX
  5
2399
330
2302
100
AcDbEntity
  8
241
100
AcDbVertex
100
AcDb3dPolylineVertex
 10
199.5052
 20
12.0379
 30
0.0
 70
    32
  0
VERTEX
  5
239A
330
2302
100
AcDbEntity
  8
241
100
AcDbVertex
100
AcDb3dPolylineVertex
 10
199.4896
 20
11.9738
 30
0.0
 70
    32
  0
VERTEX
  5
239B
330
2302
100
AcDbEntity
  8
241
100
AcDbVertex
100
AcDb3dPolylineVertex
 10
199.4742
 20
11.9097
 30
0.0
 70
    32
  0
VERTEX
  5
239C
330
2302
100
AcDbEntity
  8
241
100
AcDbVertex
100
AcDb3dPolylineVertex
 10
199.4591
 20
11.8456
 30
0.0
 70
    32
  0
VERTEX
  5
239D
330
2302
100
AcDbEntity
  8
241
100
AcDbVertex
100
AcDb3dPolylineVertex
 10
199.4442
 20
11.7814
 30
0.0
 70
    32
  0
VERTEX
  5
239E
330
2302
100
AcDbEntity
  8
241
100
AcDbVertex
100
AcDb3dPolylineVertex
 10
199.4295
 20
11.7172
 30
0.0
 70
    32
  0
VERTEX
  5
239F
330
2302
100
AcDbEntity
  8
241
100
AcDbVertex
100
AcDb3dPolylineVertex
 10
199.415
 20
11.6529
 30
0.0
 70
    32
  0
VERTEX
  5
23A0
330
2302
100
AcDbEntity
  8
241
100
AcDbVertex
100
AcDb3dPolylineVertex
 10
199.4008
 20
11.5886
 30
0.0
 70
    32
  0
VERTEX
  5
23A1
330
2302
100
AcDbEntity
  8
241
100
AcDbVertex
100
AcDb3dPolylineVertex
 10
199.3867
 20
11.5243
 30
0.0
 70
    32
  0
VERTEX
  5
23A2
330
2302
100
AcDbEntity
  8
241
100
AcDbVertex
100
AcDb3dPolylineVertex
 10
199.3729
 20
11.4599
 30
0.0
 70
    32
  0
VERTEX
  5
23A3
330
2302
100
AcDbEntity
  8
241
100
AcDbVertex
100
AcDb3dPolylineVertex
 10
199.3592
 20
11.3956
 30
0.0
 70
    32
  0
VERTEX
  5
23A4
330
2302
100
AcDbEntity
  8
241
100
AcDbVertex
100
AcDb3dPolylineVertex
 10
199.3458
 20
11.3312
 30
0.0
 70
    32
  0
VERTEX
  5
23A5
330
2302
100
AcDbEntity
  8
241
100
AcDbVertex
100
AcDb3dPolylineVertex
 10
199.3325
 20
11.2667
 30
0.0
 70
    32
  0
VERTEX
  5
23A6
330
2302
100
AcDbEntity
  8
241
100
AcDbVertex
100
AcDb3dPolylineVertex
 10
199.3194
 20
11.2023
 30
0.0
 70
    32
  0
VERTEX
  5
23A7
330
2302
100
AcDbEntity
  8
241
100
AcDbVertex
100
AcDb3dPolylineVertex
 10
199.3065
 20
11.1378
 30
0.0
 70
    32
  0
VERTEX
  5
23A8
330
2302
100
AcDbEntity
  8
241
100
AcDbVertex
100
AcDb3dPolylineVertex
 10
199.2937
 20
11.0733
 30
0.0
 70
    32
  0
VERTEX
  5
23A9
330
2302
100
AcDbEntity
  8
241
100
AcDbVertex
100
AcDb3dPolylineVertex
 10
199.2811
 20
11.0087
 30
0.0
 70
    32
  0
VERTEX
  5
23AA
330
2302
100
AcDbEntity
  8
241
100
AcDbVertex
100
AcDb3dPolylineVertex
 10
199.2687
 20
10.9442
 30
0.0
 70
    32
  0
VERTEX
  5
23AB
330
2302
100
AcDbEntity
  8
241
100
AcDbVertex
100
AcDb3dPolylineVertex
 10
199.2564
 20
10.8796
 30
0.0
 70
    32
  0
VERTEX
  5
23AC
330
2302
100
AcDbEntity
  8
241
100
AcDbVertex
100
AcDb3dPolylineVertex
 10
199.2442
 20
10.815
 30
0.0
 70
    32
  0
VERTEX
  5
23AD
330
2302
100
AcDbEntity
  8
241
100
AcDbVertex
100
AcDb3dPolylineVertex
 10
199.2322
 20
10.7503
 30
0.0
 70
    32
  0
VERTEX
  5
23AE
330
2302
100
AcDbEntity
  8
241
100
AcDbVertex
100
AcDb3dPolylineVertex
 10
199.2203
 20
10.6857
 30
0.0
 70
    32
  0
VERTEX
  5
23AF
330
2302
100
AcDbEntity
  8
241
100
AcDbVertex
100
AcDb3dPolylineVertex
 10
199.2085
 20
10.621
 30
0.0
 70
    32
  0
VERTEX
  5
23B0
330
2302
100
AcDbEntity
  8
241
100
AcDbVertex
100
AcDb3dPolylineVertex
 10
199.1969
 20
10.5563
 30
0.0
 70
    32
  0
VERTEX
  5
23B1
330
2302
100
AcDbEntity
  8
241
100
AcDbVertex
100
AcDb3dPolylineVertex
 10
199.1853
 20
10.4916
 30
0.0
 70
    32
  0
VERTEX
  5
23B2
330
2302
100
AcDbEntity
  8
241
100
AcDbVertex
100
AcDb3dPolylineVertex
 10
199.1739
 20
10.4269
 30
0.0
 70
    32
  0
VERTEX
  5
23B3
330
2302
100
AcDbEntity
  8
241
100
AcDbVertex
100
AcDb3dPolylineVertex
 10
199.1626
 20
10.3622
 30
0.0
 70
    32
  0
VERTEX
  5
23B4
330
2302
100
AcDbEntity
  8
241
100
AcDbVertex
100
AcDb3dPolylineVertex
 10
199.1513
 20
10.2975
 30
0.0
 70
    32
  0
VERTEX
  5
23B5
330
2302
100
AcDbEntity
  8
241
100
AcDbVertex
100
AcDb3dPolylineVertex
 10
199.1401
 20
10.2327
 30
0.0
 70
    32
  0
VERTEX
  5
23B6
330
2302
100
AcDbEntity
  8
241
100
AcDbVertex
100
AcDb3dPolylineVertex
 10
199.1291
 20
10.1679
 30
0.0
 70
    32
  0
VERTEX
  5
23B7
330
2302
100
AcDbEntity
  8
241
100
AcDbVertex
100
AcDb3dPolylineVertex
 10
199.118
 20
10.1032
 30
0.0
 70
    32
  0
VERTEX
  5
23B8
330
2302
100
AcDbEntity
  8
241
100
AcDbVertex
100
AcDb3dPolylineVertex
 10
199.1071
 20
10.0384
 30
0.0
 70
    32
  0
VERTEX
  5
23B9
330
2302
100
AcDbEntity
  8
241
100
AcDbVertex
100
AcDb3dPolylineVertex
 10
199.0962
 20
9.97356
 30
0.0
 70
    32
  0
VERTEX
  5
23BA
330
2302
100
AcDbEntity
  8
241
100
AcDbVertex
100
AcDb3dPolylineVertex
 10
199.0854
 20
9.90875
 30
0.0
 70
    32
  0
VERTEX
  5
23BB
330
2302
100
AcDbEntity
  8
241
100
AcDbVertex
100
AcDb3dPolylineVertex
 10
199.0746
 20
9.84394
 30
0.0
 70
    32
  0
VERTEX
  5
23BC
330
2302
100
AcDbEntity
  8
241
100
AcDbVertex
100
AcDb3dPolylineVertex
 10
199.0639
 20
9.77912
 30
0.0
 70
    32
  0
VERTEX
  5
23BD
330
2302
100
AcDbEntity
  8
241
100
AcDbVertex
100
AcDb3dPolylineVertex
 10
199.0532
 20
9.71429
 30
0.0
 70
    32
  0
VERTEX
  5
23BE
330
2302
100
AcDbEntity
  8
241
100
AcDbVertex
100
AcDb3dPolylineVertex
 10
199.0425
 20
9.64946
 30
0.0
 70
    32
  0
VERTEX
  5
23BF
330
2302
100
AcDbEntity
  8
241
100
AcDbVertex
100
AcDb3dPolylineVertex
 10
199.0319
 20
9.58462
 30
0.0
 70
    32
  0
VERTEX
  5
23C0
330
2302
100
AcDbEntity
  8
241
100
AcDbVertex
100
AcDb3dPolylineVertex
 10
199.0212
 20
9.51978
 30
0.0
 70
    32
  0
VERTEX
  5
23C1
330
2302
100
AcDbEntity
  8
241
100
AcDbVertex
100
AcDb3dPolylineVertex
 10
199.0106
 20
9.45494
 30
0.0
 70
    32
  0
VERTEX
  5
23C2
330
2302
100
AcDbEntity
  8
241
100
AcDbVertex
100
AcDb3dPolylineVertex
 10
199.0
 20
9.3901
 30
0.0
 70
    32
  0
SEQEND
  5
23C3
330
2302
100
AcDbEntity
  8
241
  0
LINE
  5
23C4
330
95A
100
AcDbEntity
  8
241
100
AcDbLine
 10
228.02998233
 20
11.48528137
 30
0.0
 11
199.36155048
 21
11.48528137
 31
0.0
  0
ARC
  5
23C5
330
95A
100
AcDbEntity
  8
241
100
AcDbCircle
 10
231.0
 20
18.0
 30
0.0
 40
31.99999999999999
100
AcDbArc
 50
90.0
 51
180.0
  0
LINE
  5
23C6
330
95A
100
AcDbEntity
  8
241
100
AcDbLine
 10
199.0
 20
18.0
 30
0.0
 11
199.0
 21
9.0
 31
0.0
  0
POLYLINE
  5
23C7
330
95A
100
AcDbEntity
  8
241
100
AcDb3dPolyline
 66
     1
 10
0.0
 20
0.0
 30
0.0
 70
     8
  0
VERTEX
  5
23C8
330
23C7
100
AcDbEntity
  8
241
100
AcDbVertex
100
AcDb3dPolylineVertex
 10
221.53185
 20
31.6
 30
0.0
 70
    32
  0
VERTEX
  5
23C9
330
23C7
100
AcDbEntity
  8
241
100
AcDbVertex
100
AcDb3dPolylineVertex
 10
221.50581
 20
31.6827
 30
0.0
 70
    32
  0
VERTEX
  5
23CA
330
23C7
100
AcDbEntity
  8
241
100
AcDbVertex
100
AcDb3dPolylineVertex
 10
221.4791
 20
31.7652
 30
0.0
 70
    32
  0
VERTEX
  5
23CB
330
23C7
100
AcDbEntity
  8
241
100
AcDbVertex
100
AcDb3dPolylineVertex
 10
221.45171
 20
31.8473
 30
0.0
 70
    32
  0
VERTEX
  5
23CC
330
23C7
100
AcDbEntity
  8
241
100
AcDbVertex
100
AcDb3dPolylineVertex
 10
221.42364
 20
31.9291
 30
0.0
 70
    32
  0
VERTEX
  5
23CD
330
23C7
100
AcDbEntity
  8
241
100
AcDbVertex
100
AcDb3dPolylineVertex
 10
221.39489
 20
32.0106
 30
0.0
 70
    32
  0
VERTEX
  5
23CE
330
23C7
100
AcDbEntity
  8
241
100
AcDbVertex
100
AcDb3dPolylineVertex
 10
221.36548
 20
32.0918
 30
0.0
 70
    32
  0
VERTEX
  5
23CF
330
23C7
100
AcDbEntity
  8
241
100
AcDbVertex
100
AcDb3dPolylineVertex
 10
221.33539
 20
32.1727
 30
0.0
 70
    32
  0
VERTEX
  5
23D0
330
23C7
100
AcDbEntity
  8
241
100
AcDbVertex
100
AcDb3dPolylineVertex
 10
221.30464
 20
32.2532
 30
0.0
 70
    32
  0
VERTEX
  5
23D1
330
23C7
100
AcDbEntity
  8
241
100
AcDbVertex
100
AcDb3dPolylineVertex
 10
221.27323
 20
32.3334
 30
0.0
 70
    32
  0
VERTEX
  5
23D2
330
23C7
100
AcDbEntity
  8
241
100
AcDbVertex
100
AcDb3dPolylineVertex
 10
221.24116
 20
32.4133
 30
0.0
 70
    32
  0
VERTEX
  5
23D3
330
23C7
100
AcDbEntity
  8
241
100
AcDbVertex
100
AcDb3dPolylineVertex
 10
221.20843
 20
32.4927
 30
0.0
 70
    32
  0
VERTEX
  5
23D4
330
23C7
100
AcDbEntity
  8
241
100
AcDbVertex
100
AcDb3dPolylineVertex
 10
221.17504
 20
32.5719
 30
0.0
 70
    32
  0
VERTEX
  5
23D5
330
23C7
100
AcDbEntity
  8
241
100
AcDbVertex
100
AcDb3dPolylineVertex
 10
221.14101
 20
32.6506
 30
0.0
 70
    32
  0
VERTEX
  5
23D6
330
23C7
100
AcDbEntity
  8
241
100
AcDbVertex
100
AcDb3dPolylineVertex
 10
221.10632
 20
32.729
 30
0.0
 70
    32
  0
VERTEX
  5
23D7
330
23C7
100
AcDbEntity
  8
241
100
AcDbVertex
100
AcDb3dPolylineVertex
 10
221.07099
 20
32.807
 30
0.0
 70
    32
  0
VERTEX
  5
23D8
330
23C7
100
AcDbEntity
  8
241
100
AcDbVertex
100
AcDb3dPolylineVertex
 10
221.03502
 20
32.8846
 30
0.0
 70
    32
  0
VERTEX
  5
23D9
330
23C7
100
AcDbEntity
  8
241
100
AcDbVertex
100
AcDb3dPolylineVertex
 10
220.9984
 20
32.9618
 30
0.0
 70
    32
  0
VERTEX
  5
23DA
330
23C7
100
AcDbEntity
  8
241
100
AcDbVertex
100
AcDb3dPolylineVertex
 10
220.9612
 20
33.0386
 30
0.0
 70
    32
  0
VERTEX
  5
23DB
330
23C7
100
AcDbEntity
  8
241
100
AcDbVertex
100
AcDb3dPolylineVertex
 10
220.9233
 20
33.1149
 30
0.0
 70
    32
  0
VERTEX
  5
23DC
330
23C7
100
AcDbEntity
  8
241
100
AcDbVertex
100
AcDb3dPolylineVertex
 10
220.8848
 20
33.1909
 30
0.0
 70
    32
  0
VERTEX
  5
23DD
330
23C7
100
AcDbEntity
  8
241
100
AcDbVertex
100
AcDb3dPolylineVertex
 10
220.8457
 20
33.2664
 30
0.0
 70
    32
  0
VERTEX
  5
23DE
330
23C7
100
AcDbEntity
  8
241
100
AcDbVertex
100
AcDb3dPolylineVertex
 10
220.8059
 20
33.3415
 30
0.0
 70
    32
  0
VERTEX
  5
23DF
330
23C7
100
AcDbEntity
  8
241
100
AcDbVertex
100
AcDb3dPolylineVertex
 10
220.7655
 20
33.4162
 30
0.0
 70
    32
  0
VERTEX
  5
23E0
330
23C7
100
AcDbEntity
  8
241
100
AcDbVertex
100
AcDb3dPolylineVertex
 10
220.7245
 20
33.4904
 30
0.0
 70
    32
  0
VERTEX
  5
23E1
330
23C7
100
AcDbEntity
  8
241
100
AcDbVertex
100
AcDb3dPolylineVertex
 10
220.683
 20
33.5641
 30
0.0
 70
    32
  0
VERTEX
  5
23E2
330
23C7
100
AcDbEntity
  8
241
100
AcDbVertex
100
AcDb3dPolylineVertex
 10
220.6408
 20
33.6374
 30
0.0
 70
    32
  0
VERTEX
  5
23E3
330
23C7
100
AcDbEntity
  8
241
100
AcDbVertex
100
AcDb3dPolylineVertex
 10
220.598
 20
33.7102
 30
0.0
 70
    32
  0
VERTEX
  5
23E4
330
23C7
100
AcDbEntity
  8
241
100
AcDbVertex
100
AcDb3dPolylineVertex
 10
220.5545
 20
33.7826
 30
0.0
 70
    32
  0
VERTEX
  5
23E5
330
23C7
100
AcDbEntity
  8
241
100
AcDbVertex
100
AcDb3dPolylineVertex
 10
220.5106
 20
33.8545
 30
0.0
 70
    32
  0
VERTEX
  5
23E6
330
23C7
100
AcDbEntity
  8
241
100
AcDbVertex
100
AcDb3dPolylineVertex
 10
220.466
 20
33.9258
 30
0.0
 70
    32
  0
VERTEX
  5
23E7
330
23C7
100
AcDbEntity
  8
241
100
AcDbVertex
100
AcDb3dPolylineVertex
 10
220.4208
 20
33.9967
 30
0.0
 70
    32
  0
VERTEX
  5
23E8
330
23C7
100
AcDbEntity
  8
241
100
AcDbVertex
100
AcDb3dPolylineVertex
 10
220.375
 20
34.0671
 30
0.0
 70
    32
  0
VERTEX
  5
23E9
330
23C7
100
AcDbEntity
  8
241
100
AcDbVertex
100
AcDb3dPolylineVertex
 10
220.3287
 20
34.137
 30
0.0
 70
    32
  0
VERTEX
  5
23EA
330
23C7
100
AcDbEntity
  8
241
100
AcDbVertex
100
AcDb3dPolylineVertex
 10
220.2818
 20
34.2064
 30
0.0
 70
    32
  0
VERTEX
  5
23EB
330
23C7
100
AcDbEntity
  8
241
100
AcDbVertex
100
AcDb3dPolylineVertex
 10
220.2343
 20
34.2752
 30
0.0
 70
    32
  0
VERTEX
  5
23EC
330
23C7
100
AcDbEntity
  8
241
100
AcDbVertex
100
AcDb3dPolylineVertex
 10
220.1862
 20
34.3435
 30
0.0
 70
    32
  0
VERTEX
  5
23ED
330
23C7
100
AcDbEntity
  8
241
100
AcDbVertex
100
AcDb3dPolylineVertex
 10
220.1376
 20
34.4113
 30
0.0
 70
    32
  0
VERTEX
  5
23EE
330
23C7
100
AcDbEntity
  8
241
100
AcDbVertex
100
AcDb3dPolylineVertex
 10
220.0885
 20
34.4786
 30
0.0
 70
    32
  0
VERTEX
  5
23EF
330
23C7
100
AcDbEntity
  8
241
100
AcDbVertex
100
AcDb3dPolylineVertex
 10
220.0388
 20
34.5453
 30
0.0
 70
    32
  0
VERTEX
  5
23F0
330
23C7
100
AcDbEntity
  8
241
100
AcDbVertex
100
AcDb3dPolylineVertex
 10
219.9885
 20
34.6115
 30
0.0
 70
    32
  0
VERTEX
  5
23F1
330
23C7
100
AcDbEntity
  8
241
100
AcDbVertex
100
AcDb3dPolylineVertex
 10
219.9377
 20
34.6771
 30
0.0
 70
    32
  0
VERTEX
  5
23F2
330
23C7
100
AcDbEntity
  8
241
100
AcDbVertex
100
AcDb3dPolylineVertex
 10
219.8863
 20
34.7421
 30
0.0
 70
    32
  0
VERTEX
  5
23F3
330
23C7
100
AcDbEntity
  8
241
100
AcDbVertex
100
AcDb3dPolylineVertex
 10
219.8344
 20
34.8066
 30
0.0
 70
    32
  0
VERTEX
  5
23F4
330
23C7
100
AcDbEntity
  8
241
100
AcDbVertex
100
AcDb3dPolylineVertex
 10
219.782
 20
34.8705
 30
0.0
 70
    32
  0
VERTEX
  5
23F5
330
23C7
100
AcDbEntity
  8
241
100
AcDbVertex
100
AcDb3dPolylineVertex
 10
219.7291
 20
34.9338
 30
0.0
 70
    32
  0
VERTEX
  5
23F6
330
23C7
100
AcDbEntity
  8
241
100
AcDbVertex
100
AcDb3dPolylineVertex
 10
219.6756
 20
34.9965
 30
0.0
 70
    32
  0
VERTEX
  5
23F7
330
23C7
100
AcDbEntity
  8
241
100
AcDbVertex
100
AcDb3dPolylineVertex
 10
219.6217
 20
35.0587
 30
0.0
 70
    32
  0
VERTEX
  5
23F8
330
23C7
100
AcDbEntity
  8
241
100
AcDbVertex
100
AcDb3dPolylineVertex
 10
219.5672
 20
35.1202
 30
0.0
 70
    32
  0
VERTEX
  5
23F9
330
23C7
100
AcDbEntity
  8
241
100
AcDbVertex
100
AcDb3dPolylineVertex
 10
219.5122
 20
35.1812
 30
0.0
 70
    32
  0
VERTEX
  5
23FA
330
23C7
100
AcDbEntity
  8
241
100
AcDbVertex
100
AcDb3dPolylineVertex
 10
219.4567
 20
35.2415
 30
0.0
 70
    32
  0
VERTEX
  5
23FB
330
23C7
100
AcDbEntity
  8
241
100
AcDbVertex
100
AcDb3dPolylineVertex
 10
219.4007
 20
35.3012
 30
0.0
 70
    32
  0
VERTEX
  5
23FC
330
23C7
100
AcDbEntity
  8
241
100
AcDbVertex
100
AcDb3dPolylineVertex
 10
219.3442
 20
35.3603
 30
0.0
 70
    32
  0
VERTEX
  5
23FD
330
23C7
100
AcDbEntity
  8
241
100
AcDbVertex
100
AcDb3dPolylineVertex
 10
219.2873
 20
35.4188
 30
0.0
 70
    32
  0
VERTEX
  5
23FE
330
23C7
100
AcDbEntity
  8
241
100
AcDbVertex
100
AcDb3dPolylineVertex
 10
219.2298
 20
35.4767
 30
0.0
 70
    32
  0
VERTEX
  5
23FF
330
23C7
100
AcDbEntity
  8
241
100
AcDbVertex
100
AcDb3dPolylineVertex
 10
219.1719
 20
35.5339
 30
0.0
 70
    32
  0
VERTEX
  5
2400
330
23C7
100
AcDbEntity
  8
241
100
AcDbVertex
100
AcDb3dPolylineVertex
 10
219.1135
 20
35.5905
 30
0.0
 70
    32
  0
VERTEX
  5
2401
330
23C7
100
AcDbEntity
  8
241
100
AcDbVertex
100
AcDb3dPolylineVertex
 10
219.0547
 20
35.6464
 30
0.0
 70
    32
  0
VERTEX
  5
2402
330
23C7
100
AcDbEntity
  8
241
100
AcDbVertex
100
AcDb3dPolylineVertex
 10
218.9954
 20
35.7017
 30
0.0
 70
    32
  0
VERTEX
  5
2403
330
23C7
100
AcDbEntity
  8
241
100
AcDbVertex
100
AcDb3dPolylineVertex
 10
218.9356
 20
35.7563
 30
0.0
 70
    32
  0
VERTEX
  5
2404
330
23C7
100
AcDbEntity
  8
241
100
AcDbVertex
100
AcDb3dPolylineVertex
 10
218.8754
 20
35.8103
 30
0.0
 70
    32
  0
VERTEX
  5
2405
330
23C7
100
AcDbEntity
  8
241
100
AcDbVertex
100
AcDb3dPolylineVertex
 10
218.8147
 20
35.8636
 30
0.0
 70
    32
  0
VERTEX
  5
2406
330
23C7
100
AcDbEntity
  8
241
100
AcDbVertex
100
AcDb3dPolylineVertex
 10
218.7537
 20
35.9162
 30
0.0
 70
    32
  0
VERTEX
  5
2407
330
23C7
100
AcDbEntity
  8
241
100
AcDbVertex
100
AcDb3dPolylineVertex
 10
218.6921
 20
35.9682
 30
0.0
 70
    32
  0
VERTEX
  5
2408
330
23C7
100
AcDbEntity
  8
241
100
AcDbVertex
100
AcDb3dPolylineVertex
 10
218.6302
 20
36.0195
 30
0.0
 70
    32
  0
VERTEX
  5
2409
330
23C7
100
AcDbEntity
  8
241
100
AcDbVertex
100
AcDb3dPolylineVertex
 10
218.5678
 20
36.0701
 30
0.0
 70
    32
  0
VERTEX
  5
240A
330
23C7
100
AcDbEntity
  8
241
100
AcDbVertex
100
AcDb3dPolylineVertex
 10
218.505
 20
36.12
 30
0.0
 70
    32
  0
VERTEX
  5
240B
330
23C7
100
AcDbEntity
  8
241
100
AcDbVertex
100
AcDb3dPolylineVertex
 10
218.4418
 20
36.1692
 30
0.0
 70
    32
  0
VERTEX
  5
240C
330
23C7
100
AcDbEntity
  8
241
100
AcDbVertex
100
AcDb3dPolylineVertex
 10
218.3783
 20
36.2177
 30
0.0
 70
    32
  0
VERTEX
  5
240D
330
23C7
100
AcDbEntity
  8
241
100
AcDbVertex
100
AcDb3dPolylineVertex
 10
218.3143
 20
36.2655
 30
0.0
 70
    32
  0
VERTEX
  5
240E
330
23C7
100
AcDbEntity
  8
241
100
AcDbVertex
100
AcDb3dPolylineVertex
 10
218.2499
 20
36.3126
 30
0.0
 70
    32
  0
VERTEX
  5
240F
330
23C7
100
AcDbEntity
  8
241
100
AcDbVertex
100
AcDb3dPolylineVertex
 10
218.1851
 20
36.359
 30
0.0
 70
    32
  0
VERTEX
  5
2410
330
23C7
100
AcDbEntity
  8
241
100
AcDbVertex
100
AcDb3dPolylineVertex
 10
218.12
 20
36.4047
 30
0.0
 70
    32
  0
VERTEX
  5
2411
330
23C7
100
AcDbEntity
  8
241
100
AcDbVertex
100
AcDb3dPolylineVertex
 10
218.0544
 20
36.4497
 30
0.0
 70
    32
  0
VERTEX
  5
2412
330
23C7
100
AcDbEntity
  8
241
100
AcDbVertex
100
AcDb3dPolylineVertex
 10
217.9885
 20
36.4939
 30
0.0
 70
    32
  0
VERTEX
  5
2413
330
23C7
100
AcDbEntity
  8
241
100
AcDbVertex
100
AcDb3dPolylineVertex
 10
217.9223
 20
36.5375
 30
0.0
 70
    32
  0
VERTEX
  5
2414
330
23C7
100
AcDbEntity
  8
241
100
AcDbVertex
100
AcDb3dPolylineVertex
 10
217.8557
 20
36.5802
 30
0.0
 70
    32
  0
VERTEX
  5
2415
330
23C7
100
AcDbEntity
  8
241
100
AcDbVertex
100
AcDb3dPolylineVertex
 10
217.7887
 20
36.6223
 30
0.0
 70
    32
  0
VERTEX
  5
2416
330
23C7
100
AcDbEntity
  8
241
100
AcDbVertex
100
AcDb3dPolylineVertex
 10
217.7214
 20
36.6636
 30
0.0
 70
    32
  0
VERTEX
  5
2417
330
23C7
100
AcDbEntity
  8
241
100
AcDbVertex
100
AcDb3dPolylineVertex
 10
217.6538
 20
36.7042
 30
0.0
 70
    32
  0
VERTEX
  5
2418
330
23C7
100
AcDbEntity
  8
241
100
AcDbVertex
100
AcDb3dPolylineVertex
 10
217.5858
 20
36.744
 30
0.0
 70
    32
  0
VERTEX
  5
2419
330
23C7
100
AcDbEntity
  8
241
100
AcDbVertex
100
AcDb3dPolylineVertex
 10
217.5175
 20
36.7831
 30
0.0
 70
    32
  0
VERTEX
  5
241A
330
23C7
100
AcDbEntity
  8
241
100
AcDbVertex
100
AcDb3dPolylineVertex
 10
217.4489
 20
36.8214
 30
0.0
 70
    32
  0
VERTEX
  5
241B
330
23C7
100
AcDbEntity
  8
241
100
AcDbVertex
100
AcDb3dPolylineVertex
 10
217.38
 20
36.859
 30
0.0
 70
    32
  0
VERTEX
  5
241C
330
23C7
100
AcDbEntity
  8
241
100
AcDbVertex
100
AcDb3dPolylineVertex
 10
217.3107
 20
36.8958
 30
0.0
 70
    32
  0
VERTEX
  5
241D
330
23C7
100
AcDbEntity
  8
241
100
AcDbVertex
100
AcDb3dPolylineVertex
 10
217.2412
 20
36.9318
 30
0.0
 70
    32
  0
VERTEX
  5
241E
330
23C7
100
AcDbEntity
  8
241
100
AcDbVertex
100
AcDb3dPolylineVertex
 10
217.1714
 20
36.9671
 30
0.0
 70
    32
  0
VERTEX
  5
241F
330
23C7
100
AcDbEntity
  8
241
100
AcDbVertex
100
AcDb3dPolylineVertex
 10
217.1012
 20
37.0016
 30
0.0
 70
    32
  0
VERTEX
  5
2420
330
23C7
100
AcDbEntity
  8
241
100
AcDbVertex
100
AcDb3dPolylineVertex
 10
217.0308
 20
37.0353
 30
0.0
 70
    32
  0
VERTEX
  5
2421
330
23C7
100
AcDbEntity
  8
241
100
AcDbVertex
100
AcDb3dPolylineVertex
 10
216.9602
 20
37.0683
 30
0.0
 70
    32
  0
VERTEX
  5
2422
330
23C7
100
AcDbEntity
  8
241
100
AcDbVertex
100
AcDb3dPolylineVertex
 10
216.8892
 20
37.1004
 30
0.0
 70
    32
  0
VERTEX
  5
2423
330
23C7
100
AcDbEntity
  8
241
100
AcDbVertex
100
AcDb3dPolylineVertex
 10
216.818
 20
37.1318
 30
0.0
 70
    32
  0
VERTEX
  5
2424
330
23C7
100
AcDbEntity
  8
241
100
AcDbVertex
100
AcDb3dPolylineVertex
 10
216.7465
 20
37.1624
 30
0.0
 70
    32
  0
VERTEX
  5
2425
330
23C7
100
AcDbEntity
  8
241
100
AcDbVertex
100
AcDb3dPolylineVertex
 10
216.6748
 20
37.1923
 30
0.0
 70
    32
  0
VERTEX
  5
2426
330
23C7
100
AcDbEntity
  8
241
100
AcDbVertex
100
AcDb3dPolylineVertex
 10
216.6029
 20
37.2213
 30
0.0
 70
    32
  0
VERTEX
  5
2427
330
23C7
100
AcDbEntity
  8
241
100
AcDbVertex
100
AcDb3dPolylineVertex
 10
216.5307
 20
37.2495
 30
0.0
 70
    32
  0
VERTEX
  5
2428
330
23C7
100
AcDbEntity
  8
241
100
AcDbVertex
100
AcDb3dPolylineVertex
 10
216.4583
 20
37.277
 30
0.0
 70
    32
  0
VERTEX
  5
2429
330
23C7
100
AcDbEntity
  8
241
100
AcDbVertex
100
AcDb3dPolylineVertex
 10
216.3856
 20
37.3036
 30
0.0
 70
    32
  0
VERTEX
  5
242A
330
23C7
100
AcDbEntity
  8
241
100
AcDbVertex
100
AcDb3dPolylineVertex
 10
216.3128
 20
37.3295
 30
0.0
 70
    32
  0
VERTEX
  5
242B
330
23C7
100
AcDbEntity
  8
241
100
AcDbVertex
100
AcDb3dPolylineVertex
 10
216.2397
 20
37.3545
 30
0.0
 70
    32
  0
VERTEX
  5
242C
330
23C7
100
AcDbEntity
  8
241
100
AcDbVertex
100
AcDb3dPolylineVertex
 10
216.1664
 20
37.3788
 30
0.0
 70
    32
  0
VERTEX
  5
242D
330
23C7
100
AcDbEntity
  8
241
100
AcDbVertex
100
AcDb3dPolylineVertex
 10
216.0929
 20
37.4022
 30
0.0
 70
    32
  0
VERTEX
  5
242E
330
23C7
100
AcDbEntity
  8
241
100
AcDbVertex
100
AcDb3dPolylineVertex
 10
216.0193
 20
37.4248
 30
0.0
 70
    32
  0
VERTEX
  5
242F
330
23C7
100
AcDbEntity
  8
241
100
AcDbVertex
100
AcDb3dPolylineVertex
 10
215.9454
 20
37.4466
 30
0.0
 70
    32
  0
VERTEX
  5
2430
330
23C7
100
AcDbEntity
  8
241
100
AcDbVertex
100
AcDb3dPolylineVertex
 10
215.8714
 20
37.4676
 30
0.0
 70
    32
  0
VERTEX
  5
2431
330
23C7
100
AcDbEntity
  8
241
100
AcDbVertex
100
AcDb3dPolylineVertex
 10
215.7972
 20
37.4878
 30
0.0
 70
    32
  0
VERTEX
  5
2432
330
23C7
100
AcDbEntity
  8
241
100
AcDbVertex
100
AcDb3dPolylineVertex
 10
215.7229
 20
37.5072
 30
0.0
 70
    32
  0
VERTEX
  5
2433
330
23C7
100
AcDbEntity
  8
241
100
AcDbVertex
100
AcDb3dPolylineVertex
 10
215.6484
 20
37.5257
 30
0.0
 70
    32
  0
VERTEX
  5
2434
330
23C7
100
AcDbEntity
  8
241
100
AcDbVertex
100
AcDb3dPolylineVertex
 10
215.5737
 20
37.5434
 30
0.0
 70
    32
  0
VERTEX
  5
2435
330
23C7
100
AcDbEntity
  8
241
100
AcDbVertex
100
AcDb3dPolylineVertex
 10
215.4989
 20
37.5603
 30
0.0
 70
    32
  0
VERTEX
  5
2436
330
23C7
100
AcDbEntity
  8
241
100
AcDbVertex
100
AcDb3dPolylineVertex
 10
215.424
 20
37.5764
 30
0.0
 70
    32
  0
VERTEX
  5
2437
330
23C7
100
AcDbEntity
  8
241
100
AcDbVertex
100
AcDb3dPolylineVertex
 10
215.3489
 20
37.5917
 30
0.0
 70
    32
  0
VERTEX
  5
2438
330
23C7
100
AcDbEntity
  8
241
100
AcDbVertex
100
AcDb3dPolylineVertex
 10
215.2737
 20
37.6061
 30
0.0
 70
    32
  0
VERTEX
  5
2439
330
23C7
100
AcDbEntity
  8
241
100
AcDbVertex
100
AcDb3dPolylineVertex
 10
215.1984
 20
37.6197
 30
0.0
 70
    32
  0
VERTEX
  5
243A
330
23C7
100
AcDbEntity
  8
241
100
AcDbVertex
100
AcDb3dPolylineVertex
 10
215.123
 20
37.6325
 30
0.0
 70
    32
  0
VERTEX
  5
243B
330
23C7
100
AcDbEntity
  8
241
100
AcDbVertex
100
AcDb3dPolylineVertex
 10
215.0475
 20
37.6444
 30
0.0
 70
    32
  0
VERTEX
  5
243C
330
23C7
100
AcDbEntity
  8
241
100
AcDbVertex
100
AcDb3dPolylineVertex
 10
214.9719
 20
37.6555
 30
0.0
 70
    32
  0
VERTEX
  5
243D
330
23C7
100
AcDbEntity
  8
241
100
AcDbVertex
100
AcDb3dPolylineVertex
 10
214.8962
 20
37.6658
 30
0.0
 70
    32
  0
VERTEX
  5
243E
330
23C7
100
AcDbEntity
  8
241
100
AcDbVertex
100
AcDb3dPolylineVertex
 10
214.8204
 20
37.6752
 30
0.0
 70
    32
  0
VERTEX
  5
243F
330
23C7
100
AcDbEntity
  8
241
100
AcDbVertex
100
AcDb3dPolylineVertex
 10
214.7445
 20
37.6838
 30
0.0
 70
    32
  0
VERTEX
  5
2440
330
23C7
100
AcDbEntity
  8
241
100
AcDbVertex
100
AcDb3dPolylineVertex
 10
214.6686
 20
37.6916
 30
0.0
 70
    32
  0
VERTEX
  5
2441
330
23C7
100
AcDbEntity
  8
241
100
AcDbVertex
100
AcDb3dPolylineVertex
 10
214.5926
 20
37.6985
 30
0.0
 70
    32
  0
VERTEX
  5
2442
330
23C7
100
AcDbEntity
  8
241
100
AcDbVertex
100
AcDb3dPolylineVertex
 10
214.5166
 20
37.7046
 30
0.0
 70
    32
  0
VERTEX
  5
2443
330
23C7
100
AcDbEntity
  8
241
100
AcDbVertex
100
AcDb3dPolylineVertex
 10
214.4405
 20
37.7099
 30
0.0
 70
    32
  0
VERTEX
  5
2444
330
23C7
100
AcDbEntity
  8
241
100
AcDbVertex
100
AcDb3dPolylineVertex
 10
214.3644
 20
37.7143
 30
0.0
 70
    32
  0
VERTEX
  5
2445
330
23C7
100
AcDbEntity
  8
241
100
AcDbVertex
100
AcDb3dPolylineVertex
 10
214.2882
 20
37.7179
 30
0.0
 70
    32
  0
VERTEX
  5
2446
330
23C7
100
AcDbEntity
  8
241
100
AcDbVertex
100
AcDb3dPolylineVertex
 10
214.212
 20
37.7207
 30
0.0
 70
    32
  0
VERTEX
  5
2447
330
23C7
100
AcDbEntity
  8
241
100
AcDbVertex
100
AcDb3dPolylineVertex
 10
214.1358
 20
37.7226
 30
0.0
 70
    32
  0
VERTEX
  5
2448
330
23C7
100
AcDbEntity
  8
241
100
AcDbVertex
100
AcDb3dPolylineVertex
 10
214.0596
 20
37.7237
 30
0.0
 70
    32
  0
SEQEND
  5
2449
330
23C7
100
AcDbEntity
  8
241
  0
POLYLINE
  5
244A
330
95A
100
AcDbEntity
  8
241
100
AcDb3dPolyline
 66
     1
 10
0.0
 20
0.0
 30
0.0
 70
     8
  0
VERTEX
  5
244B
330
244A
100
AcDbEntity
  8
241
100
AcDbVertex
100
AcDb3dPolylineVertex
 10
206.785
 20
32.2578
 30
0.0
 70
    32
  0
VERTEX
  5
244C
330
244A
100
AcDbEntity
  8
241
100
AcDbVertex
100
AcDb3dPolylineVertex
 10
206.7982
 20
32.2884
 30
0.0
 70
    32
  0
VERTEX
  5
244D
330
244A
100
AcDbEntity
  8
241
100
AcDbVertex
100
AcDb3dPolylineVertex
 10
206.8114
 20
32.3189
 30
0.0
 70
    32
  0
VERTEX
  5
244E
330
244A
100
AcDbEntity
  8
241
100
AcDbVertex
100
AcDb3dPolylineVertex
 10
206.8248
 20
32.3495
 30
0.0
 70
    32
  0
VERTEX
  5
244F
330
244A
100
AcDbEntity
  8
241
100
AcDbVertex
100
AcDb3dPolylineVertex
 10
206.8382
 20
32.3799
 30
0.0
 70
    32
  0
VERTEX
  5
2450
330
244A
100
AcDbEntity
  8
241
100
AcDbVertex
100
AcDb3dPolylineVertex
 10
206.8518
 20
32.4104
 30
0.0
 70
    32
  0
VERTEX
  5
2451
330
244A
100
AcDbEntity
  8
241
100
AcDbVertex
100
AcDb3dPolylineVertex
 10
206.8654
 20
32.4408
 30
0.0
 70
    32
  0
VERTEX
  5
2452
330
244A
100
AcDbEntity
  8
241
100
AcDbVertex
100
AcDb3dPolylineVertex
 10
206.8792
 20
32.4711
 30
0.0
 70
    32
  0
VERTEX
  5
2453
330
244A
100
AcDbEntity
  8
241
100
AcDbVertex
100
AcDb3dPolylineVertex
 10
206.893
 20
32.5014
 30
0.0
 70
    32
  0
VERTEX
  5
2454
330
244A
100
AcDbEntity
  8
241
100
AcDbVertex
100
AcDb3dPolylineVertex
 10
206.907
 20
32.5316
 30
0.0
 70
    32
  0
VERTEX
  5
2455
330
244A
100
AcDbEntity
  8
241
100
AcDbVertex
100
AcDb3dPolylineVertex
 10
206.9211
 20
32.5618
 30
0.0
 70
    32
  0
VERTEX
  5
2456
330
244A
100
AcDbEntity
  8
241
100
AcDbVertex
100
AcDb3dPolylineVertex
 10
206.9352
 20
32.592
 30
0.0
 70
    32
  0
VERTEX
  5
2457
330
244A
100
AcDbEntity
  8
241
100
AcDbVertex
100
AcDb3dPolylineVertex
 10
206.9495
 20
32.6221
 30
0.0
 70
    32
  0
VERTEX
  5
2458
330
244A
100
AcDbEntity
  8
241
100
AcDbVertex
100
AcDb3dPolylineVertex
 10
206.9638
 20
32.6521
 30
0.0
 70
    32
  0
VERTEX
  5
2459
330
244A
100
AcDbEntity
  8
241
100
AcDbVertex
100
AcDb3dPolylineVertex
 10
206.9783
 20
32.6822
 30
0.0
 70
    32
  0
VERTEX
  5
245A
330
244A
100
AcDbEntity
  8
241
100
AcDbVertex
100
AcDb3dPolylineVertex
 10
206.9929
 20
32.7121
 30
0.0
 70
    32
  0
VERTEX
  5
245B
330
244A
100
AcDbEntity
  8
241
100
AcDbVertex
100
AcDb3dPolylineVertex
 10
207.0075
 20
32.742
 30
0.0
 70
    32
  0
VERTEX
  5
245C
330
244A
100
AcDbEntity
  8
241
100
AcDbVertex
100
AcDb3dPolylineVertex
 10
207.0223
 20
32.7719
 30
0.0
 70
    32
  0
VERTEX
  5
245D
330
244A
100
AcDbEntity
  8
241
100
AcDbVertex
100
AcDb3dPolylineVertex
 10
207.0372
 20
32.8017
 30
0.0
 70
    32
  0
VERTEX
  5
245E
330
244A
100
AcDbEntity
  8
241
100
AcDbVertex
100
AcDb3dPolylineVertex
 10
207.0521
 20
32.8314
 30
0.0
 70
    32
  0
VERTEX
  5
245F
330
244A
100
AcDbEntity
  8
241
100
AcDbVertex
100
AcDb3dPolylineVertex
 10
207.0672
 20
32.8611
 30
0.0
 70
    32
  0
VERTEX
  5
2460
330
244A
100
AcDbEntity
  8
241
100
AcDbVertex
100
AcDb3dPolylineVertex
 10
207.0823
 20
32.8908
 30
0.0
 70
    32
  0
VERTEX
  5
2461
330
244A
100
AcDbEntity
  8
241
100
AcDbVertex
100
AcDb3dPolylineVertex
 10
207.0976
 20
32.9204
 30
0.0
 70
    32
  0
VERTEX
  5
2462
330
244A
100
AcDbEntity
  8
241
100
AcDbVertex
100
AcDb3dPolylineVertex
 10
207.113
 20
32.95
 30
0.0
 70
    32
  0
VERTEX
  5
2463
330
244A
100
AcDbEntity
  8
241
100
AcDbVertex
100
AcDb3dPolylineVertex
 10
207.1284
 20
32.9795
 30
0.0
 70
    32
  0
VERTEX
  5
2464
330
244A
100
AcDbEntity
  8
241
100
AcDbVertex
100
AcDb3dPolylineVertex
 10
207.144
 20
33.0089
 30
0.0
 70
    32
  0
VERTEX
  5
2465
330
244A
100
AcDbEntity
  8
241
100
AcDbVertex
100
AcDb3dPolylineVertex
 10
207.1597
 20
33.0383
 30
0.0
 70
    32
  0
VERTEX
  5
2466
330
244A
100
AcDbEntity
  8
241
100
AcDbVertex
100
AcDb3dPolylineVertex
 10
207.1754
 20
33.0677
 30
0.0
 70
    32
  0
VERTEX
  5
2467
330
244A
100
AcDbEntity
  8
241
100
AcDbVertex
100
AcDb3dPolylineVertex
 10
207.1913
 20
33.0969
 30
0.0
 70
    32
  0
VERTEX
  5
2468
330
244A
100
AcDbEntity
  8
241
100
AcDbVertex
100
AcDb3dPolylineVertex
 10
207.2072
 20
33.1262
 30
0.0
 70
    32
  0
VERTEX
  5
2469
330
244A
100
AcDbEntity
  8
241
100
AcDbVertex
100
AcDb3dPolylineVertex
 10
207.2233
 20
33.1554
 30
0.0
 70
    32
  0
VERTEX
  5
246A
330
244A
100
AcDbEntity
  8
241
100
AcDbVertex
100
AcDb3dPolylineVertex
 10
207.2394
 20
33.1845
 30
0.0
 70
    32
  0
VERTEX
  5
246B
330
244A
100
AcDbEntity
  8
241
100
AcDbVertex
100
AcDb3dPolylineVertex
 10
207.2557
 20
33.2136
 30
0.0
 70
    32
  0
VERTEX
  5
246C
330
244A
100
AcDbEntity
  8
241
100
AcDbVertex
100
AcDb3dPolylineVertex
 10
207.272
 20
33.2426
 30
0.0
 70
    32
  0
VERTEX
  5
246D
330
244A
100
AcDbEntity
  8
241
100
AcDbVertex
100
AcDb3dPolylineVertex
 10
207.2885
 20
33.2716
 30
0.0
 70
    32
  0
VERTEX
  5
246E
330
244A
100
AcDbEntity
  8
241
100
AcDbVertex
100
AcDb3dPolylineVertex
 10
207.305
 20
33.3005
 30
0.0
 70
    32
  0
VERTEX
  5
246F
330
244A
100
AcDbEntity
  8
241
100
AcDbVertex
100
AcDb3dPolylineVertex
 10
207.3216
 20
33.3294
 30
0.0
 70
    32
  0
VERTEX
  5
2470
330
244A
100
AcDbEntity
  8
241
100
AcDbVertex
100
AcDb3dPolylineVertex
 10
207.3384
 20
33.3582
 30
0.0
 70
    32
  0
VERTEX
  5
2471
330
244A
100
AcDbEntity
  8
241
100
AcDbVertex
100
AcDb3dPolylineVertex
 10
207.3552
 20
33.3869
 30
0.0
 70
    32
  0
VERTEX
  5
2472
330
244A
100
AcDbEntity
  8
241
100
AcDbVertex
100
AcDb3dPolylineVertex
 10
207.3721
 20
33.4156
 30
0.0
 70
    32
  0
VERTEX
  5
2473
330
244A
100
AcDbEntity
  8
241
100
AcDbVertex
100
AcDb3dPolylineVertex
 10
207.3892
 20
33.4443
 30
0.0
 70
    32
  0
VERTEX
  5
2474
330
244A
100
AcDbEntity
  8
241
100
AcDbVertex
100
AcDb3dPolylineVertex
 10
207.4063
 20
33.4729
 30
0.0
 70
    32
  0
VERTEX
  5
2475
330
244A
100
AcDbEntity
  8
241
100
AcDbVertex
100
AcDb3dPolylineVertex
 10
207.4235
 20
33.5014
 30
0.0
 70
    32
  0
VERTEX
  5
2476
330
244A
100
AcDbEntity
  8
241
100
AcDbVertex
100
AcDb3dPolylineVertex
 10
207.4408
 20
33.5299
 30
0.0
 70
    32
  0
VERTEX
  5
2477
330
244A
100
AcDbEntity
  8
241
100
AcDbVertex
100
AcDb3dPolylineVertex
 10
207.4582
 20
33.5583
 30
0.0
 70
    32
  0
VERTEX
  5
2478
330
244A
100
AcDbEntity
  8
241
100
AcDbVertex
100
AcDb3dPolylineVertex
 10
207.4757
 20
33.5866
 30
0.0
 70
    32
  0
VERTEX
  5
2479
330
244A
100
AcDbEntity
  8
241
100
AcDbVertex
100
AcDb3dPolylineVertex
 10
207.4933
 20
33.6149
 30
0.0
 70
    32
  0
VERTEX
  5
247A
330
244A
100
AcDbEntity
  8
241
100
AcDbVertex
100
AcDb3dPolylineVertex
 10
207.511
 20
33.6432
 30
0.0
 70
    32
  0
VERTEX
  5
247B
330
244A
100
AcDbEntity
  8
241
100
AcDbVertex
100
AcDb3dPolylineVertex
 10
207.5288
 20
33.6714
 30
0.0
 70
    32
  0
VERTEX
  5
247C
330
244A
100
AcDbEntity
  8
241
100
AcDbVertex
100
AcDb3dPolylineVertex
 10
207.5467
 20
33.6995
 30
0.0
 70
    32
  0
VERTEX
  5
247D
330
244A
100
AcDbEntity
  8
241
100
AcDbVertex
100
AcDb3dPolylineVertex
 10
207.5647
 20
33.7275
 30
0.0
 70
    32
  0
VERTEX
  5
247E
330
244A
100
AcDbEntity
  8
241
100
AcDbVertex
100
AcDb3dPolylineVertex
 10
207.5828
 20
33.7556
 30
0.0
 70
    32
  0
VERTEX
  5
247F
330
244A
100
AcDbEntity
  8
241
100
AcDbVertex
100
AcDb3dPolylineVertex
 10
207.6009
 20
33.7835
 30
0.0
 70
    32
  0
VERTEX
  5
2480
330
244A
100
AcDbEntity
  8
241
100
AcDbVertex
100
AcDb3dPolylineVertex
 10
207.6192
 20
33.8114
 30
0.0
 70
    32
  0
VERTEX
  5
2481
330
244A
100
AcDbEntity
  8
241
100
AcDbVertex
100
AcDb3dPolylineVertex
 10
207.6376
 20
33.8392
 30
0.0
 70
    32
  0
VERTEX
  5
2482
330
244A
100
AcDbEntity
  8
241
100
AcDbVertex
100
AcDb3dPolylineVertex
 10
207.656
 20
33.867
 30
0.0
 70
    32
  0
VERTEX
  5
2483
330
244A
100
AcDbEntity
  8
241
100
AcDbVertex
100
AcDb3dPolylineVertex
 10
207.6746
 20
33.8947
 30
0.0
 70
    32
  0
VERTEX
  5
2484
330
244A
100
AcDbEntity
  8
241
100
AcDbVertex
100
AcDb3dPolylineVertex
 10
207.6932
 20
33.9223
 30
0.0
 70
    32
  0
VERTEX
  5
2485
330
244A
100
AcDbEntity
  8
241
100
AcDbVertex
100
AcDb3dPolylineVertex
 10
207.712
 20
33.9499
 30
0.0
 70
    32
  0
VERTEX
  5
2486
330
244A
100
AcDbEntity
  8
241
100
AcDbVertex
100
AcDb3dPolylineVertex
 10
207.7308
 20
33.9775
 30
0.0
 70
    32
  0
VERTEX
  5
2487
330
244A
100
AcDbEntity
  8
241
100
AcDbVertex
100
AcDb3dPolylineVertex
 10
207.7497
 20
34.0049
 30
0.0
 70
    32
  0
VERTEX
  5
2488
330
244A
100
AcDbEntity
  8
241
100
AcDbVertex
100
AcDb3dPolylineVertex
 10
207.7688
 20
34.0323
 30
0.0
 70
    32
  0
VERTEX
  5
2489
330
244A
100
AcDbEntity
  8
241
100
AcDbVertex
100
AcDb3dPolylineVertex
 10
207.7879
 20
34.0597
 30
0.0
 70
    32
  0
VERTEX
  5
248A
330
244A
100
AcDbEntity
  8
241
100
AcDbVertex
100
AcDb3dPolylineVertex
 10
207.8071
 20
34.087
 30
0.0
 70
    32
  0
VERTEX
  5
248B
330
244A
100
AcDbEntity
  8
241
100
AcDbVertex
100
AcDb3dPolylineVertex
 10
207.8264
 20
34.1142
 30
0.0
 70
    32
  0
VERTEX
  5
248C
330
244A
100
AcDbEntity
  8
241
100
AcDbVertex
100
AcDb3dPolylineVertex
 10
207.8458
 20
34.1413
 30
0.0
 70
    32
  0
VERTEX
  5
248D
330
244A
100
AcDbEntity
  8
241
100
AcDbVertex
100
AcDb3dPolylineVertex
 10
207.8652
 20
34.1684
 30
0.0
 70
    32
  0
VERTEX
  5
248E
330
244A
100
AcDbEntity
  8
241
100
AcDbVertex
100
AcDb3dPolylineVertex
 10
207.8848
 20
34.1954
 30
0.0
 70
    32
  0
VERTEX
  5
248F
330
244A
100
AcDbEntity
  8
241
100
AcDbVertex
100
AcDb3dPolylineVertex
 10
207.9045
 20
34.2224
 30
0.0
 70
    32
  0
VERTEX
  5
2490
330
244A
100
AcDbEntity
  8
241
100
AcDbVertex
100
AcDb3dPolylineVertex
 10
207.9243
 20
34.2493
 30
0.0
 70
    32
  0
VERTEX
  5
2491
330
244A
100
AcDbEntity
  8
241
100
AcDbVertex
100
AcDb3dPolylineVertex
 10
207.9441
 20
34.2761
 30
0.0
 70
    32
  0
VERTEX
  5
2492
330
244A
100
AcDbEntity
  8
241
100
AcDbVertex
100
AcDb3dPolylineVertex
 10
207.9641
 20
34.3029
 30
0.0
 70
    32
  0
VERTEX
  5
2493
330
244A
100
AcDbEntity
  8
241
100
AcDbVertex
100
AcDb3dPolylineVertex
 10
207.9841
 20
34.3296
 30
0.0
 70
    32
  0
VERTEX
  5
2494
330
244A
100
AcDbEntity
  8
241
100
AcDbVertex
100
AcDb3dPolylineVertex
 10
208.0042
 20
34.3562
 30
0.0
 70
    32
  0
VERTEX
  5
2495
330
244A
100
AcDbEntity
  8
241
100
AcDbVertex
100
AcDb3dPolylineVertex
 10
208.0244
 20
34.3828
 30
0.0
 70
    32
  0
VERTEX
  5
2496
330
244A
100
AcDbEntity
  8
241
100
AcDbVertex
100
AcDb3dPolylineVertex
 10
208.0447
 20
34.4092
 30
0.0
 70
    32
  0
VERTEX
  5
2497
330
244A
100
AcDbEntity
  8
241
100
AcDbVertex
100
AcDb3dPolylineVertex
 10
208.065
 20
34.4356
 30
0.0
 70
    32
  0
VERTEX
  5
2498
330
244A
100
AcDbEntity
  8
241
100
AcDbVertex
100
AcDb3dPolylineVertex
 10
208.0854
 20
34.4618
 30
0.0
 70
    32
  0
VERTEX
  5
2499
330
244A
100
AcDbEntity
  8
241
100
AcDbVertex
100
AcDb3dPolylineVertex
 10
208.1059
 20
34.488
 30
0.0
 70
    32
  0
VERTEX
  5
249A
330
244A
100
AcDbEntity
  8
241
100
AcDbVertex
100
AcDb3dPolylineVertex
 10
208.1264
 20
34.5141
 30
0.0
 70
    32
  0
VERTEX
  5
249B
330
244A
100
AcDbEntity
  8
241
100
AcDbVertex
100
AcDb3dPolylineVertex
 10
208.147
 20
34.54
 30
0.0
 70
    32
  0
VERTEX
  5
249C
330
244A
100
AcDbEntity
  8
241
100
AcDbVertex
100
AcDb3dPolylineVertex
 10
208.1677
 20
34.5659
 30
0.0
 70
    32
  0
VERTEX
  5
249D
330
244A
100
AcDbEntity
  8
241
100
AcDbVertex
100
AcDb3dPolylineVertex
 10
208.1884
 20
34.5917
 30
0.0
 70
    32
  0
VERTEX
  5
249E
330
244A
100
AcDbEntity
  8
241
100
AcDbVertex
100
AcDb3dPolylineVertex
 10
208.2092
 20
34.6174
 30
0.0
 70
    32
  0
VERTEX
  5
249F
330
244A
100
AcDbEntity
  8
241
100
AcDbVertex
100
AcDb3dPolylineVertex
 10
208.2301
 20
34.643
 30
0.0
 70
    32
  0
VERTEX
  5
24A0
330
244A
100
AcDbEntity
  8
241
100
AcDbVertex
100
AcDb3dPolylineVertex
 10
208.251
 20
34.6685
 30
0.0
 70
    32
  0
VERTEX
  5
24A1
330
244A
100
AcDbEntity
  8
241
100
AcDbVertex
100
AcDb3dPolylineVertex
 10
208.272
 20
34.6939
 30
0.0
 70
    32
  0
VERTEX
  5
24A2
330
244A
100
AcDbEntity
  8
241
100
AcDbVertex
100
AcDb3dPolylineVertex
 10
208.2931
 20
34.7192
 30
0.0
 70
    32
  0
VERTEX
  5
24A3
330
244A
100
AcDbEntity
  8
241
100
AcDbVertex
100
AcDb3dPolylineVertex
 10
208.3142
 20
34.7444
 30
0.0
 70
    32
  0
VERTEX
  5
24A4
330
244A
100
AcDbEntity
  8
241
100
AcDbVertex
100
AcDb3dPolylineVertex
 10
208.3354
 20
34.7696
 30
0.0
 70
    32
  0
VERTEX
  5
24A5
330
244A
100
AcDbEntity
  8
241
100
AcDbVertex
100
AcDb3dPolylineVertex
 10
208.3567
 20
34.7946
 30
0.0
 70
    32
  0
VERTEX
  5
24A6
330
244A
100
AcDbEntity
  8
241
100
AcDbVertex
100
AcDb3dPolylineVertex
 10
208.378
 20
34.8195
 30
0.0
 70
    32
  0
VERTEX
  5
24A7
330
244A
100
AcDbEntity
  8
241
100
AcDbVertex
100
AcDb3dPolylineVertex
 10
208.3994
 20
34.8444
 30
0.0
 70
    32
  0
VERTEX
  5
24A8
330
244A
100
AcDbEntity
  8
241
100
AcDbVertex
100
AcDb3dPolylineVertex
 10
208.4208
 20
34.8691
 30
0.0
 70
    32
  0
VERTEX
  5
24A9
330
244A
100
AcDbEntity
  8
241
100
AcDbVertex
100
AcDb3dPolylineVertex
 10
208.4423
 20
34.8938
 30
0.0
 70
    32
  0
VERTEX
  5
24AA
330
244A
100
AcDbEntity
  8
241
100
AcDbVertex
100
AcDb3dPolylineVertex
 10
208.4639
 20
34.9183
 30
0.0
 70
    32
  0
VERTEX
  5
24AB
330
244A
100
AcDbEntity
  8
241
100
AcDbVertex
100
AcDb3dPolylineVertex
 10
208.4855
 20
34.9428
 30
0.0
 70
    32
  0
VERTEX
  5
24AC
330
244A
100
AcDbEntity
  8
241
100
AcDbVertex
100
AcDb3dPolylineVertex
 10
208.5072
 20
34.9671
 30
0.0
 70
    32
  0
VERTEX
  5
24AD
330
244A
100
AcDbEntity
  8
241
100
AcDbVertex
100
AcDb3dPolylineVertex
 10
208.529
 20
34.9914
 30
0.0
 70
    32
  0
VERTEX
  5
24AE
330
244A
100
AcDbEntity
  8
241
100
AcDbVertex
100
AcDb3dPolylineVertex
 10
208.5508
 20
35.0156
 30
0.0
 70
    32
  0
VERTEX
  5
24AF
330
244A
100
AcDbEntity
  8
241
100
AcDbVertex
100
AcDb3dPolylineVertex
 10
208.5727
 20
35.0396
 30
0.0
 70
    32
  0
VERTEX
  5
24B0
330
244A
100
AcDbEntity
  8
241
100
AcDbVertex
100
AcDb3dPolylineVertex
 10
208.5946
 20
35.0636
 30
0.0
 70
    32
  0
VERTEX
  5
24B1
330
244A
100
AcDbEntity
  8
241
100
AcDbVertex
100
AcDb3dPolylineVertex
 10
208.6166
 20
35.0875
 30
0.0
 70
    32
  0
VERTEX
  5
24B2
330
244A
100
AcDbEntity
  8
241
100
AcDbVertex
100
AcDb3dPolylineVertex
 10
208.6387
 20
35.1113
 30
0.0
 70
    32
  0
VERTEX
  5
24B3
330
244A
100
AcDbEntity
  8
241
100
AcDbVertex
100
AcDb3dPolylineVertex
 10
208.6608
 20
35.1349
 30
0.0
 70
    32
  0
VERTEX
  5
24B4
330
244A
100
AcDbEntity
  8
241
100
AcDbVertex
100
AcDb3dPolylineVertex
 10
208.683
 20
35.1585
 30
0.0
 70
    32
  0
VERTEX
  5
24B5
330
244A
100
AcDbEntity
  8
241
100
AcDbVertex
100
AcDb3dPolylineVertex
 10
208.7052
 20
35.182
 30
0.0
 70
    32
  0
VERTEX
  5
24B6
330
244A
100
AcDbEntity
  8
241
100
AcDbVertex
100
AcDb3dPolylineVertex
 10
208.7275
 20
35.2054
 30
0.0
 70
    32
  0
VERTEX
  5
24B7
330
244A
100
AcDbEntity
  8
241
100
AcDbVertex
100
AcDb3dPolylineVertex
 10
208.7498
 20
35.2287
 30
0.0
 70
    32
  0
VERTEX
  5
24B8
330
244A
100
AcDbEntity
  8
241
100
AcDbVertex
100
AcDb3dPolylineVertex
 10
208.7722
 20
35.2519
 30
0.0
 70
    32
  0
VERTEX
  5
24B9
330
244A
100
AcDbEntity
  8
241
100
AcDbVertex
100
AcDb3dPolylineVertex
 10
208.7947
 20
35.275
 30
0.0
 70
    32
  0
VERTEX
  5
24BA
330
244A
100
AcDbEntity
  8
241
100
AcDbVertex
100
AcDb3dPolylineVertex
 10
208.8172
 20
35.298
 30
0.0
 70
    32
  0
VERTEX
  5
24BB
330
244A
100
AcDbEntity
  8
241
100
AcDbVertex
100
AcDb3dPolylineVertex
 10
208.8398
 20
35.3209
 30
0.0
 70
    32
  0
VERTEX
  5
24BC
330
244A
100
AcDbEntity
  8
241
100
AcDbVertex
100
AcDb3dPolylineVertex
 10
208.8624
 20
35.3437
 30
0.0
 70
    32
  0
VERTEX
  5
24BD
330
244A
100
AcDbEntity
  8
241
100
AcDbVertex
100
AcDb3dPolylineVertex
 10
208.8851
 20
35.3664
 30
0.0
 70
    32
  0
VERTEX
  5
24BE
330
244A
100
AcDbEntity
  8
241
100
AcDbVertex
100
AcDb3dPolylineVertex
 10
208.9078
 20
35.389
 30
0.0
 70
    32
  0
VERTEX
  5
24BF
330
244A
100
AcDbEntity
  8
241
100
AcDbVertex
100
AcDb3dPolylineVertex
 10
208.9306
 20
35.4115
 30
0.0
 70
    32
  0
VERTEX
  5
24C0
330
244A
100
AcDbEntity
  8
241
100
AcDbVertex
100
AcDb3dPolylineVertex
 10
208.9535
 20
35.4339
 30
0.0
 70
    32
  0
VERTEX
  5
24C1
330
244A
100
AcDbEntity
  8
241
100
AcDbVertex
100
AcDb3dPolylineVertex
 10
208.9763
 20
35.4562
 30
0.0
 70
    32
  0
VERTEX
  5
24C2
330
244A
100
AcDbEntity
  8
241
100
AcDbVertex
100
AcDb3dPolylineVertex
 10
208.9993
 20
35.4784
 30
0.0
 70
    32
  0
VERTEX
  5
24C3
330
244A
100
AcDbEntity
  8
241
100
AcDbVertex
100
AcDb3dPolylineVertex
 10
209.0223
 20
35.5005
 30
0.0
 70
    32
  0
VERTEX
  5
24C4
330
244A
100
AcDbEntity
  8
241
100
AcDbVertex
100
AcDb3dPolylineVertex
 10
209.0454
 20
35.5225
 30
0.0
 70
    32
  0
VERTEX
  5
24C5
330
244A
100
AcDbEntity
  8
241
100
AcDbVertex
100
AcDb3dPolylineVertex
 10
209.0685
 20
35.5444
 30
0.0
 70
    32
  0
VERTEX
  5
24C6
330
244A
100
AcDbEntity
  8
241
100
AcDbVertex
100
AcDb3dPolylineVertex
 10
209.0916
 20
35.5662
 30
0.0
 70
    32
  0
VERTEX
  5
24C7
330
244A
100
AcDbEntity
  8
241
100
AcDbVertex
100
AcDb3dPolylineVertex
 10
209.1148
 20
35.5879
 30
0.0
 70
    32
  0
VERTEX
  5
24C8
330
244A
100
AcDbEntity
  8
241
100
AcDbVertex
100
AcDb3dPolylineVertex
 10
209.1381
 20
35.6095
 30
0.0
 70
    32
  0
VERTEX
  5
24C9
330
244A
100
AcDbEntity
  8
241
100
AcDbVertex
100
AcDb3dPolylineVertex
 10
209.1614
 20
35.631
 30
0.0
 70
    32
  0
VERTEX
  5
24CA
330
244A
100
AcDbEntity
  8
241
100
AcDbVertex
100
AcDb3dPolylineVertex
 10
209.1847
 20
35.6524
 30
0.0
 70
    32
  0
VERTEX
  5
24CB
330
244A
100
AcDbEntity
  8
241
100
AcDbVertex
100
AcDb3dPolylineVertex
 10
209.2082
 20
35.6737
 30
0.0
 70
    32
  0
VERTEX
  5
24CC
330
244A
100
AcDbEntity
  8
241
100
AcDbVertex
100
AcDb3dPolylineVertex
 10
209.2316
 20
35.6949
 30
0.0
 70
    32
  0
VERTEX
  5
24CD
330
244A
100
AcDbEntity
  8
241
100
AcDbVertex
100
AcDb3dPolylineVertex
 10
209.2551
 20
35.716
 30
0.0
 70
    32
  0
VERTEX
  5
24CE
330
244A
100
AcDbEntity
  8
241
100
AcDbVertex
100
AcDb3dPolylineVertex
 10
209.2787
 20
35.737
 30
0.0
 70
    32
  0
VERTEX
  5
24CF
330
244A
100
AcDbEntity
  8
241
100
AcDbVertex
100
AcDb3dPolylineVertex
 10
209.3023
 20
35.7579
 30
0.0
 70
    32
  0
VERTEX
  5
24D0
330
244A
100
AcDbEntity
  8
241
100
AcDbVertex
100
AcDb3dPolylineVertex
 10
209.3259
 20
35.7787
 30
0.0
 70
    32
  0
VERTEX
  5
24D1
330
244A
100
AcDbEntity
  8
241
100
AcDbVertex
100
AcDb3dPolylineVertex
 10
209.3496
 20
35.7994
 30
0.0
 70
    32
  0
VERTEX
  5
24D2
330
244A
100
AcDbEntity
  8
241
100
AcDbVertex
100
AcDb3dPolylineVertex
 10
209.3734
 20
35.82
 30
0.0
 70
    32
  0
VERTEX
  5
24D3
330
244A
100
AcDbEntity
  8
241
100
AcDbVertex
100
AcDb3dPolylineVertex
 10
209.3972
 20
35.8405
 30
0.0
 70
    32
  0
VERTEX
  5
24D4
330
244A
100
AcDbEntity
  8
241
100
AcDbVertex
100
AcDb3dPolylineVertex
 10
209.421
 20
35.8609
 30
0.0
 70
    32
  0
VERTEX
  5
24D5
330
244A
100
AcDbEntity
  8
241
100
AcDbVertex
100
AcDb3dPolylineVertex
 10
209.4449
 20
35.8812
 30
0.0
 70
    32
  0
VERTEX
  5
24D6
330
244A
100
AcDbEntity
  8
241
100
AcDbVertex
100
AcDb3dPolylineVertex
 10
209.4688
 20
35.9013
 30
0.0
 70
    32
  0
VERTEX
  5
24D7
330
244A
100
AcDbEntity
  8
241
100
AcDbVertex
100
AcDb3dPolylineVertex
 10
209.4928
 20
35.9214
 30
0.0
 70
    32
  0
VERTEX
  5
24D8
330
244A
100
AcDbEntity
  8
241
100
AcDbVertex
100
AcDb3dPolylineVertex
 10
209.5168
 20
35.9414
 30
0.0
 70
    32
  0
VERTEX
  5
24D9
330
244A
100
AcDbEntity
  8
241
100
AcDbVertex
100
AcDb3dPolylineVertex
 10
209.5409
 20
35.9613
 30
0.0
 70
    32
  0
VERTEX
  5
24DA
330
244A
100
AcDbEntity
  8
241
100
AcDbVertex
100
AcDb3dPolylineVertex
 10
209.565
 20
35.981
 30
0.0
 70
    32
  0
VERTEX
  5
24DB
330
244A
100
AcDbEntity
  8
241
100
AcDbVertex
100
AcDb3dPolylineVertex
 10
209.5891
 20
36.0007
 30
0.0
 70
    32
  0
VERTEX
  5
24DC
330
244A
100
AcDbEntity
  8
241
100
AcDbVertex
100
AcDb3dPolylineVertex
 10
209.6133
 20
36.0203
 30
0.0
 70
    32
  0
VERTEX
  5
24DD
330
244A
100
AcDbEntity
  8
241
100
AcDbVertex
100
AcDb3dPolylineVertex
 10
209.6376
 20
36.0398
 30
0.0
 70
    32
  0
VERTEX
  5
24DE
330
244A
100
AcDbEntity
  8
241
100
AcDbVertex
100
AcDb3dPolylineVertex
 10
209.6618
 20
36.0591
 30
0.0
 70
    32
  0
VERTEX
  5
24DF
330
244A
100
AcDbEntity
  8
241
100
AcDbVertex
100
AcDb3dPolylineVertex
 10
209.6862
 20
36.0784
 30
0.0
 70
    32
  0
VERTEX
  5
24E0
330
244A
100
AcDbEntity
  8
241
100
AcDbVertex
100
AcDb3dPolylineVertex
 10
209.7105
 20
36.0975
 30
0.0
 70
    32
  0
VERTEX
  5
24E1
330
244A
100
AcDbEntity
  8
241
100
AcDbVertex
100
AcDb3dPolylineVertex
 10
209.7349
 20
36.1166
 30
0.0
 70
    32
  0
VERTEX
  5
24E2
330
244A
100
AcDbEntity
  8
241
100
AcDbVertex
100
AcDb3dPolylineVertex
 10
209.7594
 20
36.1355
 30
0.0
 70
    32
  0
VERTEX
  5
24E3
330
244A
100
AcDbEntity
  8
241
100
AcDbVertex
100
AcDb3dPolylineVertex
 10
209.7839
 20
36.1544
 30
0.0
 70
    32
  0
VERTEX
  5
24E4
330
244A
100
AcDbEntity
  8
241
100
AcDbVertex
100
AcDb3dPolylineVertex
 10
209.8084
 20
36.1731
 30
0.0
 70
    32
  0
VERTEX
  5
24E5
330
244A
100
AcDbEntity
  8
241
100
AcDbVertex
100
AcDb3dPolylineVertex
 10
209.8329
 20
36.1917
 30
0.0
 70
    32
  0
VERTEX
  5
24E6
330
244A
100
AcDbEntity
  8
241
100
AcDbVertex
100
AcDb3dPolylineVertex
 10
209.8576
 20
36.2103
 30
0.0
 70
    32
  0
VERTEX
  5
24E7
330
244A
100
AcDbEntity
  8
241
100
AcDbVertex
100
AcDb3dPolylineVertex
 10
209.8822
 20
36.2287
 30
0.0
 70
    32
  0
VERTEX
  5
24E8
330
244A
100
AcDbEntity
  8
241
100
AcDbVertex
100
AcDb3dPolylineVertex
 10
209.9069
 20
36.247
 30
0.0
 70
    32
  0
VERTEX
  5
24E9
330
244A
100
AcDbEntity
  8
241
100
AcDbVertex
100
AcDb3dPolylineVertex
 10
209.9316
 20
36.2652
 30
0.0
 70
    32
  0
VERTEX
  5
24EA
330
244A
100
AcDbEntity
  8
241
100
AcDbVertex
100
AcDb3dPolylineVertex
 10
209.9564
 20
36.2833
 30
0.0
 70
    32
  0
VERTEX
  5
24EB
330
244A
100
AcDbEntity
  8
241
100
AcDbVertex
100
AcDb3dPolylineVertex
 10
209.9812
 20
36.3013
 30
0.0
 70
    32
  0
VERTEX
  5
24EC
330
244A
100
AcDbEntity
  8
241
100
AcDbVertex
100
AcDb3dPolylineVertex
 10
210.006
 20
36.3192
 30
0.0
 70
    32
  0
VERTEX
  5
24ED
330
244A
100
AcDbEntity
  8
241
100
AcDbVertex
100
AcDb3dPolylineVertex
 10
210.0309
 20
36.337
 30
0.0
 70
    32
  0
VERTEX
  5
24EE
330
244A
100
AcDbEntity
  8
241
100
AcDbVertex
100
AcDb3dPolylineVertex
 10
210.0558
 20
36.3547
 30
0.0
 70
    32
  0
VERTEX
  5
24EF
330
244A
100
AcDbEntity
  8
241
100
AcDbVertex
100
AcDb3dPolylineVertex
 10
210.0807
 20
36.3723
 30
0.0
 70
    32
  0
VERTEX
  5
24F0
330
244A
100
AcDbEntity
  8
241
100
AcDbVertex
100
AcDb3dPolylineVertex
 10
210.1057
 20
36.3898
 30
0.0
 70
    32
  0
VERTEX
  5
24F1
330
244A
100
AcDbEntity
  8
241
100
AcDbVertex
100
AcDb3dPolylineVertex
 10
210.1307
 20
36.4071
 30
0.0
 70
    32
  0
VERTEX
  5
24F2
330
244A
100
AcDbEntity
  8
241
100
AcDbVertex
100
AcDb3dPolylineVertex
 10
210.1557
 20
36.4244
 30
0.0
 70
    32
  0
VERTEX
  5
24F3
330
244A
100
AcDbEntity
  8
241
100
AcDbVertex
100
AcDb3dPolylineVertex
 10
210.1808
 20
36.4415
 30
0.0
 70
    32
  0
VERTEX
  5
24F4
330
244A
100
AcDbEntity
  8
241
100
AcDbVertex
100
AcDb3dPolylineVertex
 10
210.2059
 20
36.4586
 30
0.0
 70
    32
  0
VERTEX
  5
24F5
330
244A
100
AcDbEntity
  8
241
100
AcDbVertex
100
AcDb3dPolylineVertex
 10
210.2311
 20
36.4755
 30
0.0
 70
    32
  0
VERTEX
  5
24F6
330
244A
100
AcDbEntity
  8
241
100
AcDbVertex
100
AcDb3dPolylineVertex
 10
210.2563
 20
36.4924
 30
0.0
 70
    32
  0
VERTEX
  5
24F7
330
244A
100
AcDbEntity
  8
241
100
AcDbVertex
100
AcDb3dPolylineVertex
 10
210.2815
 20
36.5091
 30
0.0
 70
    32
  0
VERTEX
  5
24F8
330
244A
100
AcDbEntity
  8
241
100
AcDbVertex
100
AcDb3dPolylineVertex
 10
210.3067
 20
36.5257
 30
0.0
 70
    32
  0
VERTEX
  5
24F9
330
244A
100
AcDbEntity
  8
241
100
AcDbVertex
100
AcDb3dPolylineVertex
 10
210.332
 20
36.5422
 30
0.0
 70
    32
  0
VERTEX
  5
24FA
330
244A
100
AcDbEntity
  8
241
100
AcDbVertex
100
AcDb3dPolylineVertex
 10
210.3573
 20
36.5586
 30
0.0
 70
    32
  0
VERTEX
  5
24FB
330
244A
100
AcDbEntity
  8
241
100
AcDbVertex
100
AcDb3dPolylineVertex
 10
210.3827
 20
36.5749
 30
0.0
 70
    32
  0
VERTEX
  5
24FC
330
244A
100
AcDbEntity
  8
241
100
AcDbVertex
100
AcDb3dPolylineVertex
 10
210.4081
 20
36.5911
 30
0.0
 70
    32
  0
VERTEX
  5
24FD
330
244A
100
AcDbEntity
  8
241
100
AcDbVertex
100
AcDb3dPolylineVertex
 10
210.4335
 20
36.6072
 30
0.0
 70
    32
  0
VERTEX
  5
24FE
330
244A
100
AcDbEntity
  8
241
100
AcDbVertex
100
AcDb3dPolylineVertex
 10
210.4589
 20
36.6232
 30
0.0
 70
    32
  0
VERTEX
  5
24FF
330
244A
100
AcDbEntity
  8
241
100
AcDbVertex
100
AcDb3dPolylineVertex
 10
210.4844
 20
36.639
 30
0.0
 70
    32
  0
VERTEX
  5
2500
330
244A
100
AcDbEntity
  8
241
100
AcDbVertex
100
AcDb3dPolylineVertex
 10
210.5099
 20
36.6548
 30
0.0
 70
    32
  0
VERTEX
  5
2501
330
244A
100
AcDbEntity
  8
241
100
AcDbVertex
100
AcDb3dPolylineVertex
 10
210.5354
 20
36.6704
 30
0.0
 70
    32
  0
VERTEX
  5
2502
330
244A
100
AcDbEntity
  8
241
100
AcDbVertex
100
AcDb3dPolylineVertex
 10
210.5609
 20
36.686
 30
0.0
 70
    32
  0
VERTEX
  5
2503
330
244A
100
AcDbEntity
  8
241
100
AcDbVertex
100
AcDb3dPolylineVertex
 10
210.5865
 20
36.7014
 30
0.0
 70
    32
  0
VERTEX
  5
2504
330
244A
100
AcDbEntity
  8
241
100
AcDbVertex
100
AcDb3dPolylineVertex
 10
210.6121
 20
36.7167
 30
0.0
 70
    32
  0
VERTEX
  5
2505
330
244A
100
AcDbEntity
  8
241
100
AcDbVertex
100
AcDb3dPolylineVertex
 10
210.6378
 20
36.732
 30
0.0
 70
    32
  0
VERTEX
  5
2506
330
244A
100
AcDbEntity
  8
241
100
AcDbVertex
100
AcDb3dPolylineVertex
 10
210.6634
 20
36.7471
 30
0.0
 70
    32
  0
VERTEX
  5
2507
330
244A
100
AcDbEntity
  8
241
100
AcDbVertex
100
AcDb3dPolylineVertex
 10
210.6891
 20
36.762
 30
0.0
 70
    32
  0
VERTEX
  5
2508
330
244A
100
AcDbEntity
  8
241
100
AcDbVertex
100
AcDb3dPolylineVertex
 10
210.7148
 20
36.7769
 30
0.0
 70
    32
  0
VERTEX
  5
2509
330
244A
100
AcDbEntity
  8
241
100
AcDbVertex
100
AcDb3dPolylineVertex
 10
210.7405
 20
36.7917
 30
0.0
 70
    32
  0
VERTEX
  5
250A
330
244A
100
AcDbEntity
  8
241
100
AcDbVertex
100
AcDb3dPolylineVertex
 10
210.7662
 20
36.8063
 30
0.0
 70
    32
  0
VERTEX
  5
250B
330
244A
100
AcDbEntity
  8
241
100
AcDbVertex
100
AcDb3dPolylineVertex
 10
210.792
 20
36.8208
 30
0.0
 70
    32
  0
VERTEX
  5
250C
330
244A
100
AcDbEntity
  8
241
100
AcDbVertex
100
AcDb3dPolylineVertex
 10
210.8177
 20
36.8352
 30
0.0
 70
    32
  0
VERTEX
  5
250D
330
244A
100
AcDbEntity
  8
241
100
AcDbVertex
100
AcDb3dPolylineVertex
 10
210.8435
 20
36.8495
 30
0.0
 70
    32
  0
VERTEX
  5
250E
330
244A
100
AcDbEntity
  8
241
100
AcDbVertex
100
AcDb3dPolylineVertex
 10
210.8693
 20
36.8637
 30
0.0
 70
    32
  0
VERTEX
  5
250F
330
244A
100
AcDbEntity
  8
241
100
AcDbVertex
100
AcDb3dPolylineVertex
 10
210.8951
 20
36.8777
 30
0.0
 70
    32
  0
VERTEX
  5
2510
330
244A
100
AcDbEntity
  8
241
100
AcDbVertex
100
AcDb3dPolylineVertex
 10
210.9209
 20
36.8917
 30
0.0
 70
    32
  0
VERTEX
  5
2511
330
244A
100
AcDbEntity
  8
241
100
AcDbVertex
100
AcDb3dPolylineVertex
 10
210.9467
 20
36.9055
 30
0.0
 70
    32
  0
VERTEX
  5
2512
330
244A
100
AcDbEntity
  8
241
100
AcDbVertex
100
AcDb3dPolylineVertex
 10
210.9725
 20
36.9192
 30
0.0
 70
    32
  0
VERTEX
  5
2513
330
244A
100
AcDbEntity
  8
241
100
AcDbVertex
100
AcDb3dPolylineVertex
 10
210.9984
 20
36.9328
 30
0.0
 70
    32
  0
VERTEX
  5
2514
330
244A
100
AcDbEntity
  8
241
100
AcDbVertex
100
AcDb3dPolylineVertex
 10
211.0242
 20
36.9463
 30
0.0
 70
    32
  0
VERTEX
  5
2515
330
244A
100
AcDbEntity
  8
241
100
AcDbVertex
100
AcDb3dPolylineVertex
 10
211.0501
 20
36.9597
 30
0.0
 70
    32
  0
VERTEX
  5
2516
330
244A
100
AcDbEntity
  8
241
100
AcDbVertex
100
AcDb3dPolylineVertex
 10
211.076
 20
36.9729
 30
0.0
 70
    32
  0
VERTEX
  5
2517
330
244A
100
AcDbEntity
  8
241
100
AcDbVertex
100
AcDb3dPolylineVertex
 10
211.1019
 20
36.9861
 30
0.0
 70
    32
  0
VERTEX
  5
2518
330
244A
100
AcDbEntity
  8
241
100
AcDbVertex
100
AcDb3dPolylineVertex
 10
211.1278
 20
36.9991
 30
0.0
 70
    32
  0
VERTEX
  5
2519
330
244A
100
AcDbEntity
  8
241
100
AcDbVertex
100
AcDb3dPolylineVertex
 10
211.1537
 20
37.012
 30
0.0
 70
    32
  0
VERTEX
  5
251A
330
244A
100
AcDbEntity
  8
241
100
AcDbVertex
100
AcDb3dPolylineVertex
 10
211.1797
 20
37.0248
 30
0.0
 70
    32
  0
VERTEX
  5
251B
330
244A
100
AcDbEntity
  8
241
100
AcDbVertex
100
AcDb3dPolylineVertex
 10
211.2056
 20
37.0374
 30
0.0
 70
    32
  0
VERTEX
  5
251C
330
244A
100
AcDbEntity
  8
241
100
AcDbVertex
100
AcDb3dPolylineVertex
 10
211.2316
 20
37.05
 30
0.0
 70
    32
  0
VERTEX
  5
251D
330
244A
100
AcDbEntity
  8
241
100
AcDbVertex
100
AcDb3dPolylineVertex
 10
211.2575
 20
37.0624
 30
0.0
 70
    32
  0
VERTEX
  5
251E
330
244A
100
AcDbEntity
  8
241
100
AcDbVertex
100
AcDb3dPolylineVertex
 10
211.2835
 20
37.0748
 30
0.0
 70
    32
  0
VERTEX
  5
251F
330
244A
100
AcDbEntity
  8
241
100
AcDbVertex
100
AcDb3dPolylineVertex
 10
211.3095
 20
37.087
 30
0.0
 70
    32
  0
VERTEX
  5
2520
330
244A
100
AcDbEntity
  8
241
100
AcDbVertex
100
AcDb3dPolylineVertex
 10
211.3355
 20
37.0991
 30
0.0
 70
    32
  0
VERTEX
  5
2521
330
244A
100
AcDbEntity
  8
241
100
AcDbVertex
100
AcDb3dPolylineVertex
 10
211.3615
 20
37.111
 30
0.0
 70
    32
  0
VERTEX
  5
2522
330
244A
100
AcDbEntity
  8
241
100
AcDbVertex
100
AcDb3dPolylineVertex
 10
211.3875
 20
37.1229
 30
0.0
 70
    32
  0
VERTEX
  5
2523
330
244A
100
AcDbEntity
  8
241
100
AcDbVertex
100
AcDb3dPolylineVertex
 10
211.4135
 20
37.1346
 30
0.0
 70
    32
  0
VERTEX
  5
2524
330
244A
100
AcDbEntity
  8
241
100
AcDbVertex
100
AcDb3dPolylineVertex
 10
211.4395
 20
37.1463
 30
0.0
 70
    32
  0
VERTEX
  5
2525
330
244A
100
AcDbEntity
  8
241
100
AcDbVertex
100
AcDb3dPolylineVertex
 10
211.4655
 20
37.1578
 30
0.0
 70
    32
  0
VERTEX
  5
2526
330
244A
100
AcDbEntity
  8
241
100
AcDbVertex
100
AcDb3dPolylineVertex
 10
211.4916
 20
37.1692
 30
0.0
 70
    32
  0
VERTEX
  5
2527
330
244A
100
AcDbEntity
  8
241
100
AcDbVertex
100
AcDb3dPolylineVertex
 10
211.5176
 20
37.1805
 30
0.0
 70
    32
  0
VERTEX
  5
2528
330
244A
100
AcDbEntity
  8
241
100
AcDbVertex
100
AcDb3dPolylineVertex
 10
211.5436
 20
37.1916
 30
0.0
 70
    32
  0
VERTEX
  5
2529
330
244A
100
AcDbEntity
  8
241
100
AcDbVertex
100
AcDb3dPolylineVertex
 10
211.5697
 20
37.2027
 30
0.0
 70
    32
  0
VERTEX
  5
252A
330
244A
100
AcDbEntity
  8
241
100
AcDbVertex
100
AcDb3dPolylineVertex
 10
211.5957
 20
37.2136
 30
0.0
 70
    32
  0
VERTEX
  5
252B
330
244A
100
AcDbEntity
  8
241
100
AcDbVertex
100
AcDb3dPolylineVertex
 10
211.6218
 20
37.2245
 30
0.0
 70
    32
  0
VERTEX
  5
252C
330
244A
100
AcDbEntity
  8
241
100
AcDbVertex
100
AcDb3dPolylineVertex
 10
211.6479
 20
37.2352
 30
0.0
 70
    32
  0
VERTEX
  5
252D
330
244A
100
AcDbEntity
  8
241
100
AcDbVertex
100
AcDb3dPolylineVertex
 10
211.6739
 20
37.2458
 30
0.0
 70
    32
  0
VERTEX
  5
252E
330
244A
100
AcDbEntity
  8
241
100
AcDbVertex
100
AcDb3dPolylineVertex
 10
211.7
 20
37.2562
 30
0.0
 70
    32
  0
VERTEX
  5
252F
330
244A
100
AcDbEntity
  8
241
100
AcDbVertex
100
AcDb3dPolylineVertex
 10
211.7261
 20
37.2666
 30
0.0
 70
    32
  0
VERTEX
  5
2530
330
244A
100
AcDbEntity
  8
241
100
AcDbVertex
100
AcDb3dPolylineVertex
 10
211.7522
 20
37.2768
 30
0.0
 70
    32
  0
VERTEX
  5
2531
330
244A
100
AcDbEntity
  8
241
100
AcDbVertex
100
AcDb3dPolylineVertex
 10
211.7782
 20
37.287
 30
0.0
 70
    32
  0
VERTEX
  5
2532
330
244A
100
AcDbEntity
  8
241
100
AcDbVertex
100
AcDb3dPolylineVertex
 10
211.8043
 20
37.297
 30
0.0
 70
    32
  0
VERTEX
  5
2533
330
244A
100
AcDbEntity
  8
241
100
AcDbVertex
100
AcDb3dPolylineVertex
 10
211.8304
 20
37.3069
 30
0.0
 70
    32
  0
VERTEX
  5
2534
330
244A
100
AcDbEntity
  8
241
100
AcDbVertex
100
AcDb3dPolylineVertex
 10
211.8565
 20
37.3166
 30
0.0
 70
    32
  0
VERTEX
  5
2535
330
244A
100
AcDbEntity
  8
241
100
AcDbVertex
100
AcDb3dPolylineVertex
 10
211.8826
 20
37.3263
 30
0.0
 70
    32
  0
VERTEX
  5
2536
330
244A
100
AcDbEntity
  8
241
100
AcDbVertex
100
AcDb3dPolylineVertex
 10
211.9086
 20
37.3358
 30
0.0
 70
    32
  0
VERTEX
  5
2537
330
244A
100
AcDbEntity
  8
241
100
AcDbVertex
100
AcDb3dPolylineVertex
 10
211.9347
 20
37.3453
 30
0.0
 70
    32
  0
VERTEX
  5
2538
330
244A
100
AcDbEntity
  8
241
100
AcDbVertex
100
AcDb3dPolylineVertex
 10
211.9608
 20
37.3546
 30
0.0
 70
    32
  0
VERTEX
  5
2539
330
244A
100
AcDbEntity
  8
241
100
AcDbVertex
100
AcDb3dPolylineVertex
 10
211.9869
 20
37.3638
 30
0.0
 70
    32
  0
VERTEX
  5
253A
330
244A
100
AcDbEntity
  8
241
100
AcDbVertex
100
AcDb3dPolylineVertex
 10
212.013
 20
37.3729
 30
0.0
 70
    32
  0
VERTEX
  5
253B
330
244A
100
AcDbEntity
  8
241
100
AcDbVertex
100
AcDb3dPolylineVertex
 10
212.0391
 20
37.3818
 30
0.0
 70
    32
  0
VERTEX
  5
253C
330
244A
100
AcDbEntity
  8
241
100
AcDbVertex
100
AcDb3dPolylineVertex
 10
212.0652
 20
37.3907
 30
0.0
 70
    32
  0
VERTEX
  5
253D
330
244A
100
AcDbEntity
  8
241
100
AcDbVertex
100
AcDb3dPolylineVertex
 10
212.0912
 20
37.3994
 30
0.0
 70
    32
  0
VERTEX
  5
253E
330
244A
100
AcDbEntity
  8
241
100
AcDbVertex
100
AcDb3dPolylineVertex
 10
212.1173
 20
37.4081
 30
0.0
 70
    32
  0
VERTEX
  5
253F
330
244A
100
AcDbEntity
  8
241
100
AcDbVertex
100
AcDb3dPolylineVertex
 10
212.1434
 20
37.4166
 30
0.0
 70
    32
  0
VERTEX
  5
2540
330
244A
100
AcDbEntity
  8
241
100
AcDbVertex
100
AcDb3dPolylineVertex
 10
212.1695
 20
37.4249
 30
0.0
 70
    32
  0
VERTEX
  5
2541
330
244A
100
AcDbEntity
  8
241
100
AcDbVertex
100
AcDb3dPolylineVertex
 10
212.1955
 20
37.4332
 30
0.0
 70
    32
  0
VERTEX
  5
2542
330
244A
100
AcDbEntity
  8
241
100
AcDbVertex
100
AcDb3dPolylineVertex
 10
212.2216
 20
37.4414
 30
0.0
 70
    32
  0
VERTEX
  5
2543
330
244A
100
AcDbEntity
  8
241
100
AcDbVertex
100
AcDb3dPolylineVertex
 10
212.2477
 20
37.4494
 30
0.0
 70
    32
  0
VERTEX
  5
2544
330
244A
100
AcDbEntity
  8
241
100
AcDbVertex
100
AcDb3dPolylineVertex
 10
212.2737
 20
37.4573
 30
0.0
 70
    32
  0
VERTEX
  5
2545
330
244A
100
AcDbEntity
  8
241
100
AcDbVertex
100
AcDb3dPolylineVertex
 10
212.2998
 20
37.4651
 30
0.0
 70
    32
  0
VERTEX
  5
2546
330
244A
100
AcDbEntity
  8
241
100
AcDbVertex
100
AcDb3dPolylineVertex
 10
212.3259
 20
37.4728
 30
0.0
 70
    32
  0
VERTEX
  5
2547
330
244A
100
AcDbEntity
  8
241
100
AcDbVertex
100
AcDb3dPolylineVertex
 10
212.3519
 20
37.4804
 30
0.0
 70
    32
  0
VERTEX
  5
2548
330
244A
100
AcDbEntity
  8
241
100
AcDbVertex
100
AcDb3dPolylineVertex
 10
212.3779
 20
37.4879
 30
0.0
 70
    32
  0
VERTEX
  5
2549
330
244A
100
AcDbEntity
  8
241
100
AcDbVertex
100
AcDb3dPolylineVertex
 10
212.404
 20
37.4952
 30
0.0
 70
    32
  0
VERTEX
  5
254A
330
244A
100
AcDbEntity
  8
241
100
AcDbVertex
100
AcDb3dPolylineVertex
 10
212.43
 20
37.5024
 30
0.0
 70
    32
  0
VERTEX
  5
254B
330
244A
100
AcDbEntity
  8
241
100
AcDbVertex
100
AcDb3dPolylineVertex
 10
212.456
 20
37.5096
 30
0.0
 70
    32
  0
VERTEX
  5
254C
330
244A
100
AcDbEntity
  8
241
100
AcDbVertex
100
AcDb3dPolylineVertex
 10
212.482
 20
37.5166
 30
0.0
 70
    32
  0
VERTEX
  5
254D
330
244A
100
AcDbEntity
  8
241
100
AcDbVertex
100
AcDb3dPolylineVertex
 10
212.5081
 20
37.5234
 30
0.0
 70
    32
  0
VERTEX
  5
254E
330
244A
100
AcDbEntity
  8
241
100
AcDbVertex
100
AcDb3dPolylineVertex
 10
212.5341
 20
37.5302
 30
0.0
 70
    32
  0
VERTEX
  5
254F
330
244A
100
AcDbEntity
  8
241
100
AcDbVertex
100
AcDb3dPolylineVertex
 10
212.56
 20
37.5368
 30
0.0
 70
    32
  0
VERTEX
  5
2550
330
244A
100
AcDbEntity
  8
241
100
AcDbVertex
100
AcDb3dPolylineVertex
 10
212.586
 20
37.5434
 30
0.0
 70
    32
  0
VERTEX
  5
2551
330
244A
100
AcDbEntity
  8
241
100
AcDbVertex
100
AcDb3dPolylineVertex
 10
212.612
 20
37.5498
 30
0.0
 70
    32
  0
VERTEX
  5
2552
330
244A
100
AcDbEntity
  8
241
100
AcDbVertex
100
AcDb3dPolylineVertex
 10
212.638
 20
37.5561
 30
0.0
 70
    32
  0
VERTEX
  5
2553
330
244A
100
AcDbEntity
  8
241
100
AcDbVertex
100
AcDb3dPolylineVertex
 10
212.6639
 20
37.5623
 30
0.0
 70
    32
  0
VERTEX
  5
2554
330
244A
100
AcDbEntity
  8
241
100
AcDbVertex
100
AcDb3dPolylineVertex
 10
212.6899
 20
37.5683
 30
0.0
 70
    32
  0
VERTEX
  5
2555
330
244A
100
AcDbEntity
  8
241
100
AcDbVertex
100
AcDb3dPolylineVertex
 10
212.7158
 20
37.5743
 30
0.0
 70
    32
  0
VERTEX
  5
2556
330
244A
100
AcDbEntity
  8
241
100
AcDbVertex
100
AcDb3dPolylineVertex
 10
212.7417
 20
37.5801
 30
0.0
 70
    32
  0
VERTEX
  5
2557
330
244A
100
AcDbEntity
  8
241
100
AcDbVertex
100
AcDb3dPolylineVertex
 10
212.7677
 20
37.5858
 30
0.0
 70
    32
  0
VERTEX
  5
2558
330
244A
100
AcDbEntity
  8
241
100
AcDbVertex
100
AcDb3dPolylineVertex
 10
212.7936
 20
37.5914
 30
0.0
 70
    32
  0
VERTEX
  5
2559
330
244A
100
AcDbEntity
  8
241
100
AcDbVertex
100
AcDb3dPolylineVertex
 10
212.8195
 20
37.5969
 30
0.0
 70
    32
  0
VERTEX
  5
255A
330
244A
100
AcDbEntity
  8
241
100
AcDbVertex
100
AcDb3dPolylineVertex
 10
212.8454
 20
37.6023
 30
0.0
 70
    32
  0
VERTEX
  5
255B
330
244A
100
AcDbEntity
  8
241
100
AcDbVertex
100
AcDb3dPolylineVertex
 10
212.8712
 20
37.6076
 30
0.0
 70
    32
  0
VERTEX
  5
255C
330
244A
100
AcDbEntity
  8
241
100
AcDbVertex
100
AcDb3dPolylineVertex
 10
212.8971
 20
37.6127
 30
0.0
 70
    32
  0
VERTEX
  5
255D
330
244A
100
AcDbEntity
  8
241
100
AcDbVertex
100
AcDb3dPolylineVertex
 10
212.9229
 20
37.6177
 30
0.0
 70
    32
  0
VERTEX
  5
255E
330
244A
100
AcDbEntity
  8
241
100
AcDbVertex
100
AcDb3dPolylineVertex
 10
212.9488
 20
37.6226
 30
0.0
 70
    32
  0
VERTEX
  5
255F
330
244A
100
AcDbEntity
  8
241
100
AcDbVertex
100
AcDb3dPolylineVertex
 10
212.9746
 20
37.6274
 30
0.0
 70
    32
  0
VERTEX
  5
2560
330
244A
100
AcDbEntity
  8
241
100
AcDbVertex
100
AcDb3dPolylineVertex
 10
213.0004
 20
37.6321
 30
0.0
 70
    32
  0
VERTEX
  5
2561
330
244A
100
AcDbEntity
  8
241
100
AcDbVertex
100
AcDb3dPolylineVertex
 10
213.0262
 20
37.6366
 30
0.0
 70
    32
  0
VERTEX
  5
2562
330
244A
100
AcDbEntity
  8
241
100
AcDbVertex
100
AcDb3dPolylineVertex
 10
213.052
 20
37.6411
 30
0.0
 70
    32
  0
VERTEX
  5
2563
330
244A
100
AcDbEntity
  8
241
100
AcDbVertex
100
AcDb3dPolylineVertex
 10
213.0777
 20
37.6454
 30
0.0
 70
    32
  0
VERTEX
  5
2564
330
244A
100
AcDbEntity
  8
241
100
AcDbVertex
100
AcDb3dPolylineVertex
 10
213.1035
 20
37.6496
 30
0.0
 70
    32
  0
VERTEX
  5
2565
330
244A
100
AcDbEntity
  8
241
100
AcDbVertex
100
AcDb3dPolylineVertex
 10
213.1292
 20
37.6537
 30
0.0
 70
    32
  0
VERTEX
  5
2566
330
244A
100
AcDbEntity
  8
241
100
AcDbVertex
100
AcDb3dPolylineVertex
 10
213.1549
 20
37.6577
 30
0.0
 70
    32
  0
VERTEX
  5
2567
330
244A
100
AcDbEntity
  8
241
100
AcDbVertex
100
AcDb3dPolylineVertex
 10
213.1806
 20
37.6615
 30
0.0
 70
    32
  0
VERTEX
  5
2568
330
244A
100
AcDbEntity
  8
241
100
AcDbVertex
100
AcDb3dPolylineVertex
 10
213.2063
 20
37.6653
 30
0.0
 70
    32
  0
VERTEX
  5
2569
330
244A
100
AcDbEntity
  8
241
100
AcDbVertex
100
AcDb3dPolylineVertex
 10
213.232
 20
37.6689
 30
0.0
 70
    32
  0
VERTEX
  5
256A
330
244A
100
AcDbEntity
  8
241
100
AcDbVertex
100
AcDb3dPolylineVertex
 10
213.2576
 20
37.6724
 30
0.0
 70
    32
  0
VERTEX
  5
256B
330
244A
100
AcDbEntity
  8
241
100
AcDbVertex
100
AcDb3dPolylineVertex
 10
213.2832
 20
37.6758
 30
0.0
 70
    32
  0
VERTEX
  5
256C
330
244A
100
AcDbEntity
  8
241
100
AcDbVertex
100
AcDb3dPolylineVertex
 10
213.3087
 20
37.6791
 30
0.0
 70
    32
  0
VERTEX
  5
256D
330
244A
100
AcDbEntity
  8
241
100
AcDbVertex
100
AcDb3dPolylineVertex
 10
213.3342
 20
37.6822
 30
0.0
 70
    32
  0
VERTEX
  5
256E
330
244A
100
AcDbEntity
  8
241
100
AcDbVertex
100
AcDb3dPolylineVertex
 10
213.3597
 20
37.6853
 30
0.0
 70
    32
  0
VERTEX
  5
256F
330
244A
100
AcDbEntity
  8
241
100
AcDbVertex
100
AcDb3dPolylineVertex
 10
213.3852
 20
37.6882
 30
0.0
 70
    32
  0
VERTEX
  5
2570
330
244A
100
AcDbEntity
  8
241
100
AcDbVertex
100
AcDb3dPolylineVertex
 10
213.4106
 20
37.691
 30
0.0
 70
    32
  0
VERTEX
  5
2571
330
244A
100
AcDbEntity
  8
241
100
AcDbVertex
100
AcDb3dPolylineVertex
 10
213.436
 20
37.6937
 30
0.0
 70
    32
  0
VERTEX
  5
2572
330
244A
100
AcDbEntity
  8
241
100
AcDbVertex
100
AcDb3dPolylineVertex
 10
213.4614
 20
37.6963
 30
0.0
 70
    32
  0
VERTEX
  5
2573
330
244A
100
AcDbEntity
  8
241
100
AcDbVertex
100
AcDb3dPolylineVertex
 10
213.4867
 20
37.6987
 30
0.0
 70
    32
  0
VERTEX
  5
2574
330
244A
100
AcDbEntity
  8
241
100
AcDbVertex
100
AcDb3dPolylineVertex
 10
213.512
 20
37.7011
 30
0.0
 70
    32
  0
VERTEX
  5
2575
330
244A
100
AcDbEntity
  8
241
100
AcDbVertex
100
AcDb3dPolylineVertex
 10
213.5373
 20
37.7033
 30
0.0
 70
    32
  0
VERTEX
  5
2576
330
244A
100
AcDbEntity
  8
241
100
AcDbVertex
100
AcDb3dPolylineVertex
 10
213.5625
 20
37.7054
 30
0.0
 70
    32
  0
VERTEX
  5
2577
330
244A
100
AcDbEntity
  8
241
100
AcDbVertex
100
AcDb3dPolylineVertex
 10
213.5877
 20
37.7074
 30
0.0
 70
    32
  0
VERTEX
  5
2578
330
244A
100
AcDbEntity
  8
241
100
AcDbVertex
100
AcDb3dPolylineVertex
 10
213.6129
 20
37.7093
 30
0.0
 70
    32
  0
VERTEX
  5
2579
330
244A
100
AcDbEntity
  8
241
100
AcDbVertex
100
AcDb3dPolylineVertex
 10
213.638
 20
37.711
 30
0.0
 70
    32
  0
VERTEX
  5
257A
330
244A
100
AcDbEntity
  8
241
100
AcDbVertex
100
AcDb3dPolylineVertex
 10
213.6631
 20
37.7127
 30
0.0
 70
    32
  0
VERTEX
  5
257B
330
244A
100
AcDbEntity
  8
241
100
AcDbVertex
100
AcDb3dPolylineVertex
 10
213.6881
 20
37.7142
 30
0.0
 70
    32
  0
VERTEX
  5
257C
330
244A
100
AcDbEntity
  8
241
100
AcDbVertex
100
AcDb3dPolylineVertex
 10
213.7132
 20
37.7156
 30
0.0
 70
    32
  0
VERTEX
  5
257D
330
244A
100
AcDbEntity
  8
241
100
AcDbVertex
100
AcDb3dPolylineVertex
 10
213.7381
 20
37.7169
 30
0.0
 70
    32
  0
VERTEX
  5
257E
330
244A
100
AcDbEntity
  8
241
100
AcDbVertex
100
AcDb3dPolylineVertex
 10
213.7631
 20
37.7181
 30
0.0
 70
    32
  0
VERTEX
  5
257F
330
244A
100
AcDbEntity
  8
241
100
AcDbVertex
100
AcDb3dPolylineVertex
 10
213.788
 20
37.7192
 30
0.0
 70
    32
  0
VERTEX
  5
2580
330
244A
100
AcDbEntity
  8
241
100
AcDbVertex
100
AcDb3dPolylineVertex
 10
213.8129
 20
37.7202
 30
0.0
 70
    32
  0
VERTEX
  5
2581
330
244A
100
AcDbEntity
  8
241
100
AcDbVertex
100
AcDb3dPolylineVertex
 10
213.8377
 20
37.721
 30
0.0
 70
    32
  0
VERTEX
  5
2582
330
244A
100
AcDbEntity
  8
241
100
AcDbVertex
100
AcDb3dPolylineVertex
 10
213.8625
 20
37.7218
 30
0.0
 70
    32
  0
VERTEX
  5
2583
330
244A
100
AcDbEntity
  8
241
100
AcDbVertex
100
AcDb3dPolylineVertex
 10
213.8873
 20
37.7224
 30
0.0
 70
    32
  0
VERTEX
  5
2584
330
244A
100
AcDbEntity
  8
241
100
AcDbVertex
100
AcDb3dPolylineVertex
 10
213.912
 20
37.7229
 30
0.0
 70
    32
  0
VERTEX
  5
2585
330
244A
100
AcDbEntity
  8
241
100
AcDbVertex
100
AcDb3dPolylineVertex
 10
213.9367
 20
37.7233
 30
0.0
 70
    32
  0
VERTEX
  5
2586
330
244A
100
AcDbEntity
  8
241
100
AcDbVertex
100
AcDb3dPolylineVertex
 10
213.9614
 20
37.7236
 30
0.0
 70
    32
  0
VERTEX
  5
2587
330
244A
100
AcDbEntity
  8
241
100
AcDbVertex
100
AcDb3dPolylineVertex
 10
213.986
 20
37.7238
 30
0.0
 70
    32
  0
VERTEX
  5
2588
330
244A
100
AcDbEntity
  8
241
100
AcDbVertex
100
AcDb3dPolylineVertex
 10
214.0106
 20
37.7239
 30
0.0
 70
    32
  0
VERTEX
  5
2589
330
244A
100
AcDbEntity
  8
241
100
AcDbVertex
100
AcDb3dPolylineVertex
 10
214.0351
 20
37.7238
 30
0.0
 70
    32
  0
VERTEX
  5
258A
330
244A
100
AcDbEntity
  8
241
100
AcDbVertex
100
AcDb3dPolylineVertex
 10
214.0596
 20
37.7237
 30
0.0
 70
    32
  0
SEQEND
  5
258B
330
244A
100
AcDbEntity
  8
241
  0
LINE
  5
258C
330
95A
100
AcDbEntity
  8
241
100
AcDbLine
 10
230.5
 20
25.2
 30
0.0
 11
230.5
 21
49.8
 31
0.0
  0
ARC
  5
258D
330
95A
100
AcDbEntity
  8
241
100
AcDbCircle
 10
214.0
 20
29.26473671
 30
0.0
 40
7.885567943300054
100
AcDbArc
 50
198.49079377
 51
17.22614669
  0
POLYLINE
  5
258E
330
95A
100
AcDbEntity
  8
241
100
AcDb3dPolyline
 66
     1
 10
0.0
 20
0.0
 30
0.0
 70
     8
  0
VERTEX
  5
258F
330
258E
100
AcDbEntity
  8
241
100
AcDbVertex
100
AcDb3dPolylineVertex
 10
220.0
 20
26.619
 30
0.0
 70
    32
  0
VERTEX
  5
2590
330
258E
100
AcDbEntity
  8
241
100
AcDbVertex
100
AcDb3dPolylineVertex
 10
219.9928
 20
26.8739
 30
0.0
 70
    32
  0
VERTEX
  5
2591
330
258E
100
AcDbEntity
  8
241
100
AcDbVertex
100
AcDb3dPolylineVertex
 10
219.9711
 20
27.1283
 30
0.0
 70
    32
  0
VERTEX
  5
2592
330
258E
100
AcDbEntity
  8
241
100
AcDbVertex
100
AcDb3dPolylineVertex
 10
219.9351
 20
27.3814
 30
0.0
 70
    32
  0
VERTEX
  5
2593
330
258E
100
AcDbEntity
  8
241
100
AcDbVertex
100
AcDb3dPolylineVertex
 10
219.8847
 20
27.6327
 30
0.0
 70
    32
  0
VERTEX
  5
2594
330
258E
100
AcDbEntity
  8
241
100
AcDbVertex
100
AcDb3dPolylineVertex
 10
219.8202
 20
27.8815
 30
0.0
 70
    32
  0
VERTEX
  5
2595
330
258E
100
AcDbEntity
  8
241
100
AcDbVertex
100
AcDb3dPolylineVertex
 10
219.7416
 20
28.1273
 30
0.0
 70
    32
  0
VERTEX
  5
2596
330
258E
100
AcDbEntity
  8
241
100
AcDbVertex
100
AcDb3dPolylineVertex
 10
219.6493
 20
28.3695
 30
0.0
 70
    32
  0
VERTEX
  5
2597
330
258E
100
AcDbEntity
  8
241
100
AcDbVertex
100
AcDb3dPolylineVertex
 10
219.5433
 20
28.6075
 30
0.0
 70
    32
  0
VERTEX
  5
2598
330
258E
100
AcDbEntity
  8
241
100
AcDbVertex
100
AcDb3dPolylineVertex
 10
219.4239
 20
28.8406
 30
0.0
 70
    32
  0
VERTEX
  5
2599
330
258E
100
AcDbEntity
  8
241
100
AcDbVertex
100
AcDb3dPolylineVertex
 10
219.2915
 20
29.0684
 30
0.0
 70
    32
  0
VERTEX
  5
259A
330
258E
100
AcDbEntity
  8
241
100
AcDbVertex
100
AcDb3dPolylineVertex
 10
219.1464
 20
29.2903
 30
0.0
 70
    32
  0
VERTEX
  5
259B
330
258E
100
AcDbEntity
  8
241
100
AcDbVertex
100
AcDb3dPolylineVertex
 10
218.9888
 20
29.5058
 30
0.0
 70
    32
  0
VERTEX
  5
259C
330
258E
100
AcDbEntity
  8
241
100
AcDbVertex
100
AcDb3dPolylineVertex
 10
218.8192
 20
29.7143
 30
0.0
 70
    32
  0
VERTEX
  5
259D
330
258E
100
AcDbEntity
  8
241
100
AcDbVertex
100
AcDb3dPolylineVertex
 10
218.6381
 20
29.9154
 30
0.0
 70
    32
  0
VERTEX
  5
259E
330
258E
100
AcDbEntity
  8
241
100
AcDbVertex
100
AcDb3dPolylineVertex
 10
218.4457
 20
30.1085
 30
0.0
 70
    32
  0
VERTEX
  5
259F
330
258E
100
AcDbEntity
  8
241
100
AcDbVertex
100
AcDb3dPolylineVertex
 10
218.2426
 20
30.2932
 30
0.0
 70
    32
  0
VERTEX
  5
25A0
330
258E
100
AcDbEntity
  8
241
100
AcDbVertex
100
AcDb3dPolylineVertex
 10
218.0294
 20
30.4691
 30
0.0
 70
    32
  0
VERTEX
  5
25A1
330
258E
100
AcDbEntity
  8
241
100
AcDbVertex
100
AcDb3dPolylineVertex
 10
217.8064
 20
30.6357
 30
0.0
 70
    32
  0
VERTEX
  5
25A2
330
258E
100
AcDbEntity
  8
241
100
AcDbVertex
100
AcDb3dPolylineVertex
 10
217.5742
 20
30.7926
 30
0.0
 70
    32
  0
VERTEX
  5
25A3
330
258E
100
AcDbEntity
  8
241
100
AcDbVertex
100
AcDb3dPolylineVertex
 10
217.3334
 20
30.9394
 30
0.0
 70
    32
  0
VERTEX
  5
25A4
330
258E
100
AcDbEntity
  8
241
100
AcDbVertex
100
AcDb3dPolylineVertex
 10
217.0846
 20
31.0759
 30
0.0
 70
    32
  0
VERTEX
  5
25A5
330
258E
100
AcDbEntity
  8
241
100
AcDbVertex
100
AcDb3dPolylineVertex
 10
216.8284
 20
31.2016
 30
0.0
 70
    32
  0
VERTEX
  5
25A6
330
258E
100
AcDbEntity
  8
241
100
AcDbVertex
100
AcDb3dPolylineVertex
 10
216.5653
 20
31.3163
 30
0.0
 70
    32
  0
VERTEX
  5
25A7
330
258E
100
AcDbEntity
  8
241
100
AcDbVertex
100
AcDb3dPolylineVertex
 10
216.2961
 20
31.4196
 30
0.0
 70
    32
  0
VERTEX
  5
25A8
330
258E
100
AcDbEntity
  8
241
100
AcDbVertex
100
AcDb3dPolylineVertex
 10
216.0213
 20
31.5114
 30
0.0
 70
    32
  0
VERTEX
  5
25A9
330
258E
100
AcDbEntity
  8
241
100
AcDbVertex
100
AcDb3dPolylineVertex
 10
215.7417
 20
31.5914
 30
0.0
 70
    32
  0
VERTEX
  5
25AA
330
258E
100
AcDbEntity
  8
241
100
AcDbVertex
100
AcDb3dPolylineVertex
 10
215.4579
 20
31.6594
 30
0.0
 70
    32
  0
VERTEX
  5
25AB
330
258E
100
AcDbEntity
  8
241
100
AcDbVertex
100
AcDb3dPolylineVertex
 10
215.1705
 20
31.7153
 30
0.0
 70
    32
  0
VERTEX
  5
25AC
330
258E
100
AcDbEntity
  8
241
100
AcDbVertex
100
AcDb3dPolylineVertex
 10
214.8804
 20
31.7589
 30
0.0
 70
    32
  0
VERTEX
  5
25AD
330
258E
100
AcDbEntity
  8
241
100
AcDbVertex
100
AcDb3dPolylineVertex
 10
214.5881
 20
31.7901
 30
0.0
 70
    32
  0
VERTEX
  5
25AE
330
258E
100
AcDbEntity
  8
241
100
AcDbVertex
100
AcDb3dPolylineVertex
 10
214.2944
 20
31.8089
 30
0.0
 70
    32
  0
VERTEX
  5
25AF
330
258E
100
AcDbEntity
  8
241
100
AcDbVertex
100
AcDb3dPolylineVertex
 10
214.0
 20
31.8151
 30
0.0
 70
    32
  0
VERTEX
  5
25B0
330
258E
100
AcDbEntity
  8
241
100
AcDbVertex
100
AcDb3dPolylineVertex
 10
213.7056
 20
31.8089
 30
0.0
 70
    32
  0
VERTEX
  5
25B1
330
258E
100
AcDbEntity
  8
241
100
AcDbVertex
100
AcDb3dPolylineVertex
 10
213.4119
 20
31.7901
 30
0.0
 70
    32
  0
VERTEX
  5
25B2
330
258E
100
AcDbEntity
  8
241
100
AcDbVertex
100
AcDb3dPolylineVertex
 10
213.1196
 20
31.7589
 30
0.0
 70
    32
  0
VERTEX
  5
25B3
330
258E
100
AcDbEntity
  8
241
100
AcDbVertex
100
AcDb3dPolylineVertex
 10
212.8295
 20
31.7153
 30
0.0
 70
    32
  0
VERTEX
  5
25B4
330
258E
100
AcDbEntity
  8
241
100
AcDbVertex
100
AcDb3dPolylineVertex
 10
212.5421
 20
31.6594
 30
0.0
 70
    32
  0
VERTEX
  5
25B5
330
258E
100
AcDbEntity
  8
241
100
AcDbVertex
100
AcDb3dPolylineVertex
 10
212.2583
 20
31.5914
 30
0.0
 70
    32
  0
VERTEX
  5
25B6
330
258E
100
AcDbEntity
  8
241
100
AcDbVertex
100
AcDb3dPolylineVertex
 10
211.9787
 20
31.5114
 30
0.0
 70
    32
  0
VERTEX
  5
25B7
330
258E
100
AcDbEntity
  8
241
100
AcDbVertex
100
AcDb3dPolylineVertex
 10
211.7039
 20
31.4196
 30
0.0
 70
    32
  0
VERTEX
  5
25B8
330
258E
100
AcDbEntity
  8
241
100
AcDbVertex
100
AcDb3dPolylineVertex
 10
211.4347
 20
31.3163
 30
0.0
 70
    32
  0
VERTEX
  5
25B9
330
258E
100
AcDbEntity
  8
241
100
AcDbVertex
100
AcDb3dPolylineVertex
 10
211.1716
 20
31.2016
 30
0.0
 70
    32
  0
VERTEX
  5
25BA
330
258E
100
AcDbEntity
  8
241
100
AcDbVertex
100
AcDb3dPolylineVertex
 10
210.9154
 20
31.0759
 30
0.0
 70
    32
  0
VERTEX
  5
25BB
330
258E
100
AcDbEntity
  8
241
100
AcDbVertex
100
AcDb3dPolylineVertex
 10
210.6666
 20
30.9394
 30
0.0
 70
    32
  0
VERTEX
  5
25BC
330
258E
100
AcDbEntity
  8
241
100
AcDbVertex
100
AcDb3dPolylineVertex
 10
210.4258
 20
30.7926
 30
0.0
 70
    32
  0
VERTEX
  5
25BD
330
258E
100
AcDbEntity
  8
241
100
AcDbVertex
100
AcDb3dPolylineVertex
 10
210.1936
 20
30.6357
 30
0.0
 70
    32
  0
VERTEX
  5
25BE
330
258E
100
AcDbEntity
  8
241
100
AcDbVertex
100
AcDb3dPolylineVertex
 10
209.9706
 20
30.4691
 30
0.0
 70
    32
  0
VERTEX
  5
25BF
330
258E
100
AcDbEntity
  8
241
100
AcDbVertex
100
AcDb3dPolylineVertex
 10
209.7574
 20
30.2932
 30
0.0
 70
    32
  0
VERTEX
  5
25C0
330
258E
100
AcDbEntity
  8
241
100
AcDbVertex
100
AcDb3dPolylineVertex
 10
209.5543
 20
30.1085
 30
0.0
 70
    32
  0
VERTEX
  5
25C1
330
258E
100
AcDbEntity
  8
241
100
AcDbVertex
100
AcDb3dPolylineVertex
 10
209.3619
 20
29.9154
 30
0.0
 70
    32
  0
VERTEX
  5
25C2
330
258E
100
AcDbEntity
  8
241
100
AcDbVertex
100
AcDb3dPolylineVertex
 10
209.1808
 20
29.7143
 30
0.0
 70
    32
  0
VERTEX
  5
25C3
330
258E
100
AcDbEntity
  8
241
100
AcDbVertex
100
AcDb3dPolylineVertex
 10
209.0112
 20
29.5058
 30
0.0
 70
    32
  0
VERTEX
  5
25C4
330
258E
100
AcDbEntity
  8
241
100
AcDbVertex
100
AcDb3dPolylineVertex
 10
208.8536
 20
29.2903
 30
0.0
 70
    32
  0
VERTEX
  5
25C5
330
258E
100
AcDbEntity
  8
241
100
AcDbVertex
100
AcDb3dPolylineVertex
 10
208.7085
 20
29.0684
 30
0.0
 70
    32
  0
VERTEX
  5
25C6
330
258E
100
AcDbEntity
  8
241
100
AcDbVertex
100
AcDb3dPolylineVertex
 10
208.5761
 20
28.8406
 30
0.0
 70
    32
  0
VERTEX
  5
25C7
330
258E
100
AcDbEntity
  8
241
100
AcDbVertex
100
AcDb3dPolylineVertex
 10
208.4567
 20
28.6075
 30
0.0
 70
    32
  0
VERTEX
  5
25C8
330
258E
100
AcDbEntity
  8
241
100
AcDbVertex
100
AcDb3dPolylineVertex
 10
208.3507
 20
28.3695
 30
0.0
 70
    32
  0
VERTEX
  5
25C9
330
258E
100
AcDbEntity
  8
241
100
AcDbVertex
100
AcDb3dPolylineVertex
 10
208.2584
 20
28.1273
 30
0.0
 70
    32
  0
VERTEX
  5
25CA
330
258E
100
AcDbEntity
  8
241
100
AcDbVertex
100
AcDb3dPolylineVertex
 10
208.1798
 20
27.8815
 30
0.0
 70
    32
  0
VERTEX
  5
25CB
330
258E
100
AcDbEntity
  8
241
100
AcDbVertex
100
AcDb3dPolylineVertex
 10
208.1153
 20
27.6327
 30
0.0
 70
    32
  0
VERTEX
  5
25CC
330
258E
100
AcDbEntity
  8
241
100
AcDbVertex
100
AcDb3dPolylineVertex
 10
208.0649
 20
27.3814
 30
0.0
 70
    32
  0
VERTEX
  5
25CD
330
258E
100
AcDbEntity
  8
241
100
AcDbVertex
100
AcDb3dPolylineVertex
 10
208.0289
 20
27.1283
 30
0.0
 70
    32
  0
VERTEX
  5
25CE
330
258E
100
AcDbEntity
  8
241
100
AcDbVertex
100
AcDb3dPolylineVertex
 10
208.0072
 20
26.8739
 30
0.0
 70
    32
  0
VERTEX
  5
25CF
330
258E
100
AcDbEntity
  8
241
100
AcDbVertex
100
AcDb3dPolylineVertex
 10
208.0
 20
26.619
 30
0.0
 70
    32
  0
VERTEX
  5
25D0
330
258E
100
AcDbEntity
  8
241
100
AcDbVertex
100
AcDb3dPolylineVertex
 10
208.0072
 20
26.364
 30
0.0
 70
    32
  0
VERTEX
  5
25D1
330
258E
100
AcDbEntity
  8
241
100
AcDbVertex
100
AcDb3dPolylineVertex
 10
208.0289
 20
26.1097
 30
0.0
 70
    32
  0
VERTEX
  5
25D2
330
258E
100
AcDbEntity
  8
241
100
AcDbVertex
100
AcDb3dPolylineVertex
 10
208.0649
 20
25.8566
 30
0.0
 70
    32
  0
VERTEX
  5
25D3
330
258E
100
AcDbEntity
  8
241
100
AcDbVertex
100
AcDb3dPolylineVertex
 10
208.1153
 20
25.6053
 30
0.0
 70
    32
  0
VERTEX
  5
25D4
330
258E
100
AcDbEntity
  8
241
100
AcDbVertex
100
AcDb3dPolylineVertex
 10
208.1798
 20
25.3564
 30
0.0
 70
    32
  0
VERTEX
  5
25D5
330
258E
100
AcDbEntity
  8
241
100
AcDbVertex
100
AcDb3dPolylineVertex
 10
208.2584
 20
25.1106
 30
0.0
 70
    32
  0
VERTEX
  5
25D6
330
258E
100
AcDbEntity
  8
241
100
AcDbVertex
100
AcDb3dPolylineVertex
 10
208.3507
 20
24.8685
 30
0.0
 70
    32
  0
VERTEX
  5
25D7
330
258E
100
AcDbEntity
  8
241
100
AcDbVertex
100
AcDb3dPolylineVertex
 10
208.4567
 20
24.6305
 30
0.0
 70
    32
  0
VERTEX
  5
25D8
330
258E
100
AcDbEntity
  8
241
100
AcDbVertex
100
AcDb3dPolylineVertex
 10
208.5761
 20
24.3973
 30
0.0
 70
    32
  0
VERTEX
  5
25D9
330
258E
100
AcDbEntity
  8
241
100
AcDbVertex
100
AcDb3dPolylineVertex
 10
208.7085
 20
24.1695
 30
0.0
 70
    32
  0
VERTEX
  5
25DA
330
258E
100
AcDbEntity
  8
241
100
AcDbVertex
100
AcDb3dPolylineVertex
 10
208.8536
 20
23.9476
 30
0.0
 70
    32
  0
VERTEX
  5
25DB
330
258E
100
AcDbEntity
  8
241
100
AcDbVertex
100
AcDb3dPolylineVertex
 10
209.0112
 20
23.7322
 30
0.0
 70
    32
  0
VERTEX
  5
25DC
330
258E
100
AcDbEntity
  8
241
100
AcDbVertex
100
AcDb3dPolylineVertex
 10
209.1808
 20
23.5236
 30
0.0
 70
    32
  0
VERTEX
  5
25DD
330
258E
100
AcDbEntity
  8
241
100
AcDbVertex
100
AcDb3dPolylineVertex
 10
209.3619
 20
23.3226
 30
0.0
 70
    32
  0
VERTEX
  5
25DE
330
258E
100
AcDbEntity
  8
241
100
AcDbVertex
100
AcDb3dPolylineVertex
 10
209.5543
 20
23.1295
 30
0.0
 70
    32
  0
VERTEX
  5
25DF
330
258E
100
AcDbEntity
  8
241
100
AcDbVertex
100
AcDb3dPolylineVertex
 10
209.7574
 20
22.9448
 30
0.0
 70
    32
  0
VERTEX
  5
25E0
330
258E
100
AcDbEntity
  8
241
100
AcDbVertex
100
AcDb3dPolylineVertex
 10
209.9706
 20
22.7689
 30
0.0
 70
    32
  0
VERTEX
  5
25E1
330
258E
100
AcDbEntity
  8
241
100
AcDbVertex
100
AcDb3dPolylineVertex
 10
210.1936
 20
22.6023
 30
0.0
 70
    32
  0
VERTEX
  5
25E2
330
258E
100
AcDbEntity
  8
241
100
AcDbVertex
100
AcDb3dPolylineVertex
 10
210.4258
 20
22.4454
 30
0.0
 70
    32
  0
VERTEX
  5
25E3
330
258E
100
AcDbEntity
  8
241
100
AcDbVertex
100
AcDb3dPolylineVertex
 10
210.6666
 20
22.2985
 30
0.0
 70
    32
  0
VERTEX
  5
25E4
330
258E
100
AcDbEntity
  8
241
100
AcDbVertex
100
AcDb3dPolylineVertex
 10
210.9154
 20
22.1621
 30
0.0
 70
    32
  0
VERTEX
  5
25E5
330
258E
100
AcDbEntity
  8
241
100
AcDbVertex
100
AcDb3dPolylineVertex
 10
211.1716
 20
22.0364
 30
0.0
 70
    32
  0
VERTEX
  5
25E6
330
258E
100
AcDbEntity
  8
241
100
AcDbVertex
100
AcDb3dPolylineVertex
 10
211.4347
 20
21.9217
 30
0.0
 70
    32
  0
VERTEX
  5
25E7
330
258E
100
AcDbEntity
  8
241
100
AcDbVertex
100
AcDb3dPolylineVertex
 10
211.7039
 20
21.8184
 30
0.0
 70
    32
  0
VERTEX
  5
25E8
330
258E
100
AcDbEntity
  8
241
100
AcDbVertex
100
AcDb3dPolylineVertex
 10
211.9787
 20
21.7266
 30
0.0
 70
    32
  0
VERTEX
  5
25E9
330
258E
100
AcDbEntity
  8
241
100
AcDbVertex
100
AcDb3dPolylineVertex
 10
212.2583
 20
21.6466
 30
0.0
 70
    32
  0
VERTEX
  5
25EA
330
258E
100
AcDbEntity
  8
241
100
AcDbVertex
100
AcDb3dPolylineVertex
 10
212.5421
 20
21.5786
 30
0.0
 70
    32
  0
VERTEX
  5
25EB
330
258E
100
AcDbEntity
  8
241
100
AcDbVertex
100
AcDb3dPolylineVertex
 10
212.8295
 20
21.5227
 30
0.0
 70
    32
  0
VERTEX
  5
25EC
330
258E
100
AcDbEntity
  8
241
100
AcDbVertex
100
AcDb3dPolylineVertex
 10
213.1196
 20
21.4791
 30
0.0
 70
    32
  0
VERTEX
  5
25ED
330
258E
100
AcDbEntity
  8
241
100
AcDbVertex
100
AcDb3dPolylineVertex
 10
213.4119
 20
21.4479
 30
0.0
 70
    32
  0
VERTEX
  5
25EE
330
258E
100
AcDbEntity
  8
241
100
AcDbVertex
100
AcDb3dPolylineVertex
 10
213.7056
 20
21.4291
 30
0.0
 70
    32
  0
VERTEX
  5
25EF
330
258E
100
AcDbEntity
  8
241
100
AcDbVertex
100
AcDb3dPolylineVertex
 10
214.0
 20
21.4228
 30
0.0
 70
    32
  0
VERTEX
  5
25F0
330
258E
100
AcDbEntity
  8
241
100
AcDbVertex
100
AcDb3dPolylineVertex
 10
214.2944
 20
21.4291
 30
0.0
 70
    32
  0
VERTEX
  5
25F1
330
258E
100
AcDbEntity
  8
241
100
AcDbVertex
100
AcDb3dPolylineVertex
 10
214.5881
 20
21.4479
 30
0.0
 70
    32
  0
VERTEX
  5
25F2
330
258E
100
AcDbEntity
  8
241
100
AcDbVertex
100
AcDb3dPolylineVertex
 10
214.8804
 20
21.4791
 30
0.0
 70
    32
  0
VERTEX
  5
25F3
330
258E
100
AcDbEntity
  8
241
100
AcDbVertex
100
AcDb3dPolylineVertex
 10
215.1705
 20
21.5227
 30
0.0
 70
    32
  0
VERTEX
  5
25F4
330
258E
100
AcDbEntity
  8
241
100
AcDbVertex
100
AcDb3dPolylineVertex
 10
215.4579
 20
21.5786
 30
0.0
 70
    32
  0
VERTEX
  5
25F5
330
258E
100
AcDbEntity
  8
241
100
AcDbVertex
100
AcDb3dPolylineVertex
 10
215.7417
 20
21.6466
 30
0.0
 70
    32
  0
VERTEX
  5
25F6
330
258E
100
AcDbEntity
  8
241
100
AcDbVertex
100
AcDb3dPolylineVertex
 10
216.0213
 20
21.7266
 30
0.0
 70
    32
  0
VERTEX
  5
25F7
330
258E
100
AcDbEntity
  8
241
100
AcDbVertex
100
AcDb3dPolylineVertex
 10
216.2961
 20
21.8184
 30
0.0
 70
    32
  0
VERTEX
  5
25F8
330
258E
100
AcDbEntity
  8
241
100
AcDbVertex
100
AcDb3dPolylineVertex
 10
216.5653
 20
21.9217
 30
0.0
 70
    32
  0
VERTEX
  5
25F9
330
258E
100
AcDbEntity
  8
241
100
AcDbVertex
100
AcDb3dPolylineVertex
 10
216.8284
 20
22.0364
 30
0.0
 70
    32
  0
VERTEX
  5
25FA
330
258E
100
AcDbEntity
  8
241
100
AcDbVertex
100
AcDb3dPolylineVertex
 10
217.0846
 20
22.1621
 30
0.0
 70
    32
  0
VERTEX
  5
25FB
330
258E
100
AcDbEntity
  8
241
100
AcDbVertex
100
AcDb3dPolylineVertex
 10
217.3334
 20
22.2985
 30
0.0
 70
    32
  0
VERTEX
  5
25FC
330
258E
100
AcDbEntity
  8
241
100
AcDbVertex
100
AcDb3dPolylineVertex
 10
217.5742
 20
22.4454
 30
0.0
 70
    32
  0
VERTEX
  5
25FD
330
258E
100
AcDbEntity
  8
241
100
AcDbVertex
100
AcDb3dPolylineVertex
 10
217.8064
 20
22.6023
 30
0.0
 70
    32
  0
VERTEX
  5
25FE
330
258E
100
AcDbEntity
  8
241
100
AcDbVertex
100
AcDb3dPolylineVertex
 10
218.0294
 20
22.7689
 30
0.0
 70
    32
  0
VERTEX
  5
25FF
330
258E
100
AcDbEntity
  8
241
100
AcDbVertex
100
AcDb3dPolylineVertex
 10
218.2426
 20
22.9448
 30
0.0
 70
    32
  0
VERTEX
  5
2600
330
258E
100
AcDbEntity
  8
241
100
AcDbVertex
100
AcDb3dPolylineVertex
 10
218.4457
 20
23.1295
 30
0.0
 70
    32
  0
VERTEX
  5
2601
330
258E
100
AcDbEntity
  8
241
100
AcDbVertex
100
AcDb3dPolylineVertex
 10
218.6381
 20
23.3226
 30
0.0
 70
    32
  0
VERTEX
  5
2602
330
258E
100
AcDbEntity
  8
241
100
AcDbVertex
100
AcDb3dPolylineVertex
 10
218.8192
 20
23.5236
 30
0.0
 70
    32
  0
VERTEX
  5
2603
330
258E
100
AcDbEntity
  8
241
100
AcDbVertex
100
AcDb3dPolylineVertex
 10
218.9888
 20
23.7322
 30
0.0
 70
    32
  0
VERTEX
  5
2604
330
258E
100
AcDbEntity
  8
241
100
AcDbVertex
100
AcDb3dPolylineVertex
 10
219.1464
 20
23.9476
 30
0.0
 70
    32
  0
VERTEX
  5
2605
330
258E
100
AcDbEntity
  8
241
100
AcDbVertex
100
AcDb3dPolylineVertex
 10
219.2915
 20
24.1695
 30
0.0
 70
    32
  0
VERTEX
  5
2606
330
258E
100
AcDbEntity
  8
241
100
AcDbVertex
100
AcDb3dPolylineVertex
 10
219.4239
 20
24.3973
 30
0.0
 70
    32
  0
VERTEX
  5
2607
330
258E
100
AcDbEntity
  8
241
100
AcDbVertex
100
AcDb3dPolylineVertex
 10
219.5433
 20
24.6305
 30
0.0
 70
    32
  0
VERTEX
  5
2608
330
258E
100
AcDbEntity
  8
241
100
AcDbVertex
100
AcDb3dPolylineVertex
 10
219.6493
 20
24.8685
 30
0.0
 70
    32
  0
VERTEX
  5
2609
330
258E
100
AcDbEntity
  8
241
100
AcDbVertex
100
AcDb3dPolylineVertex
 10
219.7416
 20
25.1106
 30
0.0
 70
    32
  0
VERTEX
  5
260A
330
258E
100
AcDbEntity
  8
241
100
AcDbVertex
100
AcDb3dPolylineVertex
 10
219.8202
 20
25.3564
 30
0.0
 70
    32
  0
VERTEX
  5
260B
330
258E
100
AcDbEntity
  8
241
100
AcDbVertex
100
AcDb3dPolylineVertex
 10
219.8847
 20
25.6053
 30
0.0
 70
    32
  0
VERTEX
  5
260C
330
258E
100
AcDbEntity
  8
241
100
AcDbVertex
100
AcDb3dPolylineVertex
 10
219.9351
 20
25.8566
 30
0.0
 70
    32
  0
VERTEX
  5
260D
330
258E
100
AcDbEntity
  8
241
100
AcDbVertex
100
AcDb3dPolylineVertex
 10
219.9711
 20
26.1097
 30
0.0
 70
    32
  0
VERTEX
  5
260E
330
258E
100
AcDbEntity
  8
241
100
AcDbVertex
100
AcDb3dPolylineVertex
 10
219.9928
 20
26.364
 30
0.0
 70
    32
  0
VERTEX
  5
260F
330
258E
100
AcDbEntity
  8
241
100
AcDbVertex
100
AcDb3dPolylineVertex
 10
220.0
 20
26.619
 30
0.0
 70
    32
  0
SEQEND
  5
2610
330
258E
100
AcDbEntity
  8
241
  0
ARC
  5
2611
330
95A
100
AcDbEntity
  8
241
100
AcDbCircle
 10
231.0
 20
18.0
 30
0.0
 40
26.0
100
AcDbArc
 50
160.3015761
 51
175.65335215
  0
POLYLINE
  5
2612
330
95A
100
AcDbEntity
  8
241
100
AcDb3dPolyline
 66
     1
 10
0.0
 20
0.0
 30
0.0
 70
     8
  0
VERTEX
  5
2613
330
2612
100
AcDbEntity
  8
241
100
AcDbVertex
100
AcDb3dPolylineVertex
 10
206.5215
 20
26.7638
 30
0.0
 70
    32
  0
VERTEX
  5
2614
330
2612
100
AcDbEntity
  8
241
100
AcDbVertex
100
AcDb3dPolylineVertex
 10
206.5184
 20
26.7733
 30
0.0
 70
    32
  0
VERTEX
  5
2615
330
2612
100
AcDbEntity
  8
241
100
AcDbVertex
100
AcDb3dPolylineVertex
 10
206.5152
 20
26.7828
 30
0.0
 70
    32
  0
VERTEX
  5
2616
330
2612
100
AcDbEntity
  8
241
100
AcDbVertex
100
AcDb3dPolylineVertex
 10
206.512
 20
26.7924
 30
0.0
 70
    32
  0
VERTEX
  5
2617
330
2612
100
AcDbEntity
  8
241
100
AcDbVertex
100
AcDb3dPolylineVertex
 10
206.5089
 20
26.8019
 30
0.0
 70
    32
  0
VERTEX
  5
2618
330
2612
100
AcDbEntity
  8
241
100
AcDbVertex
100
AcDb3dPolylineVertex
 10
206.5058
 20
26.8114
 30
0.0
 70
    32
  0
VERTEX
  5
2619
330
2612
100
AcDbEntity
  8
241
100
AcDbVertex
100
AcDb3dPolylineVertex
 10
206.5027
 20
26.8209
 30
0.0
 70
    32
  0
VERTEX
  5
261A
330
2612
100
AcDbEntity
  8
241
100
AcDbVertex
100
AcDb3dPolylineVertex
 10
206.4996
 20
26.8305
 30
0.0
 70
    32
  0
VERTEX
  5
261B
330
2612
100
AcDbEntity
  8
241
100
AcDbVertex
100
AcDb3dPolylineVertex
 10
206.4965
 20
26.84
 30
0.0
 70
    32
  0
VERTEX
  5
261C
330
2612
100
AcDbEntity
  8
241
100
AcDbVertex
100
AcDb3dPolylineVertex
 10
206.4935
 20
26.8495
 30
0.0
 70
    32
  0
VERTEX
  5
261D
330
2612
100
AcDbEntity
  8
241
100
AcDbVertex
100
AcDb3dPolylineVertex
 10
206.4904
 20
26.859
 30
0.0
 70
    32
  0
VERTEX
  5
261E
330
2612
100
AcDbEntity
  8
241
100
AcDbVertex
100
AcDb3dPolylineVertex
 10
206.4874
 20
26.8686
 30
0.0
 70
    32
  0
VERTEX
  5
261F
330
2612
100
AcDbEntity
  8
241
100
AcDbVertex
100
AcDb3dPolylineVertex
 10
206.4844
 20
26.8781
 30
0.0
 70
    32
  0
VERTEX
  5
2620
330
2612
100
AcDbEntity
  8
241
100
AcDbVertex
100
AcDb3dPolylineVertex
 10
206.4814
 20
26.8876
 30
0.0
 70
    32
  0
VERTEX
  5
2621
330
2612
100
AcDbEntity
  8
241
100
AcDbVertex
100
AcDb3dPolylineVertex
 10
206.4784
 20
26.8972
 30
0.0
 70
    32
  0
VERTEX
  5
2622
330
2612
100
AcDbEntity
  8
241
100
AcDbVertex
100
AcDb3dPolylineVertex
 10
206.4754
 20
26.9067
 30
0.0
 70
    32
  0
VERTEX
  5
2623
330
2612
100
AcDbEntity
  8
241
100
AcDbVertex
100
AcDb3dPolylineVertex
 10
206.4725
 20
26.9162
 30
0.0
 70
    32
  0
VERTEX
  5
2624
330
2612
100
AcDbEntity
  8
241
100
AcDbVertex
100
AcDb3dPolylineVertex
 10
206.4695
 20
26.9257
 30
0.0
 70
    32
  0
VERTEX
  5
2625
330
2612
100
AcDbEntity
  8
241
100
AcDbVertex
100
AcDb3dPolylineVertex
 10
206.4666
 20
26.9353
 30
0.0
 70
    32
  0
VERTEX
  5
2626
330
2612
100
AcDbEntity
  8
241
100
AcDbVertex
100
AcDb3dPolylineVertex
 10
206.4637
 20
26.9448
 30
0.0
 70
    32
  0
VERTEX
  5
2627
330
2612
100
AcDbEntity
  8
241
100
AcDbVertex
100
AcDb3dPolylineVertex
 10
206.4608
 20
26.9543
 30
0.0
 70
    32
  0
VERTEX
  5
2628
330
2612
100
AcDbEntity
  8
241
100
AcDbVertex
100
AcDb3dPolylineVertex
 10
206.4579
 20
26.9639
 30
0.0
 70
    32
  0
VERTEX
  5
2629
330
2612
100
AcDbEntity
  8
241
100
AcDbVertex
100
AcDb3dPolylineVertex
 10
206.455
 20
26.9734
 30
0.0
 70
    32
  0
VERTEX
  5
262A
330
2612
100
AcDbEntity
  8
241
100
AcDbVertex
100
AcDb3dPolylineVertex
 10
206.4522
 20
26.9829
 30
0.0
 70
    32
  0
VERTEX
  5
262B
330
2612
100
AcDbEntity
  8
241
100
AcDbVertex
100
AcDb3dPolylineVertex
 10
206.4493
 20
26.9924
 30
0.0
 70
    32
  0
VERTEX
  5
262C
330
2612
100
AcDbEntity
  8
241
100
AcDbVertex
100
AcDb3dPolylineVertex
 10
206.4465
 20
27.002
 30
0.0
 70
    32
  0
VERTEX
  5
262D
330
2612
100
AcDbEntity
  8
241
100
AcDbVertex
100
AcDb3dPolylineVertex
 10
206.4437
 20
27.0115
 30
0.0
 70
    32
  0
VERTEX
  5
262E
330
2612
100
AcDbEntity
  8
241
100
AcDbVertex
100
AcDb3dPolylineVertex
 10
206.4409
 20
27.021
 30
0.0
 70
    32
  0
VERTEX
  5
262F
330
2612
100
AcDbEntity
  8
241
100
AcDbVertex
100
AcDb3dPolylineVertex
 10
206.4381
 20
27.0305
 30
0.0
 70
    32
  0
VERTEX
  5
2630
330
2612
100
AcDbEntity
  8
241
100
AcDbVertex
100
AcDb3dPolylineVertex
 10
206.4353
 20
27.0401
 30
0.0
 70
    32
  0
VERTEX
  5
2631
330
2612
100
AcDbEntity
  8
241
100
AcDbVertex
100
AcDb3dPolylineVertex
 10
206.4326
 20
27.0496
 30
0.0
 70
    32
  0
VERTEX
  5
2632
330
2612
100
AcDbEntity
  8
241
100
AcDbVertex
100
AcDb3dPolylineVertex
 10
206.4298
 20
27.0591
 30
0.0
 70
    32
  0
VERTEX
  5
2633
330
2612
100
AcDbEntity
  8
241
100
AcDbVertex
100
AcDb3dPolylineVertex
 10
206.4271
 20
27.0686
 30
0.0
 70
    32
  0
VERTEX
  5
2634
330
2612
100
AcDbEntity
  8
241
100
AcDbVertex
100
AcDb3dPolylineVertex
 10
206.4244
 20
27.0781
 30
0.0
 70
    32
  0
VERTEX
  5
2635
330
2612
100
AcDbEntity
  8
241
100
AcDbVertex
100
AcDb3dPolylineVertex
 10
206.4217
 20
27.0876
 30
0.0
 70
    32
  0
VERTEX
  5
2636
330
2612
100
AcDbEntity
  8
241
100
AcDbVertex
100
AcDb3dPolylineVertex
 10
206.419
 20
27.0971
 30
0.0
 70
    32
  0
VERTEX
  5
2637
330
2612
100
AcDbEntity
  8
241
100
AcDbVertex
100
AcDb3dPolylineVertex
 10
206.4163
 20
27.1066
 30
0.0
 70
    32
  0
VERTEX
  5
2638
330
2612
100
AcDbEntity
  8
241
100
AcDbVertex
100
AcDb3dPolylineVertex
 10
206.4137
 20
27.1161
 30
0.0
 70
    32
  0
VERTEX
  5
2639
330
2612
100
AcDbEntity
  8
241
100
AcDbVertex
100
AcDb3dPolylineVertex
 10
206.411
 20
27.1256
 30
0.0
 70
    32
  0
VERTEX
  5
263A
330
2612
100
AcDbEntity
  8
241
100
AcDbVertex
100
AcDb3dPolylineVertex
 10
206.4084
 20
27.1351
 30
0.0
 70
    32
  0
VERTEX
  5
263B
330
2612
100
AcDbEntity
  8
241
100
AcDbVertex
100
AcDb3dPolylineVertex
 10
206.4058
 20
27.1446
 30
0.0
 70
    32
  0
VERTEX
  5
263C
330
2612
100
AcDbEntity
  8
241
100
AcDbVertex
100
AcDb3dPolylineVertex
 10
206.4032
 20
27.1541
 30
0.0
 70
    32
  0
VERTEX
  5
263D
330
2612
100
AcDbEntity
  8
241
100
AcDbVertex
100
AcDb3dPolylineVertex
 10
206.4006
 20
27.1636
 30
0.0
 70
    32
  0
VERTEX
  5
263E
330
2612
100
AcDbEntity
  8
241
100
AcDbVertex
100
AcDb3dPolylineVertex
 10
206.398
 20
27.1731
 30
0.0
 70
    32
  0
VERTEX
  5
263F
330
2612
100
AcDbEntity
  8
241
100
AcDbVertex
100
AcDb3dPolylineVertex
 10
206.3955
 20
27.1826
 30
0.0
 70
    32
  0
VERTEX
  5
2640
330
2612
100
AcDbEntity
  8
241
100
AcDbVertex
100
AcDb3dPolylineVertex
 10
206.3929
 20
27.192
 30
0.0
 70
    32
  0
VERTEX
  5
2641
330
2612
100
AcDbEntity
  8
241
100
AcDbVertex
100
AcDb3dPolylineVertex
 10
206.3904
 20
27.2015
 30
0.0
 70
    32
  0
VERTEX
  5
2642
330
2612
100
AcDbEntity
  8
241
100
AcDbVertex
100
AcDb3dPolylineVertex
 10
206.3879
 20
27.211
 30
0.0
 70
    32
  0
VERTEX
  5
2643
330
2612
100
AcDbEntity
  8
241
100
AcDbVertex
100
AcDb3dPolylineVertex
 10
206.3854
 20
27.2204
 30
0.0
 70
    32
  0
VERTEX
  5
2644
330
2612
100
AcDbEntity
  8
241
100
AcDbVertex
100
AcDb3dPolylineVertex
 10
206.3829
 20
27.2299
 30
0.0
 70
    32
  0
VERTEX
  5
2645
330
2612
100
AcDbEntity
  8
241
100
AcDbVertex
100
AcDb3dPolylineVertex
 10
206.3804
 20
27.2394
 30
0.0
 70
    32
  0
VERTEX
  5
2646
330
2612
100
AcDbEntity
  8
241
100
AcDbVertex
100
AcDb3dPolylineVertex
 10
206.378
 20
27.2488
 30
0.0
 70
    32
  0
VERTEX
  5
2647
330
2612
100
AcDbEntity
  8
241
100
AcDbVertex
100
AcDb3dPolylineVertex
 10
206.3755
 20
27.2582
 30
0.0
 70
    32
  0
VERTEX
  5
2648
330
2612
100
AcDbEntity
  8
241
100
AcDbVertex
100
AcDb3dPolylineVertex
 10
206.3731
 20
27.2677
 30
0.0
 70
    32
  0
VERTEX
  5
2649
330
2612
100
AcDbEntity
  8
241
100
AcDbVertex
100
AcDb3dPolylineVertex
 10
206.3707
 20
27.2771
 30
0.0
 70
    32
  0
VERTEX
  5
264A
330
2612
100
AcDbEntity
  8
241
100
AcDbVertex
100
AcDb3dPolylineVertex
 10
206.3683
 20
27.2866
 30
0.0
 70
    32
  0
VERTEX
  5
264B
330
2612
100
AcDbEntity
  8
241
100
AcDbVertex
100
AcDb3dPolylineVertex
 10
206.3659
 20
27.296
 30
0.0
 70
    32
  0
VERTEX
  5
264C
330
2612
100
AcDbEntity
  8
241
100
AcDbVertex
100
AcDb3dPolylineVertex
 10
206.3635
 20
27.3054
 30
0.0
 70
    32
  0
VERTEX
  5
264D
330
2612
100
AcDbEntity
  8
241
100
AcDbVertex
100
AcDb3dPolylineVertex
 10
206.3612
 20
27.3148
 30
0.0
 70
    32
  0
VERTEX
  5
264E
330
2612
100
AcDbEntity
  8
241
100
AcDbVertex
100
AcDb3dPolylineVertex
 10
206.3588
 20
27.3242
 30
0.0
 70
    32
  0
VERTEX
  5
264F
330
2612
100
AcDbEntity
  8
241
100
AcDbVertex
100
AcDb3dPolylineVertex
 10
206.3565
 20
27.3336
 30
0.0
 70
    32
  0
VERTEX
  5
2650
330
2612
100
AcDbEntity
  8
241
100
AcDbVertex
100
AcDb3dPolylineVertex
 10
206.3542
 20
27.343
 30
0.0
 70
    32
  0
VERTEX
  5
2651
330
2612
100
AcDbEntity
  8
241
100
AcDbVertex
100
AcDb3dPolylineVertex
 10
206.3519
 20
27.3524
 30
0.0
 70
    32
  0
VERTEX
  5
2652
330
2612
100
AcDbEntity
  8
241
100
AcDbVertex
100
AcDb3dPolylineVertex
 10
206.3496
 20
27.3618
 30
0.0
 70
    32
  0
VERTEX
  5
2653
330
2612
100
AcDbEntity
  8
241
100
AcDbVertex
100
AcDb3dPolylineVertex
 10
206.3473
 20
27.3712
 30
0.0
 70
    32
  0
VERTEX
  5
2654
330
2612
100
AcDbEntity
  8
241
100
AcDbVertex
100
AcDb3dPolylineVertex
 10
206.3451
 20
27.3805
 30
0.0
 70
    32
  0
VERTEX
  5
2655
330
2612
100
AcDbEntity
  8
241
100
AcDbVertex
100
AcDb3dPolylineVertex
 10
206.3429
 20
27.3899
 30
0.0
 70
    32
  0
VERTEX
  5
2656
330
2612
100
AcDbEntity
  8
241
100
AcDbVertex
100
AcDb3dPolylineVertex
 10
206.3406
 20
27.3993
 30
0.0
 70
    32
  0
VERTEX
  5
2657
330
2612
100
AcDbEntity
  8
241
100
AcDbVertex
100
AcDb3dPolylineVertex
 10
206.3384
 20
27.4086
 30
0.0
 70
    32
  0
VERTEX
  5
2658
330
2612
100
AcDbEntity
  8
241
100
AcDbVertex
100
AcDb3dPolylineVertex
 10
206.3362
 20
27.418
 30
0.0
 70
    32
  0
VERTEX
  5
2659
330
2612
100
AcDbEntity
  8
241
100
AcDbVertex
100
AcDb3dPolylineVertex
 10
206.334
 20
27.4273
 30
0.0
 70
    32
  0
VERTEX
  5
265A
330
2612
100
AcDbEntity
  8
241
100
AcDbVertex
100
AcDb3dPolylineVertex
 10
206.3319
 20
27.4366
 30
0.0
 70
    32
  0
VERTEX
  5
265B
330
2612
100
AcDbEntity
  8
241
100
AcDbVertex
100
AcDb3dPolylineVertex
 10
206.3297
 20
27.446
 30
0.0
 70
    32
  0
VERTEX
  5
265C
330
2612
100
AcDbEntity
  8
241
100
AcDbVertex
100
AcDb3dPolylineVertex
 10
206.3276
 20
27.4553
 30
0.0
 70
    32
  0
VERTEX
  5
265D
330
2612
100
AcDbEntity
  8
241
100
AcDbVertex
100
AcDb3dPolylineVertex
 10
206.3254
 20
27.4646
 30
0.0
 70
    32
  0
VERTEX
  5
265E
330
2612
100
AcDbEntity
  8
241
100
AcDbVertex
100
AcDb3dPolylineVertex
 10
206.3233
 20
27.4739
 30
0.0
 70
    32
  0
VERTEX
  5
265F
330
2612
100
AcDbEntity
  8
241
100
AcDbVertex
100
AcDb3dPolylineVertex
 10
206.3212
 20
27.4832
 30
0.0
 70
    32
  0
VERTEX
  5
2660
330
2612
100
AcDbEntity
  8
241
100
AcDbVertex
100
AcDb3dPolylineVertex
 10
206.3191
 20
27.4925
 30
0.0
 70
    32
  0
VERTEX
  5
2661
330
2612
100
AcDbEntity
  8
241
100
AcDbVertex
100
AcDb3dPolylineVertex
 10
206.3171
 20
27.5017
 30
0.0
 70
    32
  0
VERTEX
  5
2662
330
2612
100
AcDbEntity
  8
241
100
AcDbVertex
100
AcDb3dPolylineVertex
 10
206.315
 20
27.511
 30
0.0
 70
    32
  0
VERTEX
  5
2663
330
2612
100
AcDbEntity
  8
241
100
AcDbVertex
100
AcDb3dPolylineVertex
 10
206.313
 20
27.5203
 30
0.0
 70
    32
  0
VERTEX
  5
2664
330
2612
100
AcDbEntity
  8
241
100
AcDbVertex
100
AcDb3dPolylineVertex
 10
206.311
 20
27.5295
 30
0.0
 70
    32
  0
VERTEX
  5
2665
330
2612
100
AcDbEntity
  8
241
100
AcDbVertex
100
AcDb3dPolylineVertex
 10
206.3089
 20
27.5387
 30
0.0
 70
    32
  0
VERTEX
  5
2666
330
2612
100
AcDbEntity
  8
241
100
AcDbVertex
100
AcDb3dPolylineVertex
 10
206.3069
 20
27.548
 30
0.0
 70
    32
  0
VERTEX
  5
2667
330
2612
100
AcDbEntity
  8
241
100
AcDbVertex
100
AcDb3dPolylineVertex
 10
206.305
 20
27.5572
 30
0.0
 70
    32
  0
VERTEX
  5
2668
330
2612
100
AcDbEntity
  8
241
100
AcDbVertex
100
AcDb3dPolylineVertex
 10
206.303
 20
27.5664
 30
0.0
 70
    32
  0
VERTEX
  5
2669
330
2612
100
AcDbEntity
  8
241
100
AcDbVertex
100
AcDb3dPolylineVertex
 10
206.301
 20
27.5756
 30
0.0
 70
    32
  0
VERTEX
  5
266A
330
2612
100
AcDbEntity
  8
241
100
AcDbVertex
100
AcDb3dPolylineVertex
 10
206.2991
 20
27.5848
 30
0.0
 70
    32
  0
VERTEX
  5
266B
330
2612
100
AcDbEntity
  8
241
100
AcDbVertex
100
AcDb3dPolylineVertex
 10
206.2972
 20
27.594
 30
0.0
 70
    32
  0
VERTEX
  5
266C
330
2612
100
AcDbEntity
  8
241
100
AcDbVertex
100
AcDb3dPolylineVertex
 10
206.2953
 20
27.6032
 30
0.0
 70
    32
  0
VERTEX
  5
266D
330
2612
100
AcDbEntity
  8
241
100
AcDbVertex
100
AcDb3dPolylineVertex
 10
206.2934
 20
27.6123
 30
0.0
 70
    32
  0
VERTEX
  5
266E
330
2612
100
AcDbEntity
  8
241
100
AcDbVertex
100
AcDb3dPolylineVertex
 10
206.2915
 20
27.6215
 30
0.0
 70
    32
  0
VERTEX
  5
266F
330
2612
100
AcDbEntity
  8
241
100
AcDbVertex
100
AcDb3dPolylineVertex
 10
206.2896
 20
27.6307
 30
0.0
 70
    32
  0
VERTEX
  5
2670
330
2612
100
AcDbEntity
  8
241
100
AcDbVertex
100
AcDb3dPolylineVertex
 10
206.2878
 20
27.6398
 30
0.0
 70
    32
  0
VERTEX
  5
2671
330
2612
100
AcDbEntity
  8
241
100
AcDbVertex
100
AcDb3dPolylineVertex
 10
206.2859
 20
27.6489
 30
0.0
 70
    32
  0
VERTEX
  5
2672
330
2612
100
AcDbEntity
  8
241
100
AcDbVertex
100
AcDb3dPolylineVertex
 10
206.2841
 20
27.658
 30
0.0
 70
    32
  0
VERTEX
  5
2673
330
2612
100
AcDbEntity
  8
241
100
AcDbVertex
100
AcDb3dPolylineVertex
 10
206.2823
 20
27.6671
 30
0.0
 70
    32
  0
VERTEX
  5
2674
330
2612
100
AcDbEntity
  8
241
100
AcDbVertex
100
AcDb3dPolylineVertex
 10
206.2805
 20
27.6762
 30
0.0
 70
    32
  0
VERTEX
  5
2675
330
2612
100
AcDbEntity
  8
241
100
AcDbVertex
100
AcDb3dPolylineVertex
 10
206.2787
 20
27.6853
 30
0.0
 70
    32
  0
VERTEX
  5
2676
330
2612
100
AcDbEntity
  8
241
100
AcDbVertex
100
AcDb3dPolylineVertex
 10
206.2769
 20
27.6944
 30
0.0
 70
    32
  0
VERTEX
  5
2677
330
2612
100
AcDbEntity
  8
241
100
AcDbVertex
100
AcDb3dPolylineVertex
 10
206.2752
 20
27.7035
 30
0.0
 70
    32
  0
VERTEX
  5
2678
330
2612
100
AcDbEntity
  8
241
100
AcDbVertex
100
AcDb3dPolylineVertex
 10
206.2734
 20
27.7125
 30
0.0
 70
    32
  0
VERTEX
  5
2679
330
2612
100
AcDbEntity
  8
241
100
AcDbVertex
100
AcDb3dPolylineVertex
 10
206.2717
 20
27.7216
 30
0.0
 70
    32
  0
VERTEX
  5
267A
330
2612
100
AcDbEntity
  8
241
100
AcDbVertex
100
AcDb3dPolylineVertex
 10
206.27
 20
27.7307
 30
0.0
 70
    32
  0
VERTEX
  5
267B
330
2612
100
AcDbEntity
  8
241
100
AcDbVertex
100
AcDb3dPolylineVertex
 10
206.2682
 20
27.7398
 30
0.0
 70
    32
  0
VERTEX
  5
267C
330
2612
100
AcDbEntity
  8
241
100
AcDbVertex
100
AcDb3dPolylineVertex
 10
206.2665
 20
27.749
 30
0.0
 70
    32
  0
VERTEX
  5
267D
330
2612
100
AcDbEntity
  8
241
100
AcDbVertex
100
AcDb3dPolylineVertex
 10
206.2648
 20
27.7581
 30
0.0
 70
    32
  0
VERTEX
  5
267E
330
2612
100
AcDbEntity
  8
241
100
AcDbVertex
100
AcDb3dPolylineVertex
 10
206.2631
 20
27.7673
 30
0.0
 70
    32
  0
VERTEX
  5
267F
330
2612
100
AcDbEntity
  8
241
100
AcDbVertex
100
AcDb3dPolylineVertex
 10
206.2615
 20
27.7765
 30
0.0
 70
    32
  0
VERTEX
  5
2680
330
2612
100
AcDbEntity
  8
241
100
AcDbVertex
100
AcDb3dPolylineVertex
 10
206.2598
 20
27.7857
 30
0.0
 70
    32
  0
VERTEX
  5
2681
330
2612
100
AcDbEntity
  8
241
100
AcDbVertex
100
AcDb3dPolylineVertex
 10
206.2581
 20
27.795
 30
0.0
 70
    32
  0
VERTEX
  5
2682
330
2612
100
AcDbEntity
  8
241
100
AcDbVertex
100
AcDb3dPolylineVertex
 10
206.2565
 20
27.8042
 30
0.0
 70
    32
  0
VERTEX
  5
2683
330
2612
100
AcDbEntity
  8
241
100
AcDbVertex
100
AcDb3dPolylineVertex
 10
206.2548
 20
27.8135
 30
0.0
 70
    32
  0
VERTEX
  5
2684
330
2612
100
AcDbEntity
  8
241
100
AcDbVertex
100
AcDb3dPolylineVertex
 10
206.2532
 20
27.8228
 30
0.0
 70
    32
  0
VERTEX
  5
2685
330
2612
100
AcDbEntity
  8
241
100
AcDbVertex
100
AcDb3dPolylineVertex
 10
206.2516
 20
27.8321
 30
0.0
 70
    32
  0
VERTEX
  5
2686
330
2612
100
AcDbEntity
  8
241
100
AcDbVertex
100
AcDb3dPolylineVertex
 10
206.2499
 20
27.8414
 30
0.0
 70
    32
  0
VERTEX
  5
2687
330
2612
100
AcDbEntity
  8
241
100
AcDbVertex
100
AcDb3dPolylineVertex
 10
206.2483
 20
27.8508
 30
0.0
 70
    32
  0
VERTEX
  5
2688
330
2612
100
AcDbEntity
  8
241
100
AcDbVertex
100
AcDb3dPolylineVertex
 10
206.2467
 20
27.8602
 30
0.0
 70
    32
  0
VERTEX
  5
2689
330
2612
100
AcDbEntity
  8
241
100
AcDbVertex
100
AcDb3dPolylineVertex
 10
206.2451
 20
27.8695
 30
0.0
 70
    32
  0
VERTEX
  5
268A
330
2612
100
AcDbEntity
  8
241
100
AcDbVertex
100
AcDb3dPolylineVertex
 10
206.2436
 20
27.8789
 30
0.0
 70
    32
  0
VERTEX
  5
268B
330
2612
100
AcDbEntity
  8
241
100
AcDbVertex
100
AcDb3dPolylineVertex
 10
206.242
 20
27.8884
 30
0.0
 70
    32
  0
VERTEX
  5
268C
330
2612
100
AcDbEntity
  8
241
100
AcDbVertex
100
AcDb3dPolylineVertex
 10
206.2404
 20
27.8978
 30
0.0
 70
    32
  0
VERTEX
  5
268D
330
2612
100
AcDbEntity
  8
241
100
AcDbVertex
100
AcDb3dPolylineVertex
 10
206.2389
 20
27.9072
 30
0.0
 70
    32
  0
VERTEX
  5
268E
330
2612
100
AcDbEntity
  8
241
100
AcDbVertex
100
AcDb3dPolylineVertex
 10
206.2373
 20
27.9167
 30
0.0
 70
    32
  0
VERTEX
  5
268F
330
2612
100
AcDbEntity
  8
241
100
AcDbVertex
100
AcDb3dPolylineVertex
 10
206.2358
 20
27.9262
 30
0.0
 70
    32
  0
VERTEX
  5
2690
330
2612
100
AcDbEntity
  8
241
100
AcDbVertex
100
AcDb3dPolylineVertex
 10
206.2343
 20
27.9357
 30
0.0
 70
    32
  0
VERTEX
  5
2691
330
2612
100
AcDbEntity
  8
241
100
AcDbVertex
100
AcDb3dPolylineVertex
 10
206.2327
 20
27.9452
 30
0.0
 70
    32
  0
VERTEX
  5
2692
330
2612
100
AcDbEntity
  8
241
100
AcDbVertex
100
AcDb3dPolylineVertex
 10
206.2312
 20
27.9547
 30
0.0
 70
    32
  0
VERTEX
  5
2693
330
2612
100
AcDbEntity
  8
241
100
AcDbVertex
100
AcDb3dPolylineVertex
 10
206.2298
 20
27.9643
 30
0.0
 70
    32
  0
VERTEX
  5
2694
330
2612
100
AcDbEntity
  8
241
100
AcDbVertex
100
AcDb3dPolylineVertex
 10
206.2283
 20
27.9739
 30
0.0
 70
    32
  0
VERTEX
  5
2695
330
2612
100
AcDbEntity
  8
241
100
AcDbVertex
100
AcDb3dPolylineVertex
 10
206.2268
 20
27.9834
 30
0.0
 70
    32
  0
VERTEX
  5
2696
330
2612
100
AcDbEntity
  8
241
100
AcDbVertex
100
AcDb3dPolylineVertex
 10
206.2253
 20
27.993
 30
0.0
 70
    32
  0
VERTEX
  5
2697
330
2612
100
AcDbEntity
  8
241
100
AcDbVertex
100
AcDb3dPolylineVertex
 10
206.2239
 20
28.0026
 30
0.0
 70
    32
  0
VERTEX
  5
2698
330
2612
100
AcDbEntity
  8
241
100
AcDbVertex
100
AcDb3dPolylineVertex
 10
206.2224
 20
28.0122
 30
0.0
 70
    32
  0
VERTEX
  5
2699
330
2612
100
AcDbEntity
  8
241
100
AcDbVertex
100
AcDb3dPolylineVertex
 10
206.221
 20
28.0219
 30
0.0
 70
    32
  0
VERTEX
  5
269A
330
2612
100
AcDbEntity
  8
241
100
AcDbVertex
100
AcDb3dPolylineVertex
 10
206.2196
 20
28.0315
 30
0.0
 70
    32
  0
VERTEX
  5
269B
330
2612
100
AcDbEntity
  8
241
100
AcDbVertex
100
AcDb3dPolylineVertex
 10
206.2182
 20
28.0412
 30
0.0
 70
    32
  0
VERTEX
  5
269C
330
2612
100
AcDbEntity
  8
241
100
AcDbVertex
100
AcDb3dPolylineVertex
 10
206.2168
 20
28.0509
 30
0.0
 70
    32
  0
VERTEX
  5
269D
330
2612
100
AcDbEntity
  8
241
100
AcDbVertex
100
AcDb3dPolylineVertex
 10
206.2154
 20
28.0605
 30
0.0
 70
    32
  0
VERTEX
  5
269E
330
2612
100
AcDbEntity
  8
241
100
AcDbVertex
100
AcDb3dPolylineVertex
 10
206.214
 20
28.0702
 30
0.0
 70
    32
  0
VERTEX
  5
269F
330
2612
100
AcDbEntity
  8
241
100
AcDbVertex
100
AcDb3dPolylineVertex
 10
206.2126
 20
28.08
 30
0.0
 70
    32
  0
VERTEX
  5
26A0
330
2612
100
AcDbEntity
  8
241
100
AcDbVertex
100
AcDb3dPolylineVertex
 10
206.2113
 20
28.0897
 30
0.0
 70
    32
  0
VERTEX
  5
26A1
330
2612
100
AcDbEntity
  8
241
100
AcDbVertex
100
AcDb3dPolylineVertex
 10
206.2099
 20
28.0994
 30
0.0
 70
    32
  0
VERTEX
  5
26A2
330
2612
100
AcDbEntity
  8
241
100
AcDbVertex
100
AcDb3dPolylineVertex
 10
206.2086
 20
28.1092
 30
0.0
 70
    32
  0
VERTEX
  5
26A3
330
2612
100
AcDbEntity
  8
241
100
AcDbVertex
100
AcDb3dPolylineVertex
 10
206.2073
 20
28.1189
 30
0.0
 70
    32
  0
VERTEX
  5
26A4
330
2612
100
AcDbEntity
  8
241
100
AcDbVertex
100
AcDb3dPolylineVertex
 10
206.2059
 20
28.1287
 30
0.0
 70
    32
  0
VERTEX
  5
26A5
330
2612
100
AcDbEntity
  8
241
100
AcDbVertex
100
AcDb3dPolylineVertex
 10
206.2046
 20
28.1385
 30
0.0
 70
    32
  0
VERTEX
  5
26A6
330
2612
100
AcDbEntity
  8
241
100
AcDbVertex
100
AcDb3dPolylineVertex
 10
206.2034
 20
28.1483
 30
0.0
 70
    32
  0
VERTEX
  5
26A7
330
2612
100
AcDbEntity
  8
241
100
AcDbVertex
100
AcDb3dPolylineVertex
 10
206.2021
 20
28.1581
 30
0.0
 70
    32
  0
VERTEX
  5
26A8
330
2612
100
AcDbEntity
  8
241
100
AcDbVertex
100
AcDb3dPolylineVertex
 10
206.2008
 20
28.1679
 30
0.0
 70
    32
  0
VERTEX
  5
26A9
330
2612
100
AcDbEntity
  8
241
100
AcDbVertex
100
AcDb3dPolylineVertex
 10
206.1995
 20
28.1777
 30
0.0
 70
    32
  0
VERTEX
  5
26AA
330
2612
100
AcDbEntity
  8
241
100
AcDbVertex
100
AcDb3dPolylineVertex
 10
206.1983
 20
28.1876
 30
0.0
 70
    32
  0
VERTEX
  5
26AB
330
2612
100
AcDbEntity
  8
241
100
AcDbVertex
100
AcDb3dPolylineVertex
 10
206.1971
 20
28.1974
 30
0.0
 70
    32
  0
VERTEX
  5
26AC
330
2612
100
AcDbEntity
  8
241
100
AcDbVertex
100
AcDb3dPolylineVertex
 10
206.1958
 20
28.2073
 30
0.0
 70
    32
  0
VERTEX
  5
26AD
330
2612
100
AcDbEntity
  8
241
100
AcDbVertex
100
AcDb3dPolylineVertex
 10
206.1946
 20
28.2171
 30
0.0
 70
    32
  0
VERTEX
  5
26AE
330
2612
100
AcDbEntity
  8
241
100
AcDbVertex
100
AcDb3dPolylineVertex
 10
206.1934
 20
28.227
 30
0.0
 70
    32
  0
VERTEX
  5
26AF
330
2612
100
AcDbEntity
  8
241
100
AcDbVertex
100
AcDb3dPolylineVertex
 10
206.1922
 20
28.2369
 30
0.0
 70
    32
  0
VERTEX
  5
26B0
330
2612
100
AcDbEntity
  8
241
100
AcDbVertex
100
AcDb3dPolylineVertex
 10
206.1911
 20
28.2468
 30
0.0
 70
    32
  0
VERTEX
  5
26B1
330
2612
100
AcDbEntity
  8
241
100
AcDbVertex
100
AcDb3dPolylineVertex
 10
206.1899
 20
28.2567
 30
0.0
 70
    32
  0
VERTEX
  5
26B2
330
2612
100
AcDbEntity
  8
241
100
AcDbVertex
100
AcDb3dPolylineVertex
 10
206.1888
 20
28.2666
 30
0.0
 70
    32
  0
VERTEX
  5
26B3
330
2612
100
AcDbEntity
  8
241
100
AcDbVertex
100
AcDb3dPolylineVertex
 10
206.1876
 20
28.2765
 30
0.0
 70
    32
  0
VERTEX
  5
26B4
330
2612
100
AcDbEntity
  8
241
100
AcDbVertex
100
AcDb3dPolylineVertex
 10
206.1865
 20
28.2864
 30
0.0
 70
    32
  0
VERTEX
  5
26B5
330
2612
100
AcDbEntity
  8
241
100
AcDbVertex
100
AcDb3dPolylineVertex
 10
206.1854
 20
28.2964
 30
0.0
 70
    32
  0
VERTEX
  5
26B6
330
2612
100
AcDbEntity
  8
241
100
AcDbVertex
100
AcDb3dPolylineVertex
 10
206.1843
 20
28.3063
 30
0.0
 70
    32
  0
VERTEX
  5
26B7
330
2612
100
AcDbEntity
  8
241
100
AcDbVertex
100
AcDb3dPolylineVertex
 10
206.1832
 20
28.3162
 30
0.0
 70
    32
  0
VERTEX
  5
26B8
330
2612
100
AcDbEntity
  8
241
100
AcDbVertex
100
AcDb3dPolylineVertex
 10
206.1821
 20
28.3262
 30
0.0
 70
    32
  0
VERTEX
  5
26B9
330
2612
100
AcDbEntity
  8
241
100
AcDbVertex
100
AcDb3dPolylineVertex
 10
206.181
 20
28.3362
 30
0.0
 70
    32
  0
VERTEX
  5
26BA
330
2612
100
AcDbEntity
  8
241
100
AcDbVertex
100
AcDb3dPolylineVertex
 10
206.18
 20
28.3461
 30
0.0
 70
    32
  0
VERTEX
  5
26BB
330
2612
100
AcDbEntity
  8
241
100
AcDbVertex
100
AcDb3dPolylineVertex
 10
206.1789
 20
28.3561
 30
0.0
 70
    32
  0
VERTEX
  5
26BC
330
2612
100
AcDbEntity
  8
241
100
AcDbVertex
100
AcDb3dPolylineVertex
 10
206.1779
 20
28.3661
 30
0.0
 70
    32
  0
VERTEX
  5
26BD
330
2612
100
AcDbEntity
  8
241
100
AcDbVertex
100
AcDb3dPolylineVertex
 10
206.1769
 20
28.3761
 30
0.0
 70
    32
  0
VERTEX
  5
26BE
330
2612
100
AcDbEntity
  8
241
100
AcDbVertex
100
AcDb3dPolylineVertex
 10
206.1759
 20
28.3861
 30
0.0
 70
    32
  0
VERTEX
  5
26BF
330
2612
100
AcDbEntity
  8
241
100
AcDbVertex
100
AcDb3dPolylineVertex
 10
206.1749
 20
28.3961
 30
0.0
 70
    32
  0
VERTEX
  5
26C0
330
2612
100
AcDbEntity
  8
241
100
AcDbVertex
100
AcDb3dPolylineVertex
 10
206.1739
 20
28.4061
 30
0.0
 70
    32
  0
VERTEX
  5
26C1
330
2612
100
AcDbEntity
  8
241
100
AcDbVertex
100
AcDb3dPolylineVertex
 10
206.173
 20
28.4161
 30
0.0
 70
    32
  0
VERTEX
  5
26C2
330
2612
100
AcDbEntity
  8
241
100
AcDbVertex
100
AcDb3dPolylineVertex
 10
206.172
 20
28.4261
 30
0.0
 70
    32
  0
VERTEX
  5
26C3
330
2612
100
AcDbEntity
  8
241
100
AcDbVertex
100
AcDb3dPolylineVertex
 10
206.1711
 20
28.4361
 30
0.0
 70
    32
  0
VERTEX
  5
26C4
330
2612
100
AcDbEntity
  8
241
100
AcDbVertex
100
AcDb3dPolylineVertex
 10
206.1701
 20
28.4461
 30
0.0
 70
    32
  0
VERTEX
  5
26C5
330
2612
100
AcDbEntity
  8
241
100
AcDbVertex
100
AcDb3dPolylineVertex
 10
206.1692
 20
28.4562
 30
0.0
 70
    32
  0
VERTEX
  5
26C6
330
2612
100
AcDbEntity
  8
241
100
AcDbVertex
100
AcDb3dPolylineVertex
 10
206.1683
 20
28.4662
 30
0.0
 70
    32
  0
VERTEX
  5
26C7
330
2612
100
AcDbEntity
  8
241
100
AcDbVertex
100
AcDb3dPolylineVertex
 10
206.1674
 20
28.4762
 30
0.0
 70
    32
  0
VERTEX
  5
26C8
330
2612
100
AcDbEntity
  8
241
100
AcDbVertex
100
AcDb3dPolylineVertex
 10
206.1666
 20
28.4863
 30
0.0
 70
    32
  0
VERTEX
  5
26C9
330
2612
100
AcDbEntity
  8
241
100
AcDbVertex
100
AcDb3dPolylineVertex
 10
206.1657
 20
28.4963
 30
0.0
 70
    32
  0
VERTEX
  5
26CA
330
2612
100
AcDbEntity
  8
241
100
AcDbVertex
100
AcDb3dPolylineVertex
 10
206.1649
 20
28.5064
 30
0.0
 70
    32
  0
VERTEX
  5
26CB
330
2612
100
AcDbEntity
  8
241
100
AcDbVertex
100
AcDb3dPolylineVertex
 10
206.164
 20
28.5164
 30
0.0
 70
    32
  0
VERTEX
  5
26CC
330
2612
100
AcDbEntity
  8
241
100
AcDbVertex
100
AcDb3dPolylineVertex
 10
206.1632
 20
28.5265
 30
0.0
 70
    32
  0
VERTEX
  5
26CD
330
2612
100
AcDbEntity
  8
241
100
AcDbVertex
100
AcDb3dPolylineVertex
 10
206.1624
 20
28.5365
 30
0.0
 70
    32
  0
VERTEX
  5
26CE
330
2612
100
AcDbEntity
  8
241
100
AcDbVertex
100
AcDb3dPolylineVertex
 10
206.1616
 20
28.5466
 30
0.0
 70
    32
  0
VERTEX
  5
26CF
330
2612
100
AcDbEntity
  8
241
100
AcDbVertex
100
AcDb3dPolylineVertex
 10
206.1608
 20
28.5566
 30
0.0
 70
    32
  0
VERTEX
  5
26D0
330
2612
100
AcDbEntity
  8
241
100
AcDbVertex
100
AcDb3dPolylineVertex
 10
206.1601
 20
28.5667
 30
0.0
 70
    32
  0
VERTEX
  5
26D1
330
2612
100
AcDbEntity
  8
241
100
AcDbVertex
100
AcDb3dPolylineVertex
 10
206.1593
 20
28.5768
 30
0.0
 70
    32
  0
VERTEX
  5
26D2
330
2612
100
AcDbEntity
  8
241
100
AcDbVertex
100
AcDb3dPolylineVertex
 10
206.1586
 20
28.5868
 30
0.0
 70
    32
  0
VERTEX
  5
26D3
330
2612
100
AcDbEntity
  8
241
100
AcDbVertex
100
AcDb3dPolylineVertex
 10
206.1579
 20
28.5969
 30
0.0
 70
    32
  0
VERTEX
  5
26D4
330
2612
100
AcDbEntity
  8
241
100
AcDbVertex
100
AcDb3dPolylineVertex
 10
206.1572
 20
28.607
 30
0.0
 70
    32
  0
VERTEX
  5
26D5
330
2612
100
AcDbEntity
  8
241
100
AcDbVertex
100
AcDb3dPolylineVertex
 10
206.1565
 20
28.617
 30
0.0
 70
    32
  0
VERTEX
  5
26D6
330
2612
100
AcDbEntity
  8
241
100
AcDbVertex
100
AcDb3dPolylineVertex
 10
206.1558
 20
28.6271
 30
0.0
 70
    32
  0
VERTEX
  5
26D7
330
2612
100
AcDbEntity
  8
241
100
AcDbVertex
100
AcDb3dPolylineVertex
 10
206.1551
 20
28.6372
 30
0.0
 70
    32
  0
VERTEX
  5
26D8
330
2612
100
AcDbEntity
  8
241
100
AcDbVertex
100
AcDb3dPolylineVertex
 10
206.1545
 20
28.6472
 30
0.0
 70
    32
  0
VERTEX
  5
26D9
330
2612
100
AcDbEntity
  8
241
100
AcDbVertex
100
AcDb3dPolylineVertex
 10
206.1538
 20
28.6573
 30
0.0
 70
    32
  0
VERTEX
  5
26DA
330
2612
100
AcDbEntity
  8
241
100
AcDbVertex
100
AcDb3dPolylineVertex
 10
206.1532
 20
28.6674
 30
0.0
 70
    32
  0
VERTEX
  5
26DB
330
2612
100
AcDbEntity
  8
241
100
AcDbVertex
100
AcDb3dPolylineVertex
 10
206.1526
 20
28.6774
 30
0.0
 70
    32
  0
VERTEX
  5
26DC
330
2612
100
AcDbEntity
  8
241
100
AcDbVertex
100
AcDb3dPolylineVertex
 10
206.152
 20
28.6875
 30
0.0
 70
    32
  0
VERTEX
  5
26DD
330
2612
100
AcDbEntity
  8
241
100
AcDbVertex
100
AcDb3dPolylineVertex
 10
206.1514
 20
28.6976
 30
0.0
 70
    32
  0
VERTEX
  5
26DE
330
2612
100
AcDbEntity
  8
241
100
AcDbVertex
100
AcDb3dPolylineVertex
 10
206.1509
 20
28.7076
 30
0.0
 70
    32
  0
VERTEX
  5
26DF
330
2612
100
AcDbEntity
  8
241
100
AcDbVertex
100
AcDb3dPolylineVertex
 10
206.1503
 20
28.7177
 30
0.0
 70
    32
  0
VERTEX
  5
26E0
330
2612
100
AcDbEntity
  8
241
100
AcDbVertex
100
AcDb3dPolylineVertex
 10
206.1498
 20
28.7277
 30
0.0
 70
    32
  0
VERTEX
  5
26E1
330
2612
100
AcDbEntity
  8
241
100
AcDbVertex
100
AcDb3dPolylineVertex
 10
206.1492
 20
28.7378
 30
0.0
 70
    32
  0
VERTEX
  5
26E2
330
2612
100
AcDbEntity
  8
241
100
AcDbVertex
100
AcDb3dPolylineVertex
 10
206.1487
 20
28.7479
 30
0.0
 70
    32
  0
VERTEX
  5
26E3
330
2612
100
AcDbEntity
  8
241
100
AcDbVertex
100
AcDb3dPolylineVertex
 10
206.1482
 20
28.7579
 30
0.0
 70
    32
  0
VERTEX
  5
26E4
330
2612
100
AcDbEntity
  8
241
100
AcDbVertex
100
AcDb3dPolylineVertex
 10
206.1477
 20
28.768
 30
0.0
 70
    32
  0
VERTEX
  5
26E5
330
2612
100
AcDbEntity
  8
241
100
AcDbVertex
100
AcDb3dPolylineVertex
 10
206.1473
 20
28.778
 30
0.0
 70
    32
  0
VERTEX
  5
26E6
330
2612
100
AcDbEntity
  8
241
100
AcDbVertex
100
AcDb3dPolylineVertex
 10
206.1468
 20
28.7881
 30
0.0
 70
    32
  0
VERTEX
  5
26E7
330
2612
100
AcDbEntity
  8
241
100
AcDbVertex
100
AcDb3dPolylineVertex
 10
206.1464
 20
28.7981
 30
0.0
 70
    32
  0
VERTEX
  5
26E8
330
2612
100
AcDbEntity
  8
241
100
AcDbVertex
100
AcDb3dPolylineVertex
 10
206.1459
 20
28.8081
 30
0.0
 70
    32
  0
VERTEX
  5
26E9
330
2612
100
AcDbEntity
  8
241
100
AcDbVertex
100
AcDb3dPolylineVertex
 10
206.1455
 20
28.8182
 30
0.0
 70
    32
  0
VERTEX
  5
26EA
330
2612
100
AcDbEntity
  8
241
100
AcDbVertex
100
AcDb3dPolylineVertex
 10
206.1451
 20
28.8282
 30
0.0
 70
    32
  0
VERTEX
  5
26EB
330
2612
100
AcDbEntity
  8
241
100
AcDbVertex
100
AcDb3dPolylineVertex
 10
206.1447
 20
28.8382
 30
0.0
 70
    32
  0
VERTEX
  5
26EC
330
2612
100
AcDbEntity
  8
241
100
AcDbVertex
100
AcDb3dPolylineVertex
 10
206.1443
 20
28.8483
 30
0.0
 70
    32
  0
VERTEX
  5
26ED
330
2612
100
AcDbEntity
  8
241
100
AcDbVertex
100
AcDb3dPolylineVertex
 10
206.144
 20
28.8583
 30
0.0
 70
    32
  0
VERTEX
  5
26EE
330
2612
100
AcDbEntity
  8
241
100
AcDbVertex
100
AcDb3dPolylineVertex
 10
206.1436
 20
28.8683
 30
0.0
 70
    32
  0
VERTEX
  5
26EF
330
2612
100
AcDbEntity
  8
241
100
AcDbVertex
100
AcDb3dPolylineVertex
 10
206.1433
 20
28.8783
 30
0.0
 70
    32
  0
VERTEX
  5
26F0
330
2612
100
AcDbEntity
  8
241
100
AcDbVertex
100
AcDb3dPolylineVertex
 10
206.143
 20
28.8883
 30
0.0
 70
    32
  0
VERTEX
  5
26F1
330
2612
100
AcDbEntity
  8
241
100
AcDbVertex
100
AcDb3dPolylineVertex
 10
206.1426
 20
28.8983
 30
0.0
 70
    32
  0
VERTEX
  5
26F2
330
2612
100
AcDbEntity
  8
241
100
AcDbVertex
100
AcDb3dPolylineVertex
 10
206.1423
 20
28.9083
 30
0.0
 70
    32
  0
VERTEX
  5
26F3
330
2612
100
AcDbEntity
  8
241
100
AcDbVertex
100
AcDb3dPolylineVertex
 10
206.1421
 20
28.9183
 30
0.0
 70
    32
  0
VERTEX
  5
26F4
330
2612
100
AcDbEntity
  8
241
100
AcDbVertex
100
AcDb3dPolylineVertex
 10
206.1418
 20
28.9283
 30
0.0
 70
    32
  0
VERTEX
  5
26F5
330
2612
100
AcDbEntity
  8
241
100
AcDbVertex
100
AcDb3dPolylineVertex
 10
206.1415
 20
28.9382
 30
0.0
 70
    32
  0
VERTEX
  5
26F6
330
2612
100
AcDbEntity
  8
241
100
AcDbVertex
100
AcDb3dPolylineVertex
 10
206.1413
 20
28.9482
 30
0.0
 70
    32
  0
VERTEX
  5
26F7
330
2612
100
AcDbEntity
  8
241
100
AcDbVertex
100
AcDb3dPolylineVertex
 10
206.141
 20
28.9582
 30
0.0
 70
    32
  0
VERTEX
  5
26F8
330
2612
100
AcDbEntity
  8
241
100
AcDbVertex
100
AcDb3dPolylineVertex
 10
206.1408
 20
28.9681
 30
0.0
 70
    32
  0
VERTEX
  5
26F9
330
2612
100
AcDbEntity
  8
241
100
AcDbVertex
100
AcDb3dPolylineVertex
 10
206.1406
 20
28.9781
 30
0.0
 70
    32
  0
VERTEX
  5
26FA
330
2612
100
AcDbEntity
  8
241
100
AcDbVertex
100
AcDb3dPolylineVertex
 10
206.1404
 20
28.988
 30
0.0
 70
    32
  0
VERTEX
  5
26FB
330
2612
100
AcDbEntity
  8
241
100
AcDbVertex
100
AcDb3dPolylineVertex
 10
206.1402
 20
28.9979
 30
0.0
 70
    32
  0
VERTEX
  5
26FC
330
2612
100
AcDbEntity
  8
241
100
AcDbVertex
100
AcDb3dPolylineVertex
 10
206.1401
 20
29.0079
 30
0.0
 70
    32
  0
VERTEX
  5
26FD
330
2612
100
AcDbEntity
  8
241
100
AcDbVertex
100
AcDb3dPolylineVertex
 10
206.1399
 20
29.0178
 30
0.0
 70
    32
  0
VERTEX
  5
26FE
330
2612
100
AcDbEntity
  8
241
100
AcDbVertex
100
AcDb3dPolylineVertex
 10
206.1398
 20
29.0277
 30
0.0
 70
    32
  0
VERTEX
  5
26FF
330
2612
100
AcDbEntity
  8
241
100
AcDbVertex
100
AcDb3dPolylineVertex
 10
206.1396
 20
29.0376
 30
0.0
 70
    32
  0
VERTEX
  5
2700
330
2612
100
AcDbEntity
  8
241
100
AcDbVertex
100
AcDb3dPolylineVertex
 10
206.1395
 20
29.0475
 30
0.0
 70
    32
  0
VERTEX
  5
2701
330
2612
100
AcDbEntity
  8
241
100
AcDbVertex
100
AcDb3dPolylineVertex
 10
206.1394
 20
29.0573
 30
0.0
 70
    32
  0
VERTEX
  5
2702
330
2612
100
AcDbEntity
  8
241
100
AcDbVertex
100
AcDb3dPolylineVertex
 10
206.1393
 20
29.0672
 30
0.0
 70
    32
  0
VERTEX
  5
2703
330
2612
100
AcDbEntity
  8
241
100
AcDbVertex
100
AcDb3dPolylineVertex
 10
206.1392
 20
29.0771
 30
0.0
 70
    32
  0
VERTEX
  5
2704
330
2612
100
AcDbEntity
  8
241
100
AcDbVertex
100
AcDb3dPolylineVertex
 10
206.1391
 20
29.0869
 30
0.0
 70
    32
  0
VERTEX
  5
2705
330
2612
100
AcDbEntity
  8
241
100
AcDbVertex
100
AcDb3dPolylineVertex
 10
206.1391
 20
29.0968
 30
0.0
 70
    32
  0
VERTEX
  5
2706
330
2612
100
AcDbEntity
  8
241
100
AcDbVertex
100
AcDb3dPolylineVertex
 10
206.139
 20
29.1066
 30
0.0
 70
    32
  0
VERTEX
  5
2707
330
2612
100
AcDbEntity
  8
241
100
AcDbVertex
100
AcDb3dPolylineVertex
 10
206.139
 20
29.1164
 30
0.0
 70
    32
  0
VERTEX
  5
2708
330
2612
100
AcDbEntity
  8
241
100
AcDbVertex
100
AcDb3dPolylineVertex
 10
206.139
 20
29.1262
 30
0.0
 70
    32
  0
VERTEX
  5
2709
330
2612
100
AcDbEntity
  8
241
100
AcDbVertex
100
AcDb3dPolylineVertex
 10
206.139
 20
29.136
 30
0.0
 70
    32
  0
VERTEX
  5
270A
330
2612
100
AcDbEntity
  8
241
100
AcDbVertex
100
AcDb3dPolylineVertex
 10
206.139
 20
29.1458
 30
0.0
 70
    32
  0
VERTEX
  5
270B
330
2612
100
AcDbEntity
  8
241
100
AcDbVertex
100
AcDb3dPolylineVertex
 10
206.139
 20
29.1556
 30
0.0
 70
    32
  0
VERTEX
  5
270C
330
2612
100
AcDbEntity
  8
241
100
AcDbVertex
100
AcDb3dPolylineVertex
 10
206.139
 20
29.1653
 30
0.0
 70
    32
  0
VERTEX
  5
270D
330
2612
100
AcDbEntity
  8
241
100
AcDbVertex
100
AcDb3dPolylineVertex
 10
206.1391
 20
29.1751
 30
0.0
 70
    32
  0
VERTEX
  5
270E
330
2612
100
AcDbEntity
  8
241
100
AcDbVertex
100
AcDb3dPolylineVertex
 10
206.1391
 20
29.1848
 30
0.0
 70
    32
  0
VERTEX
  5
270F
330
2612
100
AcDbEntity
  8
241
100
AcDbVertex
100
AcDb3dPolylineVertex
 10
206.1392
 20
29.1946
 30
0.0
 70
    32
  0
VERTEX
  5
2710
330
2612
100
AcDbEntity
  8
241
100
AcDbVertex
100
AcDb3dPolylineVertex
 10
206.1392
 20
29.2043
 30
0.0
 70
    32
  0
VERTEX
  5
2711
330
2612
100
AcDbEntity
  8
241
100
AcDbVertex
100
AcDb3dPolylineVertex
 10
206.1393
 20
29.214
 30
0.0
 70
    32
  0
VERTEX
  5
2712
330
2612
100
AcDbEntity
  8
241
100
AcDbVertex
100
AcDb3dPolylineVertex
 10
206.1394
 20
29.2237
 30
0.0
 70
    32
  0
VERTEX
  5
2713
330
2612
100
AcDbEntity
  8
241
100
AcDbVertex
100
AcDb3dPolylineVertex
 10
206.1395
 20
29.2334
 30
0.0
 70
    32
  0
VERTEX
  5
2714
330
2612
100
AcDbEntity
  8
241
100
AcDbVertex
100
AcDb3dPolylineVertex
 10
206.1397
 20
29.243
 30
0.0
 70
    32
  0
VERTEX
  5
2715
330
2612
100
AcDbEntity
  8
241
100
AcDbVertex
100
AcDb3dPolylineVertex
 10
206.1398
 20
29.2527
 30
0.0
 70
    32
  0
VERTEX
  5
2716
330
2612
100
AcDbEntity
  8
241
100
AcDbVertex
100
AcDb3dPolylineVertex
 10
206.1399
 20
29.2623
 30
0.0
 70
    32
  0
VERTEX
  5
2717
330
2612
100
AcDbEntity
  8
241
100
AcDbVertex
100
AcDb3dPolylineVertex
 10
206.1401
 20
29.2719
 30
0.0
 70
    32
  0
VERTEX
  5
2718
330
2612
100
AcDbEntity
  8
241
100
AcDbVertex
100
AcDb3dPolylineVertex
 10
206.1403
 20
29.2815
 30
0.0
 70
    32
  0
VERTEX
  5
2719
330
2612
100
AcDbEntity
  8
241
100
AcDbVertex
100
AcDb3dPolylineVertex
 10
206.1404
 20
29.2911
 30
0.0
 70
    32
  0
VERTEX
  5
271A
330
2612
100
AcDbEntity
  8
241
100
AcDbVertex
100
AcDb3dPolylineVertex
 10
206.1406
 20
29.3007
 30
0.0
 70
    32
  0
VERTEX
  5
271B
330
2612
100
AcDbEntity
  8
241
100
AcDbVertex
100
AcDb3dPolylineVertex
 10
206.1408
 20
29.3103
 30
0.0
 70
    32
  0
VERTEX
  5
271C
330
2612
100
AcDbEntity
  8
241
100
AcDbVertex
100
AcDb3dPolylineVertex
 10
206.1411
 20
29.3198
 30
0.0
 70
    32
  0
VERTEX
  5
271D
330
2612
100
AcDbEntity
  8
241
100
AcDbVertex
100
AcDb3dPolylineVertex
 10
206.1413
 20
29.3294
 30
0.0
 70
    32
  0
VERTEX
  5
271E
330
2612
100
AcDbEntity
  8
241
100
AcDbVertex
100
AcDb3dPolylineVertex
 10
206.1415
 20
29.3389
 30
0.0
 70
    32
  0
VERTEX
  5
271F
330
2612
100
AcDbEntity
  8
241
100
AcDbVertex
100
AcDb3dPolylineVertex
 10
206.1418
 20
29.3484
 30
0.0
 70
    32
  0
VERTEX
  5
2720
330
2612
100
AcDbEntity
  8
241
100
AcDbVertex
100
AcDb3dPolylineVertex
 10
206.142
 20
29.3579
 30
0.0
 70
    32
  0
VERTEX
  5
2721
330
2612
100
AcDbEntity
  8
241
100
AcDbVertex
100
AcDb3dPolylineVertex
 10
206.1423
 20
29.3673
 30
0.0
 70
    32
  0
VERTEX
  5
2722
330
2612
100
AcDbEntity
  8
241
100
AcDbVertex
100
AcDb3dPolylineVertex
 10
206.1426
 20
29.3768
 30
0.0
 70
    32
  0
VERTEX
  5
2723
330
2612
100
AcDbEntity
  8
241
100
AcDbVertex
100
AcDb3dPolylineVertex
 10
206.1429
 20
29.3862
 30
0.0
 70
    32
  0
VERTEX
  5
2724
330
2612
100
AcDbEntity
  8
241
100
AcDbVertex
100
AcDb3dPolylineVertex
 10
206.1432
 20
29.3957
 30
0.0
 70
    32
  0
VERTEX
  5
2725
330
2612
100
AcDbEntity
  8
241
100
AcDbVertex
100
AcDb3dPolylineVertex
 10
206.1435
 20
29.4051
 30
0.0
 70
    32
  0
VERTEX
  5
2726
330
2612
100
AcDbEntity
  8
241
100
AcDbVertex
100
AcDb3dPolylineVertex
 10
206.1438
 20
29.4144
 30
0.0
 70
    32
  0
VERTEX
  5
2727
330
2612
100
AcDbEntity
  8
241
100
AcDbVertex
100
AcDb3dPolylineVertex
 10
206.1442
 20
29.4238
 30
0.0
 70
    32
  0
VERTEX
  5
2728
330
2612
100
AcDbEntity
  8
241
100
AcDbVertex
100
AcDb3dPolylineVertex
 10
206.1445
 20
29.4332
 30
0.0
 70
    32
  0
VERTEX
  5
2729
330
2612
100
AcDbEntity
  8
241
100
AcDbVertex
100
AcDb3dPolylineVertex
 10
206.1449
 20
29.4425
 30
0.0
 70
    32
  0
VERTEX
  5
272A
330
2612
100
AcDbEntity
  8
241
100
AcDbVertex
100
AcDb3dPolylineVertex
 10
206.1452
 20
29.4518
 30
0.0
 70
    32
  0
VERTEX
  5
272B
330
2612
100
AcDbEntity
  8
241
100
AcDbVertex
100
AcDb3dPolylineVertex
 10
206.1456
 20
29.4611
 30
0.0
 70
    32
  0
VERTEX
  5
272C
330
2612
100
AcDbEntity
  8
241
100
AcDbVertex
100
AcDb3dPolylineVertex
 10
206.146
 20
29.4704
 30
0.0
 70
    32
  0
VERTEX
  5
272D
330
2612
100
AcDbEntity
  8
241
100
AcDbVertex
100
AcDb3dPolylineVertex
 10
206.1464
 20
29.4796
 30
0.0
 70
    32
  0
VERTEX
  5
272E
330
2612
100
AcDbEntity
  8
241
100
AcDbVertex
100
AcDb3dPolylineVertex
 10
206.1468
 20
29.4889
 30
0.0
 70
    32
  0
VERTEX
  5
272F
330
2612
100
AcDbEntity
  8
241
100
AcDbVertex
100
AcDb3dPolylineVertex
 10
206.1473
 20
29.4981
 30
0.0
 70
    32
  0
VERTEX
  5
2730
330
2612
100
AcDbEntity
  8
241
100
AcDbVertex
100
AcDb3dPolylineVertex
 10
206.1477
 20
29.5073
 30
0.0
 70
    32
  0
VERTEX
  5
2731
330
2612
100
AcDbEntity
  8
241
100
AcDbVertex
100
AcDb3dPolylineVertex
 10
206.1481
 20
29.5165
 30
0.0
 70
    32
  0
VERTEX
  5
2732
330
2612
100
AcDbEntity
  8
241
100
AcDbVertex
100
AcDb3dPolylineVertex
 10
206.1486
 20
29.5257
 30
0.0
 70
    32
  0
VERTEX
  5
2733
330
2612
100
AcDbEntity
  8
241
100
AcDbVertex
100
AcDb3dPolylineVertex
 10
206.1491
 20
29.535
 30
0.0
 70
    32
  0
VERTEX
  5
2734
330
2612
100
AcDbEntity
  8
241
100
AcDbVertex
100
AcDb3dPolylineVertex
 10
206.1496
 20
29.5442
 30
0.0
 70
    32
  0
VERTEX
  5
2735
330
2612
100
AcDbEntity
  8
241
100
AcDbVertex
100
AcDb3dPolylineVertex
 10
206.1501
 20
29.5535
 30
0.0
 70
    32
  0
VERTEX
  5
2736
330
2612
100
AcDbEntity
  8
241
100
AcDbVertex
100
AcDb3dPolylineVertex
 10
206.1506
 20
29.5628
 30
0.0
 70
    32
  0
VERTEX
  5
2737
330
2612
100
AcDbEntity
  8
241
100
AcDbVertex
100
AcDb3dPolylineVertex
 10
206.1511
 20
29.5722
 30
0.0
 70
    32
  0
VERTEX
  5
2738
330
2612
100
AcDbEntity
  8
241
100
AcDbVertex
100
AcDb3dPolylineVertex
 10
206.1516
 20
29.5816
 30
0.0
 70
    32
  0
VERTEX
  5
2739
330
2612
100
AcDbEntity
  8
241
100
AcDbVertex
100
AcDb3dPolylineVertex
 10
206.1522
 20
29.5909
 30
0.0
 70
    32
  0
VERTEX
  5
273A
330
2612
100
AcDbEntity
  8
241
100
AcDbVertex
100
AcDb3dPolylineVertex
 10
206.1528
 20
29.6004
 30
0.0
 70
    32
  0
VERTEX
  5
273B
330
2612
100
AcDbEntity
  8
241
100
AcDbVertex
100
AcDb3dPolylineVertex
 10
206.1533
 20
29.6098
 30
0.0
 70
    32
  0
VERTEX
  5
273C
330
2612
100
AcDbEntity
  8
241
100
AcDbVertex
100
AcDb3dPolylineVertex
 10
206.1539
 20
29.6193
 30
0.0
 70
    32
  0
VERTEX
  5
273D
330
2612
100
AcDbEntity
  8
241
100
AcDbVertex
100
AcDb3dPolylineVertex
 10
206.1545
 20
29.6288
 30
0.0
 70
    32
  0
VERTEX
  5
273E
330
2612
100
AcDbEntity
  8
241
100
AcDbVertex
100
AcDb3dPolylineVertex
 10
206.1552
 20
29.6383
 30
0.0
 70
    32
  0
VERTEX
  5
273F
330
2612
100
AcDbEntity
  8
241
100
AcDbVertex
100
AcDb3dPolylineVertex
 10
206.1558
 20
29.6478
 30
0.0
 70
    32
  0
VERTEX
  5
2740
330
2612
100
AcDbEntity
  8
241
100
AcDbVertex
100
AcDb3dPolylineVertex
 10
206.1564
 20
29.6573
 30
0.0
 70
    32
  0
VERTEX
  5
2741
330
2612
100
AcDbEntity
  8
241
100
AcDbVertex
100
AcDb3dPolylineVertex
 10
206.1571
 20
29.6669
 30
0.0
 70
    32
  0
VERTEX
  5
2742
330
2612
100
AcDbEntity
  8
241
100
AcDbVertex
100
AcDb3dPolylineVertex
 10
206.1578
 20
29.6765
 30
0.0
 70
    32
  0
VERTEX
  5
2743
330
2612
100
AcDbEntity
  8
241
100
AcDbVertex
100
AcDb3dPolylineVertex
 10
206.1584
 20
29.6861
 30
0.0
 70
    32
  0
VERTEX
  5
2744
330
2612
100
AcDbEntity
  8
241
100
AcDbVertex
100
AcDb3dPolylineVertex
 10
206.1591
 20
29.6957
 30
0.0
 70
    32
  0
VERTEX
  5
2745
330
2612
100
AcDbEntity
  8
241
100
AcDbVertex
100
AcDb3dPolylineVertex
 10
206.1598
 20
29.7054
 30
0.0
 70
    32
  0
VERTEX
  5
2746
330
2612
100
AcDbEntity
  8
241
100
AcDbVertex
100
AcDb3dPolylineVertex
 10
206.1606
 20
29.715
 30
0.0
 70
    32
  0
VERTEX
  5
2747
330
2612
100
AcDbEntity
  8
241
100
AcDbVertex
100
AcDb3dPolylineVertex
 10
206.1613
 20
29.7247
 30
0.0
 70
    32
  0
VERTEX
  5
2748
330
2612
100
AcDbEntity
  8
241
100
AcDbVertex
100
AcDb3dPolylineVertex
 10
206.1621
 20
29.7344
 30
0.0
 70
    32
  0
VERTEX
  5
2749
330
2612
100
AcDbEntity
  8
241
100
AcDbVertex
100
AcDb3dPolylineVertex
 10
206.1628
 20
29.7441
 30
0.0
 70
    32
  0
VERTEX
  5
274A
330
2612
100
AcDbEntity
  8
241
100
AcDbVertex
100
AcDb3dPolylineVertex
 10
206.1636
 20
29.7538
 30
0.0
 70
    32
  0
VERTEX
  5
274B
330
2612
100
AcDbEntity
  8
241
100
AcDbVertex
100
AcDb3dPolylineVertex
 10
206.1644
 20
29.7636
 30
0.0
 70
    32
  0
VERTEX
  5
274C
330
2612
100
AcDbEntity
  8
241
100
AcDbVertex
100
AcDb3dPolylineVertex
 10
206.1652
 20
29.7733
 30
0.0
 70
    32
  0
VERTEX
  5
274D
330
2612
100
AcDbEntity
  8
241
100
AcDbVertex
100
AcDb3dPolylineVertex
 10
206.166
 20
29.7831
 30
0.0
 70
    32
  0
VERTEX
  5
274E
330
2612
100
AcDbEntity
  8
241
100
AcDbVertex
100
AcDb3dPolylineVertex
 10
206.1668
 20
29.7929
 30
0.0
 70
    32
  0
VERTEX
  5
274F
330
2612
100
AcDbEntity
  8
241
100
AcDbVertex
100
AcDb3dPolylineVertex
 10
206.1677
 20
29.8027
 30
0.0
 70
    32
  0
VERTEX
  5
2750
330
2612
100
AcDbEntity
  8
241
100
AcDbVertex
100
AcDb3dPolylineVertex
 10
206.1685
 20
29.8125
 30
0.0
 70
    32
  0
VERTEX
  5
2751
330
2612
100
AcDbEntity
  8
241
100
AcDbVertex
100
AcDb3dPolylineVertex
 10
206.1694
 20
29.8224
 30
0.0
 70
    32
  0
VERTEX
  5
2752
330
2612
100
AcDbEntity
  8
241
100
AcDbVertex
100
AcDb3dPolylineVertex
 10
206.1703
 20
29.8322
 30
0.0
 70
    32
  0
VERTEX
  5
2753
330
2612
100
AcDbEntity
  8
241
100
AcDbVertex
100
AcDb3dPolylineVertex
 10
206.1712
 20
29.8421
 30
0.0
 70
    32
  0
VERTEX
  5
2754
330
2612
100
AcDbEntity
  8
241
100
AcDbVertex
100
AcDb3dPolylineVertex
 10
206.1721
 20
29.8519
 30
0.0
 70
    32
  0
VERTEX
  5
2755
330
2612
100
AcDbEntity
  8
241
100
AcDbVertex
100
AcDb3dPolylineVertex
 10
206.173
 20
29.8618
 30
0.0
 70
    32
  0
VERTEX
  5
2756
330
2612
100
AcDbEntity
  8
241
100
AcDbVertex
100
AcDb3dPolylineVertex
 10
206.1739
 20
29.8717
 30
0.0
 70
    32
  0
VERTEX
  5
2757
330
2612
100
AcDbEntity
  8
241
100
AcDbVertex
100
AcDb3dPolylineVertex
 10
206.1749
 20
29.8816
 30
0.0
 70
    32
  0
VERTEX
  5
2758
330
2612
100
AcDbEntity
  8
241
100
AcDbVertex
100
AcDb3dPolylineVertex
 10
206.1758
 20
29.8915
 30
0.0
 70
    32
  0
VERTEX
  5
2759
330
2612
100
AcDbEntity
  8
241
100
AcDbVertex
100
AcDb3dPolylineVertex
 10
206.1768
 20
29.9014
 30
0.0
 70
    32
  0
VERTEX
  5
275A
330
2612
100
AcDbEntity
  8
241
100
AcDbVertex
100
AcDb3dPolylineVertex
 10
206.1778
 20
29.9114
 30
0.0
 70
    32
  0
VERTEX
  5
275B
330
2612
100
AcDbEntity
  8
241
100
AcDbVertex
100
AcDb3dPolylineVertex
 10
206.1788
 20
29.9213
 30
0.0
 70
    32
  0
VERTEX
  5
275C
330
2612
100
AcDbEntity
  8
241
100
AcDbVertex
100
AcDb3dPolylineVertex
 10
206.1798
 20
29.9312
 30
0.0
 70
    32
  0
VERTEX
  5
275D
330
2612
100
AcDbEntity
  8
241
100
AcDbVertex
100
AcDb3dPolylineVertex
 10
206.1809
 20
29.9412
 30
0.0
 70
    32
  0
VERTEX
  5
275E
330
2612
100
AcDbEntity
  8
241
100
AcDbVertex
100
AcDb3dPolylineVertex
 10
206.1819
 20
29.9512
 30
0.0
 70
    32
  0
VERTEX
  5
275F
330
2612
100
AcDbEntity
  8
241
100
AcDbVertex
100
AcDb3dPolylineVertex
 10
206.183
 20
29.9611
 30
0.0
 70
    32
  0
VERTEX
  5
2760
330
2612
100
AcDbEntity
  8
241
100
AcDbVertex
100
AcDb3dPolylineVertex
 10
206.184
 20
29.9711
 30
0.0
 70
    32
  0
VERTEX
  5
2761
330
2612
100
AcDbEntity
  8
241
100
AcDbVertex
100
AcDb3dPolylineVertex
 10
206.1851
 20
29.9811
 30
0.0
 70
    32
  0
VERTEX
  5
2762
330
2612
100
AcDbEntity
  8
241
100
AcDbVertex
100
AcDb3dPolylineVertex
 10
206.1862
 20
29.9911
 30
0.0
 70
    32
  0
VERTEX
  5
2763
330
2612
100
AcDbEntity
  8
241
100
AcDbVertex
100
AcDb3dPolylineVertex
 10
206.1873
 20
30.0011
 30
0.0
 70
    32
  0
VERTEX
  5
2764
330
2612
100
AcDbEntity
  8
241
100
AcDbVertex
100
AcDb3dPolylineVertex
 10
206.1884
 20
30.011
 30
0.0
 70
    32
  0
VERTEX
  5
2765
330
2612
100
AcDbEntity
  8
241
100
AcDbVertex
100
AcDb3dPolylineVertex
 10
206.1896
 20
30.021
 30
0.0
 70
    32
  0
VERTEX
  5
2766
330
2612
100
AcDbEntity
  8
241
100
AcDbVertex
100
AcDb3dPolylineVertex
 10
206.1907
 20
30.031
 30
0.0
 70
    32
  0
VERTEX
  5
2767
330
2612
100
AcDbEntity
  8
241
100
AcDbVertex
100
AcDb3dPolylineVertex
 10
206.1919
 20
30.0411
 30
0.0
 70
    32
  0
VERTEX
  5
2768
330
2612
100
AcDbEntity
  8
241
100
AcDbVertex
100
AcDb3dPolylineVertex
 10
206.1931
 20
30.0511
 30
0.0
 70
    32
  0
VERTEX
  5
2769
330
2612
100
AcDbEntity
  8
241
100
AcDbVertex
100
AcDb3dPolylineVertex
 10
206.1943
 20
30.0611
 30
0.0
 70
    32
  0
VERTEX
  5
276A
330
2612
100
AcDbEntity
  8
241
100
AcDbVertex
100
AcDb3dPolylineVertex
 10
206.1955
 20
30.0711
 30
0.0
 70
    32
  0
VERTEX
  5
276B
330
2612
100
AcDbEntity
  8
241
100
AcDbVertex
100
AcDb3dPolylineVertex
 10
206.1967
 20
30.0811
 30
0.0
 70
    32
  0
VERTEX
  5
276C
330
2612
100
AcDbEntity
  8
241
100
AcDbVertex
100
AcDb3dPolylineVertex
 10
206.1979
 20
30.0911
 30
0.0
 70
    32
  0
VERTEX
  5
276D
330
2612
100
AcDbEntity
  8
241
100
AcDbVertex
100
AcDb3dPolylineVertex
 10
206.1992
 20
30.1011
 30
0.0
 70
    32
  0
VERTEX
  5
276E
330
2612
100
AcDbEntity
  8
241
100
AcDbVertex
100
AcDb3dPolylineVertex
 10
206.2004
 20
30.1112
 30
0.0
 70
    32
  0
VERTEX
  5
276F
330
2612
100
AcDbEntity
  8
241
100
AcDbVertex
100
AcDb3dPolylineVertex
 10
206.2017
 20
30.1212
 30
0.0
 70
    32
  0
VERTEX
  5
2770
330
2612
100
AcDbEntity
  8
241
100
AcDbVertex
100
AcDb3dPolylineVertex
 10
206.203
 20
30.1312
 30
0.0
 70
    32
  0
VERTEX
  5
2771
330
2612
100
AcDbEntity
  8
241
100
AcDbVertex
100
AcDb3dPolylineVertex
 10
206.2043
 20
30.1412
 30
0.0
 70
    32
  0
VERTEX
  5
2772
330
2612
100
AcDbEntity
  8
241
100
AcDbVertex
100
AcDb3dPolylineVertex
 10
206.2056
 20
30.1512
 30
0.0
 70
    32
  0
VERTEX
  5
2773
330
2612
100
AcDbEntity
  8
241
100
AcDbVertex
100
AcDb3dPolylineVertex
 10
206.2069
 20
30.1612
 30
0.0
 70
    32
  0
VERTEX
  5
2774
330
2612
100
AcDbEntity
  8
241
100
AcDbVertex
100
AcDb3dPolylineVertex
 10
206.2083
 20
30.1712
 30
0.0
 70
    32
  0
VERTEX
  5
2775
330
2612
100
AcDbEntity
  8
241
100
AcDbVertex
100
AcDb3dPolylineVertex
 10
206.2096
 20
30.1813
 30
0.0
 70
    32
  0
VERTEX
  5
2776
330
2612
100
AcDbEntity
  8
241
100
AcDbVertex
100
AcDb3dPolylineVertex
 10
206.211
 20
30.1913
 30
0.0
 70
    32
  0
VERTEX
  5
2777
330
2612
100
AcDbEntity
  8
241
100
AcDbVertex
100
AcDb3dPolylineVertex
 10
206.2124
 20
30.2013
 30
0.0
 70
    32
  0
VERTEX
  5
2778
330
2612
100
AcDbEntity
  8
241
100
AcDbVertex
100
AcDb3dPolylineVertex
 10
206.2137
 20
30.2113
 30
0.0
 70
    32
  0
VERTEX
  5
2779
330
2612
100
AcDbEntity
  8
241
100
AcDbVertex
100
AcDb3dPolylineVertex
 10
206.2151
 20
30.2212
 30
0.0
 70
    32
  0
VERTEX
  5
277A
330
2612
100
AcDbEntity
  8
241
100
AcDbVertex
100
AcDb3dPolylineVertex
 10
206.2166
 20
30.2312
 30
0.0
 70
    32
  0
VERTEX
  5
277B
330
2612
100
AcDbEntity
  8
241
100
AcDbVertex
100
AcDb3dPolylineVertex
 10
206.218
 20
30.2412
 30
0.0
 70
    32
  0
VERTEX
  5
277C
330
2612
100
AcDbEntity
  8
241
100
AcDbVertex
100
AcDb3dPolylineVertex
 10
206.2194
 20
30.2512
 30
0.0
 70
    32
  0
VERTEX
  5
277D
330
2612
100
AcDbEntity
  8
241
100
AcDbVertex
100
AcDb3dPolylineVertex
 10
206.2209
 20
30.2612
 30
0.0
 70
    32
  0
VERTEX
  5
277E
330
2612
100
AcDbEntity
  8
241
100
AcDbVertex
100
AcDb3dPolylineVertex
 10
206.2224
 20
30.2711
 30
0.0
 70
    32
  0
VERTEX
  5
277F
330
2612
100
AcDbEntity
  8
241
100
AcDbVertex
100
AcDb3dPolylineVertex
 10
206.2238
 20
30.2811
 30
0.0
 70
    32
  0
VERTEX
  5
2780
330
2612
100
AcDbEntity
  8
241
100
AcDbVertex
100
AcDb3dPolylineVertex
 10
206.2253
 20
30.291
 30
0.0
 70
    32
  0
VERTEX
  5
2781
330
2612
100
AcDbEntity
  8
241
100
AcDbVertex
100
AcDb3dPolylineVertex
 10
206.2268
 20
30.301
 30
0.0
 70
    32
  0
VERTEX
  5
2782
330
2612
100
AcDbEntity
  8
241
100
AcDbVertex
100
AcDb3dPolylineVertex
 10
206.2284
 20
30.3109
 30
0.0
 70
    32
  0
VERTEX
  5
2783
330
2612
100
AcDbEntity
  8
241
100
AcDbVertex
100
AcDb3dPolylineVertex
 10
206.2299
 20
30.3208
 30
0.0
 70
    32
  0
VERTEX
  5
2784
330
2612
100
AcDbEntity
  8
241
100
AcDbVertex
100
AcDb3dPolylineVertex
 10
206.2314
 20
30.3307
 30
0.0
 70
    32
  0
VERTEX
  5
2785
330
2612
100
AcDbEntity
  8
241
100
AcDbVertex
100
AcDb3dPolylineVertex
 10
206.233
 20
30.3406
 30
0.0
 70
    32
  0
VERTEX
  5
2786
330
2612
100
AcDbEntity
  8
241
100
AcDbVertex
100
AcDb3dPolylineVertex
 10
206.2345
 20
30.3505
 30
0.0
 70
    32
  0
VERTEX
  5
2787
330
2612
100
AcDbEntity
  8
241
100
AcDbVertex
100
AcDb3dPolylineVertex
 10
206.2361
 20
30.3604
 30
0.0
 70
    32
  0
VERTEX
  5
2788
330
2612
100
AcDbEntity
  8
241
100
AcDbVertex
100
AcDb3dPolylineVertex
 10
206.2377
 20
30.3703
 30
0.0
 70
    32
  0
VERTEX
  5
2789
330
2612
100
AcDbEntity
  8
241
100
AcDbVertex
100
AcDb3dPolylineVertex
 10
206.2393
 20
30.3802
 30
0.0
 70
    32
  0
VERTEX
  5
278A
330
2612
100
AcDbEntity
  8
241
100
AcDbVertex
100
AcDb3dPolylineVertex
 10
206.2409
 20
30.39
 30
0.0
 70
    32
  0
VERTEX
  5
278B
330
2612
100
AcDbEntity
  8
241
100
AcDbVertex
100
AcDb3dPolylineVertex
 10
206.2425
 20
30.3998
 30
0.0
 70
    32
  0
VERTEX
  5
278C
330
2612
100
AcDbEntity
  8
241
100
AcDbVertex
100
AcDb3dPolylineVertex
 10
206.2441
 20
30.4097
 30
0.0
 70
    32
  0
VERTEX
  5
278D
330
2612
100
AcDbEntity
  8
241
100
AcDbVertex
100
AcDb3dPolylineVertex
 10
206.2457
 20
30.4195
 30
0.0
 70
    32
  0
VERTEX
  5
278E
330
2612
100
AcDbEntity
  8
241
100
AcDbVertex
100
AcDb3dPolylineVertex
 10
206.2474
 20
30.4293
 30
0.0
 70
    32
  0
VERTEX
  5
278F
330
2612
100
AcDbEntity
  8
241
100
AcDbVertex
100
AcDb3dPolylineVertex
 10
206.249
 20
30.4391
 30
0.0
 70
    32
  0
VERTEX
  5
2790
330
2612
100
AcDbEntity
  8
241
100
AcDbVertex
100
AcDb3dPolylineVertex
 10
206.2507
 20
30.4488
 30
0.0
 70
    32
  0
VERTEX
  5
2791
330
2612
100
AcDbEntity
  8
241
100
AcDbVertex
100
AcDb3dPolylineVertex
 10
206.2524
 20
30.4586
 30
0.0
 70
    32
  0
VERTEX
  5
2792
330
2612
100
AcDbEntity
  8
241
100
AcDbVertex
100
AcDb3dPolylineVertex
 10
206.2541
 20
30.4683
 30
0.0
 70
    32
  0
VERTEX
  5
2793
330
2612
100
AcDbEntity
  8
241
100
AcDbVertex
100
AcDb3dPolylineVertex
 10
206.2558
 20
30.478
 30
0.0
 70
    32
  0
VERTEX
  5
2794
330
2612
100
AcDbEntity
  8
241
100
AcDbVertex
100
AcDb3dPolylineVertex
 10
206.2575
 20
30.4878
 30
0.0
 70
    32
  0
VERTEX
  5
2795
330
2612
100
AcDbEntity
  8
241
100
AcDbVertex
100
AcDb3dPolylineVertex
 10
206.2592
 20
30.4974
 30
0.0
 70
    32
  0
VERTEX
  5
2796
330
2612
100
AcDbEntity
  8
241
100
AcDbVertex
100
AcDb3dPolylineVertex
 10
206.2609
 20
30.5071
 30
0.0
 70
    32
  0
VERTEX
  5
2797
330
2612
100
AcDbEntity
  8
241
100
AcDbVertex
100
AcDb3dPolylineVertex
 10
206.2626
 20
30.5168
 30
0.0
 70
    32
  0
VERTEX
  5
2798
330
2612
100
AcDbEntity
  8
241
100
AcDbVertex
100
AcDb3dPolylineVertex
 10
206.2644
 20
30.5264
 30
0.0
 70
    32
  0
VERTEX
  5
2799
330
2612
100
AcDbEntity
  8
241
100
AcDbVertex
100
AcDb3dPolylineVertex
 10
206.2661
 20
30.536
 30
0.0
 70
    32
  0
VERTEX
  5
279A
330
2612
100
AcDbEntity
  8
241
100
AcDbVertex
100
AcDb3dPolylineVertex
 10
206.2679
 20
30.5456
 30
0.0
 70
    32
  0
VERTEX
  5
279B
330
2612
100
AcDbEntity
  8
241
100
AcDbVertex
100
AcDb3dPolylineVertex
 10
206.2696
 20
30.5552
 30
0.0
 70
    32
  0
VERTEX
  5
279C
330
2612
100
AcDbEntity
  8
241
100
AcDbVertex
100
AcDb3dPolylineVertex
 10
206.2714
 20
30.5648
 30
0.0
 70
    32
  0
VERTEX
  5
279D
330
2612
100
AcDbEntity
  8
241
100
AcDbVertex
100
AcDb3dPolylineVertex
 10
206.2732
 20
30.5743
 30
0.0
 70
    32
  0
VERTEX
  5
279E
330
2612
100
AcDbEntity
  8
241
100
AcDbVertex
100
AcDb3dPolylineVertex
 10
206.275
 20
30.5839
 30
0.0
 70
    32
  0
VERTEX
  5
279F
330
2612
100
AcDbEntity
  8
241
100
AcDbVertex
100
AcDb3dPolylineVertex
 10
206.2768
 20
30.5934
 30
0.0
 70
    32
  0
VERTEX
  5
27A0
330
2612
100
AcDbEntity
  8
241
100
AcDbVertex
100
AcDb3dPolylineVertex
 10
206.2786
 20
30.6029
 30
0.0
 70
    32
  0
VERTEX
  5
27A1
330
2612
100
AcDbEntity
  8
241
100
AcDbVertex
100
AcDb3dPolylineVertex
 10
206.2804
 20
30.6123
 30
0.0
 70
    32
  0
VERTEX
  5
27A2
330
2612
100
AcDbEntity
  8
241
100
AcDbVertex
100
AcDb3dPolylineVertex
 10
206.2822
 20
30.6218
 30
0.0
 70
    32
  0
VERTEX
  5
27A3
330
2612
100
AcDbEntity
  8
241
100
AcDbVertex
100
AcDb3dPolylineVertex
 10
206.284
 20
30.6312
 30
0.0
 70
    32
  0
VERTEX
  5
27A4
330
2612
100
AcDbEntity
  8
241
100
AcDbVertex
100
AcDb3dPolylineVertex
 10
206.2859
 20
30.6406
 30
0.0
 70
    32
  0
VERTEX
  5
27A5
330
2612
100
AcDbEntity
  8
241
100
AcDbVertex
100
AcDb3dPolylineVertex
 10
206.2877
 20
30.6499
 30
0.0
 70
    32
  0
VERTEX
  5
27A6
330
2612
100
AcDbEntity
  8
241
100
AcDbVertex
100
AcDb3dPolylineVertex
 10
206.2896
 20
30.6593
 30
0.0
 70
    32
  0
VERTEX
  5
27A7
330
2612
100
AcDbEntity
  8
241
100
AcDbVertex
100
AcDb3dPolylineVertex
 10
206.2914
 20
30.6686
 30
0.0
 70
    32
  0
VERTEX
  5
27A8
330
2612
100
AcDbEntity
  8
241
100
AcDbVertex
100
AcDb3dPolylineVertex
 10
206.2933
 20
30.6779
 30
0.0
 70
    32
  0
VERTEX
  5
27A9
330
2612
100
AcDbEntity
  8
241
100
AcDbVertex
100
AcDb3dPolylineVertex
 10
206.2951
 20
30.6872
 30
0.0
 70
    32
  0
VERTEX
  5
27AA
330
2612
100
AcDbEntity
  8
241
100
AcDbVertex
100
AcDb3dPolylineVertex
 10
206.297
 20
30.6964
 30
0.0
 70
    32
  0
VERTEX
  5
27AB
330
2612
100
AcDbEntity
  8
241
100
AcDbVertex
100
AcDb3dPolylineVertex
 10
206.2989
 20
30.7057
 30
0.0
 70
    32
  0
VERTEX
  5
27AC
330
2612
100
AcDbEntity
  8
241
100
AcDbVertex
100
AcDb3dPolylineVertex
 10
206.3008
 20
30.7149
 30
0.0
 70
    32
  0
VERTEX
  5
27AD
330
2612
100
AcDbEntity
  8
241
100
AcDbVertex
100
AcDb3dPolylineVertex
 10
206.3027
 20
30.724
 30
0.0
 70
    32
  0
VERTEX
  5
27AE
330
2612
100
AcDbEntity
  8
241
100
AcDbVertex
100
AcDb3dPolylineVertex
 10
206.3046
 20
30.7332
 30
0.0
 70
    32
  0
VERTEX
  5
27AF
330
2612
100
AcDbEntity
  8
241
100
AcDbVertex
100
AcDb3dPolylineVertex
 10
206.3065
 20
30.7423
 30
0.0
 70
    32
  0
VERTEX
  5
27B0
330
2612
100
AcDbEntity
  8
241
100
AcDbVertex
100
AcDb3dPolylineVertex
 10
206.3084
 20
30.7514
 30
0.0
 70
    32
  0
VERTEX
  5
27B1
330
2612
100
AcDbEntity
  8
241
100
AcDbVertex
100
AcDb3dPolylineVertex
 10
206.3103
 20
30.7604
 30
0.0
 70
    32
  0
VERTEX
  5
27B2
330
2612
100
AcDbEntity
  8
241
100
AcDbVertex
100
AcDb3dPolylineVertex
 10
206.3122
 20
30.7695
 30
0.0
 70
    32
  0
VERTEX
  5
27B3
330
2612
100
AcDbEntity
  8
241
100
AcDbVertex
100
AcDb3dPolylineVertex
 10
206.3142
 20
30.7785
 30
0.0
 70
    32
  0
VERTEX
  5
27B4
330
2612
100
AcDbEntity
  8
241
100
AcDbVertex
100
AcDb3dPolylineVertex
 10
206.3161
 20
30.7875
 30
0.0
 70
    32
  0
VERTEX
  5
27B5
330
2612
100
AcDbEntity
  8
241
100
AcDbVertex
100
AcDb3dPolylineVertex
 10
206.3181
 20
30.7965
 30
0.0
 70
    32
  0
VERTEX
  5
27B6
330
2612
100
AcDbEntity
  8
241
100
AcDbVertex
100
AcDb3dPolylineVertex
 10
206.32
 20
30.8055
 30
0.0
 70
    32
  0
VERTEX
  5
27B7
330
2612
100
AcDbEntity
  8
241
100
AcDbVertex
100
AcDb3dPolylineVertex
 10
206.322
 20
30.8145
 30
0.0
 70
    32
  0
VERTEX
  5
27B8
330
2612
100
AcDbEntity
  8
241
100
AcDbVertex
100
AcDb3dPolylineVertex
 10
206.324
 20
30.8236
 30
0.0
 70
    32
  0
VERTEX
  5
27B9
330
2612
100
AcDbEntity
  8
241
100
AcDbVertex
100
AcDb3dPolylineVertex
 10
206.326
 20
30.8326
 30
0.0
 70
    32
  0
VERTEX
  5
27BA
330
2612
100
AcDbEntity
  8
241
100
AcDbVertex
100
AcDb3dPolylineVertex
 10
206.328
 20
30.8417
 30
0.0
 70
    32
  0
VERTEX
  5
27BB
330
2612
100
AcDbEntity
  8
241
100
AcDbVertex
100
AcDb3dPolylineVertex
 10
206.33
 20
30.8507
 30
0.0
 70
    32
  0
VERTEX
  5
27BC
330
2612
100
AcDbEntity
  8
241
100
AcDbVertex
100
AcDb3dPolylineVertex
 10
206.3321
 20
30.8598
 30
0.0
 70
    32
  0
VERTEX
  5
27BD
330
2612
100
AcDbEntity
  8
241
100
AcDbVertex
100
AcDb3dPolylineVertex
 10
206.3341
 20
30.8689
 30
0.0
 70
    32
  0
VERTEX
  5
27BE
330
2612
100
AcDbEntity
  8
241
100
AcDbVertex
100
AcDb3dPolylineVertex
 10
206.3362
 20
30.8779
 30
0.0
 70
    32
  0
VERTEX
  5
27BF
330
2612
100
AcDbEntity
  8
241
100
AcDbVertex
100
AcDb3dPolylineVertex
 10
206.3383
 20
30.887
 30
0.0
 70
    32
  0
VERTEX
  5
27C0
330
2612
100
AcDbEntity
  8
241
100
AcDbVertex
100
AcDb3dPolylineVertex
 10
206.3404
 20
30.8961
 30
0.0
 70
    32
  0
VERTEX
  5
27C1
330
2612
100
AcDbEntity
  8
241
100
AcDbVertex
100
AcDb3dPolylineVertex
 10
206.3425
 20
30.9052
 30
0.0
 70
    32
  0
VERTEX
  5
27C2
330
2612
100
AcDbEntity
  8
241
100
AcDbVertex
100
AcDb3dPolylineVertex
 10
206.3446
 20
30.9144
 30
0.0
 70
    32
  0
VERTEX
  5
27C3
330
2612
100
AcDbEntity
  8
241
100
AcDbVertex
100
AcDb3dPolylineVertex
 10
206.3467
 20
30.9235
 30
0.0
 70
    32
  0
VERTEX
  5
27C4
330
2612
100
AcDbEntity
  8
241
100
AcDbVertex
100
AcDb3dPolylineVertex
 10
206.3489
 20
30.9326
 30
0.0
 70
    32
  0
VERTEX
  5
27C5
330
2612
100
AcDbEntity
  8
241
100
AcDbVertex
100
AcDb3dPolylineVertex
 10
206.351
 20
30.9417
 30
0.0
 70
    32
  0
VERTEX
  5
27C6
330
2612
100
AcDbEntity
  8
241
100
AcDbVertex
100
AcDb3dPolylineVertex
 10
206.3532
 20
30.9509
 30
0.0
 70
    32
  0
VERTEX
  5
27C7
330
2612
100
AcDbEntity
  8
241
100
AcDbVertex
100
AcDb3dPolylineVertex
 10
206.3554
 20
30.96
 30
0.0
 70
    32
  0
VERTEX
  5
27C8
330
2612
100
AcDbEntity
  8
241
100
AcDbVertex
100
AcDb3dPolylineVertex
 10
206.3576
 20
30.9692
 30
0.0
 70
    32
  0
VERTEX
  5
27C9
330
2612
100
AcDbEntity
  8
241
100
AcDbVertex
100
AcDb3dPolylineVertex
 10
206.3598
 20
30.9783
 30
0.0
 70
    32
  0
VERTEX
  5
27CA
330
2612
100
AcDbEntity
  8
241
100
AcDbVertex
100
AcDb3dPolylineVertex
 10
206.362
 20
30.9875
 30
0.0
 70
    32
  0
VERTEX
  5
27CB
330
2612
100
AcDbEntity
  8
241
100
AcDbVertex
100
AcDb3dPolylineVertex
 10
206.3643
 20
30.9967
 30
0.0
 70
    32
  0
VERTEX
  5
27CC
330
2612
100
AcDbEntity
  8
241
100
AcDbVertex
100
AcDb3dPolylineVertex
 10
206.3665
 20
31.0059
 30
0.0
 70
    32
  0
VERTEX
  5
27CD
330
2612
100
AcDbEntity
  8
241
100
AcDbVertex
100
AcDb3dPolylineVertex
 10
206.3688
 20
31.0151
 30
0.0
 70
    32
  0
VERTEX
  5
27CE
330
2612
100
AcDbEntity
  8
241
100
AcDbVertex
100
AcDb3dPolylineVertex
 10
206.3711
 20
31.0242
 30
0.0
 70
    32
  0
VERTEX
  5
27CF
330
2612
100
AcDbEntity
  8
241
100
AcDbVertex
100
AcDb3dPolylineVertex
 10
206.3733
 20
31.0334
 30
0.0
 70
    32
  0
VERTEX
  5
27D0
330
2612
100
AcDbEntity
  8
241
100
AcDbVertex
100
AcDb3dPolylineVertex
 10
206.3756
 20
31.0426
 30
0.0
 70
    32
  0
VERTEX
  5
27D1
330
2612
100
AcDbEntity
  8
241
100
AcDbVertex
100
AcDb3dPolylineVertex
 10
206.378
 20
31.0519
 30
0.0
 70
    32
  0
VERTEX
  5
27D2
330
2612
100
AcDbEntity
  8
241
100
AcDbVertex
100
AcDb3dPolylineVertex
 10
206.3803
 20
31.0611
 30
0.0
 70
    32
  0
VERTEX
  5
27D3
330
2612
100
AcDbEntity
  8
241
100
AcDbVertex
100
AcDb3dPolylineVertex
 10
206.3826
 20
31.0703
 30
0.0
 70
    32
  0
VERTEX
  5
27D4
330
2612
100
AcDbEntity
  8
241
100
AcDbVertex
100
AcDb3dPolylineVertex
 10
206.385
 20
31.0795
 30
0.0
 70
    32
  0
VERTEX
  5
27D5
330
2612
100
AcDbEntity
  8
241
100
AcDbVertex
100
AcDb3dPolylineVertex
 10
206.3874
 20
31.0888
 30
0.0
 70
    32
  0
VERTEX
  5
27D6
330
2612
100
AcDbEntity
  8
241
100
AcDbVertex
100
AcDb3dPolylineVertex
 10
206.3897
 20
31.098
 30
0.0
 70
    32
  0
VERTEX
  5
27D7
330
2612
100
AcDbEntity
  8
241
100
AcDbVertex
100
AcDb3dPolylineVertex
 10
206.3921
 20
31.1072
 30
0.0
 70
    32
  0
VERTEX
  5
27D8
330
2612
100
AcDbEntity
  8
241
100
AcDbVertex
100
AcDb3dPolylineVertex
 10
206.3945
 20
31.1165
 30
0.0
 70
    32
  0
VERTEX
  5
27D9
330
2612
100
AcDbEntity
  8
241
100
AcDbVertex
100
AcDb3dPolylineVertex
 10
206.397
 20
31.1258
 30
0.0
 70
    32
  0
VERTEX
  5
27DA
330
2612
100
AcDbEntity
  8
241
100
AcDbVertex
100
AcDb3dPolylineVertex
 10
206.3994
 20
31.135
 30
0.0
 70
    32
  0
VERTEX
  5
27DB
330
2612
100
AcDbEntity
  8
241
100
AcDbVertex
100
AcDb3dPolylineVertex
 10
206.4018
 20
31.1443
 30
0.0
 70
    32
  0
VERTEX
  5
27DC
330
2612
100
AcDbEntity
  8
241
100
AcDbVertex
100
AcDb3dPolylineVertex
 10
206.4043
 20
31.1535
 30
0.0
 70
    32
  0
VERTEX
  5
27DD
330
2612
100
AcDbEntity
  8
241
100
AcDbVertex
100
AcDb3dPolylineVertex
 10
206.4068
 20
31.1628
 30
0.0
 70
    32
  0
VERTEX
  5
27DE
330
2612
100
AcDbEntity
  8
241
100
AcDbVertex
100
AcDb3dPolylineVertex
 10
206.4092
 20
31.1721
 30
0.0
 70
    32
  0
VERTEX
  5
27DF
330
2612
100
AcDbEntity
  8
241
100
AcDbVertex
100
AcDb3dPolylineVertex
 10
206.4117
 20
31.1814
 30
0.0
 70
    32
  0
VERTEX
  5
27E0
330
2612
100
AcDbEntity
  8
241
100
AcDbVertex
100
AcDb3dPolylineVertex
 10
206.4143
 20
31.1907
 30
0.0
 70
    32
  0
VERTEX
  5
27E1
330
2612
100
AcDbEntity
  8
241
100
AcDbVertex
100
AcDb3dPolylineVertex
 10
206.4168
 20
31.2
 30
0.0
 70
    32
  0
VERTEX
  5
27E2
330
2612
100
AcDbEntity
  8
241
100
AcDbVertex
100
AcDb3dPolylineVertex
 10
206.4193
 20
31.2093
 30
0.0
 70
    32
  0
VERTEX
  5
27E3
330
2612
100
AcDbEntity
  8
241
100
AcDbVertex
100
AcDb3dPolylineVertex
 10
206.4219
 20
31.2186
 30
0.0
 70
    32
  0
VERTEX
  5
27E4
330
2612
100
AcDbEntity
  8
241
100
AcDbVertex
100
AcDb3dPolylineVertex
 10
206.4244
 20
31.2279
 30
0.0
 70
    32
  0
VERTEX
  5
27E5
330
2612
100
AcDbEntity
  8
241
100
AcDbVertex
100
AcDb3dPolylineVertex
 10
206.427
 20
31.2372
 30
0.0
 70
    32
  0
VERTEX
  5
27E6
330
2612
100
AcDbEntity
  8
241
100
AcDbVertex
100
AcDb3dPolylineVertex
 10
206.4296
 20
31.2465
 30
0.0
 70
    32
  0
VERTEX
  5
27E7
330
2612
100
AcDbEntity
  8
241
100
AcDbVertex
100
AcDb3dPolylineVertex
 10
206.4322
 20
31.2558
 30
0.0
 70
    32
  0
VERTEX
  5
27E8
330
2612
100
AcDbEntity
  8
241
100
AcDbVertex
100
AcDb3dPolylineVertex
 10
206.4348
 20
31.2651
 30
0.0
 70
    32
  0
VERTEX
  5
27E9
330
2612
100
AcDbEntity
  8
241
100
AcDbVertex
100
AcDb3dPolylineVertex
 10
206.4374
 20
31.2745
 30
0.0
 70
    32
  0
VERTEX
  5
27EA
330
2612
100
AcDbEntity
  8
241
100
AcDbVertex
100
AcDb3dPolylineVertex
 10
206.4401
 20
31.2838
 30
0.0
 70
    32
  0
VERTEX
  5
27EB
330
2612
100
AcDbEntity
  8
241
100
AcDbVertex
100
AcDb3dPolylineVertex
 10
206.4427
 20
31.2931
 30
0.0
 70
    32
  0
VERTEX
  5
27EC
330
2612
100
AcDbEntity
  8
241
100
AcDbVertex
100
AcDb3dPolylineVertex
 10
206.4454
 20
31.3025
 30
0.0
 70
    32
  0
VERTEX
  5
27ED
330
2612
100
AcDbEntity
  8
241
100
AcDbVertex
100
AcDb3dPolylineVertex
 10
206.4481
 20
31.3118
 30
0.0
 70
    32
  0
VERTEX
  5
27EE
330
2612
100
AcDbEntity
  8
241
100
AcDbVertex
100
AcDb3dPolylineVertex
 10
206.4508
 20
31.3212
 30
0.0
 70
    32
  0
VERTEX
  5
27EF
330
2612
100
AcDbEntity
  8
241
100
AcDbVertex
100
AcDb3dPolylineVertex
 10
206.4535
 20
31.3305
 30
0.0
 70
    32
  0
VERTEX
  5
27F0
330
2612
100
AcDbEntity
  8
241
100
AcDbVertex
100
AcDb3dPolylineVertex
 10
206.4562
 20
31.3399
 30
0.0
 70
    32
  0
VERTEX
  5
27F1
330
2612
100
AcDbEntity
  8
241
100
AcDbVertex
100
AcDb3dPolylineVertex
 10
206.4589
 20
31.3492
 30
0.0
 70
    32
  0
VERTEX
  5
27F2
330
2612
100
AcDbEntity
  8
241
100
AcDbVertex
100
AcDb3dPolylineVertex
 10
206.4617
 20
31.3586
 30
0.0
 70
    32
  0
VERTEX
  5
27F3
330
2612
100
AcDbEntity
  8
241
100
AcDbVertex
100
AcDb3dPolylineVertex
 10
206.4644
 20
31.3679
 30
0.0
 70
    32
  0
VERTEX
  5
27F4
330
2612
100
AcDbEntity
  8
241
100
AcDbVertex
100
AcDb3dPolylineVertex
 10
206.4672
 20
31.3773
 30
0.0
 70
    32
  0
VERTEX
  5
27F5
330
2612
100
AcDbEntity
  8
241
100
AcDbVertex
100
AcDb3dPolylineVertex
 10
206.47
 20
31.3867
 30
0.0
 70
    32
  0
VERTEX
  5
27F6
330
2612
100
AcDbEntity
  8
241
100
AcDbVertex
100
AcDb3dPolylineVertex
 10
206.4728
 20
31.396
 30
0.0
 70
    32
  0
VERTEX
  5
27F7
330
2612
100
AcDbEntity
  8
241
100
AcDbVertex
100
AcDb3dPolylineVertex
 10
206.4756
 20
31.4054
 30
0.0
 70
    32
  0
VERTEX
  5
27F8
330
2612
100
AcDbEntity
  8
241
100
AcDbVertex
100
AcDb3dPolylineVertex
 10
206.4784
 20
31.4148
 30
0.0
 70
    32
  0
VERTEX
  5
27F9
330
2612
100
AcDbEntity
  8
241
100
AcDbVertex
100
AcDb3dPolylineVertex
 10
206.4813
 20
31.4241
 30
0.0
 70
    32
  0
VERTEX
  5
27FA
330
2612
100
AcDbEntity
  8
241
100
AcDbVertex
100
AcDb3dPolylineVertex
 10
206.4841
 20
31.4335
 30
0.0
 70
    32
  0
VERTEX
  5
27FB
330
2612
100
AcDbEntity
  8
241
100
AcDbVertex
100
AcDb3dPolylineVertex
 10
206.487
 20
31.4429
 30
0.0
 70
    32
  0
VERTEX
  5
27FC
330
2612
100
AcDbEntity
  8
241
100
AcDbVertex
100
AcDb3dPolylineVertex
 10
206.4899
 20
31.4523
 30
0.0
 70
    32
  0
VERTEX
  5
27FD
330
2612
100
AcDbEntity
  8
241
100
AcDbVertex
100
AcDb3dPolylineVertex
 10
206.4928
 20
31.4617
 30
0.0
 70
    32
  0
VERTEX
  5
27FE
330
2612
100
AcDbEntity
  8
241
100
AcDbVertex
100
AcDb3dPolylineVertex
 10
206.4957
 20
31.471
 30
0.0
 70
    32
  0
VERTEX
  5
27FF
330
2612
100
AcDbEntity
  8
241
100
AcDbVertex
100
AcDb3dPolylineVertex
 10
206.4986
 20
31.4804
 30
0.0
 70
    32
  0
VERTEX
  5
2800
330
2612
100
AcDbEntity
  8
241
100
AcDbVertex
100
AcDb3dPolylineVertex
 10
206.5015
 20
31.4898
 30
0.0
 70
    32
  0
VERTEX
  5
2801
330
2612
100
AcDbEntity
  8
241
100
AcDbVertex
100
AcDb3dPolylineVertex
 10
206.5045
 20
31.4992
 30
0.0
 70
    32
  0
VERTEX
  5
2802
330
2612
100
AcDbEntity
  8
241
100
AcDbVertex
100
AcDb3dPolylineVertex
 10
206.5074
 20
31.5086
 30
0.0
 70
    32
  0
VERTEX
  5
2803
330
2612
100
AcDbEntity
  8
241
100
AcDbVertex
100
AcDb3dPolylineVertex
 10
206.5104
 20
31.518
 30
0.0
 70
    32
  0
VERTEX
  5
2804
330
2612
100
AcDbEntity
  8
241
100
AcDbVertex
100
AcDb3dPolylineVertex
 10
206.5134
 20
31.5274
 30
0.0
 70
    32
  0
VERTEX
  5
2805
330
2612
100
AcDbEntity
  8
241
100
AcDbVertex
100
AcDb3dPolylineVertex
 10
206.5164
 20
31.5368
 30
0.0
 70
    32
  0
VERTEX
  5
2806
330
2612
100
AcDbEntity
  8
241
100
AcDbVertex
100
AcDb3dPolylineVertex
 10
206.5194
 20
31.5462
 30
0.0
 70
    32
  0
VERTEX
  5
2807
330
2612
100
AcDbEntity
  8
241
100
AcDbVertex
100
AcDb3dPolylineVertex
 10
206.5224
 20
31.5556
 30
0.0
 70
    32
  0
VERTEX
  5
2808
330
2612
100
AcDbEntity
  8
241
100
AcDbVertex
100
AcDb3dPolylineVertex
 10
206.5254
 20
31.565
 30
0.0
 70
    32
  0
VERTEX
  5
2809
330
2612
100
AcDbEntity
  8
241
100
AcDbVertex
100
AcDb3dPolylineVertex
 10
206.5285
 20
31.5744
 30
0.0
 70
    32
  0
VERTEX
  5
280A
330
2612
100
AcDbEntity
  8
241
100
AcDbVertex
100
AcDb3dPolylineVertex
 10
206.5316
 20
31.5838
 30
0.0
 70
    32
  0
VERTEX
  5
280B
330
2612
100
AcDbEntity
  8
241
100
AcDbVertex
100
AcDb3dPolylineVertex
 10
206.5346
 20
31.5932
 30
0.0
 70
    32
  0
VERTEX
  5
280C
330
2612
100
AcDbEntity
  8
241
100
AcDbVertex
100
AcDb3dPolylineVertex
 10
206.5377
 20
31.6026
 30
0.0
 70
    32
  0
VERTEX
  5
280D
330
2612
100
AcDbEntity
  8
241
100
AcDbVertex
100
AcDb3dPolylineVertex
 10
206.5408
 20
31.612
 30
0.0
 70
    32
  0
VERTEX
  5
280E
330
2612
100
AcDbEntity
  8
241
100
AcDbVertex
100
AcDb3dPolylineVertex
 10
206.5439
 20
31.6214
 30
0.0
 70
    32
  0
VERTEX
  5
280F
330
2612
100
AcDbEntity
  8
241
100
AcDbVertex
100
AcDb3dPolylineVertex
 10
206.5471
 20
31.6308
 30
0.0
 70
    32
  0
VERTEX
  5
2810
330
2612
100
AcDbEntity
  8
241
100
AcDbVertex
100
AcDb3dPolylineVertex
 10
206.5502
 20
31.6402
 30
0.0
 70
    32
  0
VERTEX
  5
2811
330
2612
100
AcDbEntity
  8
241
100
AcDbVertex
100
AcDb3dPolylineVertex
 10
206.5534
 20
31.6496
 30
0.0
 70
    32
  0
VERTEX
  5
2812
330
2612
100
AcDbEntity
  8
241
100
AcDbVertex
100
AcDb3dPolylineVertex
 10
206.5565
 20
31.659
 30
0.0
 70
    32
  0
VERTEX
  5
2813
330
2612
100
AcDbEntity
  8
241
100
AcDbVertex
100
AcDb3dPolylineVertex
 10
206.5597
 20
31.6684
 30
0.0
 70
    32
  0
VERTEX
  5
2814
330
2612
100
AcDbEntity
  8
241
100
AcDbVertex
100
AcDb3dPolylineVertex
 10
206.5629
 20
31.6778
 30
0.0
 70
    32
  0
VERTEX
  5
2815
330
2612
100
AcDbEntity
  8
241
100
AcDbVertex
100
AcDb3dPolylineVertex
 10
206.5661
 20
31.6872
 30
0.0
 70
    32
  0
VERTEX
  5
2816
330
2612
100
AcDbEntity
  8
241
100
AcDbVertex
100
AcDb3dPolylineVertex
 10
206.5693
 20
31.6966
 30
0.0
 70
    32
  0
VERTEX
  5
2817
330
2612
100
AcDbEntity
  8
241
100
AcDbVertex
100
AcDb3dPolylineVertex
 10
206.5726
 20
31.706
 30
0.0
 70
    32
  0
VERTEX
  5
2818
330
2612
100
AcDbEntity
  8
241
100
AcDbVertex
100
AcDb3dPolylineVertex
 10
206.5758
 20
31.7154
 30
0.0
 70
    32
  0
VERTEX
  5
2819
330
2612
100
AcDbEntity
  8
241
100
AcDbVertex
100
AcDb3dPolylineVertex
 10
206.5791
 20
31.7249
 30
0.0
 70
    32
  0
VERTEX
  5
281A
330
2612
100
AcDbEntity
  8
241
100
AcDbVertex
100
AcDb3dPolylineVertex
 10
206.5823
 20
31.7343
 30
0.0
 70
    32
  0
VERTEX
  5
281B
330
2612
100
AcDbEntity
  8
241
100
AcDbVertex
100
AcDb3dPolylineVertex
 10
206.5856
 20
31.7437
 30
0.0
 70
    32
  0
VERTEX
  5
281C
330
2612
100
AcDbEntity
  8
241
100
AcDbVertex
100
AcDb3dPolylineVertex
 10
206.5889
 20
31.7531
 30
0.0
 70
    32
  0
VERTEX
  5
281D
330
2612
100
AcDbEntity
  8
241
100
AcDbVertex
100
AcDb3dPolylineVertex
 10
206.5922
 20
31.7625
 30
0.0
 70
    32
  0
VERTEX
  5
281E
330
2612
100
AcDbEntity
  8
241
100
AcDbVertex
100
AcDb3dPolylineVertex
 10
206.5955
 20
31.7719
 30
0.0
 70
    32
  0
VERTEX
  5
281F
330
2612
100
AcDbEntity
  8
241
100
AcDbVertex
100
AcDb3dPolylineVertex
 10
206.5989
 20
31.7813
 30
0.0
 70
    32
  0
VERTEX
  5
2820
330
2612
100
AcDbEntity
  8
241
100
AcDbVertex
100
AcDb3dPolylineVertex
 10
206.6022
 20
31.7907
 30
0.0
 70
    32
  0
VERTEX
  5
2821
330
2612
100
AcDbEntity
  8
241
100
AcDbVertex
100
AcDb3dPolylineVertex
 10
206.6056
 20
31.8001
 30
0.0
 70
    32
  0
VERTEX
  5
2822
330
2612
100
AcDbEntity
  8
241
100
AcDbVertex
100
AcDb3dPolylineVertex
 10
206.6089
 20
31.8095
 30
0.0
 70
    32
  0
VERTEX
  5
2823
330
2612
100
AcDbEntity
  8
241
100
AcDbVertex
100
AcDb3dPolylineVertex
 10
206.6123
 20
31.8189
 30
0.0
 70
    32
  0
VERTEX
  5
2824
330
2612
100
AcDbEntity
  8
241
100
AcDbVertex
100
AcDb3dPolylineVertex
 10
206.6157
 20
31.8283
 30
0.0
 70
    32
  0
VERTEX
  5
2825
330
2612
100
AcDbEntity
  8
241
100
AcDbVertex
100
AcDb3dPolylineVertex
 10
206.6191
 20
31.8377
 30
0.0
 70
    32
  0
VERTEX
  5
2826
330
2612
100
AcDbEntity
  8
241
100
AcDbVertex
100
AcDb3dPolylineVertex
 10
206.6225
 20
31.8471
 30
0.0
 70
    32
  0
VERTEX
  5
2827
330
2612
100
AcDbEntity
  8
241
100
AcDbVertex
100
AcDb3dPolylineVertex
 10
206.626
 20
31.8564
 30
0.0
 70
    32
  0
VERTEX
  5
2828
330
2612
100
AcDbEntity
  8
241
100
AcDbVertex
100
AcDb3dPolylineVertex
 10
206.6294
 20
31.8658
 30
0.0
 70
    32
  0
VERTEX
  5
2829
330
2612
100
AcDbEntity
  8
241
100
AcDbVertex
100
AcDb3dPolylineVertex
 10
206.6329
 20
31.8752
 30
0.0
 70
    32
  0
VERTEX
  5
282A
330
2612
100
AcDbEntity
  8
241
100
AcDbVertex
100
AcDb3dPolylineVertex
 10
206.6363
 20
31.8846
 30
0.0
 70
    32
  0
VERTEX
  5
282B
330
2612
100
AcDbEntity
  8
241
100
AcDbVertex
100
AcDb3dPolylineVertex
 10
206.6398
 20
31.894
 30
0.0
 70
    32
  0
VERTEX
  5
282C
330
2612
100
AcDbEntity
  8
241
100
AcDbVertex
100
AcDb3dPolylineVertex
 10
206.6433
 20
31.9034
 30
0.0
 70
    32
  0
VERTEX
  5
282D
330
2612
100
AcDbEntity
  8
241
100
AcDbVertex
100
AcDb3dPolylineVertex
 10
206.6468
 20
31.9128
 30
0.0
 70
    32
  0
VERTEX
  5
282E
330
2612
100
AcDbEntity
  8
241
100
AcDbVertex
100
AcDb3dPolylineVertex
 10
206.6503
 20
31.9221
 30
0.0
 70
    32
  0
VERTEX
  5
282F
330
2612
100
AcDbEntity
  8
241
100
AcDbVertex
100
AcDb3dPolylineVertex
 10
206.6539
 20
31.9315
 30
0.0
 70
    32
  0
VERTEX
  5
2830
330
2612
100
AcDbEntity
  8
241
100
AcDbVertex
100
AcDb3dPolylineVertex
 10
206.6574
 20
31.9409
 30
0.0
 70
    32
  0
VERTEX
  5
2831
330
2612
100
AcDbEntity
  8
241
100
AcDbVertex
100
AcDb3dPolylineVertex
 10
206.661
 20
31.9503
 30
0.0
 70
    32
  0
VERTEX
  5
2832
330
2612
100
AcDbEntity
  8
241
100
AcDbVertex
100
AcDb3dPolylineVertex
 10
206.6645
 20
31.9596
 30
0.0
 70
    32
  0
VERTEX
  5
2833
330
2612
100
AcDbEntity
  8
241
100
AcDbVertex
100
AcDb3dPolylineVertex
 10
206.6681
 20
31.969
 30
0.0
 70
    32
  0
VERTEX
  5
2834
330
2612
100
AcDbEntity
  8
241
100
AcDbVertex
100
AcDb3dPolylineVertex
 10
206.6717
 20
31.9784
 30
0.0
 70
    32
  0
VERTEX
  5
2835
330
2612
100
AcDbEntity
  8
241
100
AcDbVertex
100
AcDb3dPolylineVertex
 10
206.6753
 20
31.9877
 30
0.0
 70
    32
  0
VERTEX
  5
2836
330
2612
100
AcDbEntity
  8
241
100
AcDbVertex
100
AcDb3dPolylineVertex
 10
206.6789
 20
31.9971
 30
0.0
 70
    32
  0
VERTEX
  5
2837
330
2612
100
AcDbEntity
  8
241
100
AcDbVertex
100
AcDb3dPolylineVertex
 10
206.6826
 20
32.0064
 30
0.0
 70
    32
  0
VERTEX
  5
2838
330
2612
100
AcDbEntity
  8
241
100
AcDbVertex
100
AcDb3dPolylineVertex
 10
206.6862
 20
32.0158
 30
0.0
 70
    32
  0
VERTEX
  5
2839
330
2612
100
AcDbEntity
  8
241
100
AcDbVertex
100
AcDb3dPolylineVertex
 10
206.6899
 20
32.0252
 30
0.0
 70
    32
  0
VERTEX
  5
283A
330
2612
100
AcDbEntity
  8
241
100
AcDbVertex
100
AcDb3dPolylineVertex
 10
206.6935
 20
32.0345
 30
0.0
 70
    32
  0
VERTEX
  5
283B
330
2612
100
AcDbEntity
  8
241
100
AcDbVertex
100
AcDb3dPolylineVertex
 10
206.6972
 20
32.0438
 30
0.0
 70
    32
  0
VERTEX
  5
283C
330
2612
100
AcDbEntity
  8
241
100
AcDbVertex
100
AcDb3dPolylineVertex
 10
206.7009
 20
32.0532
 30
0.0
 70
    32
  0
VERTEX
  5
283D
330
2612
100
AcDbEntity
  8
241
100
AcDbVertex
100
AcDb3dPolylineVertex
 10
206.7046
 20
32.0625
 30
0.0
 70
    32
  0
VERTEX
  5
283E
330
2612
100
AcDbEntity
  8
241
100
AcDbVertex
100
AcDb3dPolylineVertex
 10
206.7083
 20
32.0719
 30
0.0
 70
    32
  0
VERTEX
  5
283F
330
2612
100
AcDbEntity
  8
241
100
AcDbVertex
100
AcDb3dPolylineVertex
 10
206.712
 20
32.0812
 30
0.0
 70
    32
  0
VERTEX
  5
2840
330
2612
100
AcDbEntity
  8
241
100
AcDbVertex
100
AcDb3dPolylineVertex
 10
206.7158
 20
32.0905
 30
0.0
 70
    32
  0
VERTEX
  5
2841
330
2612
100
AcDbEntity
  8
241
100
AcDbVertex
100
AcDb3dPolylineVertex
 10
206.7195
 20
32.0999
 30
0.0
 70
    32
  0
VERTEX
  5
2842
330
2612
100
AcDbEntity
  8
241
100
AcDbVertex
100
AcDb3dPolylineVertex
 10
206.7233
 20
32.1092
 30
0.0
 70
    32
  0
VERTEX
  5
2843
330
2612
100
AcDbEntity
  8
241
100
AcDbVertex
100
AcDb3dPolylineVertex
 10
206.727
 20
32.1185
 30
0.0
 70
    32
  0
VERTEX
  5
2844
330
2612
100
AcDbEntity
  8
241
100
AcDbVertex
100
AcDb3dPolylineVertex
 10
206.7308
 20
32.1278
 30
0.0
 70
    32
  0
VERTEX
  5
2845
330
2612
100
AcDbEntity
  8
241
100
AcDbVertex
100
AcDb3dPolylineVertex
 10
206.7346
 20
32.1371
 30
0.0
 70
    32
  0
VERTEX
  5
2846
330
2612
100
AcDbEntity
  8
241
100
AcDbVertex
100
AcDb3dPolylineVertex
 10
206.7384
 20
32.1464
 30
0.0
 70
    32
  0
VERTEX
  5
2847
330
2612
100
AcDbEntity
  8
241
100
AcDbVertex
100
AcDb3dPolylineVertex
 10
206.7423
 20
32.1557
 30
0.0
 70
    32
  0
VERTEX
  5
2848
330
2612
100
AcDbEntity
  8
241
100
AcDbVertex
100
AcDb3dPolylineVertex
 10
206.7461
 20
32.165
 30
0.0
 70
    32
  0
VERTEX
  5
2849
330
2612
100
AcDbEntity
  8
241
100
AcDbVertex
100
AcDb3dPolylineVertex
 10
206.7499
 20
32.1743
 30
0.0
 70
    32
  0
VERTEX
  5
284A
330
2612
100
AcDbEntity
  8
241
100
AcDbVertex
100
AcDb3dPolylineVertex
 10
206.7538
 20
32.1836
 30
0.0
 70
    32
  0
VERTEX
  5
284B
330
2612
100
AcDbEntity
  8
241
100
AcDbVertex
100
AcDb3dPolylineVertex
 10
206.7576
 20
32.1929
 30
0.0
 70
    32
  0
VERTEX
  5
284C
330
2612
100
AcDbEntity
  8
241
100
AcDbVertex
100
AcDb3dPolylineVertex
 10
206.7615
 20
32.2022
 30
0.0
 70
    32
  0
VERTEX
  5
284D
330
2612
100
AcDbEntity
  8
241
100
AcDbVertex
100
AcDb3dPolylineVertex
 10
206.7654
 20
32.2114
 30
0.0
 70
    32
  0
VERTEX
  5
284E
330
2612
100
AcDbEntity
  8
241
100
AcDbVertex
100
AcDb3dPolylineVertex
 10
206.7693
 20
32.2207
 30
0.0
 70
    32
  0
VERTEX
  5
284F
330
2612
100
AcDbEntity
  8
241
100
AcDbVertex
100
AcDb3dPolylineVertex
 10
206.7732
 20
32.23
 30
0.0
 70
    32
  0
VERTEX
  5
2850
330
2612
100
AcDbEntity
  8
241
100
AcDbVertex
100
AcDb3dPolylineVertex
 10
206.7771
 20
32.2392
 30
0.0
 70
    32
  0
VERTEX
  5
2851
330
2612
100
AcDbEntity
  8
241
100
AcDbVertex
100
AcDb3dPolylineVertex
 10
206.7811
 20
32.2485
 30
0.0
 70
    32
  0
VERTEX
  5
2852
330
2612
100
AcDbEntity
  8
241
100
AcDbVertex
100
AcDb3dPolylineVertex
 10
206.785
 20
32.2578
 30
0.0
 70
    32
  0
SEQEND
  5
2853
330
2612
100
AcDbEntity
  8
241
  0
ARC
  5
2854
330
95A
100
AcDbEntity
  8
241
100
AcDbCircle
 10
230.7
 20
25.2
 30
0.0
 40
0.2
100
AcDbArc
 50
180.0
 51
270.0
  0
ARC
  5
2855
330
95A
100
AcDbEntity
  8
241
100
AcDbCircle
 10
231.0
 20
18.0
 30
0.0
 40
26.0
100
AcDbArc
 50
91.10192744
 51
130.65887073
  0
LINE
  5
2856
330
95A
100
AcDbEntity
  8
241
100
AcDbLine
 10
230.5
 20
49.8
 30
0.0
 11
230.30483281
 21
49.99516719
 31
0.0
  0
ARC
  5
2857
330
95A
100
AcDbEntity
  8
240
100
AcDbCircle
 10
231.0
 20
0.0
 30
0.0
 40
60.0
100
AcDbArc
 50
25.84193276
 51
53.13010219
  0
ARC
  5
2858
330
95A
100
AcDbEntity
  8
241
100
AcDbCircle
 10
231.0
 20
0.0
 30
0.0
 40
54.0
100
AcDbArc
 50
21.70483955
 51
62.42153202
  0
LINE
  5
2859
330
95A
100
AcDbEntity
  8
241
100
AcDbLine
 10
256.0
 20
25.2
 30
0.0
 11
256.0
 21
49.79999993
 31
0.0
  0
ARC
  5
285A
330
95A
100
AcDbEntity
  8
241
100
AcDbCircle
 10
255.8
 20
25.2
 30
0.0
 40
0.2
100
AcDbArc
 50
270.0
 51
0.0
  0
LINE
  5
285B
330
95A
100
AcDbEntity
  8
241
100
AcDbLine
 10
256.0
 20
49.79999993
 30
0.0
 11
256.2
 21
49.99999993
 31
0.0
  0
ARC
  5
285C
330
95A
100
AcDbEntity
  8
240
100
AcDbCircle
 10
261.00000012
 20
39.99999991
 30
0.0
 40
10.0
100
AcDbArc
 50
53.13010219
 51
89.99999983
  0
LINE
  5
285D
330
95A
100
AcDbEntity
  8
241
100
AcDbLine
 10
281.17147221
 20
19.97056275
 30
0.0
 11
288.0
 21
13.14203496
 31
0.0
  0
ARC
  5
285E
330
95A
100
AcDbEntity
  8
240
100
AcDbCircle
 10
258.0
 20
13.07669683
 30
0.0
 40
30.0
100
AcDbArc
 50
0.0
 51
25.84193276
  0
LINE
  5
285F
330
95A
100
AcDbEntity
  8
240
100
AcDbLine
 10
288.0
 20
13.07669683
 30
0.0
 11
288.0
 21
7.0
 31
0.0
  0
ENDBLK
  5
9AF
330
95A
100
AcDbEntity
  8
0
100
AcDbBlockEnd
  0
BLOCK
  5
9D3
330
9C9
100
AcDbEntity
  8
0
100
AcDbBlockBegin
  2
*D3
 70
     1
 10
0.0
 20
0.0
 30
0.0
  3
*D3
  1

  0
LINE
  5
163C
330
9C9
100
AcDbEntity
  8
250
  6
CONTINUOUS
100
AcDbLine
 10
0.0
 20
35.425
 30
0.0
 11
0.0
 21
71.0
 31
0.0
  0
LINE
  5
163D
330
9C9
100
AcDbEntity
  8
250
  6
CONTINUOUS
100
AcDbLine
 10
139.99999996
 20
45.96950303
 30
0.0
 11
139.99999996
 21
71.0
 31
0.0
  0
LINE
  5
163E
330
9C9
100
AcDbEntity
  8
250
  6
CONTINUOUS
100
AcDbLine
 10
2.23
 20
70.0
 30
0.0
 11
137.76999996
 21
70.0
 31
0.0
  0
INSERT
  5
163F
330
9C9
100
AcDbEntity
  8
250
  6
CONTINUOUS
100
AcDbBlockReference
  2
_OPEN
 10
0.0
 20
70.0
 30
0.0
 41
2.23
 42
2.23
 43
2.23
 50
180.0
  0
INSERT
  5
1640
330
9C9
100
AcDbEntity
  8
250
  6
CONTINUOUS
100
AcDbBlockReference
  2
_OPEN
 10
139.99999996
 20
70.0
 30
0.0
 41
2.23
 42
2.23
 43
2.23
  0
MTEXT
  5
1641
330
9C9
100
AcDbEntity
  8
250
  6
CONTINUOUS
 62
    40
100
AcDbMText
 10
69.99999998
 20
72.4
 30
0.0
 40
2.8
 41
0.0
 71
     5
 72
     1
  1
\A1;140
1001
ACAD
1000
MTEXTBEGIN
1070
    73
1070
     1
1070
    44
1040
1.0
1070
    74
1070
     0
1000
MTEXTEND
1000
MTEXTBEGIN
1070
    73
1070
     1
1070
    44
1040
1.0
1070
    74
1070
     0
1000
MTEXTEND
  0
POINT
  5
1642
330
9C9
100
AcDbEntity
  8
DEFPOINTS
  6
CONTINUOUS
 62
     0
100
AcDbPoint
 10
0.0
 20
34.925
 30
0.0
  0
POINT
  5
1643
330
9C9
100
AcDbEntity
  8
DEFPOINTS
  6
CONTINUOUS
 62
     0
100
AcDbPoint
 10
139.99999996
 20
45.46950303
 30
0.0
  0
POINT
  5
1644
330
9C9
100
AcDbEntity
  8
DEFPOINTS
  6
CONTINUOUS
 62
     0
100
AcDbPoint
 10
139.99999996
 20
70.0
 30
0.0
  0
ENDBLK
  5
9D4
330
9C9
100
AcDbEntity
  8
0
100
AcDbBlockEnd
  0
BLOCK
  5
1570
330
1566
100
AcDbEntity
  8
0
100
AcDbBlockBegin
  2
*D4
 70
     1
 10
0.0
 20
0.0
 30
0.0
  3
*D4
  1

  0
LINE
  5
1633
330
1566
100
AcDbEntity
  8
250
  6
CONTINUOUS
100
AcDbLine
 10
50.0
 20
50.499375
 30
0.0
 11
50.0
 21
64.0
 31
0.0
  0
LINE
  5
1634
330
1566
100
AcDbEntity
  8
250
  6
CONTINUOUS
100
AcDbLine
 10
139.99999996
 20
45.96950303
 30
0.0
 11
139.99999996
 21
64.0
 31
0.0
  0
LINE
  5
1635
330
1566
100
AcDbEntity
  8
250
  6
CONTINUOUS
100
AcDbLine
 10
52.23
 20
63.0
 30
0.0
 11
137.76999996
 21
63.0
 31
0.0
  0
INSERT
  5
1636
330
1566
100
AcDbEntity
  8
250
  6
CONTINUOUS
100
AcDbBlockReference
  2
_OPEN
 10
50.0
 20
63.0
 30
0.0
 41
2.23
 42
2.23
 43
2.23
 50
180.0
  0
INSERT
  5
1637
330
1566
100
AcDbEntity
  8
250
  6
CONTINUOUS
100
AcDbBlockReference
  2
_OPEN
 10
139.99999996
 20
63.0
 30
0.0
 41
2.23
 42
2.23
 43
2.23
  0
MTEXT
  5
1638
330
1566
100
AcDbEntity
  8
250
  6
CONTINUOUS
 62
    40
100
AcDbMText
 10
94.99999998
 20
65.4
 30
0.0
 40
2.8
 41
0.0
 71
     5
 72
     1
  1
\A1;90
1001
ACAD
1000
MTEXTBEGIN
1070
    73
1070
     1
1070
    44
1040
1.0
1070
    74
1070
     0
1000
MTEXTEND
1000
MTEXTBEGIN
1070
    73
1070
     1
1070
    44
1040
1.0
1070
    74
1070
     0
1000
MTEXTEND
  0
POINT
  5
1639
330
1566
100
AcDbEntity
  8
DEFPOINTS
  6
CONTINUOUS
 62
     0
100
AcDbPoint
 10
50.0
 20
49.999375
 30
0.0
  0
POINT
  5
163A
330
1566
100
AcDbEntity
  8
DEFPOINTS
  6
CONTINUOUS
 62
     0
100
AcDbPoint
 10
139.99999996
 20
45.46950303
 30
0.0
  0
POINT
  5
163B
330
1566
100
AcDbEntity
  8
DEFPOINTS
  6
CONTINUOUS
 62
     0
100
AcDbPoint
 10
139.99999996
 20
63.0
 30
0.0
  0
ENDBLK
  5
1571
330
1566
100
AcDbEntity
  8
0
100
AcDbBlockEnd
  0
BLOCK
  5
157F
330
1575
100
AcDbEntity
  8
0
100
AcDbBlockBegin
  2
*D5
 70
     1
 10
0.0
 20
0.0
 30
0.0
  3
*D5
  1

  0
LINE
  5
162A
330
1575
100
AcDbEntity
  8
250
  6
CONTINUOUS
100
AcDbLine
 10
127.5
 20
0.0
 30
0.0
 11
155.0
 21
0.0
 31
0.0
  0
LINE
  5
162B
330
1575
100
AcDbEntity
  8
250
  6
CONTINUOUS
100
AcDbLine
 10
138.89757329
 20
50.0
 30
0.0
 11
155.0
 21
50.0
 31
0.0
  0
LINE
  5
162C
330
1575
100
AcDbEntity
  8
250
  6
CONTINUOUS
100
AcDbLine
 10
154.0
 20
2.23
 30
0.0
 11
154.0
 21
47.77
 31
0.0
  0
INSERT
  5
162D
330
1575
100
AcDbEntity
  8
250
  6
CONTINUOUS
100
AcDbBlockReference
  2
_OPEN
 10
154.0
 20
0.0
 30
0.0
 41
2.23
 42
2.23
 43
2.23
 50
270.0
  0
INSERT
  5
162E
330
1575
100
AcDbEntity
  8
250
  6
CONTINUOUS
100
AcDbBlockReference
  2
_OPEN
 10
154.0
 20
50.0
 30
0.0
 41
2.23
 42
2.23
 43
2.23
 50
90.0
  0
MTEXT
  5
162F
330
1575
100
AcDbEntity
  8
250
  6
CONTINUOUS
 62
    40
100
AcDbMText
 10
151.6
 20
25.0
 30
0.0
 40
2.8
 41
0.0
 71
     5
 72
     1
  1
\A1;50
 11
0.0
 21
1.0
 31
0.0
1001
ACAD
1000
MTEXTBEGIN
1070
    73
1070
     1
1070
    44
1040
1.0
1070
    74
1070
     0
1000
MTEXTEND
1000
MTEXTBEGIN
1070
    73
1070
     1
1070
    44
1040
1.0
1070
    74
1070
     0
1000
MTEXTEND
  0
POINT
  5
1630
330
1575
100
AcDbEntity
  8
DEFPOINTS
  6
CONTINUOUS
 62
     0
100
AcDbPoint
 10
127.0
 20
0.0
 30
0.0
  0
POINT
  5
1631
330
1575
100
AcDbEntity
  8
DEFPOINTS
  6
CONTINUOUS
 62
     0
100
AcDbPoint
 10
138.39757329
 20
50.0
 30
0.0
  0
POINT
  5
1632
330
1575
100
AcDbEntity
  8
DEFPOINTS
  6
CONTINUOUS
 62
     0
100
AcDbPoint
 10
154.0
 20
50.0
 30
0.0
  0
ENDBLK
  5
1580
330
1575
100
AcDbEntity
  8
0
100
AcDbBlockEnd
  0
BLOCK
  5
159F
330
1595
100
AcDbEntity
  8
0
100
AcDbBlockBegin
  2
*D6
 70
     1
 10
0.0
 20
0.0
 30
0.0
  3
*D6
  1

  0
LINE
  5
1645
330
1595
100
AcDbEntity
  8
250
  6
CONTINUOUS
100
AcDbLine
 10
231.0
 20
62.5
 30
0.0
 11
231.0
 21
71.0
 31
0.0
  0
LINE
  5
1646
330
1595
100
AcDbEntity
  8
250
  6
CONTINUOUS
100
AcDbLine
 10
256.0
 20
50.29999993
 30
0.0
 11
256.0
 21
71.0
 31
0.0
  0
LINE
  5
1647
330
1595
100
AcDbEntity
  8
250
  6
CONTINUOUS
100
AcDbLine
 10
233.23
 20
70.0
 30
0.0
 11
253.77
 21
70.0
 31
0.0
  0
INSERT
  5
1648
330
1595
100
AcDbEntity
  8
250
  6
CONTINUOUS
100
AcDbBlockReference
  2
_OPEN
 10
231.0
 20
70.0
 30
0.0
 41
2.23
 42
2.23
 43
2.23
 50
180.0
  0
INSERT
  5
1649
330
1595
100
AcDbEntity
  8
250
  6
CONTINUOUS
100
AcDbBlockReference
  2
_OPEN
 10
256.0
 20
70.0
 30
0.0
 41
2.23
 42
2.23
 43
2.23
  0
MTEXT
  5
164A
330
1595
100
AcDbEntity
  8
250
  6
CONTINUOUS
 62
    40
100
AcDbMText
 10
243.5
 20
72.4
 30
0.0
 40
2.8
 41
0.0
 71
     5
 72
     1
  1
\A1;□25
1001
ACAD
1000
MTEXTBEGIN
1070
    73
1070
     1
1070
    44
1040
1.0
1070
    74
1070
     0
1000
MTEXTEND
1000
MTEXTBEGIN
1070
    73
1070
     1
1070
    44
1040
1.0
1070
    74
1070
     0
1000
MTEXTEND
  0
POINT
  5
164B
330
1595
100
AcDbEntity
  8
DEFPOINTS
  6
CONTINUOUS
 62
     0
100
AcDbPoint
 10
231.0
 20
62.0
 30
0.0
  0
POINT
  5
164C
330
1595
100
AcDbEntity
  8
DEFPOINTS
  6
CONTINUOUS
 62
     0
100
AcDbPoint
 10
256.0
 20
49.79999993
 30
0.0
  0
POINT
  5
164D
330
1595
100
AcDbEntity
  8
DEFPOINTS
  6
CONTINUOUS
 62
     0
100
AcDbPoint
 10
256.0
 20
70.0
 30
0.0
  0
ENDBLK
  5
15A0
330
1595
100
AcDbEntity
  8
0
100
AcDbBlockEnd
  0
BLOCK
  5
15AE
330
15A4
100
AcDbEntity
  8
0
100
AcDbBlockBegin
  2
*D7
 70
     1
 10
0.0
 20
0.0
 30
0.0
  3
*D7
  1

  0
LINE
  5
1654
330
15A4
100
AcDbEntity
  8
250
  6
CONTINUOUS
100
AcDbLine
 10
256.3
 20
25.0
 30
0.0
 11
295.0
 21
25.0
 31
0.0
  0
LINE
  5
1655
330
15A4
100
AcDbEntity
  8
250
  6
CONTINUOUS
100
AcDbLine
 10
261.50000014
 20
49.99999991
 30
0.0
 11
295.0
 21
49.99999991
 31
0.0
  0
LINE
  5
1656
330
15A4
100
AcDbEntity
  8
250
  6
CONTINUOUS
100
AcDbLine
 10
294.0
 20
27.23
 30
0.0
 11
294.0
 21
47.76999991
 31
0.0
  0
INSERT
  5
1657
330
15A4
100
AcDbEntity
  8
250
  6
CONTINUOUS
100
AcDbBlockReference
  2
_OPEN
 10
294.0
 20
25.0
 30
0.0
 41
2.23
 42
2.23
 43
2.23
 50
270.0
  0
INSERT
  5
1658
330
15A4
100
AcDbEntity
  8
250
  6
CONTINUOUS
100
AcDbBlockReference
  2
_OPEN
 10
294.0
 20
49.99999991
 30
0.0
 41
2.23
 42
2.23
 43
2.23
 50
90.0
  0
MTEXT
  5
1659
330
15A4
100
AcDbEntity
  8
250
  6
CONTINUOUS
 62
    40
100
AcDbMText
 10
291.6
 20
37.49999996
 30
0.0
 40
2.8
 41
0.0
 71
     5
 72
     1
  1
\A1;25
 11
0.0
 21
1.0
 31
0.0
1001
ACAD
1000
MTEXTBEGIN
1070
    73
1070
     1
1070
    44
1040
1.0
1070
    74
1070
     0
1000
MTEXTEND
1000
MTEXTBEGIN
1070
    73
1070
     1
1070
    44
1040
1.0
1070
    74
1070
     0
1000
MTEXTEND
  0
POINT
  5
165A
330
15A4
100
AcDbEntity
  8
DEFPOINTS
  6
CONTINUOUS
 62
     0
100
AcDbPoint
 10
255.8
 20
25.0
 30
0.0
  0
POINT
  5
165B
330
15A4
100
AcDbEntity
  8
DEFPOINTS
  6
CONTINUOUS
 62
     0
100
AcDbPoint
 10
261.00000014
 20
49.99999991
 30
0.0
  0
POINT
  5
165C
330
15A4
100
AcDbEntity
  8
DEFPOINTS
  6
CONTINUOUS
 62
     0
100
AcDbPoint
 10
294.0
 20
49.99999991
 30
0.0
  0
ENDBLK
  5
15AF
330
15A4
100
AcDbEntity
  8
0
100
AcDbBlockEnd
  0
BLOCK
  5
15CB
330
15C4
100
AcDbEntity
  8
0
100
AcDbBlockBegin
  2
*D8
 70
     1
 10
0.0
 20
0.0
 30
0.0
  3
*D8
  1

  0
LINE
  5
2886
330
15C4
100
AcDbEntity
  8
250
  6
CONTINUOUS
100
AcDbLine
 10
176.85868328
 20
20.15169283
 30
0.0
 11
285.14131672
 21
-20.15169283
 31
0.0
  0
INSERT
  5
2887
330
15C4
100
AcDbEntity
  8
250
  6
CONTINUOUS
100
AcDbBlockReference
  2
_OPEN
 10
174.76875535
 20
20.92957538
 30
0.0
 41
2.23
 42
2.23
 43
2.23
 50
159.58445949
  0
INSERT
  5
2888
330
15C4
100
AcDbEntity
  8
250
  6
CONTINUOUS
100
AcDbBlockReference
  2
_OPEN
 10
287.23124465
 20
-20.92957538
 30
0.0
 41
2.23
 42
2.23
 43
2.23
 50
339.58445949
  0
MTEXT
  5
2889
330
15C4
100
AcDbEntity
  8
250
  6
CONTINUOUS
 62
    40
100
AcDbMText
 10
262.34527801
 20
-9.10602925
 30
0.0
 40
2.8
 41
0.0
 71
     5
 72
     1
  1
\A1;（{\H2.8;\U+2205}120）
 11
0.93718741
 21
-0.34882626
 31
0.0
  0
POINT
  5
288A
330
15C4
100
AcDbEntity
  8
DEFPOINTS
  6
CONTINUOUS
 62
     0
100
AcDbPoint
 10
287.23124465
 20
-20.92957538
 30
0.0
  0
POINT
  5
288B
330
15C4
100
AcDbEntity
  8
DEFPOINTS
  6
CONTINUOUS
 62
     0
100
AcDbPoint
 10
174.76875535
 20
20.92957538
 30
0.0
  0
ENDBLK
  5
15CC
330
15C4
100
AcDbEntity
  8
0
100
AcDbBlockEnd
  0
ENDSEC
  0
SECTION
  2
ENTITIES
  0
INSERT
  5
6E6
330
1A
100
AcDbEntity
  8
245
100
AcDbBlockReference
  2
矢印なし
 10
175.62382697
 20
90.55123572
 30
0.0
  0
TEXT
  5
9BB
330
1A
100
AcDbEntity
  8
241
100
AcDbText
 10
-101.8
 20
84.0
 30
0.0
 40
5.0
  1
BBT50M-180-BH25R-140
  7
YOKO
100
AcDbText
  0
DIMENSION
  5
9BC
330
1A
100
AcDbEntity
  8
250
  6
CONTINUOUS
100
AcDbDimension
  2
*D3
 10
139.99999996
 20
70.0
 30
0.0
 11
69.99999998
 21
72.4
 31
0.0
 70
    32
  3
BIGT
100
AcDbAlignedDimension
 13
0.0
 23
34.925
 33
0.0
 14
139.99999996
 24
45.46950303
 34
0.0
100
AcDbRotatedDimension
  0
DIMENSION
  5
1565
330
1A
100
AcDbEntity
  8
250
  6
CONTINUOUS
100
AcDbDimension
  2
*D4
 10
139.99999996
 20
63.0
 30
0.0
 11
94.99999998
 21
65.4
 31
0.0
 70
    32
  3
BIGT
100
AcDbAlignedDimension
 13
50.0
 23
49.999375
 33
0.0
 14
139.99999996
 24
45.46950303
 34
0.0
100
AcDbRotatedDimension
  0
DIMENSION
  5
1574
330
1A
100
AcDbEntity
  8
250
  6
CONTINUOUS
100
AcDbDimension
  2
*D5
 10
154.0
 20
50.0
 30
0.0
 11
151.6
 21
25.0
 31
0.0
 70
    32
  3
BIGT
100
AcDbAlignedDimension
 13
127.0
 23
0.0
 33
0.0
 14
138.39757329
 24
50.0
 34
0.0
 50
90.0
100
AcDbRotatedDimension
  0
DIMENSION
  5
1594
330
1A
100
AcDbEntity
  8
250
  6
CONTINUOUS
100
AcDbDimension
  2
*D6
 10
256.0
 20
70.0
 30
0.0
 11
243.5
 21
72.4
 31
0.0
 70
    32
  1
□<>
  3
BIGT
100
AcDbAlignedDimension
 13
231.0
 23
62.0
 33
0.0
 14
256.0
 24
49.79999993
 34
0.0
100
AcDbRotatedDimension
  0
DIMENSION
  5
15A3
330
1A
100
AcDbEntity
  8
250
  6
CONTINUOUS
100
AcDbDimension
  2
*D7
 10
294.0
 20
49.99999991
 30
0.0
 11
294.0
 21
37.49999996
 31
0.0
 70
   160
  3
BIGT
100
AcDbAlignedDimension
 13
255.8
 23
25.0
 33
0.0
 14
261.00000014
 24
49.99999991
 34
0.0
 50
90.0
100
AcDbRotatedDimension
  0
DIMENSION
  5
15C3
330
1A
100
AcDbEntity
  8
250
  6
CONTINUOUS
100
AcDbDimension
  2
*D8
 10
174.76875535
 20
20.92957538
 30
0.0
 11
261.50809499
 21
-11.35527904
 31
0.0
 70
   163
  1
（{\H2.8;\U+2205}<>）
  3
BIGT
100
AcDbDiametricDimension
 15
287.23124465
 25
-20.92957538
 35
0.0
 40
0.0
1001
ACAD
1000
DSTYLE
1002
{
1070
   287
1070
     0
1070
   287
1070
     0
1070
     3
1000
<>
1070
   288
1070
     1
1070
   289
1070
     0
1002
}
  0
LEADER
  5
226F
330
1A
100
AcDbEntity
  8
250
  6
CONTINUOUS
100
AcDbLeader
  3
BIGT
 76
     2
 10
-59.67497638
 20
-26.22239928
 30
0.0
 10
-64.94155264
 20
-35.34437694
 30
0.0
1001
ACAD
1000
DSTYLE
1002
{
1070
     6
1000
OPEN
1070
    41
1040
2.0
1070
    42
1040
2.0
1070
    44
1040
2.0
1070
   140
1040
4.0
1070
   343
1005
594
1002
}
  0
MTEXT
  5
2270
330
1A
100
AcDbEntity
  8
251
  6
CONTINUOUS
100
AcDbMText
 10
-79.87488597
 20
-34.34437694
 30
0.0
 40
2.8
 41
0.0
 71
     7
 72
     1
  1
BBT50
  7
YOKO
1001
ITEMNAME
1000
LNSP3
1001
ACAD
1000
MTEXTBEGIN
1070
    73
1070
     1
1070
    44
1040
1.0
1070
    74
1070
     0
1000
MTEXTEND
1000
MTEXTBEGIN
1070
    73
1070
     1
1070
    44
1040
1.0
1070
    74
1070
     0
1000
MTEXTEND
1000
MTEXTBEGIN
1070
    73
1070
     1
1070
    44
1040
1.0
1070
    74
1070
     0
1000
MTEXTEND
1000
MTEXTBEGIN
1070
    73
1070
     1
1070
    44
1040
1.0
1070
    74
1070
     0
1000
MTEXTEND
  0
LINE
  5
2275
330
1A
100
AcDbEntity
  8
250
  6
CONTINUOUS
100
AcDbLine
 10
-64.94155264
 20
-35.34437694
 30
0.0
 11
-82.67488597
 21
-35.34437694
 31
0.0
1001
ITEMNAME
1000
LNSP2
  0
INSERT
  5
2860
330
1A
100
AcDbEntity
  8
245
100
AcDbBlockReference
  2
1
 10
0.0
 20
0.0
 30
0.0
  0
VIEWPORT
  5
22
330
17
100
AcDbEntity
 67
     1
  8
0
100
AcDbViewport
 10
261.51769912
 20
148.5
 30
0.0
 40
523.03539823
 41
297.0
 68
     1
 69
     1
1001
ACAD
1000
MVIEW
1002
{
1070
    16
1010
0.0
1020
0.0
1030
0.0
1010
0.0
1020
0.0
1030
1.0
1040
0.0
1040
297.0
1040
261.51769912
1040
148.5
1040
50.0
1040
0.0
1040
0.0
1070
     0
1070
   100
1070
     1
1070
     1
1070
     0
1070
     0
1070
     0
1070
     0
1040
0.0
1040
0.0
1040
0.0
1040
1.0
1040
1.0
1040
10.0
1040
10.0
1070
     0
1002
{
1002
}
1002
}
  0
ENDSEC
  0
SECTION
  2
OBJECTS
  0
DICTIONARY
  5
C
330
0
100
AcDbDictionary
  3
ACAD_GROUP
350
D
  3
ACAD_LAYOUT
350
565
  3
ACAD_MLINESTYLE
350
E
  3
ACAD_PLOTSETTINGS
350
566
  3
ACAD_PLOTSTYLENAME
350
563
  3
ACDBHEADERROUNDTRIPXREC
350
2862
  3
GRADE_DWG
350
540
  0
DICTIONARY
  5
1C6C
330
1A
100
AcDbDictionary
280
     1
  3
ACAD_LAYOUTSELFREF
360
2884
  0
DICTIONARY
  5
1C6A
330
17
100
AcDbDictionary
280
     1
  3
ACAD_LAYOUTSELFREF
360
2883
  0
DICTIONARY
  5
D
102
{ACAD_REACTORS
330
C
102
}
330
C
100
AcDbDictionary
  3
*A1
350
6C7
  3
*A2
350
6C8
  3
*A3
350
6D4
  3
*A4
350
6D5
  3
DREC-1
350
5FC
  3
DREC-2
350
654
  3
DREC-3
350
673
  3
LNSP-1
350
A01
  0
DICTIONARY
  5
565
102
{ACAD_REACTORS
330
C
102
}
330
C
100
AcDbDictionary
  0
DICTIONARY
  5
E
102
{ACAD_REACTORS
330
C
102
}
330
C
100
AcDbDictionary
  3
STANDARD
350
13
  0
DICTIONARY
  5
566
102
{ACAD_REACTORS
330
C
102
}
330
C
100
AcDbDictionary
  3
A3_0_5倍_
350
758
  3
A3_1倍_
350
757
  3
A3_1倍__2000_
350
707
  3
A3_2倍_
350
759
  3
A4_0_5倍_
350
755
  3
A4_1倍_
350
754
  3
A4_1倍__2000_
350
708
  3
A4_2倍_
350
756
  0
ACDBDICTIONARYWDFLT
  5
563
102
{ACAD_REACTORS
330
C
102
}
330
C
100
AcDbDictionary
281
     1
  3
Normal
350
564
100
AcDbDictionaryWithDefault
340
564
  0
DICTIONARY
  5
2862
102
{ACAD_REACTORS
330
C
102
}
330
C
100
AcDbDictionary
  3
CEPSNTYPE
350
286C
  3
DIMSTYLEDATA
350
2870
  3
FINGERPRINTGUID
350
286D
  3
HYPERLINKBASE
350
2865
  3
INSUNITS
350
286B
  3
LAYOUTDICT
350
2867
  3
LWETCUNION
350
286A
  3
PLOTSETDICT
350
2868
  3
PLOTSTYLNAMDICT
350
2869
  3
PSVPSCALE
350
286F
  3
PUCSBASE
350
2873
  3
PUCSORGBACK
350
2879
  3
PUCSORGBOTTOM
350
2875
  3
PUCSORGFRONT
350
2878
  3
PUCSORGLEFT
350
2876
  3
PUCSORGRIGHT
350
2877
  3
PUCSORGTOP
350
2874
  3
PUCSORTHOREF
350
2871
  3
PUCSORTHOVIEW
350
2872
  3
STYLESHEET
350
2866
  3
TSTACKALIGN
350
2863
  3
TSTACKSIZE
350
2864
  3
UCSBASE
350
287C
  3
UCSORGBACK
350
2882
  3
UCSORGBOTTOM
350
287E
  3
UCSORGFRONT
350
2881
  3
UCSORGLEFT
350
287F
  3
UCSORGRIGHT
350
2880
  3
UCSORGTOP
350
287D
  3
UCSORTHOREF
350
287A
  3
UCSORTHOVIEW
350
287B
  3
VERSIONGUID
350
286E
  0
DICTIONARY
  5
540
102
{ACAD_REACTORS
330
C
102
}
330
C
100
AcDbDictionary
  3
VERSION
350
560
  0
XRECORD
  5
2884
102
{ACAD_REACTORS
330
1C6C
102
}
330
1C6C
100
AcDbXrecord
340
1A
  0
XRECORD
  5
2883
102
{ACAD_REACTORS
330
1C6A
102
}
330
1C6A
100
AcDbXrecord
340
17
  0
GROUP
  5
6C7
102
{ACAD_REACTORS
330
D
102
}
330
D
100
AcDbGroup
300

 70
     0
 71
     1
1001
GRPNAME
1000
DMA00
  0
GROUP
  5
6C8
102
{ACAD_REACTORS
330
D
102
}
330
D
100
AcDbGroup
300

 70
     0
 71
     1
1001
GRPNAME
1000
DMA00
  0
GROUP
  5
6D4
102
{ACAD_REACTORS
330
D
102
}
330
D
100
AcDbGroup
300

 70
     0
 71
     1
1001
GRPNAME
1000
DMA00
  0
GROUP
  5
6D5
102
{ACAD_REACTORS
330
D
102
}
330
D
100
AcDbGroup
300

 70
     0
 71
     1
1001
GRPNAME
1000
DMA00
  0
GROUP
  5
5FC
102
{ACAD_REACTORS
330
D
102
}
330
D
100
AcDbGroup
300

 70
     0
 71
     1
1001
GRPNAME
1000
DREC-
1001
GPARA
1000
xsiz
1000
44.182
1000
ysiz
1000
40.677
1000
angl
1000
0
1000
ctyp
1000
0
1000
csiz
1000
5
1000
lfnt
1000
cont
1000
hcnt
1000
hoff
1000
vcnt
1000
voff
1000
opnt
1000
4
1000
dxpt
1000
0
1000
dypt
1000
0
  0
GROUP
  5
654
102
{ACAD_REACTORS
330
D
102
}
330
D
100
AcDbGroup
300

 70
     0
 71
     1
1001
GRPNAME
1000
DREC-
1001
GPARA
1000
xsiz
1000
54.592
1000
ysiz
1000
53.036
1000
angl
1000
0
1000
ctyp
1000
0
1000
csiz
1000
5
1000
lfnt
1000
cont
1000
hcnt
1000
hoff
1000
vcnt
1000
voff
1000
opnt
1000
4
1000
dxpt
1000
0
1000
dypt
1000
0
  0
GROUP
  5
673
102
{ACAD_REACTORS
330
D
102
}
330
D
100
AcDbGroup
300

 70
     0
 71
     1
1001
GRPNAME
1000
DREC-
1001
GPARA
1000
xsiz
1000
30.363
1000
ysiz
1000
36.175
1000
angl
1000
0
1000
ctyp
1000
0
1000
csiz
1000
5
1000
lfnt
1000
cont
1000
hcnt
1000
hoff
1000
vcnt
1000
voff
1000
opnt
1000
4
1000
dxpt
1000
0
1000
dypt
1000
0
  0
GROUP
  5
A01
102
{ACAD_REACTORS
330
D
102
}
330
D
100
AcDbGroup
300

 70
     0
 71
     1
1001
GRPNAME
1000
LNSP
  0
MLINESTYLE
  5
13
102
{ACAD_REACTORS
330
E
102
}
330
E
100
AcDbMlineStyle
  2
STANDARD
 70
     0
  3

 62
     0
 51
90.0
 52
90.0
 71
     2
 49
0.5
 62
   256
  6
BYLAYER
 49
-0.5
 62
   256
  6
BYLAYER
  0
PLOTSETTINGS
  5
758
102
{ACAD_REACTORS
330
566
102
}
330
566
100
AcDbPlotSettings
  1
A3(0.5倍)
  2
\\AWTECPC05\HP DeskJet 1120C
  4
A3
  6

 40
5.95841646
 41
13.49375153
 42
6.04309082
 43
3.67242432
 44
296.92599487
 45
419.94665527
 46
89.96
 47
127.14
 48
0.0
 49
0.0
140
0.0
141
0.0
142
1.0
143
2.0
 70
  1716
 72
     1
 73
     1
 74
     2
  7
big.ctb
 75
    17
147
0.5
148
0.0
149
0.0
  0
PLOTSETTINGS
  5
757
102
{ACAD_REACTORS
330
566
102
}
330
566
100
AcDbPlotSettings
  1
A3(1倍)
  2
\\AWTECPC05\HP DeskJet 1120C
  4
A3
  6

 40
5.95841646
 41
13.49375153
 42
6.04309082
 43
3.67242432
 44
296.92599487
 45
419.94665527
 46
37.46
 47
52.89
 48
0.0
 49
0.0
140
0.0
141
0.0
142
1.0
143
1.0
 70
  1716
 72
     1
 73
     1
 74
     2
  7
big.ctb
 75
    16
147
1.0
148
0.0
149
0.0
  0
PLOTSETTINGS
  5
707
102
{ACAD_REACTORS
330
566
102
}
330
566
100
AcDbPlotSettings
  1
A3(1倍)(2000)
  2
SII LS-1300 (D-SCAN)
  4
User258
  6

 40
3.17499995
 41
3.17499995
 42
3.17498779
 43
3.17498779
 44
419.98898315
 45
296.98950195
 46
58.32
 47
40.32
 48
0.0
 49
0.0
140
0.0
141
0.0
142
1.0
143
1.0
 70
  1716
 72
     1
 73
     0
 74
     2
  7
big.ctb
 75
    16
147
1.0
148
0.0
149
0.0
  0
PLOTSETTINGS
  5
759
102
{ACAD_REACTORS
330
566
102
}
330
566
100
AcDbPlotSettings
  1
A3(2倍)
  2
\\AWTECPC05\HP DeskJet 1120C
  4
A3
  6

 40
5.95841646
 41
13.49375153
 42
6.04309082
 43
3.67242432
 44
296.92599487
 45
419.94665527
 46
-67.54
 47
-95.61
 48
0.0
 49
0.0
140
0.0
141
0.0
142
1.0
143
0.5
 70
  1716
 72
     1
 73
     1
 74
     2
  7
big.ctb
 75
    27
147
2.0
148
0.0
149
0.0
  0
PLOTSETTINGS
  5
755
102
{ACAD_REACTORS
330
566
102
}
330
566
100
AcDbPlotSettings
  1
A4(0.5倍)
  2
\\AWTECPC05\HP DeskJet 1120C
  4
A4
  6

 40
4.18041658
 41
13.49374962
 42
4.18040466
 43
3.92642212
 44
209.97332764
 45
296.92599487
 46
48.31
 47
65.5
 48
0.0
 49
0.0
140
0.0
141
0.0
142
1.0
143
2.0
 70
  1716
 72
     1
 73
     1
 74
     2
  7
big.ctb
 75
    17
147
0.5
148
0.0
149
0.0
  0
PLOTSETTINGS
  5
754
102
{ACAD_REACTORS
330
566
102
}
330
566
100
AcDbPlotSettings
  1
A4(1倍)
  2
\\AWTECPC05\HP DeskJet 1120C
  4
A4
  6

 40
4.18041658
 41
13.49374962
 42
4.18040466
 43
3.92642212
 44
209.97332764
 45
296.92599487
 46
-4.19
 47
-8.75
 48
0.0
 49
0.0
140
0.0
141
0.0
142
1.0
143
1.0
 70
  1716
 72
     1
 73
     1
 74
     2
  7
big.ctb
 75
    16
147
1.0
148
0.0
149
0.0
  0
PLOTSETTINGS
  5
708
102
{ACAD_REACTORS
330
566
102
}
330
566
100
AcDbPlotSettings
  1
A4(1倍)(2000)
  2
SII LS-1300 (D-SCAN)
  4
User259
  6

 40
3.17499995
 41
3.17499995
 42
3.17498779
 43
3.17500305
 44
296.98950195
 45
209.99449158
 46
-3.18
 47
-3.18
 48
0.0
 49
0.0
140
0.0
141
0.0
142
1.0
143
1.0
 70
  1716
 72
     1
 73
     0
 74
     2
  7
big.ctb
 75
    16
147
1.0
148
0.0
149
0.0
  0
PLOTSETTINGS
  5
756
102
{ACAD_REACTORS
330
566
102
}
330
566
100
AcDbPlotSettings
  1
A4(2倍)
  2
\\AWTECPC05\HP DeskJet 1120C
  4
A4
  6

 40
4.18041658
 41
13.49374962
 42
4.18040466
 43
3.92642212
 44
209.97332764
 45
296.92599487
 46
-109.19
 47
-157.25
 48
0.0
 49
0.0
140
0.0
141
0.0
142
1.0
143
0.5
 70
  1716
 72
     1
 73
     1
 74
     2
  7
big.ctb
 75
    27
147
2.0
148
0.0
149
0.0
  0
ACDBPLACEHOLDER
  5
564
102
{ACAD_REACTORS
330
563
102
}
330
563
100
AcDbPlaceHolder
280
     0
  0
XRECORD
  5
286C
102
{ACAD_REACTORS
330
2862
102
}
330
2862
100
AcDbXrecord
 90
        0
  0
XRECORD
  5
2870
102
{ACAD_REACTORS
330
2862
102
}
330
2862
100
AcDbXrecord
1000
DSTYLE
1002
{
1070
    79
 70
     2
1070
   179
 70
     3
1070
   341
340
594
1070
   343
340
594
1070
   344
340
594
1070
   371
 70
    -1
1070
   372
 70
    -1
1002
}
  0
XRECORD
  5
286D
102
{ACAD_REACTORS
330
2862
102
}
330
2862
100
AcDbXrecord
  1
{51294030-9CB4-11D3-8E18-00A0C925D94D}
  0
XRECORD
  5
2865
102
{ACAD_REACTORS
330
2862
102
}
330
2862
100
AcDbXrecord
  1

  0
XRECORD
  5
286B
102
{ACAD_REACTORS
330
2862
102
}
330
2862
100
AcDbXrecord
 90
        0
  0
XRECORD
  5
2867
102
{ACAD_REACTORS
330
2862
102
}
330
2862
100
AcDbXrecord
340
565
  0
XRECORD
  5
286A
102
{ACAD_REACTORS
330
2862
102
}
330
2862
100
AcDbXrecord
 90
    10781
  0
XRECORD
  5
2868
102
{ACAD_REACTORS
330
2862
102
}
330
2862
100
AcDbXrecord
340
566
  0
XRECORD
  5
2869
102
{ACAD_REACTORS
330
2862
102
}
330
2862
100
AcDbXrecord
340
563
  0
XRECORD
  5
286F
102
{ACAD_REACTORS
330
2862
102
}
330
2862
100
AcDbXrecord
 40
0.0
  0
XRECORD
  5
2873
102
{ACAD_REACTORS
330
2862
102
}
330
2862
100
AcDbXrecord
340
0
  0
XRECORD
  5
2879
102
{ACAD_REACTORS
330
2862
102
}
330
2862
100
AcDbXrecord
 10
0.0
 20
0.0
 30
0.0
  0
XRECORD
  5
2875
102
{ACAD_REACTORS
330
2862
102
}
330
2862
100
AcDbXrecord
 10
0.0
 20
0.0
 30
0.0
  0
XRECORD
  5
2878
102
{ACAD_REACTORS
330
2862
102
}
330
2862
100
AcDbXrecord
 10
0.0
 20
0.0
 30
0.0
  0
XRECORD
  5
2876
102
{ACAD_REACTORS
330
2862
102
}
330
2862
100
AcDbXrecord
 10
0.0
 20
0.0
 30
0.0
  0
XRECORD
  5
2877
102
{ACAD_REACTORS
330
2862
102
}
330
2862
100
AcDbXrecord
 10
0.0
 20
0.0
 30
0.0
  0
XRECORD
  5
2874
102
{ACAD_REACTORS
330
2862
102
}
330
2862
100
AcDbXrecord
 10
0.0
 20
0.0
 30
0.0
  0
XRECORD
  5
2871
102
{ACAD_REACTORS
330
2862
102
}
330
2862
100
AcDbXrecord
340
0
  0
XRECORD
  5
2872
102
{ACAD_REACTORS
330
2862
102
}
330
2862
100
AcDbXrecord
 70
     0
  0
XRECORD
  5
2866
102
{ACAD_REACTORS
330
2862
102
}
330
2862
100
AcDbXrecord
  1
big.ctb
  0
XRECORD
  5
2863
102
{ACAD_REACTORS
330
2862
102
}
330
2862
100
AcDbXrecord
 90
        1
  0
XRECORD
  5
2864
102
{ACAD_REACTORS
330
2862
102
}
330
2862
100
AcDbXrecord
 90
       70
  0
XRECORD
  5
287C
102
{ACAD_REACTORS
330
2862
102
}
330
2862
100
AcDbXrecord
340
0
  0
XRECORD
  5
2882
102
{ACAD_REACTORS
330
2862
102
}
330
2862
100
AcDbXrecord
 10
0.0
 20
0.0
 30
0.0
  0
XRECORD
  5
287E
102
{ACAD_REACTORS
330
2862
102
}
330
2862
100
AcDbXrecord
 10
0.0
 20
0.0
 30
0.0
  0
XRECORD
  5
2881
102
{ACAD_REACTORS
330
2862
102
}
330
2862
100
AcDbXrecord
 10
0.0
 20
0.0
 30
0.0
  0
XRECORD
  5
287F
102
{ACAD_REACTORS
330
2862
102
}
330
2862
100
AcDbXrecord
 10
0.0
 20
0.0
 30
0.0
  0
XRECORD
  5
2880
102
{ACAD_REACTORS
330
2862
102
}
330
2862
100
AcDbXrecord
 10
0.0
 20
0.0
 30
0.0
  0
XRECORD
  5
287D
102
{ACAD_REACTORS
330
2862
102
}
330
2862
100
AcDbXrecord
 10
0.0
 20
0.0
 30
0.0
  0
XRECORD
  5
287A
102
{ACAD_REACTORS
330
2862
102
}
330
2862
100
AcDbXrecord
340
0
  0
XRECORD
  5
287B
102
{ACAD_REACTORS
330
2862
102
}
330
2862
100
AcDbXrecord
 70
     0
  0
XRECORD
  5
286E
102
{ACAD_REACTORS
330
2862
102
}
330
2862
100
AcDbXrecord
  1
{3D071943-FB72-4940-BE7E-D44D941FB331}
  0
XRECORD
  5
560
102
{ACAD_REACTORS
330
540
102
}
330
540
100
AcDbXrecord
  1
2.0.0
  0
ENDSEC
  0
EOF
