  0
SECTION
  2
HEADER
  9
$ACADVER
  1
AC1014
  9
$ACADMAINTVER
 70
     9
  9
$DWGCODEPAGE
  3
ANSI_932
  9
$INSBASE
 10
0.0
 20
0.0
 30
0.0
  9
$EXTMIN
 10
-102.80162552
 20
-50.29074067
 30
-0.00000003
  9
$EXTMAX
 10
326.40989007
 20
82.01997343
 30
0.00000008
  9
$LIMMIN
 10
0.0
 20
0.0
  9
$LIMMAX
 10
420.0
 20
297.0
  9
$ORTHOMODE
 70
     0
  9
$REGENMODE
 70
     1
  9
$FILLMODE
 70
     1
  9
$QTEXTMODE
 70
     0
  9
$MIRRTEXT
 70
     1
  9
$DRAGMODE
 70
     2
  9
$LTSCALE
 40
10.0
  9
$OSMODE
 70
   549
  9
$ATTMODE
 70
     1
  9
$TEXTSIZE
 40
3.0
  9
$TRACEWID
 40
1.0
  9
$TEXTSTYLE
  7
YOKO
  9
$CLAYER
  8
245
  9
$CELTYPE
  6
BYLAYER
  9
$CECOLOR
 62
   256
  9
$CELTSCALE
 40
1.0
  9
$DELOBJ
 70
     1
  9
$DISPSILH
 70
     0
  9
$DIMSCALE
 40
1.0
  9
$DIMASZ
 40
2.23
  9
$DIMEXO
 40
0.5
  9
$DIMDLI
 40
2.5
  9
$DIMRND
 40
0.0
  9
$DIMDLE
 40
0.0
  9
$DIMEXE
 40
1.0
  9
$DIMTP
 40
0.0
  9
$DIMTM
 40
0.0
  9
$DIMTXT
 40
2.8
  9
$DIMCEN
 40
0.0
  9
$DIMTSZ
 40
0.0
  9
$DIMTOL
 70
     0
  9
$DIMLIM
 70
     0
  9
$DIMTIH
 70
     0
  9
$DIMTOH
 70
     0
  9
$DIMSE1
 70
     0
  9
$DIMSE2
 70
     0
  9
$DIMTAD
 70
     3
  9
$DIMZIN
 70
     8
  9
$DIMBLK
  1

  9
$DIMASO
 70
     1
  9
$DIMSHO
 70
     1
  9
$DIMPOST
  1

  9
$DIMAPOST
  1

  9
$DIMALT
 70
     0
  9
$DIMALTD
 70
     2
  9
$DIMALTF
 40
25.4
  9
$DIMLFAC
 40
1.0
  9
$DIMTOFL
 70
     1
  9
$DIMTVP
 40
0.0
  9
$DIMTIX
 70
     1
  9
$DIMSOXD
 70
     0
  9
$DIMSAH
 70
     1
  9
$DIMBLK1
  1
OPEN
  9
$DIMBLK2
  1
OPEN
  9
$DIMSTYLE
  2
BIGT
  9
$DIMCLRD
 70
   256
  9
$DIMCLRE
 70
   256
  9
$DIMCLRT
 70
    40
  9
$DIMTFAC
 40
1.0
  9
$DIMGAP
 40
1.0
  9
$DIMJUST
 70
     0
  9
$DIMSD1
 70
     0
  9
$DIMSD2
 70
     0
  9
$DIMTOLJ
 70
     1
  9
$DIMTZIN
 70
     8
  9
$DIMALTZ
 70
     0
  9
$DIMALTTZ
 70
     0
  9
$DIMFIT
 70
     2
  9
$DIMUPT
 70
     0
  9
$DIMUNIT
 70
     2
  9
$DIMDEC
 70
     3
  9
$DIMTDEC
 70
     3
  9
$DIMALTU
 70
     2
  9
$DIMALTTD
 70
     2
  9
$DIMTXSTY
  7
STANDARD
  9
$DIMAUNIT
 70
     0
  9
$LUNITS
 70
     2
  9
$LUPREC
 70
     3
  9
$SKETCHINC
 40
1.0
  9
$FILLETRAD
 40
1.0
  9
$AUNITS
 70
     0
  9
$AUPREC
 70
     3
  9
$MENU
  1
.
  9
$ELEVATION
 40
0.0
  9
$PELEVATION
 40
0.0
  9
$THICKNESS
 40
0.0
  9
$LIMCHECK
 70
     0
  9
$BLIPMODE
 70
     0
  9
$CHAMFERA
 40
10.0
  9
$CHAMFERB
 40
10.0
  9
$CHAMFERC
 40
0.0
  9
$CHAMFERD
 40
0.0
  9
$SKPOLY
 70
     0
  9
$TDCREATE
 40
2455233.404605567
  9
$TDUPDATE
 40
2455233.408942048
  9
$TDINDWG
 40
0.0043368519
  9
$TDUSRTIMER
 40
0.0043368519
  9
$USRTIMER
 70
     1
  9
$ANGBASE
 50
0.0
  9
$ANGDIR
 70
     0
  9
$PDMODE
 70
     1
  9
$PDSIZE
 40
-5.0
  9
$PLINEWID
 40
0.0
  9
$COORDS
 70
     0
  9
$SPLFRAME
 70
     0
  9
$SPLINETYPE
 70
     6
  9
$SPLINESEGS
 70
     8
  9
$ATTDIA
 70
     0
  9
$ATTREQ
 70
     1
  9
$HANDLING
 70
-16383
  9
$HANDSEED
  5
D27
  9
$SURFTAB1
 70
     6
  9
$SURFTAB2
 70
     6
  9
$SURFTYPE
 70
     6
  9
$SURFU
 70
     6
  9
$SURFV
 70
     6
  9
$UCSNAME
  2

  9
$UCSORG
 10
0.0
 20
0.0
 30
0.0
  9
$UCSXDIR
 10
1.0
 20
0.0
 30
0.0
  9
$UCSYDIR
 10
0.0
 20
1.0
 30
0.0
  9
$PUCSNAME
  2

  9
$PUCSORG
 10
0.0
 20
0.0
 30
0.0
  9
$PUCSXDIR
 10
1.0
 20
0.0
 30
0.0
  9
$PUCSYDIR
 10
0.0
 20
1.0
 30
0.0
  9
$USERI1
 70
     1
  9
$USERI2
 70
     0
  9
$USERI3
 70
     0
  9
$USERI4
 70
     0
  9
$USERI5
 70
     0
  9
$USERR1
 40
0.0
  9
$USERR2
 40
0.0
  9
$USERR3
 40
0.0
  9
$USERR4
 40
0.0
  9
$USERR5
 40
0.0
  9
$WORLDVIEW
 70
     1
  9
$SHADEDGE
 70
     3
  9
$SHADEDIF
 70
    70
  9
$TILEMODE
 70
     1
  9
$MAXACTVP
 70
    16
  9
$PINSBASE
 10
0.0
 20
0.0
 30
0.0
  9
$PLIMCHECK
 70
     0
  9
$PEXTMIN
 10
1.00000000E+20
 20
1.00000000E+20
 30
1.00000000E+20
  9
$PEXTMAX
 10
-1.00000000E+20
 20
-1.00000000E+20
 30
-1.00000000E+20
  9
$PLIMMIN
 10
0.0
 20
0.0
  9
$PLIMMAX
 10
420.0
 20
297.0
  9
$UNITMODE
 70
     0
  9
$VISRETAIN
 70
     0
  9
$PLINEGEN
 70
     0
  9
$PSLTSCALE
 70
     1
  9
$TREEDEPTH
 70
  3020
  9
$PICKSTYLE
 70
     0
  9
$CMLSTYLE
  2
STANDARD
  9
$CMLJUST
 70
     0
  9
$CMLSCALE
 40
1.0
  9
$PROXYGRAPHICS
 70
     1
  9
$MEASUREMENT
 70
     1
  0
ENDSEC
  0
SECTION
  2
CLASSES
  0
CLASS
  1
XRECORD
  2
AcDbXrecord
  3
AutoCAD 2000
 90
        0
280
     0
281
     0
  0
CLASS
  1
ACDBDICTIONARYWDFLT
  2
AcDbDictionaryWithDefault
  3
AutoCAD 2000
 90
        0
280
     0
281
     0
  0
CLASS
  1
ACDBPLACEHOLDER
  2
AcDbPlaceHolder
  3
AutoCAD 2000
 90
        0
280
     0
281
     0
  0
CLASS
  1
LAYOUT
  2
AcDbLayout
  3
AutoCAD 2000
 90
        0
280
     0
281
     0
  0
CLASS
  1
PLOTSETTINGS
  2
AcDbPlotSettings
  3
AutoCAD 2000
 90
        0
280
     0
281
     0
  0
CLASS
  1
LONG_TRANSACTION
  2
AcDbLongTransaction
  3
AutoCAD 2000
 90
        0
280
     0
281
     0
  0
CLASS
  1
LWPOLYLINE
  2
AcDbPolyline
  3
AutoCAD 2000
 90
        0
280
     0
281
     1
  0
CLASS
  1
HATCH
  2
AcDbHatch
  3
AutoCAD 2000
 90
        0
280
     0
281
     1
  0
CLASS
  1
XRECORD
  2
AcDbXrecord
  3
AutoCAD 2000
 90
        0
280
     0
281
     0
  0
ENDSEC
  0
SECTION
  2
TABLES
  0
TABLE
  2
VPORT
  5
8
330
0
100
AcDbSymbolTable
 70
     5
  0
VPORT
  5
CF9
330
8
100
AcDbSymbolTableRecord
100
AcDbViewportTableRecord
  2
*ACTIVE
 70
     0
 10
0.0
 20
0.0
 11
1.0
 21
1.0
 12
111.80413228
 22
15.86461638
 13
0.0
 23
0.0
 14
7.0
 24
7.0
 15
7.0
 25
7.0
 16
0.0
 26
0.0
 36
1.0
 17
0.0
 27
0.0
 37
0.0
 40
301.35882185
 41
1.43184713
 42
50.0
 43
0.0
 44
0.0
 50
0.0
 51
0.0
 71
     0
 72
  2000
 73
     1
 74
     0
 75
     0
 76
     0
 77
     0
 78
     0
  0
ENDTAB
  0
TABLE
  2
LTYPE
  5
5
330
0
100
AcDbSymbolTable
 70
    39
  0
LTYPE
  5
14
330
5
100
AcDbSymbolTableRecord
100
AcDbLinetypeTableRecord
  2
BYBLOCK
 70
     0
  3

 72
    65
 73
     0
 40
0.0
  0
LTYPE
  5
15
330
5
100
AcDbSymbolTableRecord
100
AcDbLinetypeTableRecord
  2
BYLAYER
 70
     0
  3

 72
    65
 73
     0
 40
0.0
  0
LTYPE
  5
16
330
5
100
AcDbSymbolTableRecord
100
AcDbLinetypeTableRecord
  2
CONTINUOUS
 70
     0
  3
Solid line
 72
    65
 73
     0
 40
0.0
  0
LTYPE
  5
258
330
5
100
AcDbSymbolTableRecord
100
AcDbLinetypeTableRecord
  2
CENTER2
 70
     0
  3
___ _ ___ _ ___ _ ___ _ ___ _ ___ _ ___ _ ___ _
 72
    65
 73
     4
 40
1.125
 49
0.75
 74
     0
 49
-0.125
 74
     0
 49
0.125
 74
     0
 49
-0.125
 74
     0
  0
LTYPE
  5
25C
330
5
100
AcDbSymbolTableRecord
100
AcDbLinetypeTableRecord
  2
HIDDEN2
 70
     0
  3
_ _ _ _ _ _ _ _ _ _ _ _ _ _ _ _ _ _ _ _ _ _ _ _
 72
    65
 73
     2
 40
0.1875
 49
0.125
 74
     0
 49
-0.0625
 74
     0
  0
ENDTAB
  0
TABLE
  2
LAYER
  5
2
330
0
100
AcDbSymbolTable
 70
    32
  0
LAYER
  5
F
330
2
100
AcDbSymbolTableRecord
100
AcDbLayerTableRecord
  2
0
 70
     0
 62
     7
  6
CONTINUOUS
  0
LAYER
  5
1AA
330
2
100
AcDbSymbolTableRecord
100
AcDbLayerTableRecord
  2
240
 70
     0
 62
     4
  6
CONTINUOUS
  0
LAYER
  5
1AB
330
2
100
AcDbSymbolTableRecord
100
AcDbLayerTableRecord
  2
241
 70
     0
 62
   211
  6
CONTINUOUS
  0
LAYER
  5
1AF
330
2
100
AcDbSymbolTableRecord
100
AcDbLayerTableRecord
  2
245
 70
     0
 62
     2
  6
CENTER2
  0
LAYER
  5
21E
330
2
100
AcDbSymbolTableRecord
100
AcDbLayerTableRecord
  2
250
 70
     0
 62
     3
  6
CONTINUOUS
  0
LAYER
  5
21F
330
2
100
AcDbSymbolTableRecord
100
AcDbLayerTableRecord
  2
251
 70
     0
 62
    40
  6
CONTINUOUS
  0
LAYER
  5
5C4
330
2
100
AcDbSymbolTableRecord
100
AcDbLayerTableRecord
  2
DEFPOINTS
 70
     0
 62
     7
  6
CONTINUOUS
  0
ENDTAB
  0
TABLE
  2
STYLE
  5
3
330
0
100
AcDbSymbolTable
 70
     3
  0
STYLE
  5
10
330
3
100
AcDbSymbolTableRecord
100
AcDbTextStyleTableRecord
  2
STANDARD
 70
     0
 40
0.0
 41
1.0
 50
0.0
 71
     0
 42
3.0
  3
romans.shx
  4
BIGFONT.SHX
  0
STYLE
  5
339
330
3
100
AcDbSymbolTableRecord
100
AcDbTextStyleTableRecord
  2
YOKO
 70
     0
 40
0.0
 41
1.0
 50
0.0
 71
     0
 42
3.0
  3
romans.shx
  4
extfont.shx
  0
ENDTAB
  0
TABLE
  2
VIEW
  5
6
330
0
100
AcDbSymbolTable
 70
     0
  0
ENDTAB
  0
TABLE
  2
UCS
  5
7
330
0
100
AcDbSymbolTable
 70
     0
  0
ENDTAB
  0
TABLE
  2
APPID
  5
9
330
0
100
AcDbSymbolTable
 70
     9
  0
APPID
  5
11
330
9
100
AcDbSymbolTableRecord
100
AcDbRegAppTableRecord
  2
ACAD
 70
     0
  0
APPID
  5
1B1
330
9
100
AcDbSymbolTableRecord
100
AcDbRegAppTableRecord
  2
GLOBAL
 70
     0
  0
APPID
  5
2A4
330
9
100
AcDbSymbolTableRecord
100
AcDbRegAppTableRecord
  2
DETAIL
 70
     0
  0
APPID
  5
5FD
330
9
100
AcDbSymbolTableRecord
100
AcDbRegAppTableRecord
  2
GRPNAME
 70
     0
  0
APPID
  5
5FE
330
9
100
AcDbSymbolTableRecord
100
AcDbRegAppTableRecord
  2
GPARA
 70
     0
  0
APPID
  5
6C4
330
9
100
AcDbSymbolTableRecord
100
AcDbRegAppTableRecord
  2
DCO15
 70
     0
  0
APPID
  5
6C5
330
9
100
AcDbSymbolTableRecord
100
AcDbRegAppTableRecord
  2
ITEMNAME
 70
     0
  0
APPID
  5
6C6
330
9
100
AcDbSymbolTableRecord
100
AcDbRegAppTableRecord
  2
GRADE_0
 70
     0
  0
APPID
  5
D1F
330
9
100
AcDbSymbolTableRecord
100
AcDbRegAppTableRecord
  2
CONTENTBLOCKICON
 70
     0
  0
ENDTAB
  0
TABLE
  2
DIMSTYLE
  5
A
330
0
100
AcDbSymbolTable
 70
    12
  0
DIMSTYLE
105
725
102
{ACAD_REACTORS
330
88D
330
88E
102
}
330
A
100
AcDbSymbolTableRecord
100
AcDbDimStyleTableRecord
  2
BIGT
 70
     0
  3

  4

  5

  6
OPEN
  7
OPEN
 40
1.0
 41
2.23
 42
0.5
 43
2.5
 44
1.0
 45
0.0
 46
0.0
 47
0.0
 48
0.0
140
2.8
141
0.0
142
0.0
143
25.4
144
1.0
145
0.0
146
1.0
147
1.0
 71
     0
 72
     0
 73
     0
 74
     0
 75
     0
 76
     0
 77
     3
 78
     8
170
     0
171
     2
172
     1
173
     1
174
     1
175
     0
176
   256
177
   256
178
    40
270
     2
271
     3
272
     3
273
     2
274
     2
340
10
275
     0
280
     0
281
     0
282
     0
283
     1
284
     8
285
     0
286
     0
287
     2
288
     0
  0
DIMSTYLE
105
87D
102
{ACAD_REACTORS
330
886
330
888
330
887
330
AA1
330
AA2
330
AA6
102
}
330
A
100
AcDbSymbolTableRecord
100
AcDbDimStyleTableRecord
  2
BIGT$0
 70
     0
  3

  4
"
  5
OPEN
  6

  7

 40
1.0
 41
2.23
 42
0.5
 43
7.0
 44
1.0
 45
0.0
 46
0.0
 47
0.1
 48
0.1
140
3.0
141
0.0
142
0.0
143
0.0393701
144
1.0
145
0.0
146
0.71
147
1.0
 71
     0
 72
     0
 73
     0
 74
     0
 75
     0
 76
     0
 77
     3
 78
     8
170
     0
171
     2
172
     1
173
     0
174
     0
175
     0
176
     3
177
     3
178
    40
270
     2
271
     3
272
     3
273
     2
274
     2
340
10
275
     0
280
     0
281
     0
282
     0
283
     1
284
     8
285
     0
286
     0
287
     3
288
     0
  0
ENDTAB
  0
TABLE
  2
BLOCK_RECORD
  5
1
330
0
100
AcDbSymbolTable
 70
    40
  0
BLOCK_RECORD
  5
1A
102
{ACAD_XDICTIONARY
360
D1D
102
}
330
1
100
AcDbSymbolTableRecord
100
AcDbBlockTableRecord
  2
*MODEL_SPACE
  0
BLOCK_RECORD
  5
17
102
{ACAD_XDICTIONARY
360
D1B
102
}
330
1
100
AcDbSymbolTableRecord
100
AcDbBlockTableRecord
  2
*PAPER_SPACE
  0
BLOCK_RECORD
  5
594
330
1
100
AcDbSymbolTableRecord
100
AcDbBlockTableRecord
  2
_OPEN
  0
BLOCK_RECORD
  5
6E3
330
1
100
AcDbSymbolTableRecord
100
AcDbBlockTableRecord
  2
矢印なし
  0
BLOCK_RECORD
  5
762
330
1
100
AcDbSymbolTableRecord
100
AcDbBlockTableRecord
  2
1
1001
CONTENTBLOCKICON
1071
        0
1004
2800000020000000200000000100080000000000000400000000000000000000000000000000000000000000000080000080000000808000800000008000800080800000C0C0C000C0DCC000F0CAA6000020400000206000002080000020A0000020C0000020E00000400000004020000040400000406000004080000040A0
1004
000040C0000040E00000600000006020000060400000606000006080000060A0000060C0000060E00000800000008020000080400000806000008080000080A0000080C0000080E00000A0000000A0200000A0400000A0600000A0800000A0A00000A0C00000A0E00000C0000000C0200000C0400000C0600000C0800000C0
1004
A00000C0C00000C0E00000E0000000E0200000E0400000E0600000E0800000E0A00000E0C00000E0E00040000000400020004000400040006000400080004000A0004000C0004000E00040200000402020004020400040206000402080004020A0004020C0004020E000404000004040200040404000404060004040800040
1004
40A0004040C0004040E00040600000406020004060400040606000406080004060A0004060C0004060E00040800000408020004080400040806000408080004080A0004080C0004080E00040A0000040A0200040A0400040A0600040A0800040A0A00040A0C00040A0E00040C0000040C0200040C0400040C0600040C08000
1004
40C0A00040C0C00040C0E00040E0000040E0200040E0400040E0600040E0800040E0A00040E0C00040E0E00080000000800020008000400080006000800080008000A0008000C0008000E00080200000802020008020400080206000802080008020A0008020C0008020E00080400000804020008040400080406000804080
1004
008040A0008040C0008040E00080600000806020008060400080606000806080008060A0008060C0008060E00080800000808020008080400080806000808080008080A0008080C0008080E00080A0000080A0200080A0400080A0600080A0800080A0A00080A0C00080A0E00080C0000080C0200080C0400080C0600080C0
1004
800080C0A00080C0C00080C0E00080E0000080E0200080E0400080E0600080E0800080E0A00080E0C00080E0E000C0000000C0002000C0004000C0006000C0008000C000A000C000C000C000E000C0200000C0202000C0204000C0206000C0208000C020A000C020C000C020E000C0400000C0402000C0404000C0406000C0
1004
408000C040A000C040C000C040E000C0600000C0602000C0604000C0606000C0608000C060A000C060C000C060E000C0800000C0802000C0804000C0806000C0808000C080A000C080C000C080E000C0A00000C0A02000C0A04000C0A06000C0A08000C0A0A000C0A0C000C0A0E000C0C00000C0C02000C0C04000C0C06000
1004
C0C08000C0C0A000F0FBFF00A4A0A000808080000000FF0000FF000000FFFF00FF000000FF00FF00FFFF0000FFFFFF0000000000000000000000000000000000000000000000000000000000000000000000000000000000000000000000000000000000000000000000000000000000000000000000000000000000000000
1004
00000000000000000000000000000000000000000000000000000000000000000000000000000000000000000000000000000000000000000000000000000000000000000000000000000000000000000000000000000000000000000000000000000000000000000000000000000000000000000000000000000000000000
1004
00000000000000000000000000000000000000000000000000000000000000000000000000000000000000000000000000000000000000000000000000000000000000000000000000000000000000000000000000000000000000000000000000000000000000000000000000000000000000000000000000000000000000
1004
000000000000000000000000000000000000000000000000000000000000000000000000000000000000000000000000000000000000000000000000FEFEFEFEFEFEFEFE000000000000000000000000000000000000000000FEFEFEFEE7E70000E7FEFEFEFEFEFEFEFEFEFEFEFEFEFEFE000000FEFEFEFEFE000000E7FBE7
1004
0000E7E7E7E70000000000E7E7E7E7E700FEFE0000FE00000000000000E7FBE70000E7E7E7E70000000000E7E7E7E7E700E7FE0000FEFBFBFBFBFBFBFBE7E7E7FBFBE7E7E7E7FBFBFBFBFBE7E7E7E7E7FBE7FE0000FEFEFEFEFE000000E7E7E70000E7E7E7E70000000000E7FBE7E7E7E7FEFE00000000000000FEFEFEFEFE
1004
E70000E7FEFEFEFEFEFEFEFEFEFEFEFEFEFEFE0000000000000000000000FEFEFEFEFEFEFEFE0000000000000000000000000000000000000000000000000000000000000000000000000000000000000000000000000000000000000000000000000000000000000000000000000000000000000000000000000000000000
1004
00000000000000000000000000000000000000000000000000000000000000000000000000000000000000000000000000000000000000000000000000000000000000000000000000000000000000000000000000000000000000000000000000000000000000000000000000000000000000000000000000000000000000
1004
00000000000000000000000000000000000000000000000000000000000000000000000000000000000000000000000000000000000000000000000000000000000000000000000000000000000000000000000000000000000000000000000000000000000000000000000000000000000000000000000000000000000000
1004
0000000000000000000000000000000000000000000000000000000000000000000000000000000000000000000000000000000000000000
  0
BLOCK_RECORD
  5
858
330
1
100
AcDbSymbolTableRecord
100
AcDbBlockTableRecord
  2
_NONE
  0
BLOCK_RECORD
  5
896
330
1
100
AcDbSymbolTableRecord
100
AcDbBlockTableRecord
  2
*D20
  0
BLOCK_RECORD
  5
8A2
330
1
100
AcDbSymbolTableRecord
100
AcDbBlockTableRecord
  2
*D21
  0
BLOCK_RECORD
  5
AC9
330
1
100
AcDbSymbolTableRecord
100
AcDbBlockTableRecord
  2
*D30
  0
BLOCK_RECORD
  5
AD3
330
1
100
AcDbSymbolTableRecord
100
AcDbBlockTableRecord
  2
*D31
  0
BLOCK_RECORD
  5
ADF
330
1
100
AcDbSymbolTableRecord
100
AcDbBlockTableRecord
  2
*D32
  0
ENDTAB
  0
ENDSEC
  0
SECTION
  2
BLOCKS
  0
BLOCK
  5
1B
330
1A
100
AcDbEntity
  8
0
100
AcDbBlockBegin
  2
*MODEL_SPACE
 70
     0
 10
0.0
 20
0.0
 30
0.0
  3
*MODEL_SPACE
  1

  0
ENDBLK
  5
1C
330
1A
100
AcDbEntity
  8
0
100
AcDbBlockEnd
  0
BLOCK
  5
18
330
17
100
AcDbEntity
 67
     1
  8
0
100
AcDbBlockBegin
  2
*PAPER_SPACE
 70
     0
 10
0.0
 20
0.0
 30
0.0
  3
*PAPER_SPACE
  1

  0
ENDBLK
  5
19
330
17
100
AcDbEntity
 67
     1
  8
0
100
AcDbBlockEnd
  0
BLOCK
  5
598
330
594
100
AcDbEntity
  8
0
100
AcDbBlockBegin
  2
_OPEN
 70
     0
 10
0.0
 20
0.0
 30
0.0
  3
_OPEN
  1

  0
LINE
  5
595
330
594
100
AcDbEntity
  8
0
  6
BYBLOCK
 62
     0
100
AcDbLine
 10
-1.0
 20
0.16666667
 30
0.0
 11
0.0
 21
0.0
 31
0.0
  0
LINE
  5
596
330
594
100
AcDbEntity
  8
0
  6
BYBLOCK
 62
     0
100
AcDbLine
 10
-1.0
 20
-0.16666667
 30
0.0
 11
0.0
 21
0.0
 31
0.0
  0
LINE
  5
597
330
594
100
AcDbEntity
  8
0
  6
BYBLOCK
 62
     0
100
AcDbLine
 10
0.0
 20
0.0
 30
0.0
 11
-1.0
 21
0.0
 31
0.0
  0
ENDBLK
  5
599
330
594
100
AcDbEntity
  8
0
100
AcDbBlockEnd
  0
BLOCK
  5
6E4
330
6E3
100
AcDbEntity
  8
0
100
AcDbBlockBegin
  2
矢印なし
 70
     0
 10
0.0
 20
0.0
 30
0.0
  3
矢印なし
  1

  0
ENDBLK
  5
6E5
330
6E3
100
AcDbEntity
  8
0
100
AcDbBlockEnd
  0
BLOCK
  5
83E
330
762
100
AcDbEntity
  8
0
100
AcDbBlockBegin
  2
1
 70
     0
 10
0.0
 20
0.0
 30
0.0
  3
1
  1

  0
LINE
  5
C17
330
762
100
AcDbEntity
  8
241
  6
HIDDEN2
100
AcDbLine
 10
224.61243557
 20
16.0
 30
0.0
 11
297.4
 21
16.0
 31
0.0
1001
GRPNAME
1000
PASTMD15
  0
LINE
  5
C18
330
762
100
AcDbEntity
  8
245
  6
CENTER2
100
AcDbLine
 10
220.9
 20
20.5
 30
0.0
 11
299.6
 21
20.5
 31
0.0
1001
GRPNAME
1000
PASTMDA8
  0
LINE
  5
C19
330
762
100
AcDbEntity
  8
240
  6
CONTINUOUS
100
AcDbLine
 10
227.3
 20
43.0
 30
0.0
 11
239.8
 21
43.0
 31
0.0
  0
LINE
  5
C1A
330
762
100
AcDbEntity
  8
240
  6
CONTINUOUS
100
AcDbLine
 10
227.3
 20
-43.0
 30
0.0
 11
239.8
 21
-43.0
 31
0.0
  0
LINE
  5
C1B
330
762
100
AcDbEntity
  8
245
  6
CENTER2
100
AcDbLine
 10
-102.8
 20
0.0
 30
0.0
 11
303.4
 21
0.0
 31
0.0
  0
LINE
  5
C1C
330
762
100
AcDbEntity
  8
240
  6
CONTINUOUS
100
AcDbLine
 10
0.0
 20
34.925
 30
0.0
 11
-100.43089103
 21
20.27882839
 31
0.0
  0
LINE
  5
C1D
330
762
100
AcDbEntity
  8
240
  6
CONTINUOUS
100
AcDbLine
 10
0.0
 20
-34.925
 30
0.0
 11
-100.43089103
 21
-20.27882839
 31
0.0
  0
LINE
  5
C1E
330
762
100
AcDbEntity
  8
240
  6
CONTINUOUS
100
AcDbLine
 10
-101.8
 20
18.69557562
 30
0.0
 11
-101.8
 21
0.0
 31
0.0
  0
LINE
  5
C1F
330
762
100
AcDbEntity
  8
240
  6
CONTINUOUS
100
AcDbLine
 10
-101.8
 20
-18.69557562
 30
0.0
 11
-101.8
 21
0.0
 31
0.0
  0
ARC
  5
C20
330
762
100
AcDbEntity
  8
240
  6
CONTINUOUS
100
AcDbCircle
 10
-100.2
 20
-18.69557562
 30
0.0
 40
1.6
100
AcDbArc
 50
180.0
 51
261.70285503
  0
ARC
  5
C21
330
762
100
AcDbEntity
  8
240
  6
CONTINUOUS
100
AcDbCircle
 10
-100.2
 20
18.69557562
 30
0.0
 40
1.6
100
AcDbArc
 50
98.29714497
 51
180.0
  0
LINE
  5
C22
330
762
100
AcDbEntity
  8
241
100
AcDbLine
 10
227.3
 20
-43.0
 30
0.0
 11
227.3
 21
0.0
 31
0.0
  0
LINE
  5
C23
330
762
100
AcDbEntity
  8
241
100
AcDbLine
 10
224.3
 20
-43.0
 30
0.0
 11
224.3
 21
0.0
 31
0.0
  0
LINE
  5
C24
330
762
100
AcDbEntity
  8
241
100
AcDbLine
 10
222.3
 20
-43.0
 30
0.0
 11
222.3
 21
0.0
 31
0.0
  0
LINE
  5
C25
330
762
100
AcDbEntity
  8
241
100
AcDbLine
 10
219.3
 20
-43.0
 30
0.0
 11
219.3
 21
0.0
 31
0.0
  0
LINE
  5
C26
330
762
100
AcDbEntity
  8
241
100
AcDbLine
 10
217.3
 20
-43.0
 30
0.0
 11
217.3
 21
0.0
 31
0.0
  0
LINE
  5
C27
330
762
100
AcDbEntity
  8
241
100
AcDbLine
 10
214.3
 20
-43.0
 30
0.0
 11
214.3
 21
0.0
 31
0.0
  0
LINE
  5
C28
330
762
100
AcDbEntity
  8
241
100
AcDbLine
 10
119.0
 20
-43.0
 30
0.0
 11
119.0
 21
0.0
 31
0.0
  0
LINE
  5
C29
330
762
100
AcDbEntity
  8
241
100
AcDbLine
 10
109.0
 20
-43.55482783
 30
0.0
 11
109.0
 21
0.0
 31
0.0
  0
LINE
  5
C2A
330
762
100
AcDbEntity
  8
241
100
AcDbLine
 10
101.0
 20
-43.99869009
 30
0.0
 11
101.0
 21
0.0
 31
0.0
  0
LINE
  5
C2B
330
762
100
AcDbEntity
  8
241
100
AcDbLine
 10
91.0
 20
-44.55351792
 30
0.0
 11
91.0
 21
0.0
 31
0.0
  0
LINE
  5
C2C
330
762
100
AcDbEntity
  8
241
100
AcDbLine
 10
83.0
 20
-44.99738018
 30
0.0
 11
83.0
 21
0.0
 31
0.0
  0
LINE
  5
C2D
330
762
100
AcDbEntity
  8
241
100
AcDbLine
 10
73.0
 20
-45.55220801
 30
0.0
 11
73.0
 21
0.0
 31
0.0
  0
LINE
  5
C2E
330
762
100
AcDbEntity
  8
241
  6
CONTINUOUS
100
AcDbLine
 10
20.03012702
 20
-42.5
 30
0.0
 11
20.03012702
 21
0.0
 31
0.0
  0
LINE
  5
C2F
330
762
100
AcDbEntity
  8
241
  6
CONTINUOUS
100
AcDbLine
 10
26.36987298
 20
-42.5
 30
0.0
 11
26.36987298
 21
0.0
 31
0.0
  0
LINE
  5
C30
330
762
100
AcDbEntity
  8
241
  6
CONTINUOUS
100
AcDbLine
 10
30.7
 20
-50.0
 30
0.0
 11
30.7
 21
0.0
 31
0.0
  0
LINE
  5
C31
330
762
100
AcDbEntity
  8
241
  6
HIDDEN2
100
AcDbLine
 10
34.0
 20
-35.4
 30
0.0
 11
34.0
 21
-50.0
 31
0.0
  0
LINE
  5
C32
330
762
100
AcDbEntity
  8
241
  6
CONTINUOUS
100
AcDbLine
 10
38.0
 20
0.0
 30
0.0
 11
38.0
 21
-48.44016061
 31
0.0
  0
LINE
  5
C33
330
762
100
AcDbEntity
  8
240
  6
CONTINUOUS
100
AcDbLine
 10
1.5
 20
-48.7
 30
0.0
 11
1.5
 21
-34.925
 31
0.0
  0
LINE
  5
C34
330
762
100
AcDbEntity
  8
241
  6
CONTINUOUS
100
AcDbLine
 10
15.7
 20
-50.0
 30
0.0
 11
15.7
 21
0.0
 31
0.0
  0
LINE
  5
C35
330
762
100
AcDbEntity
  8
245
  6
CENTER2
100
AcDbLine
 10
23.2
 20
-50.0
 30
0.0
 11
23.2
 21
50.0
 31
0.0
  0
LINE
  5
C36
330
762
100
AcDbEntity
  8
240
100
AcDbLine
 10
91.0
 20
-44.55351792
 30
0.0
 11
83.0
 21
-44.99738018
 31
0.0
  0
LINE
  5
C37
330
762
100
AcDbEntity
  8
240
  6
CONTINUOUS
100
AcDbLine
 10
2.8
 20
-50.0
 30
0.0
 11
15.7
 21
-50.0
 31
0.0
  0
ARC
  5
C38
330
762
100
AcDbEntity
  8
240
  6
CONTINUOUS
100
AcDbCircle
 10
2.8
 20
-48.7
 30
0.0
 40
1.3
100
AcDbArc
 50
180.0
 51
270.0
  0
LINE
  5
C39
330
762
100
AcDbEntity
  8
240
100
AcDbLine
 10
38.94460242
 20
-47.44169624
 30
0.0
 11
73.0
 21
-45.55220801
 31
0.0
  0
LINE
  5
C3A
330
762
100
AcDbEntity
  8
240
  6
CONTINUOUS
100
AcDbLine
 10
36.7
 20
-50.0
 30
0.0
 11
30.7
 21
-50.0
 31
0.0
  0
LINE
  5
C3B
330
762
100
AcDbEntity
  8
240
  6
CONTINUOUS
100
AcDbLine
 10
26.36987298
 20
-42.5
 30
0.0
 11
20.03012702
 21
-42.5
 31
0.0
  0
LINE
  5
C3C
330
762
100
AcDbEntity
  8
240
  6
CONTINUOUS
100
AcDbLine
 10
20.03012702
 20
-42.5
 30
0.0
 11
15.7
 21
-50.0
 31
0.0
  0
LINE
  5
C3D
330
762
100
AcDbEntity
  8
240
  6
CONTINUOUS
100
AcDbLine
 10
26.36987298
 20
-42.5
 30
0.0
 11
30.7
 21
-50.0
 31
0.0
  0
ARC
  5
C3E
330
762
100
AcDbEntity
  8
240
  6
CONTINUOUS
100
AcDbCircle
 10
36.7
 20
-48.7
 30
0.0
 40
1.3
100
AcDbArc
 50
270.0
 51
0.0
  0
ARC
  5
C3F
330
762
100
AcDbEntity
  8
240
100
AcDbCircle
 10
39.0
 20
-48.44016061
 30
0.0
 40
1.0
100
AcDbArc
 50
93.17567337
 51
180.0
  0
LINE
  5
C40
330
762
100
AcDbEntity
  8
240
  6
CONTINUOUS
100
AcDbLine
 10
38.0
 20
-48.7
 30
0.0
 11
38.0
 21
-48.44016061
 31
0.0
  0
LINE
  5
C41
330
762
100
AcDbEntity
  8
240
100
AcDbLine
 10
74.06037028
 20
-44.49183773
 30
0.0
 11
82.05110912
 21
-44.0484893
 31
0.0
  0
LINE
  5
C42
330
762
100
AcDbEntity
  8
240
100
AcDbLine
 10
74.06037028
 20
-44.49183773
 30
0.0
 11
73.0
 21
-45.55220801
 31
0.0
  0
LINE
  5
C43
330
762
100
AcDbEntity
  8
240
100
AcDbLine
 10
82.05110912
 20
-44.0484893
 30
0.0
 11
83.0
 21
-44.99738018
 31
0.0
  0
LINE
  5
C44
330
762
100
AcDbEntity
  8
240
  6
CONTINUOUS
100
AcDbLine
 10
214.3
 20
-43.0
 30
0.0
 11
119.0
 21
-43.0
 31
0.0
  0
LINE
  5
C45
330
762
100
AcDbEntity
  8
240
100
AcDbLine
 10
109.0
 20
-43.55482783
 30
0.0
 11
101.0
 21
-43.99869009
 31
0.0
  0
LINE
  5
C46
330
762
100
AcDbEntity
  8
240
100
AcDbLine
 10
92.06037028
 20
-43.49314764
 30
0.0
 11
100.05110912
 21
-43.04979921
 31
0.0
  0
LINE
  5
C47
330
762
100
AcDbEntity
  8
240
100
AcDbLine
 10
92.06037028
 20
-43.49314764
 30
0.0
 11
91.0
 21
-44.55351792
 31
0.0
  0
LINE
  5
C48
330
762
100
AcDbEntity
  8
240
100
AcDbLine
 10
100.05110912
 20
-43.04979921
 30
0.0
 11
101.0
 21
-43.99869009
 31
0.0
  0
LINE
  5
C49
330
762
100
AcDbEntity
  8
240
100
AcDbLine
 10
110.06037028
 20
-42.49445755
 30
0.0
 11
118.05110912
 21
-42.05110912
 31
0.0
  0
LINE
  5
C4A
330
762
100
AcDbEntity
  8
240
100
AcDbLine
 10
110.06037028
 20
-42.49445755
 30
0.0
 11
109.0
 21
-43.55482783
 31
0.0
  0
LINE
  5
C4B
330
762
100
AcDbEntity
  8
240
100
AcDbLine
 10
118.05110912
 20
-42.05110912
 30
0.0
 11
119.0
 21
-43.0
 31
0.0
  0
LINE
  5
C4C
330
762
100
AcDbEntity
  8
240
  6
CONTINUOUS
100
AcDbLine
 10
219.3
 20
-43.0
 30
0.0
 11
217.3
 21
-43.0
 31
0.0
  0
LINE
  5
C4D
330
762
100
AcDbEntity
  8
240
100
AcDbLine
 10
214.8
 20
-42.5
 30
0.0
 11
216.8
 21
-42.5
 31
0.0
  0
LINE
  5
C4E
330
762
100
AcDbEntity
  8
240
100
AcDbLine
 10
216.8
 20
-42.5
 30
0.0
 11
217.3
 21
-43.0
 31
0.0
  0
LINE
  5
C4F
330
762
100
AcDbEntity
  8
240
100
AcDbLine
 10
214.8
 20
-42.5
 30
0.0
 11
214.3
 21
-43.0
 31
0.0
  0
LINE
  5
C50
330
762
100
AcDbEntity
  8
240
  6
CONTINUOUS
100
AcDbLine
 10
224.3
 20
-43.0
 30
0.0
 11
222.3
 21
-43.0
 31
0.0
  0
LINE
  5
C51
330
762
100
AcDbEntity
  8
240
100
AcDbLine
 10
221.8
 20
-42.5
 30
0.0
 11
222.3
 21
-43.0
 31
0.0
  0
LINE
  5
C52
330
762
100
AcDbEntity
  8
240
100
AcDbLine
 10
219.8
 20
-42.5
 30
0.0
 11
221.8
 21
-42.5
 31
0.0
  0
LINE
  5
C53
330
762
100
AcDbEntity
  8
240
100
AcDbLine
 10
219.8
 20
-42.5
 30
0.0
 11
219.3
 21
-43.0
 31
0.0
  0
LINE
  5
C54
330
762
100
AcDbEntity
  8
240
100
AcDbLine
 10
224.8
 20
-42.5
 30
0.0
 11
226.8
 21
-42.5
 31
0.0
  0
LINE
  5
C55
330
762
100
AcDbEntity
  8
240
100
AcDbLine
 10
224.8
 20
-42.5
 30
0.0
 11
224.3
 21
-43.0
 31
0.0
  0
LINE
  5
C56
330
762
100
AcDbEntity
  8
240
100
AcDbLine
 10
226.8
 20
-42.5
 30
0.0
 11
227.3
 21
-43.0
 31
0.0
  0
LINE
  5
C57
330
762
100
AcDbEntity
  8
240
100
AcDbLine
 10
91.0
 20
44.55351792
 30
0.0
 11
83.0
 21
44.99738018
 31
0.0
  0
LINE
  5
C58
330
762
100
AcDbEntity
  8
240
  6
CONTINUOUS
100
AcDbLine
 10
15.7
 20
50.0
 30
0.0
 11
2.8
 21
50.0
 31
0.0
  0
LINE
  5
C59
330
762
100
AcDbEntity
  8
241
  6
HIDDEN2
100
AcDbLine
 10
34.0
 20
35.4
 30
0.0
 11
1.5
 21
35.4
 31
0.0
  0
LINE
  5
C5A
330
762
100
AcDbEntity
  8
241
  6
HIDDEN2
100
AcDbLine
 10
1.5
 20
-35.4
 30
0.0
 11
34.0
 21
-35.4
 31
0.0
  0
LINE
  5
C5B
330
762
100
AcDbEntity
  8
241
100
AcDbLine
 10
1.5
 20
34.925
 30
0.0
 11
1.5
 21
0.0
 31
0.0
  0
LINE
  5
C5C
330
762
100
AcDbEntity
  8
241
  6
CONTINUOUS
100
AcDbLine
 10
0.0
 20
34.925
 30
0.0
 11
0.0
 21
0.0
 31
0.0
  0
LINE
  5
C5D
330
762
100
AcDbEntity
  8
241
100
AcDbLine
 10
1.5
 20
-34.925
 30
0.0
 11
1.5
 21
0.0
 31
0.0
  0
LINE
  5
C5E
330
762
100
AcDbEntity
  8
241
  6
CONTINUOUS
100
AcDbLine
 10
0.0
 20
-34.925
 30
0.0
 11
0.0
 21
0.0
 31
0.0
  0
LINE
  5
C5F
330
762
100
AcDbEntity
  8
240
100
AcDbLine
 10
0.0
 20
-34.925
 30
0.0
 11
1.5
 21
-34.925
 31
0.0
  0
LINE
  5
C60
330
762
100
AcDbEntity
  8
240
  6
CONTINUOUS
100
AcDbLine
 10
1.5
 20
48.7
 30
0.0
 11
1.5
 21
34.925
 31
0.0
  0
LINE
  5
C61
330
762
100
AcDbEntity
  8
240
100
AcDbLine
 10
0.0
 20
34.925
 30
0.0
 11
1.5
 21
34.925
 31
0.0
  0
ARC
  5
C62
330
762
100
AcDbEntity
  8
240
  6
CONTINUOUS
100
AcDbCircle
 10
2.8
 20
48.7
 30
0.0
 40
1.3
100
AcDbArc
 50
90.0
 51
180.0
  0
LINE
  5
C63
330
762
100
AcDbEntity
  8
241
  6
CONTINUOUS
100
AcDbLine
 10
30.7
 20
50.0
 30
0.0
 11
30.7
 21
0.0
 31
0.0
  0
LINE
  5
C64
330
762
100
AcDbEntity
  8
241
  6
CONTINUOUS
100
AcDbLine
 10
15.7
 20
50.0
 30
0.0
 11
15.7
 21
0.0
 31
0.0
  0
LINE
  5
C65
330
762
100
AcDbEntity
  8
241
  6
CONTINUOUS
100
AcDbLine
 10
20.03012702
 20
42.5
 30
0.0
 11
20.03012702
 21
0.0
 31
0.0
  0
LINE
  5
C66
330
762
100
AcDbEntity
  8
241
  6
CONTINUOUS
100
AcDbLine
 10
26.36987298
 20
42.5
 30
0.0
 11
26.36987298
 21
0.0
 31
0.0
  0
LINE
  5
C67
330
762
100
AcDbEntity
  8
241
  6
CONTINUOUS
100
AcDbLine
 10
38.0
 20
0.0
 30
0.0
 11
38.0
 21
48.44016061
 31
0.0
  0
LINE
  5
C68
330
762
100
AcDbEntity
  8
241
100
AcDbLine
 10
73.0
 20
45.55220801
 30
0.0
 11
73.0
 21
0.0
 31
0.0
  0
LINE
  5
C69
330
762
100
AcDbEntity
  8
241
100
AcDbLine
 10
83.0
 20
44.99738018
 30
0.0
 11
83.0
 21
0.0
 31
0.0
  0
LINE
  5
C6A
330
762
100
AcDbEntity
  8
240
100
AcDbLine
 10
38.94460242
 20
47.44169624
 30
0.0
 11
73.0
 21
45.55220801
 31
0.0
  0
LINE
  5
C6B
330
762
100
AcDbEntity
  8
240
  6
CONTINUOUS
100
AcDbLine
 10
30.7
 20
50.0
 30
0.0
 11
36.7
 21
50.0
 31
0.0
  0
LINE
  5
C6C
330
762
100
AcDbEntity
  8
240
  6
CONTINUOUS
100
AcDbLine
 10
26.36987298
 20
42.5
 30
0.0
 11
30.7
 21
50.0
 31
0.0
  0
LINE
  5
C6D
330
762
100
AcDbEntity
  8
240
  6
CONTINUOUS
100
AcDbLine
 10
20.03012702
 20
42.5
 30
0.0
 11
15.7
 21
50.0
 31
0.0
  0
LINE
  5
C6E
330
762
100
AcDbEntity
  8
240
  6
CONTINUOUS
100
AcDbLine
 10
26.36987298
 20
42.5
 30
0.0
 11
20.03012702
 21
42.5
 31
0.0
  0
LINE
  5
C6F
330
762
100
AcDbEntity
  8
241
  6
HIDDEN2
100
AcDbLine
 10
34.0
 20
35.4
 30
0.0
 11
34.0
 21
50.0
 31
0.0
  0
ARC
  5
C70
330
762
100
AcDbEntity
  8
240
  6
CONTINUOUS
100
AcDbCircle
 10
36.7
 20
48.7
 30
0.0
 40
1.3
100
AcDbArc
 50
0.0
 51
90.0
  0
ARC
  5
C71
330
762
100
AcDbEntity
  8
240
100
AcDbCircle
 10
39.0
 20
48.44016061
 30
0.0
 40
1.0
100
AcDbArc
 50
180.0
 51
266.82432663
  0
LINE
  5
C72
330
762
100
AcDbEntity
  8
240
  6
CONTINUOUS
100
AcDbLine
 10
38.0
 20
48.7
 30
0.0
 11
38.0
 21
48.44016061
 31
0.0
  0
LINE
  5
C73
330
762
100
AcDbEntity
  8
240
100
AcDbLine
 10
74.06037028
 20
44.49183773
 30
0.0
 11
82.05110912
 21
44.0484893
 31
0.0
  0
LINE
  5
C74
330
762
100
AcDbEntity
  8
240
100
AcDbLine
 10
74.06037028
 20
44.49183773
 30
0.0
 11
73.0
 21
45.55220801
 31
0.0
  0
LINE
  5
C75
330
762
100
AcDbEntity
  8
240
100
AcDbLine
 10
82.05110912
 20
44.0484893
 30
0.0
 11
83.0
 21
44.99738018
 31
0.0
  0
LINE
  5
C76
330
762
100
AcDbEntity
  8
240
  6
CONTINUOUS
100
AcDbLine
 10
214.3
 20
43.0
 30
0.0
 11
119.0
 21
43.0
 31
0.0
  0
LINE
  5
C77
330
762
100
AcDbEntity
  8
241
100
AcDbLine
 10
91.0
 20
44.55351792
 30
0.0
 11
91.0
 21
0.0
 31
0.0
  0
LINE
  5
C78
330
762
100
AcDbEntity
  8
241
100
AcDbLine
 10
101.0
 20
43.99869009
 30
0.0
 11
101.0
 21
0.0
 31
0.0
  0
LINE
  5
C79
330
762
100
AcDbEntity
  8
241
100
AcDbLine
 10
109.0
 20
43.55482783
 30
0.0
 11
109.0
 21
0.0
 31
0.0
  0
LINE
  5
C7A
330
762
100
AcDbEntity
  8
241
100
AcDbLine
 10
119.0
 20
43.0
 30
0.0
 11
119.0
 21
0.0
 31
0.0
  0
LINE
  5
C7B
330
762
100
AcDbEntity
  8
240
100
AcDbLine
 10
109.0
 20
43.55482783
 30
0.0
 11
101.0
 21
43.99869009
 31
0.0
  0
LINE
  5
C7C
330
762
100
AcDbEntity
  8
240
100
AcDbLine
 10
92.06037028
 20
43.49314764
 30
0.0
 11
100.05110912
 21
43.04979921
 31
0.0
  0
LINE
  5
C7D
330
762
100
AcDbEntity
  8
240
100
AcDbLine
 10
92.06037028
 20
43.49314764
 30
0.0
 11
91.0
 21
44.55351792
 31
0.0
  0
LINE
  5
C7E
330
762
100
AcDbEntity
  8
240
100
AcDbLine
 10
100.05110912
 20
43.04979921
 30
0.0
 11
101.0
 21
43.99869009
 31
0.0
  0
LINE
  5
C7F
330
762
100
AcDbEntity
  8
240
100
AcDbLine
 10
118.05110912
 20
42.05110912
 30
0.0
 11
119.0
 21
43.0
 31
0.0
  0
LINE
  5
C80
330
762
100
AcDbEntity
  8
240
100
AcDbLine
 10
110.06037028
 20
42.49445755
 30
0.0
 11
109.0
 21
43.55482783
 31
0.0
  0
LINE
  5
C81
330
762
100
AcDbEntity
  8
240
100
AcDbLine
 10
110.06037028
 20
42.49445755
 30
0.0
 11
118.05110912
 21
42.05110912
 31
0.0
  0
LINE
  5
C82
330
762
100
AcDbEntity
  8
241
100
AcDbLine
 10
214.3
 20
43.0
 30
0.0
 11
214.3
 21
0.0
 31
0.0
  0
LINE
  5
C83
330
762
100
AcDbEntity
  8
241
100
AcDbLine
 10
217.3
 20
43.0
 30
0.0
 11
217.3
 21
0.0
 31
0.0
  0
LINE
  5
C84
330
762
100
AcDbEntity
  8
241
100
AcDbLine
 10
219.3
 20
43.0
 30
0.0
 11
219.3
 21
0.0
 31
0.0
  0
LINE
  5
C85
330
762
100
AcDbEntity
  8
241
100
AcDbLine
 10
222.3
 20
43.0
 30
0.0
 11
222.3
 21
0.0
 31
0.0
  0
LINE
  5
C86
330
762
100
AcDbEntity
  8
241
100
AcDbLine
 10
224.3
 20
43.0
 30
0.0
 11
224.3
 21
0.0
 31
0.0
  0
LINE
  5
C87
330
762
100
AcDbEntity
  8
241
100
AcDbLine
 10
227.3
 20
43.0
 30
0.0
 11
227.3
 21
0.0
 31
0.0
  0
LINE
  5
C88
330
762
100
AcDbEntity
  8
245
  6
CENTER2
100
AcDbLine
 10
220.9
 20
20.5
 30
0.0
 11
220.9
 21
15.5
 31
0.0
  0
LINE
  5
C89
330
762
100
AcDbEntity
  8
240
  6
CONTINUOUS
100
AcDbLine
 10
219.3
 20
43.0
 30
0.0
 11
217.3
 21
43.0
 31
0.0
  0
LINE
  5
C8A
330
762
100
AcDbEntity
  8
240
100
AcDbLine
 10
216.8
 20
42.5
 30
0.0
 11
217.3
 21
43.0
 31
0.0
  0
LINE
  5
C8B
330
762
100
AcDbEntity
  8
240
100
AcDbLine
 10
214.8
 20
42.5
 30
0.0
 11
214.3
 21
43.0
 31
0.0
  0
LINE
  5
C8C
330
762
100
AcDbEntity
  8
240
100
AcDbLine
 10
214.8
 20
42.5
 30
0.0
 11
216.8
 21
42.5
 31
0.0
  0
LINE
  5
C8D
330
762
100
AcDbEntity
  8
240
100
AcDbLine
 10
224.8
 20
42.5
 30
0.0
 11
224.3
 21
43.0
 31
0.0
  0
LINE
  5
C8E
330
762
100
AcDbEntity
  8
240
100
AcDbLine
 10
226.8
 20
42.5
 30
0.0
 11
227.3
 21
43.0
 31
0.0
  0
LINE
  5
C8F
330
762
100
AcDbEntity
  8
240
100
AcDbLine
 10
221.8
 20
42.5
 30
0.0
 11
222.3
 21
43.0
 31
0.0
  0
LINE
  5
C90
330
762
100
AcDbEntity
  8
240
100
AcDbLine
 10
219.8
 20
42.5
 30
0.0
 11
219.3
 21
43.0
 31
0.0
  0
LINE
  5
C91
330
762
100
AcDbEntity
  8
240
100
AcDbLine
 10
219.8
 20
42.5
 30
0.0
 11
221.8
 21
42.5
 31
0.0
  0
LINE
  5
C92
330
762
100
AcDbEntity
  8
240
100
AcDbLine
 10
224.8
 20
42.5
 30
0.0
 11
226.8
 21
42.5
 31
0.0
  0
LINE
  5
C93
330
762
100
AcDbEntity
  8
240
  6
CONTINUOUS
100
AcDbLine
 10
224.3
 20
43.0
 30
0.0
 11
222.3
 21
43.0
 31
0.0
  0
LINE
  5
C94
330
762
100
AcDbEntity
  8
240
100
AcDbLine
 10
298.3
 20
-35.95854026
 30
0.0
 11
291.29998639
 21
-40.0
 31
0.0
  0
LINE
  5
C95
330
762
100
AcDbEntity
  8
241
100
AcDbLine
 10
291.29998639
 20
-40.0
 30
0.0
 11
291.29998639
 21
0.0
 31
0.0
  0
LINE
  5
C96
330
762
100
AcDbEntity
  8
241
100
AcDbLine
 10
257.8
 20
-42.82035944
 30
0.0
 11
257.8
 21
0.0
 31
0.0
  0
LINE
  5
C97
330
762
100
AcDbEntity
  8
241
  6
CONTINUOUS
100
AcDbLine
 10
245.8
 20
0.0
 30
0.0
 11
245.8
 21
-43.0
 31
0.0
  0
LINE
  5
C98
330
762
100
AcDbEntity
  8
241
100
AcDbLine
 10
241.8
 20
-43.0
 30
0.0
 11
241.8
 21
0.0
 31
0.0
  0
LINE
  5
C99
330
762
100
AcDbEntity
  8
241
100
AcDbLine
 10
239.8
 20
-43.0
 30
0.0
 11
239.8
 21
0.0
 31
0.0
  0
LINE
  5
C9A
330
762
100
AcDbEntity
  8
241
100
AcDbLine
 10
260.45
 20
-40.52964056
 30
0.0
 11
260.45
 21
0.0
 31
0.0
  0
LINE
  5
C9B
330
762
100
AcDbEntity
  8
241
100
AcDbLine
 10
266.95
 20
0.0
 30
0.0
 11
266.95
 21
-40.0
 31
0.0
  0
LINE
  5
C9C
330
762
100
AcDbEntity
  8
240
100
AcDbLine
 10
266.95
 20
-40.0
 30
0.0
 11
291.29998639
 21
-40.0
 31
0.0
  0
LINE
  5
C9D
330
762
100
AcDbEntity
  8
240
100
AcDbLine
 10
256.97157288
 20
-43.0
 30
0.0
 11
241.8
 21
-43.0
 31
0.0
  0
LINE
  5
C9E
330
762
100
AcDbEntity
  8
240
100
AcDbLine
 10
241.3
 20
-42.5
 30
0.0
 11
241.8
 21
-43.0
 31
0.0
  0
LINE
  5
C9F
330
762
100
AcDbEntity
  8
240
100
AcDbLine
 10
240.3
 20
-42.5
 30
0.0
 11
241.3
 21
-42.5
 31
0.0
  0
LINE
  5
CA0
330
762
100
AcDbEntity
  8
240
100
AcDbLine
 10
240.3
 20
-42.5
 30
0.0
 11
239.8
 21
-43.0
 31
0.0
  0
LINE
  5
CA1
330
762
100
AcDbEntity
  8
240
100
AcDbLine
 10
261.27842712
 20
-40.35
 30
0.0
 11
266.6
 21
-40.35
 31
0.0
  0
ARC
  5
CA2
330
762
100
AcDbEntity
  8
240
100
AcDbCircle
 10
261.27842712
 20
-42.35
 30
0.0
 40
2.0
100
AcDbArc
 50
90.0
 51
135.0
  0
LINE
  5
CA3
330
762
100
AcDbEntity
  8
240
100
AcDbLine
 10
259.86421356
 20
-40.93578644
 30
0.0
 11
258.38578644
 21
-42.41421356
 31
0.0
  0
ARC
  5
CA4
330
762
100
AcDbEntity
  8
240
100
AcDbCircle
 10
256.97157288
 20
-41.0
 30
0.0
 40
2.0
100
AcDbArc
 50
270.0
 51
315.0
  0
LINE
  5
CA5
330
762
100
AcDbEntity
  8
240
100
AcDbLine
 10
266.95
 20
-40.0
 30
0.0
 11
266.6
 21
-40.35
 31
0.0
  0
LINE
  5
CA6
330
762
100
AcDbEntity
  8
241
100
AcDbLine
 10
260.45
 20
40.52964056
 30
0.0
 11
260.45
 21
0.0
 31
0.0
  0
LINE
  5
CA7
330
762
100
AcDbEntity
  8
241
100
AcDbLine
 10
266.95
 20
40.0
 30
0.0
 11
266.95
 21
0.0
 31
0.0
  0
LINE
  5
CA8
330
762
100
AcDbEntity
  8
241
100
AcDbLine
 10
257.8
 20
42.82035944
 30
0.0
 11
257.8
 21
0.0
 31
0.0
  0
LINE
  5
CA9
330
762
100
AcDbEntity
  8
241
  6
CONTINUOUS
100
AcDbLine
 10
245.8
 20
0.0
 30
0.0
 11
245.8
 21
43.0
 31
0.0
  0
LINE
  5
CAA
330
762
100
AcDbEntity
  8
241
100
AcDbLine
 10
239.8
 20
43.0
 30
0.0
 11
239.8
 21
0.0
 31
0.0
  0
LINE
  5
CAB
330
762
100
AcDbEntity
  8
241
100
AcDbLine
 10
241.8
 20
43.0
 30
0.0
 11
241.8
 21
0.0
 31
0.0
  0
LINE
  5
CAC
330
762
100
AcDbEntity
  8
240
  6
CONTINUOUS
100
AcDbLine
 10
302.4
 20
26.336
 30
0.0
 11
302.4
 21
0.0
 31
0.0
1001
GRPNAME
1000
PASTMD27
  0
LINE
  5
CAD
330
762
100
AcDbEntity
  8
241
100
AcDbLine
 10
300.8
 20
0.0
 30
0.0
 11
300.8
 21
27.336
 31
0.0
  0
LINE
  5
CAE
330
762
100
AcDbEntity
  8
241
  6
HIDDEN2
100
AcDbLine
 10
297.4
 20
0.0
 30
0.0
 11
297.4
 21
24.6
 31
0.0
  0
LINE
  5
CAF
330
762
100
AcDbEntity
  8
241
100
AcDbLine
 10
291.29998639
 20
40.0
 30
0.0
 11
291.29998639
 21
0.0
 31
0.0
  0
LINE
  5
CB0
330
762
100
AcDbEntity
  8
241
100
AcDbLine
 10
300.8
 20
0.0
 30
0.0
 11
300.8
 21
-27.336
 31
0.0
  0
LINE
  5
CB1
330
762
100
AcDbEntity
  8
240
  6
CONTINUOUS
100
AcDbLine
 10
302.4
 20
-26.336
 30
0.0
 11
302.4
 21
0.0
 31
0.0
1001
GRPNAME
1000
PASTMD27
  0
ARC
  5
CB2
330
762
100
AcDbEntity
  8
240
  6
CONTINUOUS
100
AcDbCircle
 10
301.4
 20
-26.336
 30
0.0
 40
1.0
100
AcDbArc
 50
270.0
 51
0.0
1001
GRPNAME
1000
PASTMD2A
  0
ARC
  5
CB3
330
762
100
AcDbEntity
  8
240
100
AcDbCircle
 10
295.8
 20
-31.62841324
 30
0.0
 40
5.0
100
AcDbArc
 50
300.0
 51
0.0
  0
LINE
  5
CB4
330
762
100
AcDbEntity
  8
240
  6
CONTINUOUS
100
AcDbLine
 10
300.8
 20
-27.336
 30
0.0
 11
301.4
 21
-27.336
 31
0.0
1001
GRPNAME
1000
PASTMD2A
  0
LINE
  5
CB5
330
762
100
AcDbEntity
  8
240
100
AcDbLine
 10
300.8
 20
-27.336
 30
0.0
 11
300.8
 21
-31.62841324
 31
0.0
  0
LINE
  5
CB6
330
762
100
AcDbEntity
  8
240
100
AcDbLine
 10
266.95
 20
40.0
 30
0.0
 11
291.29998639
 21
40.0
 31
0.0
1001
GRPNAME
1000
PASTMD11
  0
LINE
  5
CB7
330
762
100
AcDbEntity
  8
240
100
AcDbLine
 10
256.97157288
 20
43.0
 30
0.0
 11
241.8
 21
43.0
 31
0.0
  0
LINE
  5
CB8
330
762
100
AcDbEntity
  8
240
100
AcDbLine
 10
240.3
 20
42.5
 30
0.0
 11
239.8
 21
43.0
 31
0.0
  0
LINE
  5
CB9
330
762
100
AcDbEntity
  8
240
100
AcDbLine
 10
241.3
 20
42.5
 30
0.0
 11
241.8
 21
43.0
 31
0.0
  0
LINE
  5
CBA
330
762
100
AcDbEntity
  8
240
100
AcDbLine
 10
240.3
 20
42.5
 30
0.0
 11
241.3
 21
42.5
 31
0.0
  0
ARC
  5
CBB
330
762
100
AcDbEntity
  8
240
100
AcDbCircle
 10
256.97157288
 20
41.0
 30
0.0
 40
2.0
100
AcDbArc
 50
45.0
 51
90.0
  0
LINE
  5
CBC
330
762
100
AcDbEntity
  8
240
100
AcDbLine
 10
261.27842712
 20
40.35
 30
0.0
 11
266.6
 21
40.35
 31
0.0
  0
ARC
  5
CBD
330
762
100
AcDbEntity
  8
240
100
AcDbCircle
 10
261.27842712
 20
42.35
 30
0.0
 40
2.0
100
AcDbArc
 50
225.0
 51
270.0
  0
LINE
  5
CBE
330
762
100
AcDbEntity
  8
240
100
AcDbLine
 10
259.86421356
 20
40.93578644
 30
0.0
 11
258.38578644
 21
42.41421356
 31
0.0
  0
LINE
  5
CBF
330
762
100
AcDbEntity
  8
240
100
AcDbLine
 10
266.95
 20
40.0
 30
0.0
 11
266.6
 21
40.35
 31
0.0
  0
LINE
  5
CC0
330
762
100
AcDbEntity
  8
240
100
AcDbLine
 10
300.8
 20
27.336
 30
0.0
 11
300.8
 21
31.62841324
 31
0.0
  0
LINE
  5
CC1
330
762
100
AcDbEntity
  8
241
  6
HIDDEN2
100
AcDbLine
 10
297.4
 20
23.0
 30
0.0
 11
282.4
 21
23.0
 31
0.0
1001
GRPNAME
1000
PASTMDAI
  0
LINE
  5
CC2
330
762
100
AcDbEntity
  8
241
  6
HIDDEN2
100
AcDbLine
 10
297.4
 20
18.0
 30
0.0
 11
282.4
 21
18.0
 31
0.0
1001
GRPNAME
1000
PASTMDAI
  0
LINE
  5
CC3
330
762
100
AcDbEntity
  8
241
  6
HIDDEN2
100
AcDbLine
 10
298.6
 20
22.30717968
 30
0.0
 11
298.6
 21
16.25
 31
0.0
  0
LINE
  5
CC4
330
762
100
AcDbEntity
  8
241
  6
HIDDEN2
100
AcDbLine
 10
298.6
 20
16.25
 30
0.0
 11
302.4
 21
16.25
 31
0.0
  0
ARC
  5
CC5
330
762
100
AcDbEntity
  8
240
  6
CONTINUOUS
100
AcDbCircle
 10
301.4
 20
26.336
 30
0.0
 40
1.0
100
AcDbArc
 50
0.0
 51
90.0
1001
GRPNAME
1000
PASTMD2A
  0
LINE
  5
CC6
330
762
100
AcDbEntity
  8
241
  6
HIDDEN2
100
AcDbLine
 10
298.6
 20
22.30717968
 30
0.0
 11
297.4
 21
23.0
 31
0.0
  0
LINE
  5
CC7
330
762
100
AcDbEntity
  8
240
  6
CONTINUOUS
100
AcDbLine
 10
300.8
 20
27.336
 30
0.0
 11
301.4
 21
27.336
 31
0.0
1001
GRPNAME
1000
PASTMD2A
  0
LINE
  5
CC8
330
762
100
AcDbEntity
  8
240
100
AcDbLine
 10
298.3
 20
35.95854026
 30
0.0
 11
291.29998639
 21
40.0
 31
0.0
  0
ARC
  5
CC9
330
762
100
AcDbEntity
  8
240
100
AcDbCircle
 10
295.8
 20
31.62841324
 30
0.0
 40
5.0
100
AcDbArc
 50
0.0
 51
60.0
  0
ENDBLK
  5
83F
330
762
100
AcDbEntity
  8
0
100
AcDbBlockEnd
  0
BLOCK
  5
859
330
858
100
AcDbEntity
  8
0
100
AcDbBlockBegin
  2
_NONE
 70
     0
 10
0.0
 20
0.0
 30
0.0
  3
_NONE
  1

  0
ENDBLK
  5
85A
330
858
100
AcDbEntity
  8
0
100
AcDbBlockEnd
  0
BLOCK
  5
8A0
330
896
100
AcDbEntity
  8
0
100
AcDbBlockBegin
  2
*D20
 70
     1
 10
0.0
 20
0.0
 30
0.0
  3
*D20
  1

  0
LINE
  5
C0E
330
896
100
AcDbEntity
  8
250
  6
CONTINUOUS
100
AcDbLine
 10
195.0
 20
16.5
 30
0.0
 11
195.0
 21
57.0
 31
0.0
  0
LINE
  5
C0F
330
896
100
AcDbEntity
  8
250
  6
CONTINUOUS
100
AcDbLine
 10
302.4
 20
26.836
 30
0.0
 11
302.4
 21
57.0
 31
0.0
  0
LINE
  5
C10
330
896
100
AcDbEntity
  8
250
  6
CONTINUOUS
100
AcDbLine
 10
197.23
 20
56.0
 30
0.0
 11
300.17
 21
56.0
 31
0.0
  0
INSERT
  5
C11
330
896
100
AcDbEntity
  8
250
  6
CONTINUOUS
100
AcDbBlockReference
  2
_OPEN
 10
195.0
 20
56.0
 30
0.0
 41
2.23
 42
2.23
 43
2.23
 50
180.0
  0
INSERT
  5
C12
330
896
100
AcDbEntity
  8
250
  6
CONTINUOUS
100
AcDbBlockReference
  2
_OPEN
 10
302.4
 20
56.0
 30
0.0
 41
2.23
 42
2.23
 43
2.23
  0
MTEXT
  5
C13
330
896
100
AcDbEntity
  8
250
  6
CONTINUOUS
 62
    40
100
AcDbMText
 10
248.7
 20
58.4
 30
0.0
 40
2.8
 41
0.0
 71
     5
 72
     1
  1
\A1;（max.107.4）
1001
ACAD
1000
MTEXTBEGIN
1070
    73
1070
     1
1070
    44
1040
1.0
1070
    74
1070
     0
1000
MTEXTEND
  0
POINT
  5
C14
330
896
100
AcDbEntity
  8
DEFPOINTS
  6
CONTINUOUS
 62
     0
100
AcDbPoint
 10
195.0
 20
16.0
 30
0.0
  0
POINT
  5
C15
330
896
100
AcDbEntity
  8
DEFPOINTS
  6
CONTINUOUS
 62
     0
100
AcDbPoint
 10
302.4
 20
26.336
 30
0.0
  0
POINT
  5
C16
330
896
100
AcDbEntity
  8
DEFPOINTS
  6
CONTINUOUS
 62
     0
100
AcDbPoint
 10
302.4
 20
56.0
 30
0.0
  0
ENDBLK
  5
8A1
330
896
100
AcDbEntity
  8
0
100
AcDbBlockEnd
  0
BLOCK
  5
8AC
330
8A2
100
AcDbEntity
  8
0
100
AcDbBlockBegin
  2
*D21
 70
     1
 10
0.0
 20
0.0
 30
0.0
  3
*D21
  1

  0
LINE
  5
BEC
330
8A2
100
AcDbEntity
  8
250
  6
CONTINUOUS
100
AcDbLine
 10
0.0
 20
35.425
 30
0.0
 11
0.0
 21
64.0
 31
0.0
  0
LINE
  5
BED
330
8A2
100
AcDbEntity
  8
250
  6
CONTINUOUS
100
AcDbLine
 10
302.4
 20
26.836
 30
0.0
 11
302.4
 21
64.0
 31
0.0
  0
LINE
  5
BEE
330
8A2
100
AcDbEntity
  8
250
  6
CONTINUOUS
100
AcDbLine
 10
2.23
 20
63.0
 30
0.0
 11
300.17
 21
63.0
 31
0.0
  0
INSERT
  5
BEF
330
8A2
100
AcDbEntity
  8
250
  6
CONTINUOUS
100
AcDbBlockReference
  2
_OPEN
 10
0.0
 20
63.0
 30
0.0
 41
2.23
 42
2.23
 43
2.23
 50
180.0
  0
INSERT
  5
BF0
330
8A2
100
AcDbEntity
  8
250
  6
CONTINUOUS
100
AcDbBlockReference
  2
_OPEN
 10
302.4
 20
63.0
 30
0.0
 41
2.23
 42
2.23
 43
2.23
  0
MTEXT
  5
BF1
330
8A2
100
AcDbEntity
  8
250
  6
CONTINUOUS
 62
    40
100
AcDbMText
 10
156.92519628
 20
65.4
 30
0.0
 40
2.8
 41
0.0
 71
     5
 72
     1
  1
\A1;302.4
1001
ACAD
1000
MTEXTBEGIN
1070
    73
1070
     1
1070
    44
1040
1.0
1070
    74
1070
     0
1000
MTEXTEND
  0
POINT
  5
BF2
330
8A2
100
AcDbEntity
  8
DEFPOINTS
  6
CONTINUOUS
 62
     0
100
AcDbPoint
 10
0.0
 20
34.925
 30
0.0
  0
POINT
  5
BF3
330
8A2
100
AcDbEntity
  8
DEFPOINTS
  6
CONTINUOUS
 62
     0
100
AcDbPoint
 10
302.4
 20
26.336
 30
0.0
  0
POINT
  5
BF4
330
8A2
100
AcDbEntity
  8
DEFPOINTS
  6
CONTINUOUS
 62
     0
100
AcDbPoint
 10
302.4
 20
63.0
 30
0.0
  0
ENDBLK
  5
8AD
330
8A2
100
AcDbEntity
  8
0
100
AcDbBlockEnd
  0
BLOCK
  5
AD1
330
AC9
100
AcDbEntity
  8
0
100
AcDbBlockBegin
  2
*D30
 70
     1
 10
0.0
 20
0.0
 30
0.0
  3
*D30
  1

  0
LINE
  5
D20
330
AC9
100
AcDbEntity
  8
250
  6
CONTINUOUS
 62
     3
100
AcDbLine
 10
297.9
 20
16.0
 30
0.0
 11
312.4
 21
16.0
 31
0.0
  0
LINE
  5
D21
330
AC9
100
AcDbEntity
  8
250
  6
CONTINUOUS
 62
     3
100
AcDbLine
 10
311.4
 20
-16.0
 30
0.0
 11
311.4
 21
14.0
 31
0.0
  0
INSERT
  5
D22
330
AC9
100
AcDbEntity
  8
250
  6
CONTINUOUS
 62
     3
100
AcDbBlockReference
  2
_OPEN
 10
311.4
 20
16.0
 30
0.0
 41
2.0
 42
2.0
 43
2.0
 50
90.0
  0
MTEXT
  5
D23
330
AC9
100
AcDbEntity
  8
250
  6
CONTINUOUS
 62
    40
100
AcDbMText
 10
308.9
 20
0.0
 30
0.0
 40
3.0
 41
0.0
 71
     5
 72
     1
  1
\A1;{\H3;%%C}32
 11
0.0
 21
1.0
 31
0.0
  0
POINT
  5
D24
330
AC9
100
AcDbEntity
  8
DEFPOINTS
  6
CONTINUOUS
 62
     0
100
AcDbPoint
 10
297.4
 20
-16.0
 30
0.0
  0
POINT
  5
D25
330
AC9
100
AcDbEntity
  8
DEFPOINTS
  6
CONTINUOUS
 62
     0
100
AcDbPoint
 10
297.4
 20
16.0
 30
0.0
  0
POINT
  5
D26
330
AC9
100
AcDbEntity
  8
DEFPOINTS
  6
CONTINUOUS
 62
     0
100
AcDbPoint
 10
311.4
 20
16.0
 30
0.0
  0
ENDBLK
  5
AD2
330
AC9
100
AcDbEntity
  8
0
100
AcDbBlockEnd
  0
BLOCK
  5
ADD
330
AD3
100
AcDbEntity
  8
0
100
AcDbBlockBegin
  2
*D31
 70
     1
 10
0.0
 20
0.0
 30
0.0
  3
*D31
  1

  0
LINE
  5
BFC
330
AD3
100
AcDbEntity
  8
250
  6
CONTINUOUS
 62
     3
100
AcDbLine
 10
291.79998639
 20
-40.0
 30
0.0
 11
319.4
 21
-40.0
 31
0.0
  0
LINE
  5
BFD
330
AD3
100
AcDbEntity
  8
250
  6
CONTINUOUS
 62
     3
100
AcDbLine
 10
291.79998639
 20
40.0
 30
0.0
 11
319.4
 21
40.0
 31
0.0
  0
LINE
  5
BFE
330
AD3
100
AcDbEntity
  8
250
  6
CONTINUOUS
 62
     3
100
AcDbLine
 10
318.4
 20
-38.0
 30
0.0
 11
318.4
 21
38.0
 31
0.0
  0
INSERT
  5
BFF
330
AD3
100
AcDbEntity
  8
250
  6
CONTINUOUS
 62
     3
100
AcDbBlockReference
  2
_OPEN
 10
318.4
 20
-40.0
 30
0.0
 41
2.0
 42
2.0
 43
2.0
 50
270.0
  0
INSERT
  5
C00
330
AD3
100
AcDbEntity
  8
250
  6
CONTINUOUS
 62
     3
100
AcDbBlockReference
  2
_OPEN
 10
318.4
 20
40.0
 30
0.0
 41
2.0
 42
2.0
 43
2.0
 50
90.0
  0
MTEXT
  5
C01
330
AD3
100
AcDbEntity
  8
250
  6
CONTINUOUS
 62
    40
100
AcDbMText
 10
315.9
 20
0.0
 30
0.0
 40
3.0
 41
0.0
 71
     5
 72
     1
  1
\A1;{\H3;%%C}80
 11
0.0
 21
1.0
 31
0.0
1001
ACAD
1000
MTEXTBEGIN
1070
    73
1070
     1
1070
    44
1040
1.0
1070
    74
1070
     0
1000
MTEXTEND
  0
POINT
  5
C02
330
AD3
100
AcDbEntity
  8
DEFPOINTS
  6
CONTINUOUS
 62
     0
100
AcDbPoint
 10
291.29998639
 20
-40.0
 30
0.0
  0
POINT
  5
C03
330
AD3
100
AcDbEntity
  8
DEFPOINTS
  6
CONTINUOUS
 62
     0
100
AcDbPoint
 10
291.29998639
 20
40.0
 30
0.0
  0
POINT
  5
C04
330
AD3
100
AcDbEntity
  8
DEFPOINTS
  6
CONTINUOUS
 62
     0
100
AcDbPoint
 10
318.4
 20
40.0
 30
0.0
  0
ENDBLK
  5
ADE
330
AD3
100
AcDbEntity
  8
0
100
AcDbBlockEnd
  0
BLOCK
  5
AE9
330
ADF
100
AcDbEntity
  8
0
100
AcDbBlockBegin
  2
*D32
 70
     1
 10
0.0
 20
0.0
 30
0.0
  3
*D32
  1

  0
LINE
  5
C05
330
ADF
100
AcDbEntity
  8
250
  6
CONTINUOUS
 62
     3
100
AcDbLine
 10
257.47157288
 20
-43.0
 30
0.0
 11
326.4
 21
-43.0
 31
0.0
  0
LINE
  5
C06
330
ADF
100
AcDbEntity
  8
250
  6
CONTINUOUS
 62
     3
100
AcDbLine
 10
257.47157288
 20
43.0
 30
0.0
 11
326.4
 21
43.0
 31
0.0
  0
LINE
  5
C07
330
ADF
100
AcDbEntity
  8
250
  6
CONTINUOUS
 62
     3
100
AcDbLine
 10
325.4
 20
-41.0
 30
0.0
 11
325.4
 21
41.0
 31
0.0
  0
INSERT
  5
C08
330
ADF
100
AcDbEntity
  8
250
  6
CONTINUOUS
 62
     3
100
AcDbBlockReference
  2
_OPEN
 10
325.4
 20
-43.0
 30
0.0
 41
2.0
 42
2.0
 43
2.0
 50
270.0
  0
INSERT
  5
C09
330
ADF
100
AcDbEntity
  8
250
  6
CONTINUOUS
 62
     3
100
AcDbBlockReference
  2
_OPEN
 10
325.4
 20
43.0
 30
0.0
 41
2.0
 42
2.0
 43
2.0
 50
90.0
  0
MTEXT
  5
C0A
330
ADF
100
AcDbEntity
  8
250
  6
CONTINUOUS
 62
    40
100
AcDbMText
 10
322.9
 20
0.0
 30
0.0
 40
3.0
 41
0.0
 71
     5
 72
     1
  1
\A1;{\H3;%%C}86
 11
0.0
 21
1.0
 31
0.0
1001
ACAD
1000
MTEXTBEGIN
1070
    73
1070
     1
1070
    44
1040
1.0
1070
    74
1070
     0
1000
MTEXTEND
  0
POINT
  5
C0B
330
ADF
100
AcDbEntity
  8
DEFPOINTS
  6
CONTINUOUS
 62
     0
100
AcDbPoint
 10
256.97157288
 20
-43.0
 30
0.0
  0
POINT
  5
C0C
330
ADF
100
AcDbEntity
  8
DEFPOINTS
  6
CONTINUOUS
 62
     0
100
AcDbPoint
 10
256.97157288
 20
43.0
 30
0.0
  0
POINT
  5
C0D
330
ADF
100
AcDbEntity
  8
DEFPOINTS
  6
CONTINUOUS
 62
     0
100
AcDbPoint
 10
325.4
 20
43.0
 30
0.0
  0
ENDBLK
  5
AEA
330
ADF
100
AcDbEntity
  8
0
100
AcDbBlockEnd
  0
ENDSEC
  0
SECTION
  2
ENTITIES
  0
INSERT
  5
6E6
330
1A
100
AcDbEntity
  8
245
100
AcDbBlockReference
  2
矢印なし
 10
175.62382697
 20
90.55123572
 30
0.0
  0
DIMENSION
  5
88D
330
1A
100
AcDbEntity
  8
250
  6
CONTINUOUS
100
AcDbDimension
  2
*D20
 10
302.4
 20
56.0
 30
0.0
 11
248.7
 21
58.4
 31
0.0
 70
    32
  1
（max.<>）
  3
BIGT
100
AcDbAlignedDimension
 13
195.0
 23
16.0
 33
0.0
 14
302.4
 24
26.336
 34
0.0
100
AcDbRotatedDimension
  0
DIMENSION
  5
88E
330
1A
100
AcDbEntity
  8
250
  6
CONTINUOUS
100
AcDbDimension
  2
*D21
 10
302.4
 20
63.0
 30
0.0
 11
156.92519628
 21
63.0
 31
0.0
 70
   160
  3
BIGT
100
AcDbAlignedDimension
 13
0.0
 23
34.925
 33
0.0
 14
302.4
 24
26.336
 34
0.0
100
AcDbRotatedDimension
  0
TEXT
  5
892
330
1A
100
AcDbEntity
  8
241
100
AcDbText
 10
-101.8
 20
77.0
 30
0.0
 40
5.0
  1
BBT50-MEGA32DS-300
  7
YOKO
 11
-101.8
 21
77.0
 31
0.0
100
AcDbText
 73
     1
  0
LINE
  5
A0E
330
1A
100
AcDbEntity
  8
250
  6
CONTINUOUS
100
AcDbLine
 10
-53.78156985
 20
-37.79107178
 30
0.0
 11
-71.51490318
 21
-37.79107178
 31
0.0
1001
ITEMNAME
1000
LNSP2
  0
MTEXT
  5
A0F
330
1A
100
AcDbEntity
  8
251
  6
CONTINUOUS
100
AcDbMText
 10
-68.71490318
 20
-36.79107178
 30
0.0
 40
2.8
 41
0.0
 71
     7
 72
     1
  1
BBT50
  7
YOKO
1001
ITEMNAME
1000
LNSP3
1001
ACAD
1000
MTEXTBEGIN
1070
    73
1070
     1
1070
    44
1040
1.0
1070
    74
1070
     0
1000
MTEXTEND
1000
MTEXTBEGIN
1070
    73
1070
     1
1070
    44
1040
1.0
1070
    74
1070
     0
1000
MTEXTEND
  0
LEADER
  5
A10
330
1A
100
AcDbEntity
  8
250
  6
CONTINUOUS
100
AcDbLeader
  3
BIGT
 76
     2
 10
-48.07875936
 20
-27.91351426
 30
0.0
 10
-53.78156985
 20
-37.79107178
 30
0.0
1001
ACAD
1000
DSTYLE
1002
{
1070
     6
1000
OPEN
1070
    41
1040
2.0
1070
   343
1005
594
1002
}
  0
DIMENSION
  5
AA1
330
1A
100
AcDbEntity
  8
250
  6
CONTINUOUS
100
AcDbDimension
  2
*D30
 10
311.4
 20
16.0
 30
0.0
 11
311.4
 21
0.0
 31
0.0
 70
   160
  1
{\H3;%%C}<>
  3
BIGT$0
100
AcDbAlignedDimension
 13
297.4
 23
-16.0
 33
0.0
 14
297.4
 24
16.0
 34
0.0
 50
90.0
100
AcDbRotatedDimension
1001
ACAD
1000
DSTYLE
1002
{
1070
     5
1000

1070
   173
1070
     1
1070
     7
1000
OPEN
1070
    41
1040
2.0
1070
    75
1070
     1
1070
     6
1000
NONE
1002
}
  0
DIMENSION
  5
AA2
330
1A
100
AcDbEntity
  8
250
  6
CONTINUOUS
100
AcDbDimension
  2
*D31
 10
318.4
 20
40.0
 30
0.0
 11
318.4
 21
0.0
 31
0.0
 70
   160
  1
{\H3;%%C}<>
  3
BIGT$0
100
AcDbAlignedDimension
 13
291.29998639
 23
-40.0
 33
0.0
 14
291.29998639
 24
40.0
 34
0.0
 50
90.0
100
AcDbRotatedDimension
1001
ACAD
1000
DSTYLE
1002
{
1070
    41
1040
2.0
1002
}
  0
DIMENSION
  5
AA6
330
1A
100
AcDbEntity
  8
250
  6
CONTINUOUS
100
AcDbDimension
  2
*D32
 10
325.4
 20
43.0
 30
0.0
 11
325.4
 21
0.0
 31
0.0
 70
   160
  1
{\H3;%%C}<>
  3
BIGT$0
100
AcDbAlignedDimension
 13
256.97157288
 23
-43.0
 33
0.0
 14
256.97157288
 24
43.0
 34
0.0
 50
90.0
100
AcDbRotatedDimension
1001
ACAD
1000
DSTYLE
1002
{
1070
    41
1040
2.0
1002
}
  0
INSERT
  5
CCA
330
1A
100
AcDbEntity
  8
245
100
AcDbBlockReference
  2
1
 10
0.0
 20
0.0
 30
0.0
  0
VIEWPORT
  5
22
330
17
100
AcDbEntity
 67
     1
  8
0
100
AcDbViewport
 10
261.51769912
 20
148.5
 30
0.0
 40
523.03539823
 41
297.0
 68
     1
 69
     1
1001
ACAD
1000
MVIEW
1002
{
1070
    16
1010
0.0
1020
0.0
1030
0.0
1010
0.0
1020
0.0
1030
1.0
1040
0.0
1040
297.0
1040
261.51769912
1040
148.5
1040
50.0
1040
0.0
1040
0.0
1070
     0
1070
   100
1070
     1
1070
     1
1070
     0
1070
     0
1070
     0
1070
     0
1040
0.0
1040
0.0
1040
0.0
1040
1.0
1040
1.0
1040
10.0
1040
10.0
1070
     0
1002
{
1002
}
1002
}
  0
ENDSEC
  0
SECTION
  2
OBJECTS
  0
DICTIONARY
  5
C
330
0
100
AcDbDictionary
  3
ACAD_GROUP
350
D
  3
ACAD_LAYOUT
350
565
  3
ACAD_MLINESTYLE
350
E
  3
ACAD_PLOTSETTINGS
350
566
  3
ACAD_PLOTSTYLENAME
350
563
  3
ACDBHEADERROUNDTRIPXREC
350
CFA
  3
GRADE_DWG
350
540
  0
DICTIONARY
  5
D1D
330
1A
100
AcDbDictionary
280
     1
  3
ACAD_LAYOUTSELFREF
360
D1E
  0
DICTIONARY
  5
D1B
330
17
100
AcDbDictionary
280
     1
  3
ACAD_LAYOUTSELFREF
360
D1C
  0
DICTIONARY
  5
D
102
{ACAD_REACTORS
330
C
102
}
330
C
100
AcDbDictionary
  3
*A1
350
6C7
  3
*A2
350
6C8
  3
*A3
350
6D4
  3
*A4
350
6D5
  3
DREC-1
350
5FC
  3
DREC-2
350
654
  3
DREC-3
350
673
  0
DICTIONARY
  5
565
102
{ACAD_REACTORS
330
C
102
}
330
C
100
AcDbDictionary
  0
DICTIONARY
  5
E
102
{ACAD_REACTORS
330
C
102
}
330
C
100
AcDbDictionary
  3
STANDARD
350
13
  0
DICTIONARY
  5
566
102
{ACAD_REACTORS
330
C
102
}
330
C
100
AcDbDictionary
  3
A3_0_5倍_
350
758
  3
A3_1倍_
350
757
  3
A3_1倍__2000_
350
707
  3
A3_2倍_
350
759
  3
A4_0_5倍_
350
755
  3
A4_1倍_
350
754
  3
A4_1倍__2000_
350
708
  3
A4_2倍_
350
756
  0
ACDBDICTIONARYWDFLT
  5
563
102
{ACAD_REACTORS
330
C
102
}
330
C
100
AcDbDictionary
281
     1
  3
Normal
350
564
100
AcDbDictionaryWithDefault
340
564
  0
DICTIONARY
  5
CFA
102
{ACAD_REACTORS
330
C
102
}
330
C
100
AcDbDictionary
  3
CEPSNTYPE
350
D04
  3
DIMSTYLEDATA
350
D08
  3
FINGERPRINTGUID
350
D05
  3
HYPERLINKBASE
350
CFD
  3
INSUNITS
350
D03
  3
LAYOUTDICT
350
CFF
  3
LWETCUNION
350
D02
  3
PLOTSETDICT
350
D00
  3
PLOTSTYLNAMDICT
350
D01
  3
PSVPSCALE
350
D07
  3
PUCSBASE
350
D0B
  3
PUCSORGBACK
350
D11
  3
PUCSORGBOTTOM
350
D0D
  3
PUCSORGFRONT
350
D10
  3
PUCSORGLEFT
350
D0E
  3
PUCSORGRIGHT
350
D0F
  3
PUCSORGTOP
350
D0C
  3
PUCSORTHOREF
350
D09
  3
PUCSORTHOVIEW
350
D0A
  3
STYLESHEET
350
CFE
  3
TSTACKALIGN
350
CFB
  3
TSTACKSIZE
350
CFC
  3
UCSBASE
350
D14
  3
UCSORGBACK
350
D1A
  3
UCSORGBOTTOM
350
D16
  3
UCSORGFRONT
350
D19
  3
UCSORGLEFT
350
D17
  3
UCSORGRIGHT
350
D18
  3
UCSORGTOP
350
D15
  3
UCSORTHOREF
350
D12
  3
UCSORTHOVIEW
350
D13
  3
VERSIONGUID
350
D06
  0
DICTIONARY
  5
540
102
{ACAD_REACTORS
330
C
102
}
330
C
100
AcDbDictionary
  3
VERSION
350
560
  0
XRECORD
  5
D1E
102
{ACAD_REACTORS
330
D1D
102
}
330
D1D
100
AcDbXrecord
340
1A
  0
XRECORD
  5
D1C
102
{ACAD_REACTORS
330
D1B
102
}
330
D1B
100
AcDbXrecord
340
17
  0
GROUP
  5
6C7
102
{ACAD_REACTORS
330
D
102
}
330
D
100
AcDbGroup
300

 70
     0
 71
     1
1001
GRPNAME
1000
DMA00
  0
GROUP
  5
6C8
102
{ACAD_REACTORS
330
D
102
}
330
D
100
AcDbGroup
300

 70
     0
 71
     1
1001
GRPNAME
1000
DMA00
  0
GROUP
  5
6D4
102
{ACAD_REACTORS
330
D
102
}
330
D
100
AcDbGroup
300

 70
     0
 71
     1
1001
GRPNAME
1000
DMA00
  0
GROUP
  5
6D5
102
{ACAD_REACTORS
330
D
102
}
330
D
100
AcDbGroup
300

 70
     0
 71
     1
1001
GRPNAME
1000
DMA00
  0
GROUP
  5
5FC
102
{ACAD_REACTORS
330
D
102
}
330
D
100
AcDbGroup
300

 70
     0
 71
     1
1001
GRPNAME
1000
DREC-
1001
GPARA
1000
xsiz
1000
44.182
1000
ysiz
1000
40.677
1000
angl
1000
0
1000
ctyp
1000
0
1000
csiz
1000
5
1000
lfnt
1000
cont
1000
hcnt
1000
hoff
1000
vcnt
1000
voff
1000
opnt
1000
4
1000
dxpt
1000
0
1000
dypt
1000
0
  0
GROUP
  5
654
102
{ACAD_REACTORS
330
D
102
}
330
D
100
AcDbGroup
300

 70
     0
 71
     1
1001
GRPNAME
1000
DREC-
1001
GPARA
1000
xsiz
1000
54.592
1000
ysiz
1000
53.036
1000
angl
1000
0
1000
ctyp
1000
0
1000
csiz
1000
5
1000
lfnt
1000
cont
1000
hcnt
1000
hoff
1000
vcnt
1000
voff
1000
opnt
1000
4
1000
dxpt
1000
0
1000
dypt
1000
0
  0
GROUP
  5
673
102
{ACAD_REACTORS
330
D
102
}
330
D
100
AcDbGroup
300

 70
     0
 71
     1
1001
GRPNAME
1000
DREC-
1001
GPARA
1000
xsiz
1000
30.363
1000
ysiz
1000
36.175
1000
angl
1000
0
1000
ctyp
1000
0
1000
csiz
1000
5
1000
lfnt
1000
cont
1000
hcnt
1000
hoff
1000
vcnt
1000
voff
1000
opnt
1000
4
1000
dxpt
1000
0
1000
dypt
1000
0
  0
MLINESTYLE
  5
13
102
{ACAD_REACTORS
330
E
102
}
330
E
100
AcDbMlineStyle
  2
STANDARD
 70
     0
  3

 62
     0
 51
90.0
 52
90.0
 71
     2
 49
0.5
 62
   256
  6
BYLAYER
 49
-0.5
 62
   256
  6
BYLAYER
  0
PLOTSETTINGS
  5
758
102
{ACAD_REACTORS
330
566
102
}
330
566
100
AcDbPlotSettings
  1
A3(0.5倍)
  2
\\AWTECPC05\HP DeskJet 1120C
  4
A3
  6

 40
5.95841646
 41
13.49375153
 42
6.04309082
 43
3.67242432
 44
296.92599487
 45
419.94665527
 46
89.96
 47
127.14
 48
0.0
 49
0.0
140
0.0
141
0.0
142
1.0
143
2.0
 70
  1716
 72
     1
 73
     1
 74
     2
  7
big.ctb
 75
    17
147
0.5
148
0.0
149
0.0
  0
PLOTSETTINGS
  5
757
102
{ACAD_REACTORS
330
566
102
}
330
566
100
AcDbPlotSettings
  1
A3(1倍)
  2
\\AWTECPC05\HP DeskJet 1120C
  4
A3
  6

 40
5.95841646
 41
13.49375153
 42
6.04309082
 43
3.67242432
 44
296.92599487
 45
419.94665527
 46
37.46
 47
52.89
 48
0.0
 49
0.0
140
0.0
141
0.0
142
1.0
143
1.0
 70
  1716
 72
     1
 73
     1
 74
     2
  7
big.ctb
 75
    16
147
1.0
148
0.0
149
0.0
  0
PLOTSETTINGS
  5
707
102
{ACAD_REACTORS
330
566
102
}
330
566
100
AcDbPlotSettings
  1
A3(1倍)(2000)
  2
SII LS-1300 (D-SCAN)
  4
User258
  6

 40
3.17499995
 41
3.17499995
 42
3.17498779
 43
3.17498779
 44
419.98898315
 45
296.98950195
 46
58.32
 47
40.32
 48
0.0
 49
0.0
140
0.0
141
0.0
142
1.0
143
1.0
 70
  1716
 72
     1
 73
     0
 74
     2
  7
big.ctb
 75
    16
147
1.0
148
0.0
149
0.0
  0
PLOTSETTINGS
  5
759
102
{ACAD_REACTORS
330
566
102
}
330
566
100
AcDbPlotSettings
  1
A3(2倍)
  2
\\AWTECPC05\HP DeskJet 1120C
  4
A3
  6

 40
5.95841646
 41
13.49375153
 42
6.04309082
 43
3.67242432
 44
296.92599487
 45
419.94665527
 46
-67.54
 47
-95.61
 48
0.0
 49
0.0
140
0.0
141
0.0
142
1.0
143
0.5
 70
  1716
 72
     1
 73
     1
 74
     2
  7
big.ctb
 75
    27
147
2.0
148
0.0
149
0.0
  0
PLOTSETTINGS
  5
755
102
{ACAD_REACTORS
330
566
102
}
330
566
100
AcDbPlotSettings
  1
A4(0.5倍)
  2
\\AWTECPC05\HP DeskJet 1120C
  4
A4
  6

 40
4.18041658
 41
13.49374962
 42
4.18040466
 43
3.92642212
 44
209.97332764
 45
296.92599487
 46
48.31
 47
65.5
 48
0.0
 49
0.0
140
0.0
141
0.0
142
1.0
143
2.0
 70
  1716
 72
     1
 73
     1
 74
     2
  7
big.ctb
 75
    17
147
0.5
148
0.0
149
0.0
  0
PLOTSETTINGS
  5
754
102
{ACAD_REACTORS
330
566
102
}
330
566
100
AcDbPlotSettings
  1
A4(1倍)
  2
\\AWTECPC05\HP DeskJet 1120C
  4
A4
  6

 40
4.18041658
 41
13.49374962
 42
4.18040466
 43
3.92642212
 44
209.97332764
 45
296.92599487
 46
-4.19
 47
-8.75
 48
0.0
 49
0.0
140
0.0
141
0.0
142
1.0
143
1.0
 70
  1716
 72
     1
 73
     1
 74
     2
  7
big.ctb
 75
    16
147
1.0
148
0.0
149
0.0
  0
PLOTSETTINGS
  5
708
102
{ACAD_REACTORS
330
566
102
}
330
566
100
AcDbPlotSettings
  1
A4(1倍)(2000)
  2
SII LS-1300 (D-SCAN)
  4
User259
  6

 40
3.17499995
 41
3.17499995
 42
3.17498779
 43
3.17500305
 44
296.98950195
 45
209.99449158
 46
-3.18
 47
-3.18
 48
0.0
 49
0.0
140
0.0
141
0.0
142
1.0
143
1.0
 70
  1716
 72
     1
 73
     0
 74
     2
  7
big.ctb
 75
    16
147
1.0
148
0.0
149
0.0
  0
PLOTSETTINGS
  5
756
102
{ACAD_REACTORS
330
566
102
}
330
566
100
AcDbPlotSettings
  1
A4(2倍)
  2
\\AWTECPC05\HP DeskJet 1120C
  4
A4
  6

 40
4.18041658
 41
13.49374962
 42
4.18040466
 43
3.92642212
 44
209.97332764
 45
296.92599487
 46
-109.19
 47
-157.25
 48
0.0
 49
0.0
140
0.0
141
0.0
142
1.0
143
0.5
 70
  1716
 72
     1
 73
     1
 74
     2
  7
big.ctb
 75
    27
147
2.0
148
0.0
149
0.0
  0
ACDBPLACEHOLDER
  5
564
102
{ACAD_REACTORS
330
563
102
}
330
563
100
AcDbPlaceHolder
280
     0
  0
XRECORD
  5
D04
102
{ACAD_REACTORS
330
CFA
102
}
330
CFA
100
AcDbXrecord
 90
        0
  0
XRECORD
  5
D08
102
{ACAD_REACTORS
330
CFA
102
}
330
CFA
100
AcDbXrecord
1000
DSTYLE
1002
{
1070
    79
 70
     2
1070
   179
 70
     3
1070
   289
 70
     2
1070
   341
340
594
1070
   343
340
594
1070
   344
340
594
1070
   371
 70
    -1
1070
   372
 70
    -1
1002
}
  0
XRECORD
  5
D05
102
{ACAD_REACTORS
330
CFA
102
}
330
CFA
100
AcDbXrecord
  1
{51294030-9CB4-11D3-8E18-00A0C925D94D}
  0
XRECORD
  5
CFD
102
{ACAD_REACTORS
330
CFA
102
}
330
CFA
100
AcDbXrecord
  1

  0
XRECORD
  5
D03
102
{ACAD_REACTORS
330
CFA
102
}
330
CFA
100
AcDbXrecord
 90
        0
  0
XRECORD
  5
CFF
102
{ACAD_REACTORS
330
CFA
102
}
330
CFA
100
AcDbXrecord
340
565
  0
XRECORD
  5
D02
102
{ACAD_REACTORS
330
CFA
102
}
330
CFA
100
AcDbXrecord
 90
    10781
  0
XRECORD
  5
D00
102
{ACAD_REACTORS
330
CFA
102
}
330
CFA
100
AcDbXrecord
340
566
  0
XRECORD
  5
D01
102
{ACAD_REACTORS
330
CFA
102
}
330
CFA
100
AcDbXrecord
340
563
  0
XRECORD
  5
D07
102
{ACAD_REACTORS
330
CFA
102
}
330
CFA
100
AcDbXrecord
 40
0.0
  0
XRECORD
  5
D0B
102
{ACAD_REACTORS
330
CFA
102
}
330
CFA
100
AcDbXrecord
340
0
  0
XRECORD
  5
D11
102
{ACAD_REACTORS
330
CFA
102
}
330
CFA
100
AcDbXrecord
 10
0.0
 20
0.0
 30
0.0
  0
XRECORD
  5
D0D
102
{ACAD_REACTORS
330
CFA
102
}
330
CFA
100
AcDbXrecord
 10
0.0
 20
0.0
 30
0.0
  0
XRECORD
  5
D10
102
{ACAD_REACTORS
330
CFA
102
}
330
CFA
100
AcDbXrecord
 10
0.0
 20
0.0
 30
0.0
  0
XRECORD
  5
D0E
102
{ACAD_REACTORS
330
CFA
102
}
330
CFA
100
AcDbXrecord
 10
0.0
 20
0.0
 30
0.0
  0
XRECORD
  5
D0F
102
{ACAD_REACTORS
330
CFA
102
}
330
CFA
100
AcDbXrecord
 10
0.0
 20
0.0
 30
0.0
  0
XRECORD
  5
D0C
102
{ACAD_REACTORS
330
CFA
102
}
330
CFA
100
AcDbXrecord
 10
0.0
 20
0.0
 30
0.0
  0
XRECORD
  5
D09
102
{ACAD_REACTORS
330
CFA
102
}
330
CFA
100
AcDbXrecord
340
0
  0
XRECORD
  5
D0A
102
{ACAD_REACTORS
330
CFA
102
}
330
CFA
100
AcDbXrecord
 70
     0
  0
XRECORD
  5
CFE
102
{ACAD_REACTORS
330
CFA
102
}
330
CFA
100
AcDbXrecord
  1
big.ctb
  0
XRECORD
  5
CFB
102
{ACAD_REACTORS
330
CFA
102
}
330
CFA
100
AcDbXrecord
 90
        1
  0
XRECORD
  5
CFC
102
{ACAD_REACTORS
330
CFA
102
}
330
CFA
100
AcDbXrecord
 90
       70
  0
XRECORD
  5
D14
102
{ACAD_REACTORS
330
CFA
102
}
330
CFA
100
AcDbXrecord
340
0
  0
XRECORD
  5
D1A
102
{ACAD_REACTORS
330
CFA
102
}
330
CFA
100
AcDbXrecord
 10
0.0
 20
0.0
 30
0.0
  0
XRECORD
  5
D16
102
{ACAD_REACTORS
330
CFA
102
}
330
CFA
100
AcDbXrecord
 10
0.0
 20
0.0
 30
0.0
  0
XRECORD
  5
D19
102
{ACAD_REACTORS
330
CFA
102
}
330
CFA
100
AcDbXrecord
 10
0.0
 20
0.0
 30
0.0
  0
XRECORD
  5
D17
102
{ACAD_REACTORS
330
CFA
102
}
330
CFA
100
AcDbXrecord
 10
0.0
 20
0.0
 30
0.0
  0
XRECORD
  5
D18
102
{ACAD_REACTORS
330
CFA
102
}
330
CFA
100
AcDbXrecord
 10
0.0
 20
0.0
 30
0.0
  0
XRECORD
  5
D15
102
{ACAD_REACTORS
330
CFA
102
}
330
CFA
100
AcDbXrecord
 10
0.0
 20
0.0
 30
0.0
  0
XRECORD
  5
D12
102
{ACAD_REACTORS
330
CFA
102
}
330
CFA
100
AcDbXrecord
340
0
  0
XRECORD
  5
D13
102
{ACAD_REACTORS
330
CFA
102
}
330
CFA
100
AcDbXrecord
 70
     0
  0
XRECORD
  5
D06
102
{ACAD_REACTORS
330
CFA
102
}
330
CFA
100
AcDbXrecord
  1
{B9B8E416-7B95-43F9-BEAF-EB5A59088314}
  0
XRECORD
  5
560
102
{ACAD_REACTORS
330
540
102
}
330
540
100
AcDbXrecord
  1
2.0.0
  0
ENDSEC
  0
EOF
