  0
SECTION
  2
HEADER
  9
$ACADVER
  1
AC1014
  9
$ACADMAINTVER
 70
     9
  9
$DWGCODEPAGE
  3
ANSI_932
  9
$INSBASE
 10
0.0
 20
0.0
 30
0.0
  9
$EXTMIN
 10
-102.81595337
 20
-50.27983582
 30
-0.00152582
  9
$EXTMAX
 10
190.62884006
 20
82.00740372
 30
0.00000003
  9
$LIMMIN
 10
0.0
 20
0.0
  9
$LIMMAX
 10
420.0
 20
297.0
  9
$ORTHOMODE
 70
     0
  9
$REGENMODE
 70
     1
  9
$FILLMODE
 70
     1
  9
$QTEXTMODE
 70
     0
  9
$MIRRTEXT
 70
     1
  9
$DRAGMODE
 70
     2
  9
$LTSCALE
 40
10.0
  9
$OSMODE
 70
   549
  9
$ATTMODE
 70
     1
  9
$TEXTSIZE
 40
3.0
  9
$TRACEWID
 40
1.0
  9
$TEXTSTYLE
  7
YOKO
  9
$CLAYER
  8
245
  9
$CELTYPE
  6
BYLAYER
  9
$CECOLOR
 62
   256
  9
$CELTSCALE
 40
1.0
  9
$DELOBJ
 70
     1
  9
$DISPSILH
 70
     0
  9
$DIMSCALE
 40
1.0
  9
$DIMASZ
 40
2.23
  9
$DIMEXO
 40
0.5
  9
$DIMDLI
 40
2.5
  9
$DIMRND
 40
0.0
  9
$DIMDLE
 40
0.0
  9
$DIMEXE
 40
1.0
  9
$DIMTP
 40
0.0
  9
$DIMTM
 40
0.0
  9
$DIMTXT
 40
2.8
  9
$DIMCEN
 40
0.0
  9
$DIMTSZ
 40
0.0
  9
$DIMTOL
 70
     0
  9
$DIMLIM
 70
     0
  9
$DIMTIH
 70
     0
  9
$DIMTOH
 70
     0
  9
$DIMSE1
 70
     0
  9
$DIMSE2
 70
     0
  9
$DIMTAD
 70
     3
  9
$DIMZIN
 70
     8
  9
$DIMBLK
  1

  9
$DIMASO
 70
     1
  9
$DIMSHO
 70
     1
  9
$DIMPOST
  1

  9
$DIMAPOST
  1

  9
$DIMALT
 70
     0
  9
$DIMALTD
 70
     2
  9
$DIMALTF
 40
25.4
  9
$DIMLFAC
 40
1.0
  9
$DIMTOFL
 70
     1
  9
$DIMTVP
 40
0.0
  9
$DIMTIX
 70
     1
  9
$DIMSOXD
 70
     0
  9
$DIMSAH
 70
     1
  9
$DIMBLK1
  1
OPEN
  9
$DIMBLK2
  1
OPEN
  9
$DIMSTYLE
  2
BIGT
  9
$DIMCLRD
 70
   256
  9
$DIMCLRE
 70
   256
  9
$DIMCLRT
 70
    40
  9
$DIMTFAC
 40
1.0
  9
$DIMGAP
 40
1.0
  9
$DIMJUST
 70
     0
  9
$DIMSD1
 70
     0
  9
$DIMSD2
 70
     0
  9
$DIMTOLJ
 70
     1
  9
$DIMTZIN
 70
     8
  9
$DIMALTZ
 70
     0
  9
$DIMALTTZ
 70
     0
  9
$DIMFIT
 70
     3
  9
$DIMUPT
 70
     0
  9
$DIMUNIT
 70
     2
  9
$DIMDEC
 70
     3
  9
$DIMTDEC
 70
     3
  9
$DIMALTU
 70
     2
  9
$DIMALTTD
 70
     2
  9
$DIMTXSTY
  7
STANDARD
  9
$DIMAUNIT
 70
     0
  9
$LUNITS
 70
     2
  9
$LUPREC
 70
     3
  9
$SKETCHINC
 40
1.0
  9
$FILLETRAD
 40
5.0
  9
$AUNITS
 70
     0
  9
$AUPREC
 70
     3
  9
$MENU
  1
.
  9
$ELEVATION
 40
0.0
  9
$PELEVATION
 40
0.0
  9
$THICKNESS
 40
0.0
  9
$LIMCHECK
 70
     0
  9
$BLIPMODE
 70
     0
  9
$CHAMFERA
 40
10.0
  9
$CHAMFERB
 40
10.0
  9
$CHAMFERC
 40
0.0
  9
$CHAMFERD
 40
0.0
  9
$SKPOLY
 70
     0
  9
$TDCREATE
 40
2455229.429466319
  9
$TDUPDATE
 40
2455237.636149803
  9
$TDINDWG
 40
0.0234779861
  9
$TDUSRTIMER
 40
0.0234779861
  9
$USRTIMER
 70
     1
  9
$ANGBASE
 50
0.0
  9
$ANGDIR
 70
     0
  9
$PDMODE
 70
     1
  9
$PDSIZE
 40
-5.0
  9
$PLINEWID
 40
0.0
  9
$COORDS
 70
     0
  9
$SPLFRAME
 70
     0
  9
$SPLINETYPE
 70
     6
  9
$SPLINESEGS
 70
     8
  9
$ATTDIA
 70
     0
  9
$ATTREQ
 70
     1
  9
$HANDLING
 70
-16383
  9
$HANDSEED
  5
145A
  9
$SURFTAB1
 70
     6
  9
$SURFTAB2
 70
     6
  9
$SURFTYPE
 70
     6
  9
$SURFU
 70
     6
  9
$SURFV
 70
     6
  9
$UCSNAME
  2

  9
$UCSORG
 10
0.0
 20
0.0
 30
0.0
  9
$UCSXDIR
 10
1.0
 20
0.0
 30
0.0
  9
$UCSYDIR
 10
0.0
 20
1.0
 30
0.0
  9
$PUCSNAME
  2

  9
$PUCSORG
 10
0.0
 20
0.0
 30
0.0
  9
$PUCSXDIR
 10
1.0
 20
0.0
 30
0.0
  9
$PUCSYDIR
 10
0.0
 20
1.0
 30
0.0
  9
$USERI1
 70
     1
  9
$USERI2
 70
     0
  9
$USERI3
 70
     0
  9
$USERI4
 70
     0
  9
$USERI5
 70
     0
  9
$USERR1
 40
0.0
  9
$USERR2
 40
0.0
  9
$USERR3
 40
0.0
  9
$USERR4
 40
0.0
  9
$USERR5
 40
0.0
  9
$WORLDVIEW
 70
     1
  9
$SHADEDGE
 70
     3
  9
$SHADEDIF
 70
    70
  9
$TILEMODE
 70
     1
  9
$MAXACTVP
 70
    16
  9
$PINSBASE
 10
0.0
 20
0.0
 30
0.0
  9
$PLIMCHECK
 70
     0
  9
$PEXTMIN
 10
1.00000000E+20
 20
1.00000000E+20
 30
1.00000000E+20
  9
$PEXTMAX
 10
-1.00000000E+20
 20
-1.00000000E+20
 30
-1.00000000E+20
  9
$PLIMMIN
 10
0.0
 20
0.0
  9
$PLIMMAX
 10
420.0
 20
297.0
  9
$UNITMODE
 70
     0
  9
$VISRETAIN
 70
     0
  9
$PLINEGEN
 70
     0
  9
$PSLTSCALE
 70
     1
  9
$TREEDEPTH
 70
  3020
  9
$PICKSTYLE
 70
     0
  9
$CMLSTYLE
  2
STANDARD
  9
$CMLJUST
 70
     0
  9
$CMLSCALE
 40
1.0
  9
$PROXYGRAPHICS
 70
     1
  9
$MEASUREMENT
 70
     1
  0
ENDSEC
  0
SECTION
  2
CLASSES
  0
CLASS
  1
XRECORD
  2
AcDbXrecord
  3
AutoCAD 2000
 90
        0
280
     0
281
     0
  0
CLASS
  1
ACDBDICTIONARYWDFLT
  2
AcDbDictionaryWithDefault
  3
AutoCAD 2000
 90
        0
280
     0
281
     0
  0
CLASS
  1
ACDBPLACEHOLDER
  2
AcDbPlaceHolder
  3
AutoCAD 2000
 90
        0
280
     0
281
     0
  0
CLASS
  1
LAYOUT
  2
AcDbLayout
  3
AutoCAD 2000
 90
        0
280
     0
281
     0
  0
CLASS
  1
PLOTSETTINGS
  2
AcDbPlotSettings
  3
AutoCAD 2000
 90
        0
280
     0
281
     0
  0
CLASS
  1
LONG_TRANSACTION
  2
AcDbLongTransaction
  3
AutoCAD 2000
 90
        0
280
     0
281
     0
  0
CLASS
  1
LWPOLYLINE
  2
AcDbPolyline
  3
AutoCAD 2000
 90
        0
280
     0
281
     1
  0
CLASS
  1
HATCH
  2
AcDbHatch
  3
AutoCAD 2000
 90
        0
280
     0
281
     1
  0
CLASS
  1
XRECORD
  2
AcDbXrecord
  3
AutoCAD 2000
 90
        0
280
     0
281
     0
  0
CLASS
  1
LONG_TRANSACTION
  2
AcDbLongTransaction
  3
AutoCAD 2000
 90
        0
280
     0
281
     0
  0
CLASS
  1
LWPOLYLINE
  2
AcDbPolyline
  3
AutoCAD 2000
 90
        0
280
     0
281
     1
  0
CLASS
  1
HATCH
  2
AcDbHatch
  3
AutoCAD 2000
 90
        0
280
     0
281
     1
  0
CLASS
  1
XRECORD
  2
AcDbXrecord
  3
AutoCAD 2000
 90
        0
280
     0
281
     0
  0
CLASS
  1
LONG_TRANSACTION
  2
AcDbLongTransaction
  3
AutoCAD 2000
 90
        0
280
     0
281
     0
  0
CLASS
  1
LWPOLYLINE
  2
AcDbPolyline
  3
AutoCAD 2000
 90
        0
280
     0
281
     1
  0
CLASS
  1
HATCH
  2
AcDbHatch
  3
AutoCAD 2000
 90
        0
280
     0
281
     1
  0
CLASS
  1
XRECORD
  2
AcDbXrecord
  3
AutoCAD 2000
 90
        0
280
     0
281
     0
  0
CLASS
  1
LONG_TRANSACTION
  2
AcDbLongTransaction
  3
AutoCAD 2000
 90
        0
280
     0
281
     0
  0
CLASS
  1
LWPOLYLINE
  2
AcDbPolyline
  3
AutoCAD 2000
 90
        0
280
     0
281
     1
  0
CLASS
  1
HATCH
  2
AcDbHatch
  3
AutoCAD 2000
 90
        0
280
     0
281
     1
  0
CLASS
  1
XRECORD
  2
AcDbXrecord
  3
AutoCAD 2000
 90
        0
280
     0
281
     0
  0
CLASS
  1
LONG_TRANSACTION
  2
AcDbLongTransaction
  3
AutoCAD 2000
 90
        0
280
     0
281
     0
  0
CLASS
  1
LWPOLYLINE
  2
AcDbPolyline
  3
AutoCAD 2000
 90
        0
280
     0
281
     1
  0
CLASS
  1
HATCH
  2
AcDbHatch
  3
AutoCAD 2000
 90
        0
280
     0
281
     1
  0
CLASS
  1
XRECORD
  2
AcDbXrecord
  3
AutoCAD 2000
 90
        0
280
     0
281
     0
  0
ENDSEC
  0
SECTION
  2
TABLES
  0
TABLE
  2
VPORT
  5
8
330
0
100
AcDbSymbolTable
 70
     2
  0
VPORT
  5
1435
330
8
100
AcDbSymbolTableRecord
100
AcDbViewportTableRecord
  2
*ACTIVE
 70
     0
 10
0.0
 20
0.0
 11
1.0
 21
1.0
 12
43.90644334
 22
15.86378395
 13
0.0
 23
0.0
 14
7.0
 24
7.0
 15
7.0
 25
7.0
 16
0.0
 26
0.0
 36
1.0
 17
0.0
 27
0.0
 37
0.0
 40
206.03402755
 41
1.43184713
 42
50.0
 43
0.0
 44
0.0
 50
0.0
 51
0.0
 71
     0
 72
  2000
 73
     1
 74
     0
 75
     0
 76
     0
 77
     0
 78
     0
  0
ENDTAB
  0
TABLE
  2
LTYPE
  5
5
330
0
100
AcDbSymbolTable
 70
     3
  0
LTYPE
  5
14
330
5
100
AcDbSymbolTableRecord
100
AcDbLinetypeTableRecord
  2
BYBLOCK
 70
     0
  3

 72
    65
 73
     0
 40
0.0
  0
LTYPE
  5
15
330
5
100
AcDbSymbolTableRecord
100
AcDbLinetypeTableRecord
  2
BYLAYER
 70
     0
  3

 72
    65
 73
     0
 40
0.0
  0
LTYPE
  5
16
330
5
100
AcDbSymbolTableRecord
100
AcDbLinetypeTableRecord
  2
CONTINUOUS
 70
     0
  3
Solid line
 72
    65
 73
     0
 40
0.0
  0
LTYPE
  5
258
330
5
100
AcDbSymbolTableRecord
100
AcDbLinetypeTableRecord
  2
CENTER2
 70
     0
  3
___ _ ___ _ ___ _ ___ _ ___ _ ___ _ ___ _ ___ _
 72
    65
 73
     4
 40
1.125
 49
0.75
 74
     0
 49
-0.125
 74
     0
 49
0.125
 74
     0
 49
-0.125
 74
     0
  0
LTYPE
  5
25C
330
5
100
AcDbSymbolTableRecord
100
AcDbLinetypeTableRecord
  2
HIDDEN2
 70
     0
  3
_ _ _ _ _ _ _ _ _ _ _ _ _ _ _ _ _ _ _ _ _ _ _ _
 72
    65
 73
     2
 40
0.1875
 49
0.125
 74
     0
 49
-0.0625
 74
     0
  0
ENDTAB
  0
TABLE
  2
LAYER
  5
2
330
0
100
AcDbSymbolTable
 70
     8
  0
LAYER
  5
F
330
2
100
AcDbSymbolTableRecord
100
AcDbLayerTableRecord
  2
0
 70
     0
 62
     7
  6
CONTINUOUS
  0
LAYER
  5
1AA
330
2
100
AcDbSymbolTableRecord
100
AcDbLayerTableRecord
  2
240
 70
     0
 62
     4
  6
CONTINUOUS
  0
LAYER
  5
1AB
330
2
100
AcDbSymbolTableRecord
100
AcDbLayerTableRecord
  2
241
 70
     0
 62
   211
  6
CONTINUOUS
  0
LAYER
  5
1AF
330
2
100
AcDbSymbolTableRecord
100
AcDbLayerTableRecord
  2
245
 70
     0
 62
     2
  6
CENTER2
  0
LAYER
  5
21E
330
2
100
AcDbSymbolTableRecord
100
AcDbLayerTableRecord
  2
250
 70
     0
 62
     3
  6
CONTINUOUS
  0
LAYER
  5
21F
330
2
100
AcDbSymbolTableRecord
100
AcDbLayerTableRecord
  2
251
 70
     0
 62
    40
  6
CONTINUOUS
  0
LAYER
  5
5C4
330
2
100
AcDbSymbolTableRecord
100
AcDbLayerTableRecord
  2
DEFPOINTS
 70
     0
 62
     7
  6
CONTINUOUS
  0
ENDTAB
  0
TABLE
  2
STYLE
  5
3
330
0
100
AcDbSymbolTable
 70
     2
  0
STYLE
  5
10
330
3
100
AcDbSymbolTableRecord
100
AcDbTextStyleTableRecord
  2
STANDARD
 70
     0
 40
0.0
 41
1.0
 50
0.0
 71
     0
 42
3.0
  3
romans.shx
  4
BIGFONT.SHX
  0
STYLE
  5
339
330
3
100
AcDbSymbolTableRecord
100
AcDbTextStyleTableRecord
  2
YOKO
 70
     0
 40
0.0
 41
1.0
 50
0.0
 71
     0
 42
3.0
  3
romans.shx
  4
extfont.shx
  0
ENDTAB
  0
TABLE
  2
VIEW
  5
6
330
0
100
AcDbSymbolTable
 70
     2
  0
VIEW
  5
DF8
330
6
100
AcDbSymbolTableRecord
100
AcDbViewTableRecord
  2
OLE1
 70
     0
 40
289.61750099
 10
90.8238906
 20
6.3174613
 41
414.68798868
 11
0.0
 21
0.0
 31
1.0
 12
0.0
 22
0.0
 32
0.0
 42
50.0
 43
0.0
 44
0.0
 50
0.0
 71
     0
  0
VIEW
  5
12B0
330
6
100
AcDbSymbolTableRecord
100
AcDbViewTableRecord
  2
OLE2
 70
     0
 40
206.03402755
 10
43.90644334
 20
15.86378395
 41
295.0092318
 11
0.0
 21
0.0
 31
1.0
 12
0.0
 22
0.0
 32
0.0
 42
50.0
 43
0.0
 44
0.0
 50
0.0
 71
     0
  0
ENDTAB
  0
TABLE
  2
UCS
  5
7
330
0
100
AcDbSymbolTable
 70
     0
  0
ENDTAB
  0
TABLE
  2
APPID
  5
9
330
0
100
AcDbSymbolTable
 70
     9
  0
APPID
  5
11
330
9
100
AcDbSymbolTableRecord
100
AcDbRegAppTableRecord
  2
ACAD
 70
     0
  0
APPID
  5
1B1
330
9
100
AcDbSymbolTableRecord
100
AcDbRegAppTableRecord
  2
GLOBAL
 70
     0
  0
APPID
  5
2A4
330
9
100
AcDbSymbolTableRecord
100
AcDbRegAppTableRecord
  2
DETAIL
 70
     0
  0
APPID
  5
5FD
330
9
100
AcDbSymbolTableRecord
100
AcDbRegAppTableRecord
  2
GRPNAME
 70
     0
  0
APPID
  5
5FE
330
9
100
AcDbSymbolTableRecord
100
AcDbRegAppTableRecord
  2
GPARA
 70
     0
  0
APPID
  5
6C4
330
9
100
AcDbSymbolTableRecord
100
AcDbRegAppTableRecord
  2
DCO15
 70
     0
  0
APPID
  5
6C5
330
9
100
AcDbSymbolTableRecord
100
AcDbRegAppTableRecord
  2
ITEMNAME
 70
     0
  0
APPID
  5
6C6
330
9
100
AcDbSymbolTableRecord
100
AcDbRegAppTableRecord
  2
GRADE_0
 70
     0
  0
APPID
  5
C93
330
9
100
AcDbSymbolTableRecord
100
AcDbRegAppTableRecord
  2
CONTENTBLOCKICON
 70
     0
  0
ENDTAB
  0
TABLE
  2
DIMSTYLE
  5
A
330
0
100
AcDbSymbolTable
 70
     5
  0
DIMSTYLE
105
725
102
{ACAD_REACTORS
330
AA5
102
}
330
A
100
AcDbSymbolTableRecord
100
AcDbDimStyleTableRecord
  2
BIGT
 70
     0
  3

  4

  5

  6
OPEN
  7
OPEN
 40
1.0
 41
2.23
 42
0.5
 43
2.5
 44
1.0
 45
0.0
 46
0.0
 47
0.0
 48
0.0
140
2.8
141
0.0
142
0.0
143
25.4
144
1.0
145
0.0
146
1.0
147
1.0
 71
     0
 72
     0
 73
     0
 74
     0
 75
     0
 76
     0
 77
     3
 78
     8
170
     0
171
     2
172
     1
173
     1
174
     1
175
     0
176
   256
177
   256
178
    40
270
     2
271
     3
272
     3
273
     2
274
     2
340
10
275
     0
280
     0
281
     0
282
     0
283
     1
284
     8
285
     0
286
     0
287
     3
288
     0
  0
DIMSTYLE
105
856
102
{ACAD_REACTORS
330
866
330
867
330
A8C
330
1389
102
}
330
A
100
AcDbSymbolTableRecord
100
AcDbDimStyleTableRecord
  2
BIGT$0
 70
     0
  3

  4
"
  5
OPEN
  6

  7

 40
1.0
 41
2.23
 42
0.5
 43
7.0
 44
1.0
 45
0.0
 46
0.0
 47
0.1
 48
0.1
140
3.0
141
0.0
142
0.0
143
0.0393701
144
1.0
145
0.0
146
0.71
147
1.0
 71
     0
 72
     0
 73
     0
 74
     0
 75
     0
 76
     0
 77
     3
 78
     8
170
     0
171
     2
172
     1
173
     0
174
     0
175
     0
176
     3
177
     3
178
    40
270
     2
271
     3
272
     3
273
     2
274
     2
340
10
275
     0
280
     0
281
     0
282
     0
283
     1
284
     8
285
     0
286
     0
287
     3
288
     0
  0
ENDTAB
  0
TABLE
  2
BLOCK_RECORD
  5
1
330
0
100
AcDbSymbolTable
 70
    11
  0
BLOCK_RECORD
  5
1A
102
{ACAD_XDICTIONARY
360
C89
102
}
330
1
100
AcDbSymbolTableRecord
100
AcDbBlockTableRecord
  2
*MODEL_SPACE
  0
BLOCK_RECORD
  5
17
102
{ACAD_XDICTIONARY
360
C87
102
}
330
1
100
AcDbSymbolTableRecord
100
AcDbBlockTableRecord
  2
*PAPER_SPACE
  0
BLOCK_RECORD
  5
594
330
1
100
AcDbSymbolTableRecord
100
AcDbBlockTableRecord
  2
_OPEN
  0
BLOCK_RECORD
  5
6E3
330
1
100
AcDbSymbolTableRecord
100
AcDbBlockTableRecord
  2
矢印なし
  0
BLOCK_RECORD
  5
86F
330
1
100
AcDbSymbolTableRecord
100
AcDbBlockTableRecord
  2
*D2
  0
BLOCK_RECORD
  5
87B
330
1
100
AcDbSymbolTableRecord
100
AcDbBlockTableRecord
  2
*D3
  0
BLOCK_RECORD
  5
AAF
330
1
100
AcDbSymbolTableRecord
100
AcDbBlockTableRecord
  2
*D4
  0
BLOCK_RECORD
  5
AC7
330
1
100
AcDbSymbolTableRecord
100
AcDbBlockTableRecord
  2
*D6
  0
BLOCK_RECORD
  5
BC6
330
1
100
AcDbSymbolTableRecord
100
AcDbBlockTableRecord
  2
1
1001
CONTENTBLOCKICON
1071
        0
1004
2800000020000000200000000100080000000000000400000000000000000000000000000000000000000000000080000080000000808000800000008000800080800000C0C0C000C0DCC000F0CAA6000020400000206000002080000020A0000020C0000020E00000400000004020000040400000406000004080000040A0
1004
000040C0000040E00000600000006020000060400000606000006080000060A0000060C0000060E00000800000008020000080400000806000008080000080A0000080C0000080E00000A0000000A0200000A0400000A0600000A0800000A0A00000A0C00000A0E00000C0000000C0200000C0400000C0600000C0800000C0
1004
A00000C0C00000C0E00000E0000000E0200000E0400000E0600000E0800000E0A00000E0C00000E0E00040000000400020004000400040006000400080004000A0004000C0004000E00040200000402020004020400040206000402080004020A0004020C0004020E000404000004040200040404000404060004040800040
1004
40A0004040C0004040E00040600000406020004060400040606000406080004060A0004060C0004060E00040800000408020004080400040806000408080004080A0004080C0004080E00040A0000040A0200040A0400040A0600040A0800040A0A00040A0C00040A0E00040C0000040C0200040C0400040C0600040C08000
1004
40C0A00040C0C00040C0E00040E0000040E0200040E0400040E0600040E0800040E0A00040E0C00040E0E00080000000800020008000400080006000800080008000A0008000C0008000E00080200000802020008020400080206000802080008020A0008020C0008020E00080400000804020008040400080406000804080
1004
008040A0008040C0008040E00080600000806020008060400080606000806080008060A0008060C0008060E00080800000808020008080400080806000808080008080A0008080C0008080E00080A0000080A0200080A0400080A0600080A0800080A0A00080A0C00080A0E00080C0000080C0200080C0400080C0600080C0
1004
800080C0A00080C0C00080C0E00080E0000080E0200080E0400080E0600080E0800080E0A00080E0C00080E0E000C0000000C0002000C0004000C0006000C0008000C000A000C000C000C000E000C0200000C0202000C0204000C0206000C0208000C020A000C020C000C020E000C0400000C0402000C0404000C0406000C0
1004
408000C040A000C040C000C040E000C0600000C0602000C0604000C0606000C0608000C060A000C060C000C060E000C0800000C0802000C0804000C0806000C0808000C080A000C080C000C080E000C0A00000C0A02000C0A04000C0A06000C0A08000C0A0A000C0A0C000C0A0E000C0C00000C0C02000C0C04000C0C06000
1004
C0C08000C0C0A000F0FBFF00A4A0A000808080000000FF0000FF000000FFFF00FF000000FF00FF00FFFF0000FFFFFF0000000000000000000000000000000000000000000000000000000000000000000000000000000000000000000000000000000000000000000000000000000000000000000000000000000000000000
1004
00000000000000000000000000000000000000000000000000000000000000000000000000000000000000000000000000000000000000000000000000000000000000000000000000000000000000000000000000000000000000000000000000000000000000000000000000000000000000000000000000000000000000
1004
000000000000000000000000000000000000000000000000000000000000000000000000000000000000000000000000000000000000000000000000000000000000000000000000000000000000000000000000000000000000000000000000000000000000000000000000000000000000000000000000000000000000FE
1004
FEFEFEFE000000000000000000000000000000000000000000000000000000FE00FEFEFE0000000000000000000000000000000000000000000000FEFEFEFEFEE7E7E7E7FEFEFEFEFEFEFEFEFEFEFEFEFE00000000FEFEFEFEFEFE00000000E700E7E7E700E7E7E7E700E7E700E7E700FE00000000FE000000000000000000
1004
E700E7E7E700E7E7E7E700E7E700E7E700E700000000FE000000000000000000E700E7E7E700E7E7E7E700E7E700E7E700E7000000FBFEFBFBFBFBFBFBFBFBFBE7FBE7E7E7FBE7E7E7E7FBE7E7FBE7E7FBE7FB000000FE000000000000000000E700E7E7E700E7E7E7E7E7E7E7E7E7E7E7E700000000FEFEFEFEFE00000000
1004
00E700E7E7E700E7E7E7E700E7E700E7E700FE000000000000000000FEFEFEFEFEFEE7E7E7E7FEFEFEFEFEFEFEFEFEFEFEFEFE0000000000000000000000000000FE00FEFEFE000000000000000000000000000000000000000000000000000000FEFEFEFEFE00000000000000000000000000000000000000000000000000
1004
00000000000000000000000000000000000000000000000000000000000000000000000000000000000000000000000000000000000000000000000000000000000000000000000000000000000000000000000000000000000000000000000000000000000000000000000000000000000000000000000000000000000000
1004
00000000000000000000000000000000000000000000000000000000000000000000000000000000000000000000000000000000000000000000000000000000000000000000000000000000000000000000000000000000000000000000000000000000000000000000000000000000000000000000000000000000000000
1004
0000000000000000000000000000000000000000000000000000000000000000000000000000000000000000000000000000000000000000
  0
BLOCK_RECORD
  5
138C
330
1
100
AcDbSymbolTableRecord
100
AcDbBlockTableRecord
  2
*D10
  0
ENDTAB
  0
ENDSEC
  0
SECTION
  2
BLOCKS
  0
BLOCK
  5
1B
330
1A
100
AcDbEntity
  8
0
100
AcDbBlockBegin
  2
*MODEL_SPACE
 70
     0
 10
0.0
 20
0.0
 30
0.0
  3
*MODEL_SPACE
  1

  0
ENDBLK
  5
1C
330
1A
100
AcDbEntity
  8
0
100
AcDbBlockEnd
  0
BLOCK
  5
18
330
17
100
AcDbEntity
 67
     1
  8
0
100
AcDbBlockBegin
  2
*PAPER_SPACE
 70
     0
 10
0.0
 20
0.0
 30
0.0
  3
*PAPER_SPACE
  1

  0
ENDBLK
  5
19
330
17
100
AcDbEntity
 67
     1
  8
0
100
AcDbBlockEnd
  0
BLOCK
  5
598
330
594
100
AcDbEntity
  8
0
100
AcDbBlockBegin
  2
_OPEN
 70
     0
 10
0.0
 20
0.0
 30
0.0
  3
_OPEN
  1

  0
LINE
  5
595
330
594
100
AcDbEntity
  8
0
  6
BYBLOCK
 62
     0
100
AcDbLine
 10
-1.0
 20
0.16666667
 30
0.0
 11
0.0
 21
0.0
 31
0.0
  0
LINE
  5
596
330
594
100
AcDbEntity
  8
0
  6
BYBLOCK
 62
     0
100
AcDbLine
 10
-1.0
 20
-0.16666667
 30
0.0
 11
0.0
 21
0.0
 31
0.0
  0
LINE
  5
597
330
594
100
AcDbEntity
  8
0
  6
BYBLOCK
 62
     0
100
AcDbLine
 10
0.0
 20
0.0
 30
0.0
 11
-1.0
 21
0.0
 31
0.0
  0
ENDBLK
  5
599
330
594
100
AcDbEntity
  8
0
100
AcDbBlockEnd
  0
BLOCK
  5
6E4
330
6E3
100
AcDbEntity
  8
0
100
AcDbBlockBegin
  2
矢印なし
 70
     0
 10
0.0
 20
0.0
 30
0.0
  3
矢印なし
  1

  0
ENDBLK
  5
6E5
330
6E3
100
AcDbEntity
  8
0
100
AcDbBlockEnd
  0
BLOCK
  5
879
330
86F
100
AcDbEntity
  8
0
100
AcDbBlockBegin
  2
*D2
 70
     1
 10
0.0
 20
0.0
 30
0.0
  3
*D2
  1

  0
LINE
  5
F74
330
86F
100
AcDbEntity
  8
250
  6
CONTINUOUS
 62
     3
100
AcDbLine
 10
0.0
 20
35.425
 30
0.0
 11
0.0
 21
64.0
 31
0.0
  0
LINE
  5
F75
330
86F
100
AcDbEntity
  8
250
  6
CONTINUOUS
 62
     3
100
AcDbLine
 10
165.0
 20
17.2
 30
0.0
 11
165.0
 21
64.0
 31
0.0
  0
LINE
  5
F76
330
86F
100
AcDbEntity
  8
250
  6
CONTINUOUS
 62
     3
100
AcDbLine
 10
2.23
 20
63.0
 30
0.0
 11
162.77
 21
63.0
 31
0.0
  0
INSERT
  5
F77
330
86F
100
AcDbEntity
  8
250
  6
CONTINUOUS
 62
     3
100
AcDbBlockReference
  2
_OPEN
 10
0.0
 20
63.0
 30
0.0
 41
2.23
 42
2.23
 43
2.23
 50
180.0
  0
INSERT
  5
F78
330
86F
100
AcDbEntity
  8
250
  6
CONTINUOUS
 62
     3
100
AcDbBlockReference
  2
_OPEN
 10
165.0
 20
63.0
 30
0.0
 41
2.23
 42
2.23
 43
2.23
  0
MTEXT
  5
F79
330
86F
100
AcDbEntity
  8
250
  6
CONTINUOUS
 62
    40
100
AcDbMText
 10
82.5
 20
65.5
 30
0.0
 40
3.0
 41
0.0
 71
     5
 72
     1
  1
\A1;165
1001
ACAD
1000
MTEXTBEGIN
1070
    73
1070
     1
1070
    44
1040
1.0
1070
    74
1070
     0
1000
MTEXTEND
1000
MTEXTBEGIN
1070
    73
1070
     1
1070
    44
1040
1.0
1070
    74
1070
     0
1000
MTEXTEND
1000
MTEXTBEGIN
1070
    73
1070
     1
1070
    44
1040
1.0
1070
    74
1070
     0
1000
MTEXTEND
  0
POINT
  5
F7A
330
86F
100
AcDbEntity
  8
DEFPOINTS
  6
CONTINUOUS
 62
     0
100
AcDbPoint
 10
0.0
 20
34.925
 30
0.0
  0
POINT
  5
F7B
330
86F
100
AcDbEntity
  8
DEFPOINTS
  6
CONTINUOUS
 62
     0
100
AcDbPoint
 10
165.0
 20
16.7
 30
0.0
  0
POINT
  5
F7C
330
86F
100
AcDbEntity
  8
DEFPOINTS
  6
CONTINUOUS
 62
     0
100
AcDbPoint
 10
165.0
 20
63.0
 30
0.0
  0
ENDBLK
  5
87A
330
86F
100
AcDbEntity
  8
0
100
AcDbBlockEnd
  0
BLOCK
  5
885
330
87B
100
AcDbEntity
  8
0
100
AcDbBlockBegin
  2
*D3
 70
     1
 10
0.0
 20
0.0
 30
0.0
  3
*D3
  1

  0
LINE
  5
F6B
330
87B
100
AcDbEntity
  8
250
  6
CONTINUOUS
 62
     3
100
AcDbLine
 10
80.0
 20
10.5
 30
0.0
 11
80.0
 21
57.0
 31
0.0
  0
LINE
  5
F6C
330
87B
100
AcDbEntity
  8
250
  6
CONTINUOUS
 62
     3
100
AcDbLine
 10
165.0
 20
17.2
 30
0.0
 11
165.0
 21
57.0
 31
0.0
  0
LINE
  5
F6D
330
87B
100
AcDbEntity
  8
250
  6
CONTINUOUS
 62
     3
100
AcDbLine
 10
82.23
 20
56.0
 30
0.0
 11
162.77
 21
56.0
 31
0.0
  0
INSERT
  5
F6E
330
87B
100
AcDbEntity
  8
250
  6
CONTINUOUS
 62
     3
100
AcDbBlockReference
  2
_OPEN
 10
80.0
 20
56.0
 30
0.0
 41
2.23
 42
2.23
 43
2.23
 50
180.0
  0
INSERT
  5
F6F
330
87B
100
AcDbEntity
  8
250
  6
CONTINUOUS
 62
     3
100
AcDbBlockReference
  2
_OPEN
 10
165.0
 20
56.0
 30
0.0
 41
2.23
 42
2.23
 43
2.23
  0
MTEXT
  5
F70
330
87B
100
AcDbEntity
  8
250
  6
CONTINUOUS
 62
    40
100
AcDbMText
 10
122.5
 20
58.5
 30
0.0
 40
3.0
 41
0.0
 71
     5
 72
     1
  1
\A1;（max.85）
1001
ACAD
1000
MTEXTBEGIN
1070
    73
1070
     1
1070
    44
1040
1.0
1070
    74
1070
     0
1000
MTEXTEND
1000
MTEXTBEGIN
1070
    73
1070
     1
1070
    44
1040
1.0
1070
    74
1070
     0
1000
MTEXTEND
1000
MTEXTBEGIN
1070
    73
1070
     1
1070
    44
1040
1.0
1070
    74
1070
     0
1000
MTEXTEND
  0
POINT
  5
F71
330
87B
100
AcDbEntity
  8
DEFPOINTS
  6
CONTINUOUS
 62
     0
100
AcDbPoint
 10
80.0
 20
10.0
 30
0.0
  0
POINT
  5
F72
330
87B
100
AcDbEntity
  8
DEFPOINTS
  6
CONTINUOUS
 62
     0
100
AcDbPoint
 10
165.0
 20
16.7
 30
0.0
  0
POINT
  5
F73
330
87B
100
AcDbEntity
  8
DEFPOINTS
  6
CONTINUOUS
 62
     0
100
AcDbPoint
 10
165.0
 20
56.0
 30
0.0
  0
ENDBLK
  5
886
330
87B
100
AcDbEntity
  8
0
100
AcDbBlockEnd
  0
BLOCK
  5
AB9
330
AAF
100
AcDbEntity
  8
0
100
AcDbBlockBegin
  2
*D4
 70
     1
 10
0.0
 20
0.0
 30
0.0
  3
*D4
  1

  0
LINE
  5
F86
330
AAF
100
AcDbEntity
  8
250
  6
CONTINUOUS
 62
     3
100
AcDbLine
 10
136.44529946
 20
-34.5
 30
0.0
 11
190.6
 21
-34.5
 31
0.0
  0
LINE
  5
F87
330
AAF
100
AcDbEntity
  8
250
  6
CONTINUOUS
 62
     3
100
AcDbLine
 10
136.44529946
 20
34.5
 30
0.0
 11
190.6
 21
34.5
 31
0.0
  0
LINE
  5
F88
330
AAF
100
AcDbEntity
  8
250
  6
CONTINUOUS
 62
     3
100
AcDbLine
 10
189.6
 20
-32.27
 30
0.0
 11
189.6
 21
32.27
 31
0.0
  0
INSERT
  5
F89
330
AAF
100
AcDbEntity
  8
250
  6
CONTINUOUS
 62
     3
100
AcDbBlockReference
  2
_OPEN
 10
189.6
 20
-34.5
 30
0.0
 41
2.23
 42
2.23
 43
2.23
 50
270.0
  0
INSERT
  5
F8A
330
AAF
100
AcDbEntity
  8
250
  6
CONTINUOUS
 62
     3
100
AcDbBlockReference
  2
_OPEN
 10
189.6
 20
34.5
 30
0.0
 41
2.23
 42
2.23
 43
2.23
 50
90.0
  0
MTEXT
  5
F8B
330
AAF
100
AcDbEntity
  8
250
  6
CONTINUOUS
 62
    40
100
AcDbMText
 10
187.1
 20
0.0
 30
0.0
 40
3.0
 41
0.0
 71
     5
 72
     1
  1
\A1;{\H3;\U+2205}69
 11
0.0
 21
1.0
 31
0.0
1001
ACAD
1000
MTEXTBEGIN
1070
    73
1070
     1
1070
    44
1040
1.0
1070
    74
1070
     0
1000
MTEXTEND
1000
MTEXTBEGIN
1070
    73
1070
     1
1070
    44
1040
1.0
1070
    74
1070
     0
1000
MTEXTEND
1000
MTEXTBEGIN
1070
    73
1070
     1
1070
    44
1040
1.0
1070
    74
1070
     0
1000
MTEXTEND
  0
POINT
  5
F8C
330
AAF
100
AcDbEntity
  8
DEFPOINTS
  6
CONTINUOUS
 62
     0
100
AcDbPoint
 10
135.94529946
 20
-34.5
 30
0.0
  0
POINT
  5
F8D
330
AAF
100
AcDbEntity
  8
DEFPOINTS
  6
CONTINUOUS
 62
     0
100
AcDbPoint
 10
135.94529946
 20
34.5
 30
0.0
  0
POINT
  5
F8E
330
AAF
100
AcDbEntity
  8
DEFPOINTS
  6
CONTINUOUS
 62
     0
100
AcDbPoint
 10
189.6
 20
34.5
 30
0.0
  0
ENDBLK
  5
ABA
330
AAF
100
AcDbEntity
  8
0
100
AcDbBlockEnd
  0
BLOCK
  5
AD0
330
AC7
100
AcDbEntity
  8
0
100
AcDbBlockBegin
  2
*D6
 70
     1
 10
0.0
 20
0.0
 30
0.0
  3
*D6
  1

  0
LINE
  5
F8F
330
AC7
100
AcDbEntity
  8
250
  6
CONTINUOUS
100
AcDbLine
 10
165.5
 20
10.0
 30
0.0
 11
176.6
 21
10.0
 31
0.0
  0
LINE
  5
F90
330
AC7
100
AcDbEntity
  8
250
  6
CONTINUOUS
100
AcDbLine
 10
175.6
 20
-7.77
 30
0.0
 11
175.6
 21
7.77
 31
0.0
  0
INSERT
  5
F91
330
AC7
100
AcDbEntity
  8
250
  6
CONTINUOUS
100
AcDbBlockReference
  2
矢印なし
 10
175.6
 20
-10.0
 30
0.0
 41
2.23
 42
2.23
 43
2.23
 50
270.0
  0
INSERT
  5
F92
330
AC7
100
AcDbEntity
  8
250
  6
CONTINUOUS
100
AcDbBlockReference
  2
_OPEN
 10
175.6
 20
10.0
 30
0.0
 41
2.23
 42
2.23
 43
2.23
 50
90.0
  0
MTEXT
  5
F93
330
AC7
100
AcDbEntity
  8
250
  6
CONTINUOUS
 62
    40
100
AcDbMText
 10
173.2
 20
0.0
 30
0.0
 40
2.8
 41
0.0
 71
     5
 72
     1
  1
\A1;{\H2.8;\U+2205}20
 11
0.0
 21
1.0
 31
0.0
1001
ACAD
1000
MTEXTBEGIN
1070
    73
1070
     1
1070
    44
1040
1.0
1070
    74
1070
     0
1000
MTEXTEND
1000
MTEXTBEGIN
1070
    73
1070
     1
1070
    44
1040
1.0
1070
    74
1070
     0
1000
MTEXTEND
1000
MTEXTBEGIN
1070
    73
1070
     1
1070
    44
1040
1.0
1070
    74
1070
     0
1000
MTEXTEND
  0
POINT
  5
F94
330
AC7
100
AcDbEntity
  8
DEFPOINTS
  6
CONTINUOUS
 62
     0
100
AcDbPoint
 10
165.0
 20
-10.0
 30
0.0
  0
POINT
  5
F95
330
AC7
100
AcDbEntity
  8
DEFPOINTS
  6
CONTINUOUS
 62
     0
100
AcDbPoint
 10
165.0
 20
10.0
 30
0.0
  0
POINT
  5
F96
330
AC7
100
AcDbEntity
  8
DEFPOINTS
  6
CONTINUOUS
 62
     0
100
AcDbPoint
 10
175.6
 20
10.0
 30
0.0
  0
ENDBLK
  5
AD1
330
AC7
100
AcDbEntity
  8
0
100
AcDbBlockEnd
  0
BLOCK
  5
BC7
330
BC6
100
AcDbEntity
  8
0
100
AcDbBlockBegin
  2
1
 70
     0
 10
0.0
 20
0.0
 30
0.0
  3
1
  1

  0
LINE
  5
13A5
330
BC6
100
AcDbEntity
  8
240
100
AcDbLine
 10
145.79600362
 20
30.0
 30
0.0
 11
159.88937929
 21
30.0
 31
0.0
  0
LINE
  5
13A6
330
BC6
100
AcDbEntity
  8
240
100
AcDbLine
 10
145.79600362
 20
-30.0
 30
0.0
 11
159.88937929
 21
-30.0
 31
0.0
  0
LINE
  5
13A7
330
BC6
100
AcDbEntity
  8
245
  6
CENTER2
100
AcDbLine
 10
166.6
 20
0.0
 30
0.0
 11
-102.8
 21
0.0
 31
0.0
  0
LINE
  5
13A8
330
BC6
100
AcDbEntity
  8
241
  6
HIDDEN2
100
AcDbLine
 10
96.71243557
 20
10.0
 30
0.0
 11
165.0
 21
10.0
 31
0.0
1001
GRPNAME
1000
PASTMD40
  0
LINE
  5
13A9
330
BC6
100
AcDbEntity
  8
240
  6
CONTINUOUS
100
AcDbLine
 10
0.0
 20
34.925
 30
0.0
 11
-100.43089103
 21
20.27882839
 31
0.0
  0
LINE
  5
13AA
330
BC6
100
AcDbEntity
  8
240
  6
CONTINUOUS
100
AcDbLine
 10
0.0
 20
-34.925
 30
0.0
 11
-100.43089103
 21
-20.27882839
 31
0.0
  0
LINE
  5
13AB
330
BC6
100
AcDbEntity
  8
240
  6
CONTINUOUS
100
AcDbLine
 10
-101.8
 20
18.69557562
 30
0.0
 11
-101.8
 21
0.0
 31
0.0
  0
LINE
  5
13AC
330
BC6
100
AcDbEntity
  8
240
  6
CONTINUOUS
100
AcDbLine
 10
-101.8
 20
-18.69557562
 30
0.0
 11
-101.8
 21
0.0
 31
0.0
  0
ARC
  5
13AD
330
BC6
100
AcDbEntity
  8
240
  6
CONTINUOUS
100
AcDbCircle
 10
-100.2
 20
-18.69557562
 30
0.0
 40
1.6
100
AcDbArc
 50
180.0
 51
261.70285503
  0
ARC
  5
13AE
330
BC6
100
AcDbEntity
  8
240
  6
CONTINUOUS
100
AcDbCircle
 10
-100.2
 20
18.69557562
 30
0.0
 40
1.6
100
AcDbArc
 50
98.29714497
 51
180.0
  0
LINE
  5
13AF
330
BC6
100
AcDbEntity
  8
241
  6
CONTINUOUS
100
AcDbLine
 10
38.0
 20
0.0
 30
0.0
 11
38.0
 21
41.8646705
 31
0.0
  0
LINE
  5
13B0
330
BC6
100
AcDbEntity
  8
241
100
AcDbLine
 10
111.6
 20
0.0
 30
0.0
 11
111.6
 21
34.98024149
 31
0.0
  0
LINE
  5
13B1
330
BC6
100
AcDbEntity
  8
241
100
AcDbLine
 10
114.6
 20
0.0
 30
0.0
 11
114.6
 21
34.89791438
 31
0.0
  0
LINE
  5
13B2
330
BC6
100
AcDbEntity
  8
241
100
AcDbLine
 10
106.6
 20
0.0
 30
0.0
 11
106.6
 21
35.11745335
 31
0.0
  0
LINE
  5
13B3
330
BC6
100
AcDbEntity
  8
241
100
AcDbLine
 10
109.6
 20
0.0
 30
0.0
 11
109.6
 21
35.03512623
 31
0.0
  0
LINE
  5
13B4
330
BC6
100
AcDbEntity
  8
241
100
AcDbLine
 10
101.6
 20
0.0
 30
0.0
 11
101.6
 21
35.2546652
 31
0.0
  0
LINE
  5
13B5
330
BC6
100
AcDbEntity
  8
241
100
AcDbLine
 10
104.6
 20
0.0
 30
0.0
 11
104.6
 21
35.17233809
 31
0.0
  0
LINE
  5
13B6
330
BC6
100
AcDbEntity
  8
241
100
AcDbLine
 10
86.0
 20
35.68276619
 30
0.0
 11
86.0
 21
0.0
 31
0.0
  0
LINE
  5
13B7
330
BC6
100
AcDbEntity
  8
241
100
AcDbLine
 10
58.0
 20
36.45115258
 30
0.0
 11
58.0
 21
0.0
 31
0.0
  0
LINE
  5
13B8
330
BC6
100
AcDbEntity
  8
241
100
AcDbLine
 10
68.0
 20
36.17672887
 30
0.0
 11
68.0
 21
0.0
 31
0.0
  0
LINE
  5
13B9
330
BC6
100
AcDbEntity
  8
241
100
AcDbLine
 10
76.0
 20
35.9571899
 30
0.0
 11
76.0
 21
0.0
 31
0.0
  0
LINE
  5
13BA
330
BC6
100
AcDbEntity
  8
241
  6
CONTINUOUS
100
AcDbLine
 10
129.1
 20
0.0
 30
0.0
 11
129.1
 21
34.5
 31
0.0
  0
LINE
  5
13BB
330
BC6
100
AcDbEntity
  8
241
100
AcDbLine
 10
145.79600362
 20
0.0
 30
0.0
 11
145.79600362
 21
30.0
 31
0.0
  0
LINE
  5
13BC
330
BC6
100
AcDbEntity
  8
241
100
AcDbLine
 10
139.49600362
 20
30.71700684
 30
0.0
 11
139.49600362
 21
0.0
 31
0.0
  0
LINE
  5
13BD
330
BC6
100
AcDbEntity
  8
241
100
AcDbLine
 10
137.1
 20
34.13299316
 30
0.0
 11
137.1
 21
0.0
 31
0.0
  0
LINE
  5
13BE
330
BC6
100
AcDbEntity
  8
245
  6
CENTER2
100
AcDbLine
 10
23.2
 20
-50.0
 30
0.0
 11
23.2
 21
50.0
 31
0.0
  0
LINE
  5
13BF
330
BC6
100
AcDbEntity
  8
241
100
AcDbLine
 10
1.5
 20
34.925
 30
0.0
 11
1.5
 21
0.0
 31
0.0
  0
LINE
  5
13C0
330
BC6
100
AcDbEntity
  8
241
  6
CONTINUOUS
100
AcDbLine
 10
0.0
 20
34.925
 30
0.0
 11
0.0
 21
0.0
 31
0.0
  0
LINE
  5
13C1
330
BC6
100
AcDbEntity
  8
241
  6
CONTINUOUS
100
AcDbLine
 10
30.7
 20
50.0
 30
0.0
 11
30.7
 21
0.0
 31
0.0
  0
LINE
  5
13C2
330
BC6
100
AcDbEntity
  8
241
  6
CONTINUOUS
100
AcDbLine
 10
15.7
 20
50.0
 30
0.0
 11
15.7
 21
0.0
 31
0.0
  0
LINE
  5
13C3
330
BC6
100
AcDbEntity
  8
241
  6
CONTINUOUS
100
AcDbLine
 10
20.03012702
 20
42.5
 30
0.0
 11
20.03012702
 21
0.0
 31
0.0
  0
LINE
  5
13C4
330
BC6
100
AcDbEntity
  8
241
  6
CONTINUOUS
100
AcDbLine
 10
26.36987298
 20
42.5
 30
0.0
 11
26.36987298
 21
0.0
 31
0.0
  0
LINE
  5
13C5
330
BC6
100
AcDbEntity
  8
240
100
AcDbLine
 10
77.0286038
 20
-34.9285861
 30
0.0
 11
76.0
 21
-35.9571899
 31
0.0
  0
ARC
  5
13C6
330
BC6
100
AcDbEntity
  8
240
100
AcDbCircle
 10
43.0
 20
-41.8646705
 30
0.0
 40
5.0
100
AcDbArc
 50
91.57193752
 51
180.0
  0
LINE
  5
13C7
330
BC6
100
AcDbEntity
  8
241
  6
CONTINUOUS
100
AcDbLine
 10
38.0
 20
0.0
 30
0.0
 11
38.0
 21
-41.8646705
 31
0.0
  0
LINE
  5
13C8
330
BC6
100
AcDbEntity
  8
241
  6
HIDDEN2
100
AcDbLine
 10
34.0
 20
-35.4
 30
0.0
 11
34.0
 21
-50.0
 31
0.0
  0
LINE
  5
13C9
330
BC6
100
AcDbEntity
  8
240
  6
CONTINUOUS
100
AcDbLine
 10
1.5
 20
-48.7
 30
0.0
 11
1.5
 21
-34.925
 31
0.0
  0
LINE
  5
13CA
330
BC6
100
AcDbEntity
  8
241
  6
CONTINUOUS
100
AcDbLine
 10
15.7
 20
-50.0
 30
0.0
 11
15.7
 21
0.0
 31
0.0
  0
LINE
  5
13CB
330
BC6
100
AcDbEntity
  8
241
  6
CONTINUOUS
100
AcDbLine
 10
30.7
 20
-50.0
 30
0.0
 11
30.7
 21
0.0
 31
0.0
  0
LINE
  5
13CC
330
BC6
100
AcDbEntity
  8
241
  6
CONTINUOUS
100
AcDbLine
 10
26.36987298
 20
-42.5
 30
0.0
 11
26.36987298
 21
0.0
 31
0.0
  0
LINE
  5
13CD
330
BC6
100
AcDbEntity
  8
241
  6
CONTINUOUS
100
AcDbLine
 10
20.03012702
 20
-42.5
 30
0.0
 11
20.03012702
 21
0.0
 31
0.0
  0
LINE
  5
13CE
330
BC6
100
AcDbEntity
  8
240
  6
CONTINUOUS
100
AcDbLine
 10
36.7
 20
-50.0
 30
0.0
 11
30.7
 21
-50.0
 31
0.0
  0
LINE
  5
13CF
330
BC6
100
AcDbEntity
  8
240
  6
CONTINUOUS
100
AcDbLine
 10
2.8
 20
-50.0
 30
0.0
 11
15.7
 21
-50.0
 31
0.0
  0
ARC
  5
13D0
330
BC6
100
AcDbEntity
  8
240
  6
CONTINUOUS
100
AcDbCircle
 10
2.8
 20
-48.7
 30
0.0
 40
1.3
100
AcDbArc
 50
180.0
 51
270.0
  0
LINE
  5
13D1
330
BC6
100
AcDbEntity
  8
240
  6
CONTINUOUS
100
AcDbLine
 10
26.36987298
 20
-42.5
 30
0.0
 11
20.03012702
 21
-42.5
 31
0.0
  0
LINE
  5
13D2
330
BC6
100
AcDbEntity
  8
240
  6
CONTINUOUS
100
AcDbLine
 10
20.03012702
 20
-42.5
 30
0.0
 11
15.7
 21
-50.0
 31
0.0
  0
LINE
  5
13D3
330
BC6
100
AcDbEntity
  8
240
  6
CONTINUOUS
100
AcDbLine
 10
26.36987298
 20
-42.5
 30
0.0
 11
30.7
 21
-50.0
 31
0.0
  0
LINE
  5
13D4
330
BC6
100
AcDbEntity
  8
240
  6
CONTINUOUS
100
AcDbLine
 10
38.0
 20
-48.7
 30
0.0
 11
38.0
 21
-41.8646705
 31
0.0
  0
ARC
  5
13D5
330
BC6
100
AcDbEntity
  8
240
  6
CONTINUOUS
100
AcDbCircle
 10
36.7
 20
-48.7
 30
0.0
 40
1.3
100
AcDbArc
 50
270.0
 51
0.0
  0
LINE
  5
13D6
330
BC6
100
AcDbEntity
  8
241
100
AcDbLine
 10
1.5
 20
-34.925
 30
0.0
 11
1.5
 21
0.0
 31
0.0
  0
LINE
  5
13D7
330
BC6
100
AcDbEntity
  8
241
  6
CONTINUOUS
100
AcDbLine
 10
0.0
 20
-34.925
 30
0.0
 11
0.0
 21
0.0
 31
0.0
  0
LINE
  5
13D8
330
BC6
100
AcDbEntity
  8
241
  6
HIDDEN2
100
AcDbLine
 10
1.5
 20
-35.4
 30
0.0
 11
34.0
 21
-35.4
 31
0.0
  0
LINE
  5
13D9
330
BC6
100
AcDbEntity
  8
240
100
AcDbLine
 10
0.0
 20
-34.925
 30
0.0
 11
1.5
 21
-34.925
 31
0.0
  0
LINE
  5
13DA
330
BC6
100
AcDbEntity
  8
241
100
AcDbLine
 10
76.0
 20
-35.9571899
 30
0.0
 11
76.0
 21
0.0
 31
0.0
  0
LINE
  5
13DB
330
BC6
100
AcDbEntity
  8
241
100
AcDbLine
 10
68.0
 20
-36.17672887
 30
0.0
 11
68.0
 21
0.0
 31
0.0
  0
LINE
  5
13DC
330
BC6
100
AcDbEntity
  8
241
100
AcDbLine
 10
58.0
 20
-36.45115258
 30
0.0
 11
58.0
 21
0.0
 31
0.0
  0
LINE
  5
13DD
330
BC6
100
AcDbEntity
  8
240
100
AcDbLine
 10
42.86283978
 20
-36.86655215
 30
0.0
 11
58.0
 21
-36.45115258
 31
0.0
  0
LINE
  5
13DE
330
BC6
100
AcDbEntity
  8
240
100
AcDbLine
 10
59.0286038
 20
-35.42254878
 30
0.0
 11
67.02634299
 21
-35.20307186
 31
0.0
  0
LINE
  5
13DF
330
BC6
100
AcDbEntity
  8
240
100
AcDbLine
 10
59.0286038
 20
-35.42254878
 30
0.0
 11
58.0
 21
-36.45115258
 31
0.0
  0
LINE
  5
13E0
330
BC6
100
AcDbEntity
  8
240
100
AcDbLine
 10
76.0
 20
-35.9571899
 30
0.0
 11
68.0
 21
-36.17672887
 31
0.0
  0
LINE
  5
13E1
330
BC6
100
AcDbEntity
  8
240
100
AcDbLine
 10
67.02634299
 20
-35.20307186
 30
0.0
 11
68.0
 21
-36.17672887
 31
0.0
  0
LINE
  5
13E2
330
BC6
100
AcDbEntity
  8
240
100
AcDbLine
 10
114.6
 20
-34.89791438
 30
0.0
 11
129.1
 21
-34.5
 31
0.0
  0
LINE
  5
13E3
330
BC6
100
AcDbEntity
  8
241
100
AcDbLine
 10
86.0
 20
-35.68276619
 30
0.0
 11
86.0
 21
0.0
 31
0.0
  0
LINE
  5
13E4
330
BC6
100
AcDbEntity
  8
241
100
AcDbLine
 10
104.6
 20
0.0
 30
0.0
 11
104.6
 21
-35.17233809
 31
0.0
  0
LINE
  5
13E5
330
BC6
100
AcDbEntity
  8
241
100
AcDbLine
 10
101.6
 20
0.0
 30
0.0
 11
101.6
 21
-35.2546652
 31
0.0
  0
LINE
  5
13E6
330
BC6
100
AcDbEntity
  8
241
100
AcDbLine
 10
109.6
 20
0.0
 30
0.0
 11
109.6
 21
-35.03512623
 31
0.0
  0
LINE
  5
13E7
330
BC6
100
AcDbEntity
  8
241
100
AcDbLine
 10
106.6
 20
0.0
 30
0.0
 11
106.6
 21
-35.11745335
 31
0.0
  0
LINE
  5
13E8
330
BC6
100
AcDbEntity
  8
241
100
AcDbLine
 10
114.6
 20
0.0
 30
0.0
 11
114.6
 21
-34.89791438
 31
0.0
  0
LINE
  5
13E9
330
BC6
100
AcDbEntity
  8
241
100
AcDbLine
 10
111.6
 20
0.0
 30
0.0
 11
111.6
 21
-34.98024149
 31
0.0
  0
LINE
  5
13EA
330
BC6
100
AcDbEntity
  8
240
100
AcDbLine
 10
101.6
 20
-35.2546652
 30
0.0
 11
86.0
 21
-35.68276619
 31
0.0
  0
LINE
  5
13EB
330
BC6
100
AcDbEntity
  8
240
100
AcDbLine
 10
77.0286038
 20
-34.9285861
 30
0.0
 11
85.02634299
 21
-34.70910918
 31
0.0
  0
LINE
  5
13EC
330
BC6
100
AcDbEntity
  8
240
100
AcDbLine
 10
85.02634299
 20
-34.70910918
 30
0.0
 11
86.0
 21
-35.68276619
 31
0.0
  0
LINE
  5
13ED
330
BC6
100
AcDbEntity
  8
240
100
AcDbLine
 10
107.1143019
 20
-34.60315145
 30
0.0
 11
109.11317149
 21
-34.54829773
 31
0.0
  0
LINE
  5
13EE
330
BC6
100
AcDbEntity
  8
240
100
AcDbLine
 10
102.1143019
 20
-34.7403633
 30
0.0
 11
104.11317149
 21
-34.68550958
 31
0.0
  0
LINE
  5
13EF
330
BC6
100
AcDbEntity
  8
240
100
AcDbLine
 10
102.1143019
 20
-34.7403633
 30
0.0
 11
101.6
 21
-35.2546652
 31
0.0
  0
LINE
  5
13F0
330
BC6
100
AcDbEntity
  8
240
100
AcDbLine
 10
104.11317149
 20
-34.68550958
 30
0.0
 11
104.6
 21
-35.17233809
 31
0.0
  0
LINE
  5
13F1
330
BC6
100
AcDbEntity
  8
240
100
AcDbLine
 10
107.1143019
 20
-34.60315145
 30
0.0
 11
106.6
 21
-35.11745335
 31
0.0
  0
LINE
  5
13F2
330
BC6
100
AcDbEntity
  8
240
100
AcDbLine
 10
106.6
 20
-35.11745335
 30
0.0
 11
104.6
 21
-35.17233809
 31
0.0
  0
LINE
  5
13F3
330
BC6
100
AcDbEntity
  8
240
100
AcDbLine
 10
112.1143019
 20
-34.46593959
 30
0.0
 11
114.11317149
 21
-34.41108587
 31
0.0
  0
LINE
  5
13F4
330
BC6
100
AcDbEntity
  8
240
100
AcDbLine
 10
109.11317149
 20
-34.54829773
 30
0.0
 11
109.6
 21
-35.03512623
 31
0.0
  0
LINE
  5
13F5
330
BC6
100
AcDbEntity
  8
240
100
AcDbLine
 10
112.1143019
 20
-34.46593959
 30
0.0
 11
111.6
 21
-34.98024149
 31
0.0
  0
LINE
  5
13F6
330
BC6
100
AcDbEntity
  8
240
100
AcDbLine
 10
111.6
 20
-34.98024149
 30
0.0
 11
109.6
 21
-35.03512623
 31
0.0
  0
LINE
  5
13F7
330
BC6
100
AcDbEntity
  8
240
100
AcDbLine
 10
114.11317149
 20
-34.41108587
 30
0.0
 11
114.6
 21
-34.89791438
 31
0.0
  0
LINE
  5
13F8
330
BC6
100
AcDbEntity
  8
241
  6
CONTINUOUS
100
AcDbLine
 10
129.1
 20
0.0
 30
0.0
 11
129.1
 21
-34.5
 31
0.0
  0
LINE
  5
13F9
330
BC6
100
AcDbEntity
  8
241
100
AcDbLine
 10
145.79600362
 20
-30.0
 30
0.0
 11
145.79600362
 21
0.0
 31
0.0
  0
LINE
  5
13FA
330
BC6
100
AcDbEntity
  8
241
100
AcDbLine
 10
137.1
 20
-34.13299316
 30
0.0
 11
137.1
 21
0.0
 31
0.0
  0
LINE
  5
13FB
330
BC6
100
AcDbEntity
  8
241
100
AcDbLine
 10
139.49600362
 20
-30.71700684
 30
0.0
 11
139.49600362
 21
0.0
 31
0.0
  0
LINE
  5
13FC
330
BC6
100
AcDbEntity
  8
240
100
AcDbLine
 10
138.91865335
 20
-31.35
 30
0.0
 11
137.67735027
 21
-33.5
 31
0.0
  0
LINE
  5
13FD
330
BC6
100
AcDbEntity
  8
240
100
AcDbLine
 10
129.1
 20
-34.5
 30
0.0
 11
135.94529946
 21
-34.5
 31
0.0
  0
ARC
  5
13FE
330
BC6
100
AcDbEntity
  8
240
100
AcDbCircle
 10
135.94529946
 20
-32.5
 30
0.0
 40
2.0
100
AcDbArc
 50
270.0
 51
330.0
  0
LINE
  5
13FF
330
BC6
100
AcDbEntity
  8
240
100
AcDbLine
 10
140.65070416
 20
-30.35
 30
0.0
 11
145.44600362
 21
-30.35
 31
0.0
  0
ARC
  5
1400
330
BC6
100
AcDbEntity
  8
240
100
AcDbCircle
 10
140.65070416
 20
-32.35
 30
0.0
 40
2.0
100
AcDbArc
 50
90.0
 51
150.0
  0
LINE
  5
1401
330
BC6
100
AcDbEntity
  8
240
100
AcDbLine
 10
145.79600362
 20
-30.0
 30
0.0
 11
145.44600362
 21
-30.35
 31
0.0
  0
LINE
  5
1402
330
BC6
100
AcDbEntity
  8
240
100
AcDbLine
 10
77.0286038
 20
34.9285861
 30
0.0
 11
76.0
 21
35.9571899
 31
0.0
  0
LINE
  5
1403
330
BC6
100
AcDbEntity
  8
240
  6
CONTINUOUS
100
AcDbLine
 10
30.7
 20
50.0
 30
0.0
 11
36.7
 21
50.0
 31
0.0
  0
LINE
  5
1404
330
BC6
100
AcDbEntity
  8
241
  6
HIDDEN2
100
AcDbLine
 10
34.0
 20
35.4
 30
0.0
 11
34.0
 21
50.0
 31
0.0
  0
LINE
  5
1405
330
BC6
100
AcDbEntity
  8
240
  6
CONTINUOUS
100
AcDbLine
 10
1.5
 20
48.7
 30
0.0
 11
1.5
 21
34.925
 31
0.0
  0
LINE
  5
1406
330
BC6
100
AcDbEntity
  8
241
  6
HIDDEN2
100
AcDbLine
 10
34.0
 20
35.4
 30
0.0
 11
1.5
 21
35.4
 31
0.0
  0
LINE
  5
1407
330
BC6
100
AcDbEntity
  8
240
100
AcDbLine
 10
0.0
 20
34.925
 30
0.0
 11
1.5
 21
34.925
 31
0.0
  0
LINE
  5
1408
330
BC6
100
AcDbEntity
  8
240
  6
CONTINUOUS
100
AcDbLine
 10
15.7
 20
50.0
 30
0.0
 11
2.8
 21
50.0
 31
0.0
  0
ARC
  5
1409
330
BC6
100
AcDbEntity
  8
240
  6
CONTINUOUS
100
AcDbCircle
 10
2.8
 20
48.7
 30
0.0
 40
1.3
100
AcDbArc
 50
90.0
 51
180.0
  0
LINE
  5
140A
330
BC6
100
AcDbEntity
  8
240
  6
CONTINUOUS
100
AcDbLine
 10
26.36987298
 20
42.5
 30
0.0
 11
20.03012702
 21
42.5
 31
0.0
  0
LINE
  5
140B
330
BC6
100
AcDbEntity
  8
240
  6
CONTINUOUS
100
AcDbLine
 10
20.03012702
 20
42.5
 30
0.0
 11
15.7
 21
50.0
 31
0.0
  0
LINE
  5
140C
330
BC6
100
AcDbEntity
  8
240
  6
CONTINUOUS
100
AcDbLine
 10
26.36987298
 20
42.5
 30
0.0
 11
30.7
 21
50.0
 31
0.0
  0
LINE
  5
140D
330
BC6
100
AcDbEntity
  8
240
  6
CONTINUOUS
100
AcDbLine
 10
38.0
 20
48.7
 30
0.0
 11
38.0
 21
41.8646705
 31
0.0
  0
LINE
  5
140E
330
BC6
100
AcDbEntity
  8
240
100
AcDbLine
 10
42.86283978
 20
36.86655215
 30
0.0
 11
58.0
 21
36.45115258
 31
0.0
  0
ARC
  5
140F
330
BC6
100
AcDbEntity
  8
240
100
AcDbCircle
 10
43.0
 20
41.8646705
 30
0.0
 40
5.0
100
AcDbArc
 50
180.0
 51
268.42806248
  0
LINE
  5
1410
330
BC6
100
AcDbEntity
  8
240
100
AcDbLine
 10
59.0286038
 20
35.42254878
 30
0.0
 11
67.02634299
 21
35.20307186
 31
0.0
  0
LINE
  5
1411
330
BC6
100
AcDbEntity
  8
240
100
AcDbLine
 10
59.0286038
 20
35.42254878
 30
0.0
 11
58.0
 21
36.45115258
 31
0.0
  0
LINE
  5
1412
330
BC6
100
AcDbEntity
  8
240
100
AcDbLine
 10
76.0
 20
35.9571899
 30
0.0
 11
68.0
 21
36.17672887
 31
0.0
  0
LINE
  5
1413
330
BC6
100
AcDbEntity
  8
240
100
AcDbLine
 10
67.02634299
 20
35.20307186
 30
0.0
 11
68.0
 21
36.17672887
 31
0.0
  0
ARC
  5
1414
330
BC6
100
AcDbEntity
  8
240
  6
CONTINUOUS
100
AcDbCircle
 10
36.7
 20
48.7
 30
0.0
 40
1.3
100
AcDbArc
 50
0.0
 51
90.0
  0
LINE
  5
1415
330
BC6
100
AcDbEntity
  8
240
100
AcDbLine
 10
114.6
 20
34.89791438
 30
0.0
 11
129.1
 21
34.5
 31
0.0
  0
LINE
  5
1416
330
BC6
100
AcDbEntity
  8
240
100
AcDbLine
 10
101.6
 20
35.2546652
 30
0.0
 11
86.0
 21
35.68276619
 31
0.0
  0
LINE
  5
1417
330
BC6
100
AcDbEntity
  8
240
100
AcDbLine
 10
85.02634299
 20
34.70910918
 30
0.0
 11
86.0
 21
35.68276619
 31
0.0
  0
LINE
  5
1418
330
BC6
100
AcDbEntity
  8
240
100
AcDbLine
 10
77.0286038
 20
34.9285861
 30
0.0
 11
85.02634299
 21
34.70910918
 31
0.0
  0
LINE
  5
1419
330
BC6
100
AcDbEntity
  8
240
100
AcDbLine
 10
107.1143019
 20
34.60315145
 30
0.0
 11
109.11317149
 21
34.54829773
 31
0.0
  0
LINE
  5
141A
330
BC6
100
AcDbEntity
  8
240
100
AcDbLine
 10
102.1143019
 20
34.7403633
 30
0.0
 11
101.6
 21
35.2546652
 31
0.0
  0
LINE
  5
141B
330
BC6
100
AcDbEntity
  8
240
100
AcDbLine
 10
102.1143019
 20
34.7403633
 30
0.0
 11
104.11317149
 21
34.68550958
 31
0.0
  0
LINE
  5
141C
330
BC6
100
AcDbEntity
  8
240
100
AcDbLine
 10
106.6
 20
35.11745335
 30
0.0
 11
104.6
 21
35.17233809
 31
0.0
  0
LINE
  5
141D
330
BC6
100
AcDbEntity
  8
240
100
AcDbLine
 10
107.1143019
 20
34.60315145
 30
0.0
 11
106.6
 21
35.11745335
 31
0.0
  0
LINE
  5
141E
330
BC6
100
AcDbEntity
  8
240
100
AcDbLine
 10
104.11317149
 20
34.68550958
 30
0.0
 11
104.6
 21
35.17233809
 31
0.0
  0
LINE
  5
141F
330
BC6
100
AcDbEntity
  8
240
100
AcDbLine
 10
112.1143019
 20
34.46593959
 30
0.0
 11
114.11317149
 21
34.41108587
 31
0.0
  0
LINE
  5
1420
330
BC6
100
AcDbEntity
  8
240
100
AcDbLine
 10
111.6
 20
34.98024149
 30
0.0
 11
109.6
 21
35.03512623
 31
0.0
  0
LINE
  5
1421
330
BC6
100
AcDbEntity
  8
240
100
AcDbLine
 10
112.1143019
 20
34.46593959
 30
0.0
 11
111.6
 21
34.98024149
 31
0.0
  0
LINE
  5
1422
330
BC6
100
AcDbEntity
  8
240
100
AcDbLine
 10
109.11317149
 20
34.54829773
 30
0.0
 11
109.6
 21
35.03512623
 31
0.0
  0
LINE
  5
1423
330
BC6
100
AcDbEntity
  8
240
100
AcDbLine
 10
114.11317149
 20
34.41108587
 30
0.0
 11
114.6
 21
34.89791438
 31
0.0
  0
LINE
  5
1424
330
BC6
100
AcDbEntity
  8
240
100
AcDbLine
 10
138.91865335
 20
31.35
 30
0.0
 11
137.67735027
 21
33.5
 31
0.0
  0
LINE
  5
1425
330
BC6
100
AcDbEntity
  8
240
100
AcDbLine
 10
129.1
 20
34.5
 30
0.0
 11
135.94529946
 21
34.5
 31
0.0
  0
ARC
  5
1426
330
BC6
100
AcDbEntity
  8
240
100
AcDbCircle
 10
135.94529946
 20
32.5
 30
0.0
 40
2.0
100
AcDbArc
 50
30.0
 51
90.0
  0
LINE
  5
1427
330
BC6
100
AcDbEntity
  8
240
100
AcDbLine
 10
140.65070416
 20
30.35
 30
0.0
 11
145.44600362
 21
30.35
 31
0.0
  0
ARC
  5
1428
330
BC6
100
AcDbEntity
  8
240
100
AcDbCircle
 10
140.65070416
 20
32.35
 30
0.0
 40
2.0
100
AcDbArc
 50
210.0
 51
270.0
  0
LINE
  5
1429
330
BC6
100
AcDbEntity
  8
240
100
AcDbLine
 10
145.79600362
 20
30.0
 30
0.0
 11
145.44600362
 21
30.35
 31
0.0
  0
LINE
  5
142A
330
BC6
100
AcDbEntity
  8
241
100
AcDbLine
 10
159.88937929
 20
0.0
 30
0.0
 11
159.88937929
 21
30.0
 31
0.0
  0
LINE
  5
142B
330
BC6
100
AcDbEntity
  8
240
100
AcDbLine
 10
165.6
 20
-23.17010472
 30
0.0
 11
165.6
 21
23.17010472
 31
0.0
1001
GRPNAME
1000
PASTMD40
  0
LINE
  5
142C
330
BC6
100
AcDbEntity
  8
241
  6
HIDDEN2
100
AcDbLine
 10
165.0
 20
16.7
 30
0.0
 11
165.0
 21
0.0
 31
0.0
  0
LINE
  5
142D
330
BC6
100
AcDbEntity
  8
241
100
AcDbLine
 10
159.88937929
 20
0.0
 30
0.0
 11
159.88937929
 21
-30.0
 31
0.0
  0
ARC
  5
142E
330
BC6
100
AcDbEntity
  8
240
100
AcDbCircle
 10
159.6
 20
-23.17010472
 30
0.0
 40
5.999999999999986
100
AcDbArc
 50
314.99999996
 51
359.99999996
  0
LINE
  5
142F
330
BC6
100
AcDbEntity
  8
240
100
AcDbLine
 10
163.84264069
 20
-27.41274541
 30
0.0
 11
161.75537929
 21
-29.50000681
 31
0.0
  0
LINE
  5
1430
330
BC6
100
AcDbEntity
  8
240
100
AcDbLine
 10
161.75537929
 20
-29.50000681
 30
0.0
 11
159.88937929
 21
-30.0
 31
0.0
  0
LINE
  5
1431
330
BC6
100
AcDbEntity
  8
240
100
AcDbLine
 10
163.84264069
 20
27.41274541
 30
0.0
 11
161.75537929
 21
29.50000681
 31
0.0
  0
ARC
  5
1432
330
BC6
100
AcDbEntity
  8
240
100
AcDbCircle
 10
159.6
 20
23.17010472
 30
0.0
 40
5.999999999999986
100
AcDbArc
 50
0.00000004
 51
45.00000004
  0
LINE
  5
1433
330
BC6
100
AcDbEntity
  8
240
100
AcDbLine
 10
161.75537929
 20
29.50000681
 30
0.0
 11
159.88937929
 21
30.0
 31
0.0
1001
GRPNAME
1000
PASTMD40
  0
ENDBLK
  5
BC8
330
BC6
100
AcDbEntity
  8
0
100
AcDbBlockEnd
  0
BLOCK
  5
1396
330
138C
100
AcDbEntity
  8
0
100
AcDbBlockBegin
  2
*D10
 70
     1
 10
0.0
 20
0.0
 30
0.0
  3
*D10
  1

  0
LINE
  5
1398
330
138C
100
AcDbEntity
  8
250
  6
CONTINUOUS
 62
     3
100
AcDbLine
 10
160.38937929
 20
-30.0
 30
0.0
 11
183.6
 21
-30.0
 31
0.0
  0
LINE
  5
1399
330
138C
100
AcDbEntity
  8
250
  6
CONTINUOUS
 62
     3
100
AcDbLine
 10
160.38937929
 20
30.0
 30
0.0
 11
183.6
 21
30.0
 31
0.0
  0
LINE
  5
139A
330
138C
100
AcDbEntity
  8
250
  6
CONTINUOUS
 62
     3
100
AcDbLine
 10
182.6
 20
-27.77
 30
0.0
 11
182.6
 21
27.77
 31
0.0
  0
INSERT
  5
139B
330
138C
100
AcDbEntity
  8
250
  6
CONTINUOUS
 62
     3
100
AcDbBlockReference
  2
_OPEN
 10
182.6
 20
-30.0
 30
0.0
 41
2.23
 42
2.23
 43
2.23
 50
270.0
  0
INSERT
  5
139C
330
138C
100
AcDbEntity
  8
250
  6
CONTINUOUS
 62
     3
100
AcDbBlockReference
  2
_OPEN
 10
182.6
 20
30.0
 30
0.0
 41
2.23
 42
2.23
 43
2.23
 50
90.0
  0
MTEXT
  5
139D
330
138C
100
AcDbEntity
  8
250
  6
CONTINUOUS
 62
    40
100
AcDbMText
 10
180.1
 20
0.0
 30
0.0
 40
3.0
 41
0.0
 71
     5
 72
     1
  1
\A1;{\H3;\U+2205}60
 11
0.0
 21
1.0
 31
0.0
1001
ACAD
1000
MTEXTBEGIN
1070
    73
1070
     1
1070
    44
1040
1.0
1070
    74
1070
     0
1000
MTEXTEND
  0
POINT
  5
139E
330
138C
100
AcDbEntity
  8
DEFPOINTS
  6
CONTINUOUS
 62
     0
100
AcDbPoint
 10
159.88937929
 20
-30.0
 30
0.0
  0
POINT
  5
139F
330
138C
100
AcDbEntity
  8
DEFPOINTS
  6
CONTINUOUS
 62
     0
100
AcDbPoint
 10
159.88937929
 20
30.0
 30
0.0
  0
POINT
  5
13A0
330
138C
100
AcDbEntity
  8
DEFPOINTS
  6
CONTINUOUS
 62
     0
100
AcDbPoint
 10
182.6
 20
30.0
 30
0.0
  0
ENDBLK
  5
1397
330
138C
100
AcDbEntity
  8
0
100
AcDbBlockEnd
  0
ENDSEC
  0
SECTION
  2
ENTITIES
  0
INSERT
  5
6E6
330
1A
100
AcDbEntity
  8
245
100
AcDbBlockReference
  2
矢印なし
 10
175.62382697
 20
90.55123572
 30
0.0
  0
DIMENSION
  5
866
330
1A
100
AcDbEntity
  8
250
  6
CONTINUOUS
100
AcDbDimension
  2
*D2
 10
165.0
 20
63.0
 30
0.0
 11
82.5
 21
65.5
 31
0.0
 70
    32
  3
BIGT$0
100
AcDbAlignedDimension
 13
0.0
 23
34.925
 33
0.0
 14
165.0
 24
16.7
 34
0.0
100
AcDbRotatedDimension
  0
DIMENSION
  5
867
330
1A
100
AcDbEntity
  8
250
  6
CONTINUOUS
100
AcDbDimension
  2
*D3
 10
165.0
 20
56.0
 30
0.0
 11
122.5
 21
58.5
 31
0.0
 70
    32
  1
（max.<>）
  3
BIGT$0
100
AcDbAlignedDimension
 13
80.0
 23
10.0
 33
0.0
 14
165.0
 24
16.7
 34
0.0
100
AcDbRotatedDimension
  0
TEXT
  5
86B
330
1A
100
AcDbEntity
  8
241
100
AcDbText
 10
-101.8
 20
77.0
 30
0.0
 40
5.0
  1
BBT50-MEGA20D-165
  7
YOKO
 11
-101.8
 21
77.0
 31
0.0
100
AcDbText
 73
     1
  0
LINE
  5
9C4
330
1A
100
AcDbEntity
  8
250
  6
CONTINUOUS
100
AcDbLine
 10
-53.78156985
 20
-37.79107178
 30
0.0
 11
-71.51490318
 21
-37.79107178
 31
0.0
1001
ITEMNAME
1000
LNSP2
  0
MTEXT
  5
9C5
330
1A
100
AcDbEntity
  8
251
  6
CONTINUOUS
100
AcDbMText
 10
-68.71490318
 20
-36.79107178
 30
0.0
 40
2.8
 41
0.0
 71
     7
 72
     1
  1
BBT50
  7
YOKO
1001
ITEMNAME
1000
LNSP3
1001
ACAD
1000
MTEXTBEGIN
1070
    73
1070
     1
1070
    44
1040
1.0
1070
    74
1070
     0
1000
MTEXTEND
1000
MTEXTBEGIN
1070
    73
1070
     1
1070
    44
1040
1.0
1070
    74
1070
     0
1000
MTEXTEND
1000
MTEXTBEGIN
1070
    73
1070
     1
1070
    44
1040
1.0
1070
    74
1070
     0
1000
MTEXTEND
1000
MTEXTBEGIN
1070
    73
1070
     1
1070
    44
1040
1.0
1070
    74
1070
     0
1000
MTEXTEND
1000
MTEXTBEGIN
1070
    73
1070
     1
1070
    44
1040
1.0
1070
    74
1070
     0
1000
MTEXTEND
1000
MTEXTBEGIN
1070
    73
1070
     1
1070
    44
1040
1.0
1070
    74
1070
     0
1000
MTEXTEND
  0
LEADER
  5
9C6
330
1A
100
AcDbEntity
  8
250
  6
CONTINUOUS
100
AcDbLeader
  3
BIGT
 76
     2
 10
-48.07875936
 20
-27.91351426
 30
0.0
 10
-53.78156985
 20
-37.79107178
 30
0.0
1001
ACAD
1000
DSTYLE
1002
{
1070
     6
1000
OPEN
1070
    41
1040
2.0
1070
   343
1005
594
1002
}
  0
DIMENSION
  5
A8C
330
1A
100
AcDbEntity
  8
250
  6
CONTINUOUS
100
AcDbDimension
  2
*D4
 10
189.6
 20
34.5
 30
0.0
 11
189.6
 21
0.0
 31
0.0
 70
   160
  1
{\H3;\U+2205}<>
  3
BIGT$0
100
AcDbAlignedDimension
 13
135.94529946
 23
-34.5
 33
0.0
 14
135.94529946
 24
34.5
 34
0.0
 50
90.0
100
AcDbRotatedDimension
  0
DIMENSION
  5
AA5
330
1A
100
AcDbEntity
  8
250
  6
CONTINUOUS
100
AcDbDimension
  2
*D6
 10
175.6
 20
10.0
 30
0.0
 11
175.6
 21
0.0
 31
0.0
 70
   160
  1
{\H2.8;\U+2205}<>
  3
BIGT
100
AcDbAlignedDimension
 13
165.0
 23
-10.0
 33
0.0
 14
165.0
 24
10.0
 34
0.0
 50
90.0
100
AcDbRotatedDimension
1001
ACAD
1000
DSTYLE
1002
{
1070
    75
1070
     1
1070
     6
1000
矢印なし
1002
}
  0
DIMENSION
  5
1389
330
1A
100
AcDbEntity
  8
250
  6
CONTINUOUS
100
AcDbDimension
  2
*D10
 10
182.6
 20
30.0
 30
0.0
 11
182.6
 21
0.0
 31
0.0
 70
   160
  1
{\H3;\U+2205}<>
  3
BIGT$0
100
AcDbAlignedDimension
 13
159.88937929
 23
-30.0
 33
0.0
 14
159.88937929
 24
30.0
 34
0.0
 50
90.0
100
AcDbRotatedDimension
  0
INSERT
  5
1434
330
1A
100
AcDbEntity
  8
245
100
AcDbBlockReference
  2
1
 10
0.0
 20
0.0
 30
0.0
  0
VIEWPORT
  5
22
330
17
100
AcDbEntity
 67
     1
  8
0
100
AcDbViewport
 10
261.51769912
 20
148.5
 30
0.0
 40
523.03539823
 41
297.0
 68
     1
 69
     1
1001
ACAD
1000
MVIEW
1002
{
1070
    16
1010
0.0
1020
0.0
1030
0.0
1010
0.0
1020
0.0
1030
1.0
1040
0.0
1040
297.0
1040
261.51769912
1040
148.5
1040
50.0
1040
0.0
1040
0.0
1070
     0
1070
   100
1070
     1
1070
     1
1070
     0
1070
     0
1070
     0
1070
     0
1040
0.0
1040
0.0
1040
0.0
1040
1.0
1040
1.0
1040
10.0
1040
10.0
1070
     0
1002
{
1002
}
1002
}
  0
ENDSEC
  0
SECTION
  2
OBJECTS
  0
DICTIONARY
  5
C
330
0
100
AcDbDictionary
  3
ACAD_GROUP
350
D
  3
ACAD_LAYOUT
350
565
  3
ACAD_MLINESTYLE
350
E
  3
ACAD_PLOTSETTINGS
350
566
  3
ACAD_PLOTSTYLENAME
350
563
  3
ACDBHEADERROUNDTRIPXREC
350
1436
  3
GRADE_DWG
350
540
  0
DICTIONARY
  5
C89
330
1A
100
AcDbDictionary
280
     1
  3
ACAD_LAYOUTSELFREF
360
1458
  0
DICTIONARY
  5
C87
330
17
100
AcDbDictionary
280
     1
  3
ACAD_LAYOUTSELFREF
360
1457
  0
DICTIONARY
  5
D
102
{ACAD_REACTORS
330
C
102
}
330
C
100
AcDbDictionary
  3
*A1
350
6C7
  3
*A2
350
6C8
  3
*A3
350
6D4
  3
*A4
350
6D5
  3
DREC-1
350
5FC
  3
DREC-2
350
654
  3
DREC-3
350
673
  0
DICTIONARY
  5
565
102
{ACAD_REACTORS
330
C
102
}
330
C
100
AcDbDictionary
  0
DICTIONARY
  5
E
102
{ACAD_REACTORS
330
C
102
}
330
C
100
AcDbDictionary
  3
STANDARD
350
13
  0
DICTIONARY
  5
566
102
{ACAD_REACTORS
330
C
102
}
330
C
100
AcDbDictionary
  3
A3_0_5倍_
350
758
  3
A3_1倍_
350
757
  3
A3_1倍__2000_
350
707
  3
A3_2倍_
350
759
  3
A4_0_5倍_
350
755
  3
A4_1倍_
350
754
  3
A4_1倍__2000_
350
708
  3
A4_2倍_
350
756
  0
ACDBDICTIONARYWDFLT
  5
563
102
{ACAD_REACTORS
330
C
102
}
330
C
100
AcDbDictionary
281
     1
  3
Normal
350
564
100
AcDbDictionaryWithDefault
340
564
  0
DICTIONARY
  5
1436
102
{ACAD_REACTORS
330
C
102
}
330
C
100
AcDbDictionary
  3
CEPSNTYPE
350
1440
  3
DIMSTYLEDATA
350
1444
  3
FINGERPRINTGUID
350
1441
  3
HYPERLINKBASE
350
1439
  3
INSUNITS
350
143F
  3
LAYOUTDICT
350
143B
  3
LWETCUNION
350
143E
  3
PLOTSETDICT
350
143C
  3
PLOTSTYLNAMDICT
350
143D
  3
PSVPSCALE
350
1443
  3
PUCSBASE
350
1447
  3
PUCSORGBACK
350
144D
  3
PUCSORGBOTTOM
350
1449
  3
PUCSORGFRONT
350
144C
  3
PUCSORGLEFT
350
144A
  3
PUCSORGRIGHT
350
144B
  3
PUCSORGTOP
350
1448
  3
PUCSORTHOREF
350
1445
  3
PUCSORTHOVIEW
350
1446
  3
STYLESHEET
350
143A
  3
TSTACKALIGN
350
1437
  3
TSTACKSIZE
350
1438
  3
UCSBASE
350
1450
  3
UCSORGBACK
350
1456
  3
UCSORGBOTTOM
350
1452
  3
UCSORGFRONT
350
1455
  3
UCSORGLEFT
350
1453
  3
UCSORGRIGHT
350
1454
  3
UCSORGTOP
350
1451
  3
UCSORTHOREF
350
144E
  3
UCSORTHOVIEW
350
144F
  3
VERSIONGUID
350
1442
  0
DICTIONARY
  5
540
102
{ACAD_REACTORS
330
C
102
}
330
C
100
AcDbDictionary
  3
VERSION
350
560
  0
XRECORD
  5
1458
102
{ACAD_REACTORS
330
C89
102
}
330
C89
100
AcDbXrecord
340
1A
  0
XRECORD
  5
1457
102
{ACAD_REACTORS
330
C87
102
}
330
C87
100
AcDbXrecord
340
17
  0
GROUP
  5
6C7
102
{ACAD_REACTORS
330
D
102
}
330
D
100
AcDbGroup
300

 70
     0
 71
     1
1001
GRPNAME
1000
DMA00
  0
GROUP
  5
6C8
102
{ACAD_REACTORS
330
D
102
}
330
D
100
AcDbGroup
300

 70
     0
 71
     1
1001
GRPNAME
1000
DMA00
  0
GROUP
  5
6D4
102
{ACAD_REACTORS
330
D
102
}
330
D
100
AcDbGroup
300

 70
     0
 71
     1
1001
GRPNAME
1000
DMA00
  0
GROUP
  5
6D5
102
{ACAD_REACTORS
330
D
102
}
330
D
100
AcDbGroup
300

 70
     0
 71
     1
1001
GRPNAME
1000
DMA00
  0
GROUP
  5
5FC
102
{ACAD_REACTORS
330
D
102
}
330
D
100
AcDbGroup
300

 70
     0
 71
     1
1001
GRPNAME
1000
DREC-
1001
GPARA
1000
xsiz
1000
44.182
1000
ysiz
1000
40.677
1000
angl
1000
0
1000
ctyp
1000
0
1000
csiz
1000
5
1000
lfnt
1000
cont
1000
hcnt
1000
hoff
1000
vcnt
1000
voff
1000
opnt
1000
4
1000
dxpt
1000
0
1000
dypt
1000
0
  0
GROUP
  5
654
102
{ACAD_REACTORS
330
D
102
}
330
D
100
AcDbGroup
300

 70
     0
 71
     1
1001
GRPNAME
1000
DREC-
1001
GPARA
1000
xsiz
1000
54.592
1000
ysiz
1000
53.036
1000
angl
1000
0
1000
ctyp
1000
0
1000
csiz
1000
5
1000
lfnt
1000
cont
1000
hcnt
1000
hoff
1000
vcnt
1000
voff
1000
opnt
1000
4
1000
dxpt
1000
0
1000
dypt
1000
0
  0
GROUP
  5
673
102
{ACAD_REACTORS
330
D
102
}
330
D
100
AcDbGroup
300

 70
     0
 71
     1
1001
GRPNAME
1000
DREC-
1001
GPARA
1000
xsiz
1000
30.363
1000
ysiz
1000
36.175
1000
angl
1000
0
1000
ctyp
1000
0
1000
csiz
1000
5
1000
lfnt
1000
cont
1000
hcnt
1000
hoff
1000
vcnt
1000
voff
1000
opnt
1000
4
1000
dxpt
1000
0
1000
dypt
1000
0
  0
MLINESTYLE
  5
13
102
{ACAD_REACTORS
330
E
102
}
330
E
100
AcDbMlineStyle
  2
STANDARD
 70
     0
  3

 62
     0
 51
90.0
 52
90.0
 71
     2
 49
0.5
 62
   256
  6
BYLAYER
 49
-0.5
 62
   256
  6
BYLAYER
  0
PLOTSETTINGS
  5
758
102
{ACAD_REACTORS
330
566
102
}
330
566
100
AcDbPlotSettings
  1
A3(0.5倍)
  2
\\AWTECPC05\HP DeskJet 1120C
  4
A3
  6

 40
5.95841646
 41
13.49375153
 42
6.04309082
 43
3.67242432
 44
296.92599487
 45
419.94665527
 46
89.96
 47
127.14
 48
0.0
 49
0.0
140
0.0
141
0.0
142
1.0
143
2.0
 70
  1716
 72
     1
 73
     1
 74
     2
  7
big.ctb
 75
    17
147
0.5
148
0.0
149
0.0
  0
PLOTSETTINGS
  5
757
102
{ACAD_REACTORS
330
566
102
}
330
566
100
AcDbPlotSettings
  1
A3(1倍)
  2
\\AWTECPC05\HP DeskJet 1120C
  4
A3
  6

 40
5.95841646
 41
13.49375153
 42
6.04309082
 43
3.67242432
 44
296.92599487
 45
419.94665527
 46
37.46
 47
52.89
 48
0.0
 49
0.0
140
0.0
141
0.0
142
1.0
143
1.0
 70
  1716
 72
     1
 73
     1
 74
     2
  7
big.ctb
 75
    16
147
1.0
148
0.0
149
0.0
  0
PLOTSETTINGS
  5
707
102
{ACAD_REACTORS
330
566
102
}
330
566
100
AcDbPlotSettings
  1
A3(1倍)(2000)
  2
SII LS-1300 (D-SCAN)
  4
User258
  6

 40
3.17499995
 41
3.17499995
 42
3.17498779
 43
3.17498779
 44
419.98898315
 45
296.98950195
 46
58.32
 47
40.32
 48
0.0
 49
0.0
140
0.0
141
0.0
142
1.0
143
1.0
 70
  1716
 72
     1
 73
     0
 74
     2
  7
big.ctb
 75
    16
147
1.0
148
0.0
149
0.0
  0
PLOTSETTINGS
  5
759
102
{ACAD_REACTORS
330
566
102
}
330
566
100
AcDbPlotSettings
  1
A3(2倍)
  2
\\AWTECPC05\HP DeskJet 1120C
  4
A3
  6

 40
5.95841646
 41
13.49375153
 42
6.04309082
 43
3.67242432
 44
296.92599487
 45
419.94665527
 46
-67.54
 47
-95.61
 48
0.0
 49
0.0
140
0.0
141
0.0
142
1.0
143
0.5
 70
  1716
 72
     1
 73
     1
 74
     2
  7
big.ctb
 75
    27
147
2.0
148
0.0
149
0.0
  0
PLOTSETTINGS
  5
755
102
{ACAD_REACTORS
330
566
102
}
330
566
100
AcDbPlotSettings
  1
A4(0.5倍)
  2
\\AWTECPC05\HP DeskJet 1120C
  4
A4
  6

 40
4.18041658
 41
13.49374962
 42
4.18040466
 43
3.92642212
 44
209.97332764
 45
296.92599487
 46
48.31
 47
65.5
 48
0.0
 49
0.0
140
0.0
141
0.0
142
1.0
143
2.0
 70
  1716
 72
     1
 73
     1
 74
     2
  7
big.ctb
 75
    17
147
0.5
148
0.0
149
0.0
  0
PLOTSETTINGS
  5
754
102
{ACAD_REACTORS
330
566
102
}
330
566
100
AcDbPlotSettings
  1
A4(1倍)
  2
\\AWTECPC05\HP DeskJet 1120C
  4
A4
  6

 40
4.18041658
 41
13.49374962
 42
4.18040466
 43
3.92642212
 44
209.97332764
 45
296.92599487
 46
-4.19
 47
-8.75
 48
0.0
 49
0.0
140
0.0
141
0.0
142
1.0
143
1.0
 70
  1716
 72
     1
 73
     1
 74
     2
  7
big.ctb
 75
    16
147
1.0
148
0.0
149
0.0
  0
PLOTSETTINGS
  5
708
102
{ACAD_REACTORS
330
566
102
}
330
566
100
AcDbPlotSettings
  1
A4(1倍)(2000)
  2
SII LS-1300 (D-SCAN)
  4
User259
  6

 40
3.17499995
 41
3.17499995
 42
3.17498779
 43
3.17500305
 44
296.98950195
 45
209.99449158
 46
-3.18
 47
-3.18
 48
0.0
 49
0.0
140
0.0
141
0.0
142
1.0
143
1.0
 70
  1716
 72
     1
 73
     0
 74
     2
  7
big.ctb
 75
    16
147
1.0
148
0.0
149
0.0
  0
PLOTSETTINGS
  5
756
102
{ACAD_REACTORS
330
566
102
}
330
566
100
AcDbPlotSettings
  1
A4(2倍)
  2
\\AWTECPC05\HP DeskJet 1120C
  4
A4
  6

 40
4.18041658
 41
13.49374962
 42
4.18040466
 43
3.92642212
 44
209.97332764
 45
296.92599487
 46
-109.19
 47
-157.25
 48
0.0
 49
0.0
140
0.0
141
0.0
142
1.0
143
0.5
 70
  1716
 72
     1
 73
     1
 74
     2
  7
big.ctb
 75
    27
147
2.0
148
0.0
149
0.0
  0
ACDBPLACEHOLDER
  5
564
102
{ACAD_REACTORS
330
563
102
}
330
563
100
AcDbPlaceHolder
280
     0
  0
XRECORD
  5
1440
102
{ACAD_REACTORS
330
1436
102
}
330
1436
100
AcDbXrecord
 90
        0
  0
XRECORD
  5
1444
102
{ACAD_REACTORS
330
1436
102
}
330
1436
100
AcDbXrecord
1000
DSTYLE
1002
{
1070
    79
 70
     2
1070
   179
 70
     3
1070
   341
340
594
1070
   343
340
594
1070
   344
340
594
1070
   371
 70
    -1
1070
   372
 70
    -1
1002
}
  0
XRECORD
  5
1441
102
{ACAD_REACTORS
330
1436
102
}
330
1436
100
AcDbXrecord
  1
{51294030-9CB4-11D3-8E18-00A0C925D94D}
  0
XRECORD
  5
1439
102
{ACAD_REACTORS
330
1436
102
}
330
1436
100
AcDbXrecord
  1

  0
XRECORD
  5
143F
102
{ACAD_REACTORS
330
1436
102
}
330
1436
100
AcDbXrecord
 90
        0
  0
XRECORD
  5
143B
102
{ACAD_REACTORS
330
1436
102
}
330
1436
100
AcDbXrecord
340
565
  0
XRECORD
  5
143E
102
{ACAD_REACTORS
330
1436
102
}
330
1436
100
AcDbXrecord
 90
    10781
  0
XRECORD
  5
143C
102
{ACAD_REACTORS
330
1436
102
}
330
1436
100
AcDbXrecord
340
566
  0
XRECORD
  5
143D
102
{ACAD_REACTORS
330
1436
102
}
330
1436
100
AcDbXrecord
340
563
  0
XRECORD
  5
1443
102
{ACAD_REACTORS
330
1436
102
}
330
1436
100
AcDbXrecord
 40
0.0
  0
XRECORD
  5
1447
102
{ACAD_REACTORS
330
1436
102
}
330
1436
100
AcDbXrecord
340
0
  0
XRECORD
  5
144D
102
{ACAD_REACTORS
330
1436
102
}
330
1436
100
AcDbXrecord
 10
0.0
 20
0.0
 30
0.0
  0
XRECORD
  5
1449
102
{ACAD_REACTORS
330
1436
102
}
330
1436
100
AcDbXrecord
 10
0.0
 20
0.0
 30
0.0
  0
XRECORD
  5
144C
102
{ACAD_REACTORS
330
1436
102
}
330
1436
100
AcDbXrecord
 10
0.0
 20
0.0
 30
0.0
  0
XRECORD
  5
144A
102
{ACAD_REACTORS
330
1436
102
}
330
1436
100
AcDbXrecord
 10
0.0
 20
0.0
 30
0.0
  0
XRECORD
  5
144B
102
{ACAD_REACTORS
330
1436
102
}
330
1436
100
AcDbXrecord
 10
0.0
 20
0.0
 30
0.0
  0
XRECORD
  5
1448
102
{ACAD_REACTORS
330
1436
102
}
330
1436
100
AcDbXrecord
 10
0.0
 20
0.0
 30
0.0
  0
XRECORD
  5
1445
102
{ACAD_REACTORS
330
1436
102
}
330
1436
100
AcDbXrecord
340
0
  0
XRECORD
  5
1446
102
{ACAD_REACTORS
330
1436
102
}
330
1436
100
AcDbXrecord
 70
     0
  0
XRECORD
  5
143A
102
{ACAD_REACTORS
330
1436
102
}
330
1436
100
AcDbXrecord
  1
big.ctb
  0
XRECORD
  5
1437
102
{ACAD_REACTORS
330
1436
102
}
330
1436
100
AcDbXrecord
 90
        1
  0
XRECORD
  5
1438
102
{ACAD_REACTORS
330
1436
102
}
330
1436
100
AcDbXrecord
 90
       70
  0
XRECORD
  5
1450
102
{ACAD_REACTORS
330
1436
102
}
330
1436
100
AcDbXrecord
340
0
  0
XRECORD
  5
1456
102
{ACAD_REACTORS
330
1436
102
}
330
1436
100
AcDbXrecord
 10
0.0
 20
0.0
 30
0.0
  0
XRECORD
  5
1452
102
{ACAD_REACTORS
330
1436
102
}
330
1436
100
AcDbXrecord
 10
0.0
 20
0.0
 30
0.0
  0
XRECORD
  5
1455
102
{ACAD_REACTORS
330
1436
102
}
330
1436
100
AcDbXrecord
 10
0.0
 20
0.0
 30
0.0
  0
XRECORD
  5
1453
102
{ACAD_REACTORS
330
1436
102
}
330
1436
100
AcDbXrecord
 10
0.0
 20
0.0
 30
0.0
  0
XRECORD
  5
1454
102
{ACAD_REACTORS
330
1436
102
}
330
1436
100
AcDbXrecord
 10
0.0
 20
0.0
 30
0.0
  0
XRECORD
  5
1451
102
{ACAD_REACTORS
330
1436
102
}
330
1436
100
AcDbXrecord
 10
0.0
 20
0.0
 30
0.0
  0
XRECORD
  5
144E
102
{ACAD_REACTORS
330
1436
102
}
330
1436
100
AcDbXrecord
340
0
  0
XRECORD
  5
144F
102
{ACAD_REACTORS
330
1436
102
}
330
1436
100
AcDbXrecord
 70
     0
  0
XRECORD
  5
1442
102
{ACAD_REACTORS
330
1436
102
}
330
1436
100
AcDbXrecord
  1
{3F959C2A-355F-4639-BBE4-73A43DA71279}
  0
XRECORD
  5
560
102
{ACAD_REACTORS
330
540
102
}
330
540
100
AcDbXrecord
  1
2.0.0
  0
ENDSEC
  0
EOF
