  0
SECTION
  2
HEADER
  9
$ACADVER
  1
AC1014
  9
$ACADMAINTVER
 70
     9
  9
$DWGCODEPAGE
  3
ANSI_932
  9
$INSBASE
 10
0.0
 20
0.0
 30
0.0
  9
$EXTMIN
 10
-102.81595337
 20
-50.27983582
 30
-0.00152582
  9
$EXTMAX
 10
226.40700783
 20
82.00740372
 30
0.00000003
  9
$LIMMIN
 10
0.0
 20
0.0
  9
$LIMMAX
 10
420.0
 20
297.0
  9
$ORTHOMODE
 70
     1
  9
$REGENMODE
 70
     1
  9
$FILLMODE
 70
     1
  9
$QTEXTMODE
 70
     0
  9
$MIRRTEXT
 70
     1
  9
$DRAGMODE
 70
     2
  9
$LTSCALE
 40
10.0
  9
$OSMODE
 70
   549
  9
$ATTMODE
 70
     1
  9
$TEXTSIZE
 40
3.0
  9
$TRACEWID
 40
1.0
  9
$TEXTSTYLE
  7
YOKO
  9
$CLAYER
  8
245
  9
$CELTYPE
  6
BYLAYER
  9
$CECOLOR
 62
   256
  9
$CELTSCALE
 40
1.0
  9
$DELOBJ
 70
     1
  9
$DISPSILH
 70
     0
  9
$DIMSCALE
 40
1.0
  9
$DIMASZ
 40
2.23
  9
$DIMEXO
 40
0.5
  9
$DIMDLI
 40
2.5
  9
$DIMRND
 40
0.0
  9
$DIMDLE
 40
0.0
  9
$DIMEXE
 40
1.0
  9
$DIMTP
 40
0.0
  9
$DIMTM
 40
0.0
  9
$DIMTXT
 40
2.8
  9
$DIMCEN
 40
0.0
  9
$DIMTSZ
 40
0.0
  9
$DIMTOL
 70
     0
  9
$DIMLIM
 70
     0
  9
$DIMTIH
 70
     0
  9
$DIMTOH
 70
     0
  9
$DIMSE1
 70
     0
  9
$DIMSE2
 70
     0
  9
$DIMTAD
 70
     3
  9
$DIMZIN
 70
     8
  9
$DIMBLK
  1

  9
$DIMASO
 70
     1
  9
$DIMSHO
 70
     1
  9
$DIMPOST
  1

  9
$DIMAPOST
  1

  9
$DIMALT
 70
     0
  9
$DIMALTD
 70
     2
  9
$DIMALTF
 40
25.4
  9
$DIMLFAC
 40
1.0
  9
$DIMTOFL
 70
     1
  9
$DIMTVP
 40
0.0
  9
$DIMTIX
 70
     1
  9
$DIMSOXD
 70
     0
  9
$DIMSAH
 70
     1
  9
$DIMBLK1
  1
OPEN
  9
$DIMBLK2
  1
OPEN
  9
$DIMSTYLE
  2
BIGT
  9
$DIMCLRD
 70
   256
  9
$DIMCLRE
 70
   256
  9
$DIMCLRT
 70
    40
  9
$DIMTFAC
 40
1.0
  9
$DIMGAP
 40
1.0
  9
$DIMJUST
 70
     0
  9
$DIMSD1
 70
     0
  9
$DIMSD2
 70
     0
  9
$DIMTOLJ
 70
     1
  9
$DIMTZIN
 70
     8
  9
$DIMALTZ
 70
     0
  9
$DIMALTTZ
 70
     0
  9
$DIMFIT
 70
     3
  9
$DIMUPT
 70
     0
  9
$DIMUNIT
 70
     2
  9
$DIMDEC
 70
     3
  9
$DIMTDEC
 70
     3
  9
$DIMALTU
 70
     2
  9
$DIMALTTD
 70
     2
  9
$DIMTXSTY
  7
STANDARD
  9
$DIMAUNIT
 70
     0
  9
$LUNITS
 70
     2
  9
$LUPREC
 70
     3
  9
$SKETCHINC
 40
1.0
  9
$FILLETRAD
 40
5.0
  9
$AUNITS
 70
     0
  9
$AUPREC
 70
     3
  9
$MENU
  1
.
  9
$ELEVATION
 40
0.0
  9
$PELEVATION
 40
0.0
  9
$THICKNESS
 40
0.0
  9
$LIMCHECK
 70
     0
  9
$BLIPMODE
 70
     0
  9
$CHAMFERA
 40
10.0
  9
$CHAMFERB
 40
10.0
  9
$CHAMFERC
 40
0.0
  9
$CHAMFERD
 40
0.0
  9
$SKPOLY
 70
     0
  9
$TDCREATE
 40
2455232.693071099
  9
$TDUPDATE
 40
2455232.700904398
  9
$TDINDWG
 40
0.0066476852
  9
$TDUSRTIMER
 40
0.0066476852
  9
$USRTIMER
 70
     1
  9
$ANGBASE
 50
0.0
  9
$ANGDIR
 70
     0
  9
$PDMODE
 70
     1
  9
$PDSIZE
 40
-5.0
  9
$PLINEWID
 40
0.0
  9
$COORDS
 70
     0
  9
$SPLFRAME
 70
     0
  9
$SPLINETYPE
 70
     6
  9
$SPLINESEGS
 70
     8
  9
$ATTDIA
 70
     0
  9
$ATTREQ
 70
     1
  9
$HANDLING
 70
-16383
  9
$HANDSEED
  5
FB5
  9
$SURFTAB1
 70
     6
  9
$SURFTAB2
 70
     6
  9
$SURFTYPE
 70
     6
  9
$SURFU
 70
     6
  9
$SURFV
 70
     6
  9
$UCSNAME
  2

  9
$UCSORG
 10
0.0
 20
0.0
 30
0.0
  9
$UCSXDIR
 10
1.0
 20
0.0
 30
0.0
  9
$UCSYDIR
 10
0.0
 20
1.0
 30
0.0
  9
$PUCSNAME
  2

  9
$PUCSORG
 10
0.0
 20
0.0
 30
0.0
  9
$PUCSXDIR
 10
1.0
 20
0.0
 30
0.0
  9
$PUCSYDIR
 10
0.0
 20
1.0
 30
0.0
  9
$USERI1
 70
     1
  9
$USERI2
 70
     0
  9
$USERI3
 70
     0
  9
$USERI4
 70
     0
  9
$USERI5
 70
     0
  9
$USERR1
 40
0.0
  9
$USERR2
 40
0.0
  9
$USERR3
 40
0.0
  9
$USERR4
 40
0.0
  9
$USERR5
 40
0.0
  9
$WORLDVIEW
 70
     1
  9
$SHADEDGE
 70
     3
  9
$SHADEDIF
 70
    70
  9
$TILEMODE
 70
     1
  9
$MAXACTVP
 70
    16
  9
$PINSBASE
 10
0.0
 20
0.0
 30
0.0
  9
$PLIMCHECK
 70
     0
  9
$PEXTMIN
 10
1.00000000E+20
 20
1.00000000E+20
 30
1.00000000E+20
  9
$PEXTMAX
 10
-1.00000000E+20
 20
-1.00000000E+20
 30
-1.00000000E+20
  9
$PLIMMIN
 10
0.0
 20
0.0
  9
$PLIMMAX
 10
420.0
 20
297.0
  9
$UNITMODE
 70
     0
  9
$VISRETAIN
 70
     0
  9
$PLINEGEN
 70
     0
  9
$PSLTSCALE
 70
     1
  9
$TREEDEPTH
 70
  3020
  9
$PICKSTYLE
 70
     0
  9
$CMLSTYLE
  2
STANDARD
  9
$CMLJUST
 70
     0
  9
$CMLSCALE
 40
1.0
  9
$PROXYGRAPHICS
 70
     1
  9
$MEASUREMENT
 70
     1
  0
ENDSEC
  0
SECTION
  2
CLASSES
  0
CLASS
  1
XRECORD
  2
AcDbXrecord
  3
AutoCAD 2000
 90
        0
280
     0
281
     0
  0
CLASS
  1
ACDBDICTIONARYWDFLT
  2
AcDbDictionaryWithDefault
  3
AutoCAD 2000
 90
        0
280
     0
281
     0
  0
CLASS
  1
ACDBPLACEHOLDER
  2
AcDbPlaceHolder
  3
AutoCAD 2000
 90
        0
280
     0
281
     0
  0
CLASS
  1
LAYOUT
  2
AcDbLayout
  3
AutoCAD 2000
 90
        0
280
     0
281
     0
  0
CLASS
  1
PLOTSETTINGS
  2
AcDbPlotSettings
  3
AutoCAD 2000
 90
        0
280
     0
281
     0
  0
CLASS
  1
LONG_TRANSACTION
  2
AcDbLongTransaction
  3
AutoCAD 2000
 90
        0
280
     0
281
     0
  0
CLASS
  1
LWPOLYLINE
  2
AcDbPolyline
  3
AutoCAD 2000
 90
        0
280
     0
281
     1
  0
CLASS
  1
HATCH
  2
AcDbHatch
  3
AutoCAD 2000
 90
        0
280
     0
281
     1
  0
CLASS
  1
XRECORD
  2
AcDbXrecord
  3
AutoCAD 2000
 90
        0
280
     0
281
     0
  0
CLASS
  1
LONG_TRANSACTION
  2
AcDbLongTransaction
  3
AutoCAD 2000
 90
        0
280
     0
281
     0
  0
CLASS
  1
LWPOLYLINE
  2
AcDbPolyline
  3
AutoCAD 2000
 90
        0
280
     0
281
     1
  0
CLASS
  1
HATCH
  2
AcDbHatch
  3
AutoCAD 2000
 90
        0
280
     0
281
     1
  0
CLASS
  1
XRECORD
  2
AcDbXrecord
  3
AutoCAD 2000
 90
        0
280
     0
281
     0
  0
ENDSEC
  0
SECTION
  2
TABLES
  0
TABLE
  2
VPORT
  5
8
330
0
100
AcDbSymbolTable
 70
     4
  0
VPORT
  5
F90
330
8
100
AcDbSymbolTableRecord
100
AcDbViewportTableRecord
  2
*ACTIVE
 70
     0
 10
0.0
 20
0.0
 11
1.0
 21
1.0
 12
61.79552723
 22
15.86378395
 13
0.0
 23
0.0
 14
7.0
 24
7.0
 15
7.0
 25
7.0
 16
0.0
 26
0.0
 36
1.0
 17
0.0
 27
0.0
 37
0.0
 40
231.1546641
 41
1.43184713
 42
50.0
 43
0.0
 44
0.0
 50
0.0
 51
0.0
 71
     0
 72
  2000
 73
     1
 74
     0
 75
     0
 76
     0
 77
     0
 78
     0
  0
ENDTAB
  0
TABLE
  2
LTYPE
  5
5
330
0
100
AcDbSymbolTable
 70
     3
  0
LTYPE
  5
14
330
5
100
AcDbSymbolTableRecord
100
AcDbLinetypeTableRecord
  2
BYBLOCK
 70
     0
  3

 72
    65
 73
     0
 40
0.0
  0
LTYPE
  5
15
330
5
100
AcDbSymbolTableRecord
100
AcDbLinetypeTableRecord
  2
BYLAYER
 70
     0
  3

 72
    65
 73
     0
 40
0.0
  0
LTYPE
  5
16
330
5
100
AcDbSymbolTableRecord
100
AcDbLinetypeTableRecord
  2
CONTINUOUS
 70
     0
  3
Solid line
 72
    65
 73
     0
 40
0.0
  0
LTYPE
  5
258
330
5
100
AcDbSymbolTableRecord
100
AcDbLinetypeTableRecord
  2
CENTER2
 70
     0
  3
___ _ ___ _ ___ _ ___ _ ___ _ ___ _ ___ _ ___ _
 72
    65
 73
     4
 40
1.125
 49
0.75
 74
     0
 49
-0.125
 74
     0
 49
0.125
 74
     0
 49
-0.125
 74
     0
  0
LTYPE
  5
25C
330
5
100
AcDbSymbolTableRecord
100
AcDbLinetypeTableRecord
  2
HIDDEN2
 70
     0
  3
_ _ _ _ _ _ _ _ _ _ _ _ _ _ _ _ _ _ _ _ _ _ _ _
 72
    65
 73
     2
 40
0.1875
 49
0.125
 74
     0
 49
-0.0625
 74
     0
  0
ENDTAB
  0
TABLE
  2
LAYER
  5
2
330
0
100
AcDbSymbolTable
 70
    10
  0
LAYER
  5
F
330
2
100
AcDbSymbolTableRecord
100
AcDbLayerTableRecord
  2
0
 70
     0
 62
     7
  6
CONTINUOUS
  0
LAYER
  5
1AA
330
2
100
AcDbSymbolTableRecord
100
AcDbLayerTableRecord
  2
240
 70
     0
 62
     4
  6
CONTINUOUS
  0
LAYER
  5
1AB
330
2
100
AcDbSymbolTableRecord
100
AcDbLayerTableRecord
  2
241
 70
     0
 62
   211
  6
CONTINUOUS
  0
LAYER
  5
1AF
330
2
100
AcDbSymbolTableRecord
100
AcDbLayerTableRecord
  2
245
 70
     0
 62
     2
  6
CENTER2
  0
LAYER
  5
21E
330
2
100
AcDbSymbolTableRecord
100
AcDbLayerTableRecord
  2
250
 70
     0
 62
     3
  6
CONTINUOUS
  0
LAYER
  5
21F
330
2
100
AcDbSymbolTableRecord
100
AcDbLayerTableRecord
  2
251
 70
     0
 62
    40
  6
CONTINUOUS
  0
LAYER
  5
5C4
330
2
100
AcDbSymbolTableRecord
100
AcDbLayerTableRecord
  2
DEFPOINTS
 70
     0
 62
     7
  6
CONTINUOUS
  0
ENDTAB
  0
TABLE
  2
STYLE
  5
3
330
0
100
AcDbSymbolTable
 70
     2
  0
STYLE
  5
10
330
3
100
AcDbSymbolTableRecord
100
AcDbTextStyleTableRecord
  2
STANDARD
 70
     0
 40
0.0
 41
1.0
 50
0.0
 71
     0
 42
3.0
  3
romans.shx
  4
BIGFONT.SHX
  0
STYLE
  5
339
330
3
100
AcDbSymbolTableRecord
100
AcDbTextStyleTableRecord
  2
YOKO
 70
     0
 40
0.0
 41
1.0
 50
0.0
 71
     0
 42
3.0
  3
romans.shx
  4
extfont.shx
  0
ENDTAB
  0
TABLE
  2
VIEW
  5
6
330
0
100
AcDbSymbolTable
 70
     0
  0
ENDTAB
  0
TABLE
  2
UCS
  5
7
330
0
100
AcDbSymbolTable
 70
     0
  0
ENDTAB
  0
TABLE
  2
APPID
  5
9
330
0
100
AcDbSymbolTable
 70
     9
  0
APPID
  5
11
330
9
100
AcDbSymbolTableRecord
100
AcDbRegAppTableRecord
  2
ACAD
 70
     0
  0
APPID
  5
1B1
330
9
100
AcDbSymbolTableRecord
100
AcDbRegAppTableRecord
  2
GLOBAL
 70
     0
  0
APPID
  5
2A4
330
9
100
AcDbSymbolTableRecord
100
AcDbRegAppTableRecord
  2
DETAIL
 70
     0
  0
APPID
  5
5FD
330
9
100
AcDbSymbolTableRecord
100
AcDbRegAppTableRecord
  2
GRPNAME
 70
     0
  0
APPID
  5
5FE
330
9
100
AcDbSymbolTableRecord
100
AcDbRegAppTableRecord
  2
GPARA
 70
     0
  0
APPID
  5
6C4
330
9
100
AcDbSymbolTableRecord
100
AcDbRegAppTableRecord
  2
DCO15
 70
     0
  0
APPID
  5
6C5
330
9
100
AcDbSymbolTableRecord
100
AcDbRegAppTableRecord
  2
ITEMNAME
 70
     0
  0
APPID
  5
6C6
330
9
100
AcDbSymbolTableRecord
100
AcDbRegAppTableRecord
  2
GRADE_0
 70
     0
  0
APPID
  5
CBD
330
9
100
AcDbSymbolTableRecord
100
AcDbRegAppTableRecord
  2
CONTENTBLOCKICON
 70
     0
  0
ENDTAB
  0
TABLE
  2
DIMSTYLE
  5
A
330
0
100
AcDbSymbolTable
 70
     4
  0
DIMSTYLE
105
725
102
{ACAD_REACTORS
330
87D
330
87E
330
AE9
330
B03
330
B09
102
}
330
A
100
AcDbSymbolTableRecord
100
AcDbDimStyleTableRecord
  2
BIGT
 70
     0
  3

  4

  5

  6
OPEN
  7
OPEN
 40
1.0
 41
2.23
 42
0.5
 43
2.5
 44
1.0
 45
0.0
 46
0.0
 47
0.0
 48
0.0
140
2.8
141
0.0
142
0.0
143
25.4
144
1.0
145
0.0
146
1.0
147
1.0
 71
     0
 72
     0
 73
     0
 74
     0
 75
     0
 76
     0
 77
     3
 78
     8
170
     0
171
     2
172
     1
173
     1
174
     1
175
     0
176
   256
177
   256
178
    40
270
     2
271
     3
272
     3
273
     2
274
     2
340
10
275
     0
280
     0
281
     0
282
     0
283
     1
284
     8
285
     0
286
     0
287
     3
288
     0
  0
ENDTAB
  0
TABLE
  2
BLOCK_RECORD
  5
1
330
0
100
AcDbSymbolTable
 70
    12
  0
BLOCK_RECORD
  5
1A
102
{ACAD_XDICTIONARY
360
CBB
102
}
330
1
100
AcDbSymbolTableRecord
100
AcDbBlockTableRecord
  2
*MODEL_SPACE
  0
BLOCK_RECORD
  5
17
102
{ACAD_XDICTIONARY
360
CB9
102
}
330
1
100
AcDbSymbolTableRecord
100
AcDbBlockTableRecord
  2
*PAPER_SPACE
  0
BLOCK_RECORD
  5
594
330
1
100
AcDbSymbolTableRecord
100
AcDbBlockTableRecord
  2
_OPEN
  0
BLOCK_RECORD
  5
6E3
330
1
100
AcDbSymbolTableRecord
100
AcDbBlockTableRecord
  2
矢印なし
  0
BLOCK_RECORD
  5
79D
330
1
100
AcDbSymbolTableRecord
100
AcDbBlockTableRecord
  2
1
1001
CONTENTBLOCKICON
1071
        0
1004
2800000020000000200000000100080000000000000400000000000000000000000000000000000000000000000080000080000000808000800000008000800080800000C0C0C000C0DCC000F0CAA6000020400000206000002080000020A0000020C0000020E00000400000004020000040400000406000004080000040A0
1004
000040C0000040E00000600000006020000060400000606000006080000060A0000060C0000060E00000800000008020000080400000806000008080000080A0000080C0000080E00000A0000000A0200000A0400000A0600000A0800000A0A00000A0C00000A0E00000C0000000C0200000C0400000C0600000C0800000C0
1004
A00000C0C00000C0E00000E0000000E0200000E0400000E0600000E0800000E0A00000E0C00000E0E00040000000400020004000400040006000400080004000A0004000C0004000E00040200000402020004020400040206000402080004020A0004020C0004020E000404000004040200040404000404060004040800040
1004
40A0004040C0004040E00040600000406020004060400040606000406080004060A0004060C0004060E00040800000408020004080400040806000408080004080A0004080C0004080E00040A0000040A0200040A0400040A0600040A0800040A0A00040A0C00040A0E00040C0000040C0200040C0400040C0600040C08000
1004
40C0A00040C0C00040C0E00040E0000040E0200040E0400040E0600040E0800040E0A00040E0C00040E0E00080000000800020008000400080006000800080008000A0008000C0008000E00080200000802020008020400080206000802080008020A0008020C0008020E00080400000804020008040400080406000804080
1004
008040A0008040C0008040E00080600000806020008060400080606000806080008060A0008060C0008060E00080800000808020008080400080806000808080008080A0008080C0008080E00080A0000080A0200080A0400080A0600080A0800080A0A00080A0C00080A0E00080C0000080C0200080C0400080C0600080C0
1004
800080C0A00080C0C00080C0E00080E0000080E0200080E0400080E0600080E0800080E0A00080E0C00080E0E000C0000000C0002000C0004000C0006000C0008000C000A000C000C000C000E000C0200000C0202000C0204000C0206000C0208000C020A000C020C000C020E000C0400000C0402000C0404000C0406000C0
1004
408000C040A000C040C000C040E000C0600000C0602000C0604000C0606000C0608000C060A000C060C000C060E000C0800000C0802000C0804000C0806000C0808000C080A000C080C000C080E000C0A00000C0A02000C0A04000C0A06000C0A08000C0A0A000C0A0C000C0A0E000C0C00000C0C02000C0C04000C0C06000
1004
C0C08000C0C0A000F0FBFF00A4A0A000808080000000FF0000FF000000FFFF00FF000000FF00FF00FFFF0000FFFFFF0000000000000000000000000000000000000000000000000000000000000000000000000000000000000000000000000000000000000000000000000000000000000000000000000000000000000000
1004
00000000000000000000000000000000000000000000000000000000000000000000000000000000000000000000000000000000000000000000000000000000000000000000000000000000000000000000000000000000000000000000000000000000000000000000000000000000000000000000000000000000000000
1004
00000000000000000000000000000000000000000000000000000000000000000000000000000000000000000000000000000000000000000000000000000000000000000000000000000000000000000000000000000000000000000000000000000000000000000000000000000000000000000000000000000000000000
1004
000000000000000000000000000000000000000000000000000000000000FEFEFBFE0000000000000000000000000000000000000000000000000000FEFEFEE7E7FE00000000000000000000000000000000000000000000FEFEFEFE0000E7E7E7E7FEFEFEFEFEFEFEFEFEFEFEFEFEFEFE00000000FEFEFE000000000000E7
1004
E7E7E700E7E7E7E7E70000E7E7E7E7E7E7FE00000000FE0000000000000000E7E7E7E700E7E7E7E7E70000E7E7E7E7E7E7FE000000FBFEFBFBFBFBFBFBFBFBE7E7E7E7FBE7E7E7E7E7FBFBE7FBE7E7E7E7FEFB000000FEFEFE000000000000E7E7E7E700E7E7E7E7E70000E7E7E7E7E7E7FE00000000000000FEFEFEFE0000
1004
E7E7E7E7FEFEFEFEFEFEFEFEFEFEFEFEFEFEFE0000000000000000000000FEFEFEE7FEFE00000000000000000000000000000000000000000000000000000000FEFEFBFE0000000000000000000000000000000000000000000000000000000000000000000000000000000000000000000000000000000000000000000000
1004
00000000000000000000000000000000000000000000000000000000000000000000000000000000000000000000000000000000000000000000000000000000000000000000000000000000000000000000000000000000000000000000000000000000000000000000000000000000000000000000000000000000000000
1004
00000000000000000000000000000000000000000000000000000000000000000000000000000000000000000000000000000000000000000000000000000000000000000000000000000000000000000000000000000000000000000000000000000000000000000000000000000000000000000000000000000000000000
1004
0000000000000000000000000000000000000000000000000000000000000000000000000000000000000000000000000000000000000000
  0
BLOCK_RECORD
  5
886
330
1
100
AcDbSymbolTableRecord
100
AcDbBlockTableRecord
  2
*D3
  0
BLOCK_RECORD
  5
892
330
1
100
AcDbSymbolTableRecord
100
AcDbBlockTableRecord
  2
*D4
  0
BLOCK_RECORD
  5
B1A
330
1
100
AcDbSymbolTableRecord
100
AcDbBlockTableRecord
  2
*D5
  0
BLOCK_RECORD
  5
B26
330
1
100
AcDbSymbolTableRecord
100
AcDbBlockTableRecord
  2
*D6
  0
BLOCK_RECORD
  5
B32
330
1
100
AcDbSymbolTableRecord
100
AcDbBlockTableRecord
  2
*D7
  0
ENDTAB
  0
ENDSEC
  0
SECTION
  2
BLOCKS
  0
BLOCK
  5
1B
330
1A
100
AcDbEntity
  8
0
100
AcDbBlockBegin
  2
*MODEL_SPACE
 70
     0
 10
0.0
 20
0.0
 30
0.0
  3
*MODEL_SPACE
  1

  0
ENDBLK
  5
1C
330
1A
100
AcDbEntity
  8
0
100
AcDbBlockEnd
  0
BLOCK
  5
18
330
17
100
AcDbEntity
 67
     1
  8
0
100
AcDbBlockBegin
  2
*PAPER_SPACE
 70
     0
 10
0.0
 20
0.0
 30
0.0
  3
*PAPER_SPACE
  1

  0
ENDBLK
  5
19
330
17
100
AcDbEntity
 67
     1
  8
0
100
AcDbBlockEnd
  0
BLOCK
  5
598
330
594
100
AcDbEntity
  8
0
100
AcDbBlockBegin
  2
_OPEN
 70
     0
 10
0.0
 20
0.0
 30
0.0
  3
_OPEN
  1

  0
LINE
  5
595
330
594
100
AcDbEntity
  8
0
  6
BYBLOCK
 62
     0
100
AcDbLine
 10
-1.0
 20
0.16666667
 30
0.0
 11
0.0
 21
0.0
 31
0.0
  0
LINE
  5
596
330
594
100
AcDbEntity
  8
0
  6
BYBLOCK
 62
     0
100
AcDbLine
 10
-1.0
 20
-0.16666667
 30
0.0
 11
0.0
 21
0.0
 31
0.0
  0
LINE
  5
597
330
594
100
AcDbEntity
  8
0
  6
BYBLOCK
 62
     0
100
AcDbLine
 10
0.0
 20
0.0
 30
0.0
 11
-1.0
 21
0.0
 31
0.0
  0
ENDBLK
  5
599
330
594
100
AcDbEntity
  8
0
100
AcDbBlockEnd
  0
BLOCK
  5
6E4
330
6E3
100
AcDbEntity
  8
0
100
AcDbBlockBegin
  2
矢印なし
 70
     0
 10
0.0
 20
0.0
 30
0.0
  3
矢印なし
  1

  0
ENDBLK
  5
6E5
330
6E3
100
AcDbEntity
  8
0
100
AcDbBlockEnd
  0
BLOCK
  5
86C
330
79D
100
AcDbEntity
  8
0
100
AcDbBlockBegin
  2
1
 70
     0
 10
0.0
 20
0.0
 30
0.0
  3
1
  1

  0
LINE
  5
EB5
330
79D
100
AcDbEntity
  8
240
100
AcDbLine
 10
149.9
 20
28.01401869
 30
0.0
 11
160.4
 21
27.68691589
 31
0.0
  0
LINE
  5
EB6
330
79D
100
AcDbEntity
  8
240
100
AcDbLine
 10
149.9
 20
-28.01401869
 30
0.0
 11
160.4
 21
-27.68691589
 31
0.0
  0
LINE
  5
EB7
330
79D
100
AcDbEntity
  8
241
  6
HIDDEN2
100
AcDbLine
 10
145.61243557
 20
8.0
 30
0.0
 11
197.4
 21
8.0
 31
0.0
  0
LINE
  5
EB8
330
79D
100
AcDbEntity
  8
245
  6
CENTER2
100
AcDbLine
 10
141.9
 20
10.5
 30
0.0
 11
199.6
 21
10.5
 31
0.0
  0
LINE
  5
EB9
330
79D
100
AcDbEntity
  8
245
  6
CENTER2
100
AcDbLine
 10
-102.8
 20
0.0
 30
0.0
 11
203.4
 21
0.0
 31
0.0
  0
LINE
  5
EBA
330
79D
100
AcDbEntity
  8
240
  6
CONTINUOUS
100
AcDbLine
 10
0.0
 20
-34.925
 30
0.0
 11
-100.43089103
 21
-20.27882839
 31
0.0
  0
LINE
  5
EBB
330
79D
100
AcDbEntity
  8
240
  6
CONTINUOUS
100
AcDbLine
 10
0.0
 20
34.925
 30
0.0
 11
-100.43089103
 21
20.27882839
 31
0.0
  0
LINE
  5
EBC
330
79D
100
AcDbEntity
  8
240
  6
CONTINUOUS
100
AcDbLine
 10
-101.8
 20
18.69557562
 30
0.0
 11
-101.8
 21
0.0
 31
0.0
  0
LINE
  5
EBD
330
79D
100
AcDbEntity
  8
240
  6
CONTINUOUS
100
AcDbLine
 10
-101.8
 20
-18.69557562
 30
0.0
 11
-101.8
 21
0.0
 31
0.0
  0
ARC
  5
EBE
330
79D
100
AcDbEntity
  8
240
  6
CONTINUOUS
100
AcDbCircle
 10
-100.2
 20
-18.69557562
 30
0.0
 40
1.6
100
AcDbArc
 50
180.0
 51
261.70285503
  0
ARC
  5
EBF
330
79D
100
AcDbEntity
  8
240
  6
CONTINUOUS
100
AcDbCircle
 10
-100.2
 20
18.69557562
 30
0.0
 40
1.6
100
AcDbArc
 50
98.29714497
 51
180.0
  0
LINE
  5
EC0
330
79D
100
AcDbEntity
  8
241
  6
CONTINUOUS
100
AcDbLine
 10
38.0
 20
0.0
 30
0.0
 11
38.0
 21
36.34666239
 31
0.0
  0
LINE
  5
EC1
330
79D
100
AcDbEntity
  8
241
100
AcDbLine
 10
139.9
 20
0.0
 30
0.0
 11
139.9
 21
28.32554517
 31
0.0
  0
LINE
  5
EC2
330
79D
100
AcDbEntity
  8
241
100
AcDbLine
 10
136.9
 20
0.0
 30
0.0
 11
136.9
 21
28.41900312
 31
0.0
  0
LINE
  5
EC3
330
79D
100
AcDbEntity
  8
241
100
AcDbLine
 10
144.9
 20
0.0
 30
0.0
 11
144.9
 21
28.16978193
 31
0.0
  0
LINE
  5
EC4
330
79D
100
AcDbEntity
  8
241
100
AcDbLine
 10
141.9
 20
0.0
 30
0.0
 11
141.9
 21
28.26323988
 31
0.0
  0
LINE
  5
EC5
330
79D
100
AcDbEntity
  8
241
100
AcDbLine
 10
149.9
 20
0.0
 30
0.0
 11
149.9
 21
28.01401869
 31
0.0
  0
LINE
  5
EC6
330
79D
100
AcDbEntity
  8
241
100
AcDbLine
 10
146.9
 20
0.0
 30
0.0
 11
146.9
 21
28.10747664
 31
0.0
  0
LINE
  5
EC7
330
79D
100
AcDbEntity
  8
241
100
AcDbLine
 10
104.0
 20
0.0
 30
0.0
 11
104.0
 21
29.44392523
 31
0.0
  0
LINE
  5
EC8
330
79D
100
AcDbEntity
  8
241
100
AcDbLine
 10
94.0
 20
0.0
 30
0.0
 11
94.0
 21
29.75545171
 31
0.0
  0
LINE
  5
EC9
330
79D
100
AcDbEntity
  8
241
100
AcDbLine
 10
86.0
 20
0.0
 30
0.0
 11
86.0
 21
30.0046729
 31
0.0
  0
LINE
  5
ECA
330
79D
100
AcDbEntity
  8
241
100
AcDbLine
 10
76.0
 20
0.0
 30
0.0
 11
76.0
 21
30.31619938
 31
0.0
  0
LINE
  5
ECB
330
79D
100
AcDbEntity
  8
241
100
AcDbLine
 10
68.0
 20
0.0
 30
0.0
 11
68.0
 21
30.56542056
 31
0.0
  0
LINE
  5
ECC
330
79D
100
AcDbEntity
  8
241
100
AcDbLine
 10
58.0
 20
0.0
 30
0.0
 11
58.0
 21
30.87694704
 31
0.0
  0
LINE
  5
ECD
330
79D
100
AcDbEntity
  8
245
  6
CENTER2
100
AcDbLine
 10
23.2
 20
-50.0
 30
0.0
 11
23.2
 21
50.0
 31
0.0
  0
LINE
  5
ECE
330
79D
100
AcDbEntity
  8
241
  6
CONTINUOUS
100
AcDbLine
 10
26.36987298
 20
42.5
 30
0.0
 11
26.36987298
 21
0.0
 31
0.0
  0
LINE
  5
ECF
330
79D
100
AcDbEntity
  8
241
  6
CONTINUOUS
100
AcDbLine
 10
20.03012702
 20
42.5
 30
0.0
 11
20.03012702
 21
0.0
 31
0.0
  0
LINE
  5
ED0
330
79D
100
AcDbEntity
  8
241
  6
CONTINUOUS
100
AcDbLine
 10
15.7
 20
50.0
 30
0.0
 11
15.7
 21
0.0
 31
0.0
  0
LINE
  5
ED1
330
79D
100
AcDbEntity
  8
241
  6
CONTINUOUS
100
AcDbLine
 10
30.7
 20
50.0
 30
0.0
 11
30.7
 21
0.0
 31
0.0
  0
LINE
  5
ED2
330
79D
100
AcDbEntity
  8
241
  6
CONTINUOUS
100
AcDbLine
 10
0.0
 20
34.925
 30
0.0
 11
0.0
 21
0.0
 31
0.0
  0
LINE
  5
ED3
330
79D
100
AcDbEntity
  8
241
100
AcDbLine
 10
1.5
 20
34.925
 30
0.0
 11
1.5
 21
0.0
 31
0.0
  0
LINE
  5
ED4
330
79D
100
AcDbEntity
  8
240
100
AcDbLine
 10
77.03265507
 20
-29.28354431
 30
0.0
 11
76.0
 21
-30.31619938
 31
0.0
  0
LINE
  5
ED5
330
79D
100
AcDbEntity
  8
240
  6
CONTINUOUS
100
AcDbLine
 10
38.0
 20
-48.7
 30
0.0
 11
38.0
 21
-36.34666239
 31
0.0
  0
LINE
  5
ED6
330
79D
100
AcDbEntity
  8
241
  6
CONTINUOUS
100
AcDbLine
 10
30.7
 20
-50.0
 30
0.0
 11
30.7
 21
0.0
 31
0.0
  0
LINE
  5
ED7
330
79D
100
AcDbEntity
  8
241
  6
CONTINUOUS
100
AcDbLine
 10
15.7
 20
-50.0
 30
0.0
 11
15.7
 21
0.0
 31
0.0
  0
LINE
  5
ED8
330
79D
100
AcDbEntity
  8
241
  6
CONTINUOUS
100
AcDbLine
 10
26.36987298
 20
-42.5
 30
0.0
 11
26.36987298
 21
0.0
 31
0.0
  0
LINE
  5
ED9
330
79D
100
AcDbEntity
  8
241
  6
CONTINUOUS
100
AcDbLine
 10
20.03012702
 20
-42.5
 30
0.0
 11
20.03012702
 21
0.0
 31
0.0
  0
LINE
  5
EDA
330
79D
100
AcDbEntity
  8
240
  6
CONTINUOUS
100
AcDbLine
 10
1.5
 20
-48.7
 30
0.0
 11
1.5
 21
-34.925
 31
0.0
  0
LINE
  5
EDB
330
79D
100
AcDbEntity
  8
241
  6
HIDDEN2
100
AcDbLine
 10
34.0
 20
-35.4
 30
0.0
 11
34.0
 21
-50.0
 31
0.0
  0
LINE
  5
EDC
330
79D
100
AcDbEntity
  8
240
  6
CONTINUOUS
100
AcDbLine
 10
36.7
 20
-50.0
 30
0.0
 11
30.7
 21
-50.0
 31
0.0
  0
LINE
  5
EDD
330
79D
100
AcDbEntity
  8
240
  6
CONTINUOUS
100
AcDbLine
 10
2.8
 20
-50.0
 30
0.0
 11
15.7
 21
-50.0
 31
0.0
  0
ARC
  5
EDE
330
79D
100
AcDbEntity
  8
240
  6
CONTINUOUS
100
AcDbCircle
 10
2.8
 20
-48.7
 30
0.0
 40
1.3
100
AcDbArc
 50
180.0
 51
270.0
  0
LINE
  5
EDF
330
79D
100
AcDbEntity
  8
240
  6
CONTINUOUS
100
AcDbLine
 10
26.36987298
 20
-42.5
 30
0.0
 11
20.03012702
 21
-42.5
 31
0.0
  0
LINE
  5
EE0
330
79D
100
AcDbEntity
  8
240
  6
CONTINUOUS
100
AcDbLine
 10
20.03012702
 20
-42.5
 30
0.0
 11
15.7
 21
-50.0
 31
0.0
  0
LINE
  5
EE1
330
79D
100
AcDbEntity
  8
240
  6
CONTINUOUS
100
AcDbLine
 10
26.36987298
 20
-42.5
 30
0.0
 11
30.7
 21
-50.0
 31
0.0
  0
ARC
  5
EE2
330
79D
100
AcDbEntity
  8
240
  6
CONTINUOUS
100
AcDbCircle
 10
36.7
 20
-48.7
 30
0.0
 40
1.3
100
AcDbArc
 50
270.0
 51
0.0
  0
LINE
  5
EE3
330
79D
100
AcDbEntity
  8
241
  6
CONTINUOUS
100
AcDbLine
 10
0.0
 20
-34.925
 30
0.0
 11
0.0
 21
0.0
 31
0.0
  0
LINE
  5
EE4
330
79D
100
AcDbEntity
  8
241
100
AcDbLine
 10
1.5
 20
-34.925
 30
0.0
 11
1.5
 21
0.0
 31
0.0
  0
LINE
  5
EE5
330
79D
100
AcDbEntity
  8
241
  6
HIDDEN2
100
AcDbLine
 10
1.5
 20
-35.4
 30
0.0
 11
34.0
 21
-35.4
 31
0.0
  0
LINE
  5
EE6
330
79D
100
AcDbEntity
  8
240
100
AcDbLine
 10
0.0
 20
-34.925
 30
0.0
 11
1.5
 21
-34.925
 31
0.0
  0
LINE
  5
EE7
330
79D
100
AcDbEntity
  8
241
  6
CONTINUOUS
100
AcDbLine
 10
38.0
 20
0.0
 30
0.0
 11
38.0
 21
-36.34666239
 31
0.0
  0
LINE
  5
EE8
330
79D
100
AcDbEntity
  8
241
100
AcDbLine
 10
58.0
 20
0.0
 30
0.0
 11
58.0
 21
-30.87694704
 31
0.0
  0
LINE
  5
EE9
330
79D
100
AcDbEntity
  8
241
100
AcDbLine
 10
68.0
 20
0.0
 30
0.0
 11
68.0
 21
-30.56542056
 31
0.0
  0
LINE
  5
EEA
330
79D
100
AcDbEntity
  8
241
100
AcDbLine
 10
76.0
 20
0.0
 30
0.0
 11
76.0
 21
-30.31619938
 31
0.0
  0
LINE
  5
EEB
330
79D
100
AcDbEntity
  8
240
100
AcDbLine
 10
58.0
 20
-30.87694704
 30
0.0
 11
42.84431229
 21
-31.34908684
 31
0.0
  0
ARC
  5
EEC
330
79D
100
AcDbEntity
  8
240
100
AcDbCircle
 10
43.0
 20
-36.34666239
 30
0.0
 40
5.0
100
AcDbArc
 50
91.78433817
 51
180.0
  0
LINE
  5
EED
330
79D
100
AcDbEntity
  8
240
100
AcDbLine
 10
59.03265507
 20
-29.84429197
 30
0.0
 11
67.02974101
 21
-29.59516157
 31
0.0
  0
LINE
  5
EEE
330
79D
100
AcDbEntity
  8
240
100
AcDbLine
 10
59.03265507
 20
-29.84429197
 30
0.0
 11
58.0
 21
-30.87694704
 31
0.0
  0
LINE
  5
EEF
330
79D
100
AcDbEntity
  8
240
100
AcDbLine
 10
76.0
 20
-30.31619938
 30
0.0
 11
68.0
 21
-30.56542056
 31
0.0
  0
LINE
  5
EF0
330
79D
100
AcDbEntity
  8
240
100
AcDbLine
 10
67.02974101
 20
-29.59516157
 30
0.0
 11
68.0
 21
-30.56542056
 31
0.0
  0
LINE
  5
EF1
330
79D
100
AcDbEntity
  8
240
100
AcDbLine
 10
136.9
 20
-28.41900312
 30
0.0
 11
104.0
 21
-29.44392523
 31
0.0
  0
LINE
  5
EF2
330
79D
100
AcDbEntity
  8
241
100
AcDbLine
 10
86.0
 20
0.0
 30
0.0
 11
86.0
 21
-30.0046729
 31
0.0
  0
LINE
  5
EF3
330
79D
100
AcDbEntity
  8
241
100
AcDbLine
 10
94.0
 20
0.0
 30
0.0
 11
94.0
 21
-29.75545171
 31
0.0
  0
LINE
  5
EF4
330
79D
100
AcDbEntity
  8
241
100
AcDbLine
 10
104.0
 20
0.0
 30
0.0
 11
104.0
 21
-29.44392523
 31
0.0
  0
LINE
  5
EF5
330
79D
100
AcDbEntity
  8
240
100
AcDbLine
 10
95.03265507
 20
-28.72279665
 30
0.0
 11
103.02974101
 21
-28.47366624
 31
0.0
  0
LINE
  5
EF6
330
79D
100
AcDbEntity
  8
240
100
AcDbLine
 10
94.0
 20
-29.75545171
 30
0.0
 11
86.0
 21
-30.0046729
 31
0.0
  0
LINE
  5
EF7
330
79D
100
AcDbEntity
  8
240
100
AcDbLine
 10
77.03265507
 20
-29.28354431
 30
0.0
 11
85.02974101
 21
-29.03441391
 31
0.0
  0
LINE
  5
EF8
330
79D
100
AcDbEntity
  8
240
100
AcDbLine
 10
85.02974101
 20
-29.03441391
 30
0.0
 11
86.0
 21
-30.0046729
 31
0.0
  0
LINE
  5
EF9
330
79D
100
AcDbEntity
  8
240
100
AcDbLine
 10
95.03265507
 20
-28.72279665
 30
0.0
 11
94.0
 21
-29.75545171
 31
0.0
  0
LINE
  5
EFA
330
79D
100
AcDbEntity
  8
240
100
AcDbLine
 10
103.02974101
 20
-28.47366624
 30
0.0
 11
104.0
 21
-29.44392523
 31
0.0
  0
LINE
  5
EFB
330
79D
100
AcDbEntity
  8
241
100
AcDbLine
 10
146.9
 20
0.0
 30
0.0
 11
146.9
 21
-28.10747664
 31
0.0
  0
LINE
  5
EFC
330
79D
100
AcDbEntity
  8
241
100
AcDbLine
 10
149.9
 20
0.0
 30
0.0
 11
149.9
 21
-28.01401869
 31
0.0
  0
LINE
  5
EFD
330
79D
100
AcDbEntity
  8
241
100
AcDbLine
 10
141.9
 20
0.0
 30
0.0
 11
141.9
 21
-28.26323988
 31
0.0
  0
LINE
  5
EFE
330
79D
100
AcDbEntity
  8
241
100
AcDbLine
 10
144.9
 20
0.0
 30
0.0
 11
144.9
 21
-28.16978193
 31
0.0
  0
LINE
  5
EFF
330
79D
100
AcDbEntity
  8
241
100
AcDbLine
 10
136.9
 20
0.0
 30
0.0
 11
136.9
 21
-28.41900312
 31
0.0
  0
LINE
  5
F00
330
79D
100
AcDbEntity
  8
241
100
AcDbLine
 10
139.9
 20
0.0
 30
0.0
 11
139.9
 21
-28.32554517
 31
0.0
  0
LINE
  5
F01
330
79D
100
AcDbEntity
  8
240
100
AcDbLine
 10
137.41632753
 20
-27.90267558
 30
0.0
 11
139.41487051
 21
-27.84041568
 31
0.0
  0
LINE
  5
F02
330
79D
100
AcDbEntity
  8
240
100
AcDbLine
 10
137.41632753
 20
-27.90267558
 30
0.0
 11
136.9
 21
-28.41900312
 31
0.0
  0
LINE
  5
F03
330
79D
100
AcDbEntity
  8
240
100
AcDbLine
 10
147.41632753
 20
-27.5911491
 30
0.0
 11
149.41487051
 21
-27.5288892
 31
0.0
  0
LINE
  5
F04
330
79D
100
AcDbEntity
  8
240
100
AcDbLine
 10
142.41632753
 20
-27.74691234
 30
0.0
 11
144.41487051
 21
-27.68465244
 31
0.0
  0
LINE
  5
F05
330
79D
100
AcDbEntity
  8
240
100
AcDbLine
 10
142.41632753
 20
-27.74691234
 30
0.0
 11
141.9
 21
-28.26323988
 31
0.0
  0
LINE
  5
F06
330
79D
100
AcDbEntity
  8
240
100
AcDbLine
 10
139.41487051
 20
-27.84041568
 30
0.0
 11
139.9
 21
-28.32554517
 31
0.0
  0
LINE
  5
F07
330
79D
100
AcDbEntity
  8
240
100
AcDbLine
 10
141.9
 20
-28.26323988
 30
0.0
 11
139.9
 21
-28.32554517
 31
0.0
  0
LINE
  5
F08
330
79D
100
AcDbEntity
  8
240
100
AcDbLine
 10
147.41632753
 20
-27.5911491
 30
0.0
 11
146.9
 21
-28.10747664
 31
0.0
  0
LINE
  5
F09
330
79D
100
AcDbEntity
  8
240
100
AcDbLine
 10
144.41487051
 20
-27.68465244
 30
0.0
 11
144.9
 21
-28.16978193
 31
0.0
  0
LINE
  5
F0A
330
79D
100
AcDbEntity
  8
240
100
AcDbLine
 10
146.9
 20
-28.10747664
 30
0.0
 11
144.9
 21
-28.16978193
 31
0.0
  0
LINE
  5
F0B
330
79D
100
AcDbEntity
  8
240
100
AcDbLine
 10
149.41487051
 20
-27.5288892
 30
0.0
 11
149.9
 21
-28.01401869
 31
0.0
  0
LINE
  5
F0C
330
79D
100
AcDbEntity
  8
245
  6
CENTER2
100
AcDbLine
 10
141.9
 20
10.5
 30
0.0
 11
141.9
 21
5.5
 31
0.0
  0
LINE
  5
F0D
330
79D
100
AcDbEntity
  8
240
100
AcDbLine
 10
77.03265507
 20
29.28354431
 30
0.0
 11
76.0
 21
30.31619938
 31
0.0
  0
LINE
  5
F0E
330
79D
100
AcDbEntity
  8
240
  6
CONTINUOUS
100
AcDbLine
 10
30.7
 20
50.0
 30
0.0
 11
36.7
 21
50.0
 31
0.0
  0
LINE
  5
F0F
330
79D
100
AcDbEntity
  8
241
  6
HIDDEN2
100
AcDbLine
 10
34.0
 20
35.4
 30
0.0
 11
34.0
 21
50.0
 31
0.0
  0
LINE
  5
F10
330
79D
100
AcDbEntity
  8
240
  6
CONTINUOUS
100
AcDbLine
 10
1.5
 20
48.7
 30
0.0
 11
1.5
 21
34.925
 31
0.0
  0
LINE
  5
F11
330
79D
100
AcDbEntity
  8
241
  6
HIDDEN2
100
AcDbLine
 10
34.0
 20
35.4
 30
0.0
 11
1.5
 21
35.4
 31
0.0
  0
LINE
  5
F12
330
79D
100
AcDbEntity
  8
240
100
AcDbLine
 10
0.0
 20
34.925
 30
0.0
 11
1.5
 21
34.925
 31
0.0
  0
LINE
  5
F13
330
79D
100
AcDbEntity
  8
240
  6
CONTINUOUS
100
AcDbLine
 10
15.7
 20
50.0
 30
0.0
 11
2.8
 21
50.0
 31
0.0
  0
ARC
  5
F14
330
79D
100
AcDbEntity
  8
240
  6
CONTINUOUS
100
AcDbCircle
 10
2.8
 20
48.7
 30
0.0
 40
1.3
100
AcDbArc
 50
90.0
 51
180.0
  0
LINE
  5
F15
330
79D
100
AcDbEntity
  8
240
  6
CONTINUOUS
100
AcDbLine
 10
26.36987298
 20
42.5
 30
0.0
 11
20.03012702
 21
42.5
 31
0.0
  0
LINE
  5
F16
330
79D
100
AcDbEntity
  8
240
  6
CONTINUOUS
100
AcDbLine
 10
20.03012702
 20
42.5
 30
0.0
 11
15.7
 21
50.0
 31
0.0
  0
LINE
  5
F17
330
79D
100
AcDbEntity
  8
240
  6
CONTINUOUS
100
AcDbLine
 10
26.36987298
 20
42.5
 30
0.0
 11
30.7
 21
50.0
 31
0.0
  0
LINE
  5
F18
330
79D
100
AcDbEntity
  8
240
  6
CONTINUOUS
100
AcDbLine
 10
38.0
 20
48.7
 30
0.0
 11
38.0
 21
36.34666239
 31
0.0
  0
LINE
  5
F19
330
79D
100
AcDbEntity
  8
240
100
AcDbLine
 10
58.0
 20
30.87694704
 30
0.0
 11
42.84431229
 21
31.34908684
 31
0.0
  0
ARC
  5
F1A
330
79D
100
AcDbEntity
  8
240
100
AcDbCircle
 10
43.0
 20
36.34666239
 30
0.0
 40
5.0
100
AcDbArc
 50
180.0
 51
268.21566183
  0
LINE
  5
F1B
330
79D
100
AcDbEntity
  8
240
100
AcDbLine
 10
59.03265507
 20
29.84429197
 30
0.0
 11
67.02974101
 21
29.59516157
 31
0.0
  0
LINE
  5
F1C
330
79D
100
AcDbEntity
  8
240
100
AcDbLine
 10
59.03265507
 20
29.84429197
 30
0.0
 11
58.0
 21
30.87694704
 31
0.0
  0
LINE
  5
F1D
330
79D
100
AcDbEntity
  8
240
100
AcDbLine
 10
76.0
 20
30.31619938
 30
0.0
 11
68.0
 21
30.56542056
 31
0.0
  0
LINE
  5
F1E
330
79D
100
AcDbEntity
  8
240
100
AcDbLine
 10
67.02974101
 20
29.59516157
 30
0.0
 11
68.0
 21
30.56542056
 31
0.0
  0
ARC
  5
F1F
330
79D
100
AcDbEntity
  8
240
  6
CONTINUOUS
100
AcDbCircle
 10
36.7
 20
48.7
 30
0.0
 40
1.3
100
AcDbArc
 50
0.0
 51
90.0
  0
LINE
  5
F20
330
79D
100
AcDbEntity
  8
240
100
AcDbLine
 10
136.9
 20
28.41900312
 30
0.0
 11
104.0
 21
29.44392523
 31
0.0
  0
LINE
  5
F21
330
79D
100
AcDbEntity
  8
240
100
AcDbLine
 10
95.03265507
 20
28.72279665
 30
0.0
 11
103.02974101
 21
28.47366624
 31
0.0
  0
LINE
  5
F22
330
79D
100
AcDbEntity
  8
240
100
AcDbLine
 10
94.0
 20
29.75545171
 30
0.0
 11
86.0
 21
30.0046729
 31
0.0
  0
LINE
  5
F23
330
79D
100
AcDbEntity
  8
240
100
AcDbLine
 10
77.03265507
 20
29.28354431
 30
0.0
 11
85.02974101
 21
29.03441391
 31
0.0
  0
LINE
  5
F24
330
79D
100
AcDbEntity
  8
240
100
AcDbLine
 10
85.02974101
 20
29.03441391
 30
0.0
 11
86.0
 21
30.0046729
 31
0.0
  0
LINE
  5
F25
330
79D
100
AcDbEntity
  8
240
100
AcDbLine
 10
95.03265507
 20
28.72279665
 30
0.0
 11
94.0
 21
29.75545171
 31
0.0
  0
LINE
  5
F26
330
79D
100
AcDbEntity
  8
240
100
AcDbLine
 10
103.02974101
 20
28.47366624
 30
0.0
 11
104.0
 21
29.44392523
 31
0.0
  0
LINE
  5
F27
330
79D
100
AcDbEntity
  8
240
100
AcDbLine
 10
137.41632753
 20
27.90267558
 30
0.0
 11
139.41487051
 21
27.84041568
 31
0.0
  0
LINE
  5
F28
330
79D
100
AcDbEntity
  8
240
100
AcDbLine
 10
137.41632753
 20
27.90267558
 30
0.0
 11
136.9
 21
28.41900312
 31
0.0
  0
LINE
  5
F29
330
79D
100
AcDbEntity
  8
240
100
AcDbLine
 10
147.41632753
 20
27.5911491
 30
0.0
 11
149.41487051
 21
27.5288892
 31
0.0
  0
LINE
  5
F2A
330
79D
100
AcDbEntity
  8
240
100
AcDbLine
 10
142.41632753
 20
27.74691234
 30
0.0
 11
144.41487051
 21
27.68465244
 31
0.0
  0
LINE
  5
F2B
330
79D
100
AcDbEntity
  8
240
100
AcDbLine
 10
141.9
 20
28.26323988
 30
0.0
 11
139.9
 21
28.32554517
 31
0.0
  0
LINE
  5
F2C
330
79D
100
AcDbEntity
  8
240
100
AcDbLine
 10
139.41487051
 20
27.84041568
 30
0.0
 11
139.9
 21
28.32554517
 31
0.0
  0
LINE
  5
F2D
330
79D
100
AcDbEntity
  8
240
100
AcDbLine
 10
142.41632753
 20
27.74691234
 30
0.0
 11
141.9
 21
28.26323988
 31
0.0
  0
LINE
  5
F2E
330
79D
100
AcDbEntity
  8
240
100
AcDbLine
 10
146.9
 20
28.10747664
 30
0.0
 11
144.9
 21
28.16978193
 31
0.0
  0
LINE
  5
F2F
330
79D
100
AcDbEntity
  8
240
100
AcDbLine
 10
144.41487051
 20
27.68465244
 30
0.0
 11
144.9
 21
28.16978193
 31
0.0
  0
LINE
  5
F30
330
79D
100
AcDbEntity
  8
240
100
AcDbLine
 10
147.41632753
 20
27.5911491
 30
0.0
 11
146.9
 21
28.10747664
 31
0.0
  0
LINE
  5
F31
330
79D
100
AcDbEntity
  8
240
100
AcDbLine
 10
149.41487051
 20
27.5288892
 30
0.0
 11
149.9
 21
28.01401869
 31
0.0
  0
LINE
  5
F32
330
79D
100
AcDbEntity
  8
241
  6
CONTINUOUS
100
AcDbLine
 10
162.4
 20
27.62461059
 30
0.0
 11
162.4
 21
0.0
 31
0.0
  0
LINE
  5
F33
330
79D
100
AcDbEntity
  8
241
  6
CONTINUOUS
100
AcDbLine
 10
160.4
 20
27.68691589
 30
0.0
 11
160.4
 21
0.0
 31
0.0
  0
LINE
  5
F34
330
79D
100
AcDbEntity
  8
240
  6
CONTINUOUS
100
AcDbLine
 10
202.4
 20
14.919
 30
0.0
 11
202.4
 21
0.0
 31
0.0
1001
GRPNAME
1000
PASTMD1C
  0
LINE
  5
F35
330
79D
100
AcDbEntity
  8
241
100
AcDbLine
 10
200.8
 20
15.919
 30
0.0
 11
200.8
 21
0.0
 31
0.0
  0
LINE
  5
F36
330
79D
100
AcDbEntity
  8
241
100
AcDbLine
 10
194.2
 20
0.0
 30
0.0
 11
194.2
 21
23.0
 31
0.0
  0
LINE
  5
F37
330
79D
100
AcDbEntity
  8
241
100
AcDbLine
 10
176.5
 20
23.71700684
 30
0.0
 11
176.5
 21
0.0
 31
0.0
  0
LINE
  5
F38
330
79D
100
AcDbEntity
  8
241
100
AcDbLine
 10
183.25
 20
23.0
 30
0.0
 11
183.25
 21
0.0
 31
0.0
  0
LINE
  5
F39
330
79D
100
AcDbEntity
  8
241
100
AcDbLine
 10
174.10399638
 20
27.13299316
 30
0.0
 11
174.10399638
 21
0.0
 31
0.0
  0
LINE
  5
F3A
330
79D
100
AcDbEntity
  8
241
  6
CONTINUOUS
100
AcDbLine
 10
166.4
 20
27.5
 30
0.0
 11
166.4
 21
0.0
 31
0.0
  0
LINE
  5
F3B
330
79D
100
AcDbEntity
  8
241
  6
HIDDEN2
100
AcDbLine
 10
198.6
 20
8.1
 30
0.0
 11
202.4
 21
8.1
 31
0.0
  0
ARC
  5
F3C
330
79D
100
AcDbEntity
  8
240
100
AcDbCircle
 10
197.8
 20
-18.92955437
 30
0.0
 40
3.0
100
AcDbArc
 50
285.0
 51
0.0
  0
LINE
  5
F3D
330
79D
100
AcDbEntity
  8
241
  6
CONTINUOUS
100
AcDbLine
 10
160.4
 20
-27.68691589
 30
0.0
 11
160.4
 21
0.0
 31
0.0
  0
LINE
  5
F3E
330
79D
100
AcDbEntity
  8
241
  6
CONTINUOUS
100
AcDbLine
 10
162.4
 20
-27.62461059
 30
0.0
 11
162.4
 21
0.0
 31
0.0
  0
LINE
  5
F3F
330
79D
100
AcDbEntity
  8
241
100
AcDbLine
 10
194.2
 20
0.0
 30
0.0
 11
194.2
 21
-23.0
 31
0.0
  0
LINE
  5
F40
330
79D
100
AcDbEntity
  8
241
100
AcDbLine
 10
183.25
 20
-23.0
 30
0.0
 11
183.25
 21
0.0
 31
0.0
  0
LINE
  5
F41
330
79D
100
AcDbEntity
  8
241
100
AcDbLine
 10
176.5
 20
-23.71700684
 30
0.0
 11
176.5
 21
0.0
 31
0.0
  0
LINE
  5
F42
330
79D
100
AcDbEntity
  8
241
100
AcDbLine
 10
174.10399638
 20
-27.13299316
 30
0.0
 11
174.10399638
 21
0.0
 31
0.0
  0
LINE
  5
F43
330
79D
100
AcDbEntity
  8
241
  6
CONTINUOUS
100
AcDbLine
 10
166.4
 20
-27.5
 30
0.0
 11
166.4
 21
0.0
 31
0.0
  0
LINE
  5
F44
330
79D
100
AcDbEntity
  8
240
100
AcDbLine
 10
177.65470054
 20
-23.35
 30
0.0
 11
182.9
 21
-23.35
 31
0.0
  0
LINE
  5
F45
330
79D
100
AcDbEntity
  8
240
100
AcDbLine
 10
175.92264973
 20
-24.35
 30
0.0
 11
174.68134665
 21
-26.5
 31
0.0
  0
LINE
  5
F46
330
79D
100
AcDbEntity
  8
240
100
AcDbLine
 10
166.4
 20
-27.5
 30
0.0
 11
172.94929584
 21
-27.5
 31
0.0
  0
LINE
  5
F47
330
79D
100
AcDbEntity
  8
240
100
AcDbLine
 10
162.4
 20
-27.62461059
 30
0.0
 11
166.4
 21
-27.5
 31
0.0
  0
LINE
  5
F48
330
79D
100
AcDbEntity
  8
240
  6
CONTINUOUS
100
AcDbLine
 10
161.91487051
 20
-27.1394811
 30
0.0
 11
162.4
 21
-27.62461059
 31
0.0
  0
LINE
  5
F49
330
79D
100
AcDbEntity
  8
240
  6
CONTINUOUS
100
AcDbLine
 10
160.91632753
 20
-27.17058835
 30
0.0
 11
161.91487051
 21
-27.1394811
 31
0.0
  0
LINE
  5
F4A
330
79D
100
AcDbEntity
  8
240
  6
CONTINUOUS
100
AcDbLine
 10
160.91632753
 20
-27.17058835
 30
0.0
 11
160.4
 21
-27.68691589
 31
0.0
  0
ARC
  5
F4B
330
79D
100
AcDbEntity
  8
240
100
AcDbCircle
 10
172.94929584
 20
-25.5
 30
0.0
 40
2.0
100
AcDbArc
 50
270.0
 51
330.0
  0
ARC
  5
F4C
330
79D
100
AcDbEntity
  8
240
100
AcDbCircle
 10
177.65470054
 20
-25.35
 30
0.0
 40
2.0
100
AcDbArc
 50
90.0
 51
150.0
  0
LINE
  5
F4D
330
79D
100
AcDbEntity
  8
240
100
AcDbLine
 10
183.25
 20
-23.0
 30
0.0
 11
194.2
 21
-23.0
 31
0.0
  0
LINE
  5
F4E
330
79D
100
AcDbEntity
  8
240
100
AcDbLine
 10
183.25
 20
-23.0
 30
0.0
 11
182.9
 21
-23.35
 31
0.0
1001
GRPNAME
1000
PASTMD1P
  0
LINE
  5
F4F
330
79D
100
AcDbEntity
  8
240
100
AcDbLine
 10
198.57645714
 20
-21.82733184
 30
0.0
 11
194.2
 21
-23.0
 31
0.0
  0
LINE
  5
F50
330
79D
100
AcDbEntity
  8
241
  6
HIDDEN2
100
AcDbLine
 10
197.4
 20
0.0
 30
0.0
 11
197.4
 21
13.0
 31
0.0
  0
LINE
  5
F51
330
79D
100
AcDbEntity
  8
241
  6
HIDDEN2
100
AcDbLine
 10
197.4
 20
9.05
 30
0.0
 11
187.4
 21
9.05
 31
0.0
  0
LINE
  5
F52
330
79D
100
AcDbEntity
  8
241
  6
HIDDEN2
100
AcDbLine
 10
197.4
 20
11.95
 30
0.0
 11
187.4
 21
11.95
 31
0.0
1001
GRPNAME
1000
PASTMD28
  0
LINE
  5
F53
330
79D
100
AcDbEntity
  8
241
  6
HIDDEN2
100
AcDbLine
 10
198.6
 20
11.25717968
 30
0.0
 11
197.4
 21
11.95
 31
0.0
  0
LINE
  5
F54
330
79D
100
AcDbEntity
  8
241
  6
HIDDEN2
100
AcDbLine
 10
198.6
 20
11.25717968
 30
0.0
 11
198.6
 21
8.1
 31
0.0
  0
LINE
  5
F55
330
79D
100
AcDbEntity
  8
241
100
AcDbLine
 10
200.8
 20
-15.919
 30
0.0
 11
200.8
 21
0.0
 31
0.0
  0
LINE
  5
F56
330
79D
100
AcDbEntity
  8
240
  6
CONTINUOUS
100
AcDbLine
 10
202.4
 20
-14.919
 30
0.0
 11
202.4
 21
0.0
 31
0.0
1001
GRPNAME
1000
PASTMD1C
  0
ARC
  5
F57
330
79D
100
AcDbEntity
  8
240
  6
CONTINUOUS
100
AcDbCircle
 10
201.4
 20
-14.919
 30
0.0
 40
1.0
100
AcDbArc
 50
270.0
 51
0.0
  0
LINE
  5
F58
330
79D
100
AcDbEntity
  8
240
  6
CONTINUOUS
100
AcDbLine
 10
201.4
 20
-15.919
 30
0.0
 11
200.8
 21
-15.919
 31
0.0
  0
LINE
  5
F59
330
79D
100
AcDbEntity
  8
240
100
AcDbLine
 10
200.8
 20
-18.92955437
 30
0.0
 11
200.8
 21
-15.919
 31
0.0
  0
ARC
  5
F5A
330
79D
100
AcDbEntity
  8
240
100
AcDbCircle
 10
197.8
 20
18.92955437
 30
0.0
 40
3.0
100
AcDbArc
 50
0.0
 51
75.0
1001
GRPNAME
1000
PASTMD1P
  0
LINE
  5
F5B
330
79D
100
AcDbEntity
  8
240
100
AcDbLine
 10
177.65470054
 20
23.35
 30
0.0
 11
182.9
 21
23.35
 31
0.0
  0
LINE
  5
F5C
330
79D
100
AcDbEntity
  8
240
100
AcDbLine
 10
166.39999984
 20
27.5
 30
0.0
 11
172.94929584
 21
27.5
 31
0.0
  0
LINE
  5
F5D
330
79D
100
AcDbEntity
  8
240
100
AcDbLine
 10
162.4
 20
27.62461059
 30
0.0
 11
166.4
 21
27.5
 31
0.0
  0
LINE
  5
F5E
330
79D
100
AcDbEntity
  8
240
  6
CONTINUOUS
100
AcDbLine
 10
160.91632753
 20
27.17058835
 30
0.0
 11
160.4
 21
27.68691589
 31
0.0
  0
LINE
  5
F5F
330
79D
100
AcDbEntity
  8
240
  6
CONTINUOUS
100
AcDbLine
 10
160.91632753
 20
27.17058835
 30
0.0
 11
161.91487051
 21
27.1394811
 31
0.0
  0
LINE
  5
F60
330
79D
100
AcDbEntity
  8
240
  6
CONTINUOUS
100
AcDbLine
 10
161.91487051
 20
27.1394811
 30
0.0
 11
162.4
 21
27.62461059
 31
0.0
  0
ARC
  5
F61
330
79D
100
AcDbEntity
  8
240
100
AcDbCircle
 10
172.94929584
 20
25.5
 30
0.0
 40
2.0
100
AcDbArc
 50
30.0
 51
90.0
  0
ARC
  5
F62
330
79D
100
AcDbEntity
  8
240
100
AcDbCircle
 10
177.65470054
 20
25.35
 30
0.0
 40
2.0
100
AcDbArc
 50
210.0
 51
270.0
  0
LINE
  5
F63
330
79D
100
AcDbEntity
  8
240
100
AcDbLine
 10
175.92264973
 20
24.35
 30
0.0
 11
174.68134665
 21
26.5
 31
0.0
  0
LINE
  5
F64
330
79D
100
AcDbEntity
  8
240
100
AcDbLine
 10
183.25
 20
23.0
 30
0.0
 11
194.2
 21
23.0
 31
0.0
1001
GRPNAME
1000
PASTMD1P
  0
LINE
  5
F65
330
79D
100
AcDbEntity
  8
240
100
AcDbLine
 10
183.25
 20
23.0
 30
0.0
 11
182.9
 21
23.35
 31
0.0
1001
GRPNAME
1000
PASTMD1P
  0
LINE
  5
F66
330
79D
100
AcDbEntity
  8
240
100
AcDbLine
 10
198.57645714
 20
21.82733184
 30
0.0
 11
194.2
 21
23.0
 31
0.0
1001
GRPNAME
1000
PASTMD1P
  0
ARC
  5
F67
330
79D
100
AcDbEntity
  8
240
  6
CONTINUOUS
100
AcDbCircle
 10
201.4
 20
14.919
 30
0.0
 40
1.0
100
AcDbArc
 50
0.0
 51
90.0
  0
LINE
  5
F68
330
79D
100
AcDbEntity
  8
240
  6
CONTINUOUS
100
AcDbLine
 10
201.4
 20
15.919
 30
0.0
 11
200.8
 21
15.919
 31
0.0
  0
LINE
  5
F69
330
79D
100
AcDbEntity
  8
240
100
AcDbLine
 10
200.8
 20
18.92955437
 30
0.0
 11
200.8
 21
15.919
 31
0.0
  0
ENDBLK
  5
86D
330
79D
100
AcDbEntity
  8
0
100
AcDbBlockEnd
  0
BLOCK
  5
890
330
886
100
AcDbEntity
  8
0
100
AcDbBlockBegin
  2
*D3
 70
     1
 10
0.0
 20
0.0
 30
0.0
  3
*D3
  1

  0
LINE
  5
EA8
330
886
100
AcDbEntity
  8
250
  6
CONTINUOUS
100
AcDbLine
 10
0.0
 20
35.425
 30
0.0
 11
0.0
 21
64.0
 31
0.0
  0
LINE
  5
EA9
330
886
100
AcDbEntity
  8
250
  6
CONTINUOUS
100
AcDbLine
 10
202.4
 20
15.419
 30
0.0
 11
202.4
 21
64.0
 31
0.0
  0
LINE
  5
EAA
330
886
100
AcDbEntity
  8
250
  6
CONTINUOUS
100
AcDbLine
 10
2.23
 20
63.0
 30
0.0
 11
200.17
 21
63.0
 31
0.0
  0
INSERT
  5
EAB
330
886
100
AcDbEntity
  8
250
  6
CONTINUOUS
100
AcDbBlockReference
  2
_OPEN
 10
0.0
 20
63.0
 30
0.0
 41
2.23
 42
2.23
 43
2.23
 50
180.0
  0
INSERT
  5
EAC
330
886
100
AcDbEntity
  8
250
  6
CONTINUOUS
100
AcDbBlockReference
  2
_OPEN
 10
202.4
 20
63.0
 30
0.0
 41
2.23
 42
2.23
 43
2.23
  0
MTEXT
  5
EAD
330
886
100
AcDbEntity
  8
250
  6
CONTINUOUS
 62
    40
100
AcDbMText
 10
111.34902687
 20
65.4
 30
0.0
 40
2.8
 41
0.0
 71
     5
 72
     1
  1
\A1;202.4
1001
ACAD
1000
MTEXTBEGIN
1070
    73
1070
     1
1070
    44
1040
1.0
1070
    74
1070
     0
1000
MTEXTEND
  0
POINT
  5
EAE
330
886
100
AcDbEntity
  8
DEFPOINTS
  6
CONTINUOUS
 62
     0
100
AcDbPoint
 10
0.0
 20
34.925
 30
0.0
  0
POINT
  5
EAF
330
886
100
AcDbEntity
  8
DEFPOINTS
  6
CONTINUOUS
 62
     0
100
AcDbPoint
 10
202.4
 20
14.919
 30
0.0
  0
POINT
  5
EB0
330
886
100
AcDbEntity
  8
DEFPOINTS
  6
CONTINUOUS
 62
     0
100
AcDbPoint
 10
202.4
 20
63.0
 30
0.0
  0
ENDBLK
  5
891
330
886
100
AcDbEntity
  8
0
100
AcDbBlockEnd
  0
BLOCK
  5
89C
330
892
100
AcDbEntity
  8
0
100
AcDbBlockBegin
  2
*D4
 70
     1
 10
0.0
 20
0.0
 30
0.0
  3
*D4
  1

  0
LINE
  5
DAA
330
892
100
AcDbEntity
  8
250
  6
CONTINUOUS
100
AcDbLine
 10
129.0
 20
8.5
 30
0.0
 11
129.0
 21
57.0
 31
0.0
  0
LINE
  5
DAB
330
892
100
AcDbEntity
  8
250
  6
CONTINUOUS
100
AcDbLine
 10
202.4
 20
15.419
 30
0.0
 11
202.4
 21
57.0
 31
0.0
  0
LINE
  5
DAC
330
892
100
AcDbEntity
  8
250
  6
CONTINUOUS
100
AcDbLine
 10
131.23
 20
56.0
 30
0.0
 11
200.17
 21
56.0
 31
0.0
  0
INSERT
  5
DAD
330
892
100
AcDbEntity
  8
250
  6
CONTINUOUS
100
AcDbBlockReference
  2
_OPEN
 10
129.0
 20
56.0
 30
0.0
 41
2.23
 42
2.23
 43
2.23
 50
180.0
  0
INSERT
  5
DAE
330
892
100
AcDbEntity
  8
250
  6
CONTINUOUS
100
AcDbBlockReference
  2
_OPEN
 10
202.4
 20
56.0
 30
0.0
 41
2.23
 42
2.23
 43
2.23
  0
MTEXT
  5
DAF
330
892
100
AcDbEntity
  8
250
  6
CONTINUOUS
 62
    40
100
AcDbMText
 10
165.7
 20
58.4
 30
0.0
 40
2.8
 41
0.0
 71
     5
 72
     1
  1
\A1;（max.73.4）
1001
ACAD
1000
MTEXTBEGIN
1070
    73
1070
     1
1070
    44
1040
1.0
1070
    74
1070
     0
1000
MTEXTEND
  0
POINT
  5
DB0
330
892
100
AcDbEntity
  8
DEFPOINTS
  6
CONTINUOUS
 62
     0
100
AcDbPoint
 10
129.0
 20
8.0
 30
0.0
  0
POINT
  5
DB1
330
892
100
AcDbEntity
  8
DEFPOINTS
  6
CONTINUOUS
 62
     0
100
AcDbPoint
 10
202.4
 20
14.919
 30
0.0
  0
POINT
  5
DB2
330
892
100
AcDbEntity
  8
DEFPOINTS
  6
CONTINUOUS
 62
     0
100
AcDbPoint
 10
202.4
 20
56.0
 30
0.0
  0
ENDBLK
  5
89D
330
892
100
AcDbEntity
  8
0
100
AcDbBlockEnd
  0
BLOCK
  5
B24
330
B1A
100
AcDbEntity
  8
0
100
AcDbBlockBegin
  2
*D5
 70
     1
 10
0.0
 20
0.0
 30
0.0
  3
*D5
  1

  0
LINE
  5
DA1
330
B1A
100
AcDbEntity
  8
250
  6
CONTINUOUS
100
AcDbLine
 10
173.44929584
 20
-27.5
 30
0.0
 11
226.4
 21
-27.5
 31
0.0
  0
LINE
  5
DA2
330
B1A
100
AcDbEntity
  8
250
  6
CONTINUOUS
100
AcDbLine
 10
173.44929584
 20
27.5
 30
0.0
 11
226.4
 21
27.5
 31
0.0
  0
LINE
  5
DA3
330
B1A
100
AcDbEntity
  8
250
  6
CONTINUOUS
100
AcDbLine
 10
225.4
 20
-25.27
 30
0.0
 11
225.4
 21
25.27
 31
0.0
  0
INSERT
  5
DA4
330
B1A
100
AcDbEntity
  8
250
  6
CONTINUOUS
100
AcDbBlockReference
  2
_OPEN
 10
225.4
 20
-27.5
 30
0.0
 41
2.23
 42
2.23
 43
2.23
 50
270.0
  0
INSERT
  5
DA5
330
B1A
100
AcDbEntity
  8
250
  6
CONTINUOUS
100
AcDbBlockReference
  2
_OPEN
 10
225.4
 20
27.5
 30
0.0
 41
2.23
 42
2.23
 43
2.23
 50
90.0
  0
MTEXT
  5
DA6
330
B1A
100
AcDbEntity
  8
250
  6
CONTINUOUS
 62
    40
100
AcDbMText
 10
223.0
 20
0.0
 30
0.0
 40
2.8
 41
0.0
 71
     5
 72
     1
  1
\A1;{\H2.8;\U+2205}55
 11
0.0
 21
1.0
 31
0.0
1001
ACAD
1000
MTEXTBEGIN
1070
    73
1070
     1
1070
    44
1040
1.0
1070
    74
1070
     0
1000
MTEXTEND
  0
POINT
  5
DA7
330
B1A
100
AcDbEntity
  8
DEFPOINTS
  6
CONTINUOUS
 62
     0
100
AcDbPoint
 10
172.94929584
 20
-27.5
 30
0.0
  0
POINT
  5
DA8
330
B1A
100
AcDbEntity
  8
DEFPOINTS
  6
CONTINUOUS
 62
     0
100
AcDbPoint
 10
172.94929584
 20
27.5
 30
0.0
  0
POINT
  5
DA9
330
B1A
100
AcDbEntity
  8
DEFPOINTS
  6
CONTINUOUS
 62
     0
100
AcDbPoint
 10
225.4
 20
27.5
 30
0.0
  0
ENDBLK
  5
B25
330
B1A
100
AcDbEntity
  8
0
100
AcDbBlockEnd
  0
BLOCK
  5
B30
330
B26
100
AcDbEntity
  8
0
100
AcDbBlockBegin
  2
*D6
 70
     1
 10
0.0
 20
0.0
 30
0.0
  3
*D6
  1

  0
LINE
  5
D98
330
B26
100
AcDbEntity
  8
250
  6
CONTINUOUS
100
AcDbLine
 10
194.7
 20
-23.0
 30
0.0
 11
219.4
 21
-23.0
 31
0.0
  0
LINE
  5
D99
330
B26
100
AcDbEntity
  8
250
  6
CONTINUOUS
100
AcDbLine
 10
194.7
 20
23.0
 30
0.0
 11
219.4
 21
23.0
 31
0.0
  0
LINE
  5
D9A
330
B26
100
AcDbEntity
  8
250
  6
CONTINUOUS
100
AcDbLine
 10
218.4
 20
-20.77
 30
0.0
 11
218.4
 21
20.77
 31
0.0
  0
INSERT
  5
D9B
330
B26
100
AcDbEntity
  8
250
  6
CONTINUOUS
100
AcDbBlockReference
  2
_OPEN
 10
218.4
 20
-23.0
 30
0.0
 41
2.23
 42
2.23
 43
2.23
 50
270.0
  0
INSERT
  5
D9C
330
B26
100
AcDbEntity
  8
250
  6
CONTINUOUS
100
AcDbBlockReference
  2
_OPEN
 10
218.4
 20
23.0
 30
0.0
 41
2.23
 42
2.23
 43
2.23
 50
90.0
  0
MTEXT
  5
D9D
330
B26
100
AcDbEntity
  8
250
  6
CONTINUOUS
 62
    40
100
AcDbMText
 10
216.0
 20
0.0
 30
0.0
 40
2.8
 41
0.0
 71
     5
 72
     1
  1
\A1;{\H2.8;\U+2205}46
 11
0.0
 21
1.0
 31
0.0
1001
ACAD
1000
MTEXTBEGIN
1070
    73
1070
     1
1070
    44
1040
1.0
1070
    74
1070
     0
1000
MTEXTEND
  0
POINT
  5
D9E
330
B26
100
AcDbEntity
  8
DEFPOINTS
  6
CONTINUOUS
 62
     0
100
AcDbPoint
 10
194.2
 20
-23.0
 30
0.0
  0
POINT
  5
D9F
330
B26
100
AcDbEntity
  8
DEFPOINTS
  6
CONTINUOUS
 62
     0
100
AcDbPoint
 10
194.2
 20
23.0
 30
0.0
  0
POINT
  5
DA0
330
B26
100
AcDbEntity
  8
DEFPOINTS
  6
CONTINUOUS
 62
     0
100
AcDbPoint
 10
218.4
 20
23.0
 30
0.0
  0
ENDBLK
  5
B31
330
B26
100
AcDbEntity
  8
0
100
AcDbBlockEnd
  0
BLOCK
  5
B3B
330
B32
100
AcDbEntity
  8
0
100
AcDbBlockBegin
  2
*D7
 70
     1
 10
0.0
 20
0.0
 30
0.0
  3
*D7
  1

  0
LINE
  5
DB3
330
B32
100
AcDbEntity
  8
250
  6
CONTINUOUS
100
AcDbLine
 10
197.9
 20
8.0
 30
0.0
 11
212.4
 21
8.0
 31
0.0
  0
LINE
  5
DB4
330
B32
100
AcDbEntity
  8
250
  6
CONTINUOUS
100
AcDbLine
 10
211.4
 20
-5.77
 30
0.0
 11
211.4
 21
5.77
 31
0.0
  0
INSERT
  5
DB5
330
B32
100
AcDbEntity
  8
250
  6
CONTINUOUS
100
AcDbBlockReference
  2
矢印なし
 10
211.4
 20
-8.0
 30
0.0
 41
2.23
 42
2.23
 43
2.23
 50
270.0
  0
INSERT
  5
DB6
330
B32
100
AcDbEntity
  8
250
  6
CONTINUOUS
100
AcDbBlockReference
  2
_OPEN
 10
211.4
 20
8.0
 30
0.0
 41
2.23
 42
2.23
 43
2.23
 50
90.0
  0
MTEXT
  5
DB7
330
B32
100
AcDbEntity
  8
250
  6
CONTINUOUS
 62
    40
100
AcDbMText
 10
209.0
 20
0.0
 30
0.0
 40
2.8
 41
0.0
 71
     5
 72
     1
  1
\A1;{\H2.8;\U+2205}16
 11
0.0
 21
1.0
 31
0.0
1001
ACAD
1000
MTEXTBEGIN
1070
    73
1070
     1
1070
    44
1040
1.0
1070
    74
1070
     0
1000
MTEXTEND
  0
POINT
  5
DB8
330
B32
100
AcDbEntity
  8
DEFPOINTS
  6
CONTINUOUS
 62
     0
100
AcDbPoint
 10
196.9
 20
-8.0
 30
0.0
  0
POINT
  5
DB9
330
B32
100
AcDbEntity
  8
DEFPOINTS
  6
CONTINUOUS
 62
     0
100
AcDbPoint
 10
197.4
 20
8.0
 30
0.0
  0
POINT
  5
DBA
330
B32
100
AcDbEntity
  8
DEFPOINTS
  6
CONTINUOUS
 62
     0
100
AcDbPoint
 10
211.4
 20
8.0
 30
0.0
  0
ENDBLK
  5
B3C
330
B32
100
AcDbEntity
  8
0
100
AcDbBlockEnd
  0
ENDSEC
  0
SECTION
  2
ENTITIES
  0
INSERT
  5
6E6
330
1A
100
AcDbEntity
  8
245
100
AcDbBlockReference
  2
矢印なし
 10
175.62382697
 20
90.55123572
 30
0.0
  0
DIMENSION
  5
87D
330
1A
100
AcDbEntity
  8
250
  6
CONTINUOUS
100
AcDbDimension
  2
*D3
 10
202.4
 20
63.0
 30
0.0
 11
111.34902687
 21
63.0
 31
0.0
 70
   160
  3
BIGT
100
AcDbAlignedDimension
 13
0.0
 23
34.925
 33
0.0
 14
202.4
 24
14.919
 34
0.0
100
AcDbRotatedDimension
  0
DIMENSION
  5
87E
330
1A
100
AcDbEntity
  8
250
  6
CONTINUOUS
100
AcDbDimension
  2
*D4
 10
202.4
 20
56.0
 30
0.0
 11
165.7
 21
58.4
 31
0.0
 70
    32
  1
（max.<>）
  3
BIGT
100
AcDbAlignedDimension
 13
129.0
 23
8.0
 33
0.0
 14
202.4
 24
14.919
 34
0.0
100
AcDbRotatedDimension
  0
TEXT
  5
882
330
1A
100
AcDbEntity
  8
241
100
AcDbText
 10
-101.8
 20
77.0
 30
0.0
 40
5.0
  1
BBT50-MEGA16DS-200
  7
YOKO
 11
-101.8
 21
77.0
 31
0.0
100
AcDbText
 73
     1
  0
LINE
  5
9F3
330
1A
100
AcDbEntity
  8
250
  6
CONTINUOUS
100
AcDbLine
 10
-53.78156985
 20
-37.79107178
 30
0.0
 11
-71.51490318
 21
-37.79107178
 31
0.0
1001
ITEMNAME
1000
LNSP2
  0
MTEXT
  5
9F4
330
1A
100
AcDbEntity
  8
251
  6
CONTINUOUS
100
AcDbMText
 10
-68.71490318
 20
-36.79107178
 30
0.0
 40
2.8
 41
0.0
 71
     7
 72
     1
  1
BBT50
  7
YOKO
1001
ITEMNAME
1000
LNSP3
1001
ACAD
1000
MTEXTBEGIN
1070
    73
1070
     1
1070
    44
1040
1.0
1070
    74
1070
     0
1000
MTEXTEND
1000
MTEXTBEGIN
1070
    73
1070
     1
1070
    44
1040
1.0
1070
    74
1070
     0
1000
MTEXTEND
1000
MTEXTBEGIN
1070
    73
1070
     1
1070
    44
1040
1.0
1070
    74
1070
     0
1000
MTEXTEND
  0
LEADER
  5
9F5
330
1A
100
AcDbEntity
  8
250
  6
CONTINUOUS
100
AcDbLeader
  3
BIGT
 76
     2
 10
-48.07875936
 20
-27.91351426
 30
0.0
 10
-53.78156985
 20
-37.79107178
 30
0.0
1001
ACAD
1000
DSTYLE
1002
{
1070
     6
1000
OPEN
1070
    41
1040
2.0
1070
   343
1005
594
1002
}
  0
DIMENSION
  5
AE9
330
1A
100
AcDbEntity
  8
250
  6
CONTINUOUS
100
AcDbDimension
  2
*D5
 10
225.4
 20
27.5
 30
0.0
 11
225.4
 21
0.0
 31
0.0
 70
   160
  1
{\H2.8;\U+2205}<>
  3
BIGT
100
AcDbAlignedDimension
 13
172.94929584
 23
-27.5
 33
0.0
 14
172.94929584
 24
27.5
 34
0.0
 50
90.0
100
AcDbRotatedDimension
  0
DIMENSION
  5
B03
330
1A
100
AcDbEntity
  8
250
  6
CONTINUOUS
100
AcDbDimension
  2
*D6
 10
218.4
 20
23.0
 30
0.0
 11
218.4
 21
0.0
 31
0.0
 70
   160
  1
{\H2.8;\U+2205}<>
  3
BIGT
100
AcDbAlignedDimension
 13
194.2
 23
-23.0
 33
0.0
 14
194.2
 24
23.0
 34
0.0
 50
90.0
100
AcDbRotatedDimension
  0
DIMENSION
  5
B09
330
1A
100
AcDbEntity
  8
250
  6
CONTINUOUS
100
AcDbDimension
  2
*D7
 10
211.4
 20
8.0
 30
0.0
 11
211.4
 21
0.0
 31
0.0
 70
   160
  1
{\H2.8;\U+2205}<>
  3
BIGT
100
AcDbAlignedDimension
 13
196.9
 23
-8.0
 33
0.0
 14
197.4
 24
8.0
 34
0.0
 50
90.0
100
AcDbRotatedDimension
1001
ACAD
1000
DSTYLE
1002
{
1070
    75
1070
     1
1070
     6
1000
矢印なし
1002
}
  0
INSERT
  5
F6A
330
1A
100
AcDbEntity
  8
245
100
AcDbBlockReference
  2
1
 10
0.0
 20
0.0
 30
0.0
  0
VIEWPORT
  5
22
330
17
100
AcDbEntity
 67
     1
  8
0
100
AcDbViewport
 10
261.51769912
 20
148.5
 30
0.0
 40
523.03539823
 41
297.0
 68
     1
 69
     1
1001
ACAD
1000
MVIEW
1002
{
1070
    16
1010
0.0
1020
0.0
1030
0.0
1010
0.0
1020
0.0
1030
1.0
1040
0.0
1040
297.0
1040
261.51769912
1040
148.5
1040
50.0
1040
0.0
1040
0.0
1070
     0
1070
   100
1070
     1
1070
     1
1070
     0
1070
     0
1070
     0
1070
     0
1040
0.0
1040
0.0
1040
0.0
1040
1.0
1040
1.0
1040
10.0
1040
10.0
1070
     0
1002
{
1002
}
1002
}
  0
ENDSEC
  0
SECTION
  2
OBJECTS
  0
DICTIONARY
  5
C
330
0
100
AcDbDictionary
  3
ACAD_GROUP
350
D
  3
ACAD_LAYOUT
350
565
  3
ACAD_MLINESTYLE
350
E
  3
ACAD_PLOTSETTINGS
350
566
  3
ACAD_PLOTSTYLENAME
350
563
  3
ACDBHEADERROUNDTRIPXREC
350
F91
  3
GRADE_DWG
350
540
  0
DICTIONARY
  5
CBB
330
1A
100
AcDbDictionary
280
     1
  3
ACAD_LAYOUTSELFREF
360
FB3
  0
DICTIONARY
  5
CB9
330
17
100
AcDbDictionary
280
     1
  3
ACAD_LAYOUTSELFREF
360
FB2
  0
DICTIONARY
  5
D
102
{ACAD_REACTORS
330
C
102
}
330
C
100
AcDbDictionary
  3
*A1
350
6C7
  3
*A2
350
6C8
  3
*A3
350
6D4
  3
*A4
350
6D5
  3
DREC-1
350
5FC
  3
DREC-2
350
654
  3
DREC-3
350
673
  0
DICTIONARY
  5
565
102
{ACAD_REACTORS
330
C
102
}
330
C
100
AcDbDictionary
  0
DICTIONARY
  5
E
102
{ACAD_REACTORS
330
C
102
}
330
C
100
AcDbDictionary
  3
STANDARD
350
13
  0
DICTIONARY
  5
566
102
{ACAD_REACTORS
330
C
102
}
330
C
100
AcDbDictionary
  3
A3_0_5倍_
350
758
  3
A3_1倍_
350
757
  3
A3_1倍__2000_
350
707
  3
A3_2倍_
350
759
  3
A4_0_5倍_
350
755
  3
A4_1倍_
350
754
  3
A4_1倍__2000_
350
708
  3
A4_2倍_
350
756
  0
ACDBDICTIONARYWDFLT
  5
563
102
{ACAD_REACTORS
330
C
102
}
330
C
100
AcDbDictionary
281
     1
  3
Normal
350
564
100
AcDbDictionaryWithDefault
340
564
  0
DICTIONARY
  5
F91
102
{ACAD_REACTORS
330
C
102
}
330
C
100
AcDbDictionary
  3
CEPSNTYPE
350
F9B
  3
DIMSTYLEDATA
350
F9F
  3
FINGERPRINTGUID
350
F9C
  3
HYPERLINKBASE
350
F94
  3
INSUNITS
350
F9A
  3
LAYOUTDICT
350
F96
  3
LWETCUNION
350
F99
  3
PLOTSETDICT
350
F97
  3
PLOTSTYLNAMDICT
350
F98
  3
PSVPSCALE
350
F9E
  3
PUCSBASE
350
FA2
  3
PUCSORGBACK
350
FA8
  3
PUCSORGBOTTOM
350
FA4
  3
PUCSORGFRONT
350
FA7
  3
PUCSORGLEFT
350
FA5
  3
PUCSORGRIGHT
350
FA6
  3
PUCSORGTOP
350
FA3
  3
PUCSORTHOREF
350
FA0
  3
PUCSORTHOVIEW
350
FA1
  3
STYLESHEET
350
F95
  3
TSTACKALIGN
350
F92
  3
TSTACKSIZE
350
F93
  3
UCSBASE
350
FAB
  3
UCSORGBACK
350
FB1
  3
UCSORGBOTTOM
350
FAD
  3
UCSORGFRONT
350
FB0
  3
UCSORGLEFT
350
FAE
  3
UCSORGRIGHT
350
FAF
  3
UCSORGTOP
350
FAC
  3
UCSORTHOREF
350
FA9
  3
UCSORTHOVIEW
350
FAA
  3
VERSIONGUID
350
F9D
  0
DICTIONARY
  5
540
102
{ACAD_REACTORS
330
C
102
}
330
C
100
AcDbDictionary
  3
VERSION
350
560
  0
XRECORD
  5
FB3
102
{ACAD_REACTORS
330
CBB
102
}
330
CBB
100
AcDbXrecord
340
1A
  0
XRECORD
  5
FB2
102
{ACAD_REACTORS
330
CB9
102
}
330
CB9
100
AcDbXrecord
340
17
  0
GROUP
  5
6C7
102
{ACAD_REACTORS
330
D
102
}
330
D
100
AcDbGroup
300

 70
     0
 71
     1
1001
GRPNAME
1000
DMA00
  0
GROUP
  5
6C8
102
{ACAD_REACTORS
330
D
102
}
330
D
100
AcDbGroup
300

 70
     0
 71
     1
1001
GRPNAME
1000
DMA00
  0
GROUP
  5
6D4
102
{ACAD_REACTORS
330
D
102
}
330
D
100
AcDbGroup
300

 70
     0
 71
     1
1001
GRPNAME
1000
DMA00
  0
GROUP
  5
6D5
102
{ACAD_REACTORS
330
D
102
}
330
D
100
AcDbGroup
300

 70
     0
 71
     1
1001
GRPNAME
1000
DMA00
  0
GROUP
  5
5FC
102
{ACAD_REACTORS
330
D
102
}
330
D
100
AcDbGroup
300

 70
     0
 71
     1
1001
GRPNAME
1000
DREC-
1001
GPARA
1000
xsiz
1000
44.182
1000
ysiz
1000
40.677
1000
angl
1000
0
1000
ctyp
1000
0
1000
csiz
1000
5
1000
lfnt
1000
cont
1000
hcnt
1000
hoff
1000
vcnt
1000
voff
1000
opnt
1000
4
1000
dxpt
1000
0
1000
dypt
1000
0
  0
GROUP
  5
654
102
{ACAD_REACTORS
330
D
102
}
330
D
100
AcDbGroup
300

 70
     0
 71
     1
1001
GRPNAME
1000
DREC-
1001
GPARA
1000
xsiz
1000
54.592
1000
ysiz
1000
53.036
1000
angl
1000
0
1000
ctyp
1000
0
1000
csiz
1000
5
1000
lfnt
1000
cont
1000
hcnt
1000
hoff
1000
vcnt
1000
voff
1000
opnt
1000
4
1000
dxpt
1000
0
1000
dypt
1000
0
  0
GROUP
  5
673
102
{ACAD_REACTORS
330
D
102
}
330
D
100
AcDbGroup
300

 70
     0
 71
     1
1001
GRPNAME
1000
DREC-
1001
GPARA
1000
xsiz
1000
30.363
1000
ysiz
1000
36.175
1000
angl
1000
0
1000
ctyp
1000
0
1000
csiz
1000
5
1000
lfnt
1000
cont
1000
hcnt
1000
hoff
1000
vcnt
1000
voff
1000
opnt
1000
4
1000
dxpt
1000
0
1000
dypt
1000
0
  0
MLINESTYLE
  5
13
102
{ACAD_REACTORS
330
E
102
}
330
E
100
AcDbMlineStyle
  2
STANDARD
 70
     0
  3

 62
     0
 51
90.0
 52
90.0
 71
     2
 49
0.5
 62
   256
  6
BYLAYER
 49
-0.5
 62
   256
  6
BYLAYER
  0
PLOTSETTINGS
  5
758
102
{ACAD_REACTORS
330
566
102
}
330
566
100
AcDbPlotSettings
  1
A3(0.5倍)
  2
\\AWTECPC05\HP DeskJet 1120C
  4
A3
  6

 40
5.95841646
 41
13.49375153
 42
6.04309082
 43
3.67242432
 44
296.92599487
 45
419.94665527
 46
89.96
 47
127.14
 48
0.0
 49
0.0
140
0.0
141
0.0
142
1.0
143
2.0
 70
  1716
 72
     1
 73
     1
 74
     2
  7
big.ctb
 75
    17
147
0.5
148
0.0
149
0.0
  0
PLOTSETTINGS
  5
757
102
{ACAD_REACTORS
330
566
102
}
330
566
100
AcDbPlotSettings
  1
A3(1倍)
  2
\\AWTECPC05\HP DeskJet 1120C
  4
A3
  6

 40
5.95841646
 41
13.49375153
 42
6.04309082
 43
3.67242432
 44
296.92599487
 45
419.94665527
 46
37.46
 47
52.89
 48
0.0
 49
0.0
140
0.0
141
0.0
142
1.0
143
1.0
 70
  1716
 72
     1
 73
     1
 74
     2
  7
big.ctb
 75
    16
147
1.0
148
0.0
149
0.0
  0
PLOTSETTINGS
  5
707
102
{ACAD_REACTORS
330
566
102
}
330
566
100
AcDbPlotSettings
  1
A3(1倍)(2000)
  2
SII LS-1300 (D-SCAN)
  4
User258
  6

 40
3.17499995
 41
3.17499995
 42
3.17498779
 43
3.17498779
 44
419.98898315
 45
296.98950195
 46
58.32
 47
40.32
 48
0.0
 49
0.0
140
0.0
141
0.0
142
1.0
143
1.0
 70
  1716
 72
     1
 73
     0
 74
     2
  7
big.ctb
 75
    16
147
1.0
148
0.0
149
0.0
  0
PLOTSETTINGS
  5
759
102
{ACAD_REACTORS
330
566
102
}
330
566
100
AcDbPlotSettings
  1
A3(2倍)
  2
\\AWTECPC05\HP DeskJet 1120C
  4
A3
  6

 40
5.95841646
 41
13.49375153
 42
6.04309082
 43
3.67242432
 44
296.92599487
 45
419.94665527
 46
-67.54
 47
-95.61
 48
0.0
 49
0.0
140
0.0
141
0.0
142
1.0
143
0.5
 70
  1716
 72
     1
 73
     1
 74
     2
  7
big.ctb
 75
    27
147
2.0
148
0.0
149
0.0
  0
PLOTSETTINGS
  5
755
102
{ACAD_REACTORS
330
566
102
}
330
566
100
AcDbPlotSettings
  1
A4(0.5倍)
  2
\\AWTECPC05\HP DeskJet 1120C
  4
A4
  6

 40
4.18041658
 41
13.49374962
 42
4.18040466
 43
3.92642212
 44
209.97332764
 45
296.92599487
 46
48.31
 47
65.5
 48
0.0
 49
0.0
140
0.0
141
0.0
142
1.0
143
2.0
 70
  1716
 72
     1
 73
     1
 74
     2
  7
big.ctb
 75
    17
147
0.5
148
0.0
149
0.0
  0
PLOTSETTINGS
  5
754
102
{ACAD_REACTORS
330
566
102
}
330
566
100
AcDbPlotSettings
  1
A4(1倍)
  2
\\AWTECPC05\HP DeskJet 1120C
  4
A4
  6

 40
4.18041658
 41
13.49374962
 42
4.18040466
 43
3.92642212
 44
209.97332764
 45
296.92599487
 46
-4.19
 47
-8.75
 48
0.0
 49
0.0
140
0.0
141
0.0
142
1.0
143
1.0
 70
  1716
 72
     1
 73
     1
 74
     2
  7
big.ctb
 75
    16
147
1.0
148
0.0
149
0.0
  0
PLOTSETTINGS
  5
708
102
{ACAD_REACTORS
330
566
102
}
330
566
100
AcDbPlotSettings
  1
A4(1倍)(2000)
  2
SII LS-1300 (D-SCAN)
  4
User259
  6

 40
3.17499995
 41
3.17499995
 42
3.17498779
 43
3.17500305
 44
296.98950195
 45
209.99449158
 46
-3.18
 47
-3.18
 48
0.0
 49
0.0
140
0.0
141
0.0
142
1.0
143
1.0
 70
  1716
 72
     1
 73
     0
 74
     2
  7
big.ctb
 75
    16
147
1.0
148
0.0
149
0.0
  0
PLOTSETTINGS
  5
756
102
{ACAD_REACTORS
330
566
102
}
330
566
100
AcDbPlotSettings
  1
A4(2倍)
  2
\\AWTECPC05\HP DeskJet 1120C
  4
A4
  6

 40
4.18041658
 41
13.49374962
 42
4.18040466
 43
3.92642212
 44
209.97332764
 45
296.92599487
 46
-109.19
 47
-157.25
 48
0.0
 49
0.0
140
0.0
141
0.0
142
1.0
143
0.5
 70
  1716
 72
     1
 73
     1
 74
     2
  7
big.ctb
 75
    27
147
2.0
148
0.0
149
0.0
  0
ACDBPLACEHOLDER
  5
564
102
{ACAD_REACTORS
330
563
102
}
330
563
100
AcDbPlaceHolder
280
     0
  0
XRECORD
  5
F9B
102
{ACAD_REACTORS
330
F91
102
}
330
F91
100
AcDbXrecord
 90
        0
  0
XRECORD
  5
F9F
102
{ACAD_REACTORS
330
F91
102
}
330
F91
100
AcDbXrecord
1000
DSTYLE
1002
{
1070
    79
 70
     2
1070
   179
 70
     3
1070
   341
340
594
1070
   343
340
594
1070
   344
340
594
1070
   371
 70
    -1
1070
   372
 70
    -1
1002
}
  0
XRECORD
  5
F9C
102
{ACAD_REACTORS
330
F91
102
}
330
F91
100
AcDbXrecord
  1
{51294030-9CB4-11D3-8E18-00A0C925D94D}
  0
XRECORD
  5
F94
102
{ACAD_REACTORS
330
F91
102
}
330
F91
100
AcDbXrecord
  1

  0
XRECORD
  5
F9A
102
{ACAD_REACTORS
330
F91
102
}
330
F91
100
AcDbXrecord
 90
        0
  0
XRECORD
  5
F96
102
{ACAD_REACTORS
330
F91
102
}
330
F91
100
AcDbXrecord
340
565
  0
XRECORD
  5
F99
102
{ACAD_REACTORS
330
F91
102
}
330
F91
100
AcDbXrecord
 90
    10781
  0
XRECORD
  5
F97
102
{ACAD_REACTORS
330
F91
102
}
330
F91
100
AcDbXrecord
340
566
  0
XRECORD
  5
F98
102
{ACAD_REACTORS
330
F91
102
}
330
F91
100
AcDbXrecord
340
563
  0
XRECORD
  5
F9E
102
{ACAD_REACTORS
330
F91
102
}
330
F91
100
AcDbXrecord
 40
0.0
  0
XRECORD
  5
FA2
102
{ACAD_REACTORS
330
F91
102
}
330
F91
100
AcDbXrecord
340
0
  0
XRECORD
  5
FA8
102
{ACAD_REACTORS
330
F91
102
}
330
F91
100
AcDbXrecord
 10
0.0
 20
0.0
 30
0.0
  0
XRECORD
  5
FA4
102
{ACAD_REACTORS
330
F91
102
}
330
F91
100
AcDbXrecord
 10
0.0
 20
0.0
 30
0.0
  0
XRECORD
  5
FA7
102
{ACAD_REACTORS
330
F91
102
}
330
F91
100
AcDbXrecord
 10
0.0
 20
0.0
 30
0.0
  0
XRECORD
  5
FA5
102
{ACAD_REACTORS
330
F91
102
}
330
F91
100
AcDbXrecord
 10
0.0
 20
0.0
 30
0.0
  0
XRECORD
  5
FA6
102
{ACAD_REACTORS
330
F91
102
}
330
F91
100
AcDbXrecord
 10
0.0
 20
0.0
 30
0.0
  0
XRECORD
  5
FA3
102
{ACAD_REACTORS
330
F91
102
}
330
F91
100
AcDbXrecord
 10
0.0
 20
0.0
 30
0.0
  0
XRECORD
  5
FA0
102
{ACAD_REACTORS
330
F91
102
}
330
F91
100
AcDbXrecord
340
0
  0
XRECORD
  5
FA1
102
{ACAD_REACTORS
330
F91
102
}
330
F91
100
AcDbXrecord
 70
     0
  0
XRECORD
  5
F95
102
{ACAD_REACTORS
330
F91
102
}
330
F91
100
AcDbXrecord
  1
big.ctb
  0
XRECORD
  5
F92
102
{ACAD_REACTORS
330
F91
102
}
330
F91
100
AcDbXrecord
 90
        1
  0
XRECORD
  5
F93
102
{ACAD_REACTORS
330
F91
102
}
330
F91
100
AcDbXrecord
 90
       70
  0
XRECORD
  5
FAB
102
{ACAD_REACTORS
330
F91
102
}
330
F91
100
AcDbXrecord
340
0
  0
XRECORD
  5
FB1
102
{ACAD_REACTORS
330
F91
102
}
330
F91
100
AcDbXrecord
 10
0.0
 20
0.0
 30
0.0
  0
XRECORD
  5
FAD
102
{ACAD_REACTORS
330
F91
102
}
330
F91
100
AcDbXrecord
 10
0.0
 20
0.0
 30
0.0
  0
XRECORD
  5
FB0
102
{ACAD_REACTORS
330
F91
102
}
330
F91
100
AcDbXrecord
 10
0.0
 20
0.0
 30
0.0
  0
XRECORD
  5
FAE
102
{ACAD_REACTORS
330
F91
102
}
330
F91
100
AcDbXrecord
 10
0.0
 20
0.0
 30
0.0
  0
XRECORD
  5
FAF
102
{ACAD_REACTORS
330
F91
102
}
330
F91
100
AcDbXrecord
 10
0.0
 20
0.0
 30
0.0
  0
XRECORD
  5
FAC
102
{ACAD_REACTORS
330
F91
102
}
330
F91
100
AcDbXrecord
 10
0.0
 20
0.0
 30
0.0
  0
XRECORD
  5
FA9
102
{ACAD_REACTORS
330
F91
102
}
330
F91
100
AcDbXrecord
340
0
  0
XRECORD
  5
FAA
102
{ACAD_REACTORS
330
F91
102
}
330
F91
100
AcDbXrecord
 70
     0
  0
XRECORD
  5
F9D
102
{ACAD_REACTORS
330
F91
102
}
330
F91
100
AcDbXrecord
  1
{FDB6E42E-C2A8-4CEE-8F38-BC9A24563412}
  0
XRECORD
  5
560
102
{ACAD_REACTORS
330
540
102
}
330
540
100
AcDbXrecord
  1
2.0.0
  0
ENDSEC
  0
EOF
