  0
SECTION
  2
HEADER
  9
$ACADVER
  1
AC1014
  9
$ACADMAINTVER
 70
     9
  9
$DWGCODEPAGE
  3
ANSI_932
  9
$INSBASE
 10
0.0
 20
0.0
 30
0.0
  9
$EXTMIN
 10
-102.81595337
 20
-50.27532878
 30
-0.00152582
  9
$EXTMAX
 10
190.82827243
 20
82.01524409
 30
0.00000003
  9
$LIMMIN
 10
0.0
 20
0.0
  9
$LIMMAX
 10
420.0
 20
297.0
  9
$ORTHOMODE
 70
     0
  9
$REGENMODE
 70
     1
  9
$FILLMODE
 70
     1
  9
$QTEXTMODE
 70
     0
  9
$MIRRTEXT
 70
     1
  9
$DRAGMODE
 70
     2
  9
$LTSCALE
 40
10.0
  9
$OSMODE
 70
   549
  9
$ATTMODE
 70
     1
  9
$TEXTSIZE
 40
3.0
  9
$TRACEWID
 40
1.0
  9
$TEXTSTYLE
  7
YOKO
  9
$CLAYER
  8
245
  9
$CELTYPE
  6
BYLAYER
  9
$CECOLOR
 62
   256
  9
$CELTSCALE
 40
1.0
  9
$DELOBJ
 70
     1
  9
$DISPSILH
 70
     0
  9
$DIMSCALE
 40
1.0
  9
$DIMASZ
 40
2.23
  9
$DIMEXO
 40
0.5
  9
$DIMDLI
 40
2.5
  9
$DIMRND
 40
0.0
  9
$DIMDLE
 40
0.0
  9
$DIMEXE
 40
1.0
  9
$DIMTP
 40
0.0
  9
$DIMTM
 40
0.0
  9
$DIMTXT
 40
2.8
  9
$DIMCEN
 40
0.0
  9
$DIMTSZ
 40
0.0
  9
$DIMTOL
 70
     0
  9
$DIMLIM
 70
     0
  9
$DIMTIH
 70
     0
  9
$DIMTOH
 70
     0
  9
$DIMSE1
 70
     0
  9
$DIMSE2
 70
     0
  9
$DIMTAD
 70
     3
  9
$DIMZIN
 70
     8
  9
$DIMBLK
  1

  9
$DIMASO
 70
     1
  9
$DIMSHO
 70
     1
  9
$DIMPOST
  1

  9
$DIMAPOST
  1

  9
$DIMALT
 70
     0
  9
$DIMALTD
 70
     2
  9
$DIMALTF
 40
25.4
  9
$DIMLFAC
 40
1.0
  9
$DIMTOFL
 70
     1
  9
$DIMTVP
 40
0.0
  9
$DIMTIX
 70
     1
  9
$DIMSOXD
 70
     0
  9
$DIMSAH
 70
     1
  9
$DIMBLK1
  1
OPEN
  9
$DIMBLK2
  1
OPEN
  9
$DIMSTYLE
  2
BIGT
  9
$DIMCLRD
 70
   256
  9
$DIMCLRE
 70
   256
  9
$DIMCLRT
 70
    40
  9
$DIMTFAC
 40
1.0
  9
$DIMGAP
 40
1.0
  9
$DIMJUST
 70
     0
  9
$DIMSD1
 70
     0
  9
$DIMSD2
 70
     0
  9
$DIMTOLJ
 70
     1
  9
$DIMTZIN
 70
     8
  9
$DIMALTZ
 70
     0
  9
$DIMALTTZ
 70
     0
  9
$DIMFIT
 70
     3
  9
$DIMUPT
 70
     0
  9
$DIMUNIT
 70
     2
  9
$DIMDEC
 70
     3
  9
$DIMTDEC
 70
     3
  9
$DIMALTU
 70
     2
  9
$DIMALTTD
 70
     2
  9
$DIMTXSTY
  7
STANDARD
  9
$DIMAUNIT
 70
     0
  9
$LUNITS
 70
     2
  9
$LUPREC
 70
     3
  9
$SKETCHINC
 40
1.0
  9
$FILLETRAD
 40
5.0
  9
$AUNITS
 70
     0
  9
$AUPREC
 70
     3
  9
$MENU
  1
.
  9
$ELEVATION
 40
0.0
  9
$PELEVATION
 40
0.0
  9
$THICKNESS
 40
0.0
  9
$LIMCHECK
 70
     0
  9
$BLIPMODE
 70
     0
  9
$CHAMFERA
 40
10.0
  9
$CHAMFERB
 40
10.0
  9
$CHAMFERC
 40
0.0
  9
$CHAMFERD
 40
0.0
  9
$SKPOLY
 70
     0
  9
$TDCREATE
 40
2455229.406542777
  9
$TDUPDATE
 40
2455229.419982638
  9
$TDINDWG
 40
0.0125166435
  9
$TDUSRTIMER
 40
0.0125164699
  9
$USRTIMER
 70
     1
  9
$ANGBASE
 50
0.0
  9
$ANGDIR
 70
     0
  9
$PDMODE
 70
     1
  9
$PDSIZE
 40
-5.0
  9
$PLINEWID
 40
0.0
  9
$COORDS
 70
     2
  9
$SPLFRAME
 70
     0
  9
$SPLINETYPE
 70
     6
  9
$SPLINESEGS
 70
     8
  9
$ATTDIA
 70
     0
  9
$ATTREQ
 70
     1
  9
$HANDLING
 70
-16383
  9
$HANDSEED
  5
1168
  9
$SURFTAB1
 70
     6
  9
$SURFTAB2
 70
     6
  9
$SURFTYPE
 70
     6
  9
$SURFU
 70
     6
  9
$SURFV
 70
     6
  9
$UCSNAME
  2

  9
$UCSORG
 10
0.0
 20
0.0
 30
0.0
  9
$UCSXDIR
 10
1.0
 20
0.0
 30
0.0
  9
$UCSYDIR
 10
0.0
 20
1.0
 30
0.0
  9
$PUCSNAME
  2

  9
$PUCSORG
 10
0.0
 20
0.0
 30
0.0
  9
$PUCSXDIR
 10
1.0
 20
0.0
 30
0.0
  9
$PUCSYDIR
 10
0.0
 20
1.0
 30
0.0
  9
$USERI1
 70
     1
  9
$USERI2
 70
     0
  9
$USERI3
 70
     0
  9
$USERI4
 70
     0
  9
$USERI5
 70
     0
  9
$USERR1
 40
0.0
  9
$USERR2
 40
0.0
  9
$USERR3
 40
0.0
  9
$USERR4
 40
0.0
  9
$USERR5
 40
0.0
  9
$WORLDVIEW
 70
     1
  9
$SHADEDGE
 70
     3
  9
$SHADEDIF
 70
    70
  9
$TILEMODE
 70
     1
  9
$MAXACTVP
 70
    16
  9
$PINSBASE
 10
0.0
 20
0.0
 30
0.0
  9
$PLIMCHECK
 70
     0
  9
$PEXTMIN
 10
1.00000000E+20
 20
1.00000000E+20
 30
1.00000000E+20
  9
$PEXTMAX
 10
-1.00000000E+20
 20
-1.00000000E+20
 30
-1.00000000E+20
  9
$PLIMMIN
 10
0.0
 20
0.0
  9
$PLIMMAX
 10
420.0
 20
297.0
  9
$UNITMODE
 70
     0
  9
$VISRETAIN
 70
     0
  9
$PLINEGEN
 70
     0
  9
$PSLTSCALE
 70
     1
  9
$TREEDEPTH
 70
  3020
  9
$PICKSTYLE
 70
     0
  9
$CMLSTYLE
  2
STANDARD
  9
$CMLJUST
 70
     0
  9
$CMLSCALE
 40
1.0
  9
$PROXYGRAPHICS
 70
     1
  9
$MEASUREMENT
 70
     1
  0
ENDSEC
  0
SECTION
  2
CLASSES
  0
CLASS
  1
XRECORD
  2
AcDbXrecord
  3
AutoCAD 2000
 90
        0
280
     0
281
     0
  0
CLASS
  1
ACDBDICTIONARYWDFLT
  2
AcDbDictionaryWithDefault
  3
AutoCAD 2000
 90
        0
280
     0
281
     0
  0
CLASS
  1
ACDBPLACEHOLDER
  2
AcDbPlaceHolder
  3
AutoCAD 2000
 90
        0
280
     0
281
     0
  0
CLASS
  1
LAYOUT
  2
AcDbLayout
  3
AutoCAD 2000
 90
        0
280
     0
281
     0
  0
CLASS
  1
PLOTSETTINGS
  2
AcDbPlotSettings
  3
AutoCAD 2000
 90
        0
280
     0
281
     0
  0
CLASS
  1
LONG_TRANSACTION
  2
AcDbLongTransaction
  3
AutoCAD 2000
 90
        0
280
     0
281
     0
  0
CLASS
  1
LWPOLYLINE
  2
AcDbPolyline
  3
AutoCAD 2000
 90
        0
280
     0
281
     1
  0
CLASS
  1
HATCH
  2
AcDbHatch
  3
AutoCAD 2000
 90
        0
280
     0
281
     1
  0
CLASS
  1
XRECORD
  2
AcDbXrecord
  3
AutoCAD 2000
 90
        0
280
     0
281
     0
  0
CLASS
  1
LONG_TRANSACTION
  2
AcDbLongTransaction
  3
AutoCAD 2000
 90
        0
280
     0
281
     0
  0
CLASS
  1
LWPOLYLINE
  2
AcDbPolyline
  3
AutoCAD 2000
 90
        0
280
     0
281
     1
  0
CLASS
  1
HATCH
  2
AcDbHatch
  3
AutoCAD 2000
 90
        0
280
     0
281
     1
  0
CLASS
  1
XRECORD
  2
AcDbXrecord
  3
AutoCAD 2000
 90
        0
280
     0
281
     0
  0
CLASS
  1
LONG_TRANSACTION
  2
AcDbLongTransaction
  3
AutoCAD 2000
 90
        0
280
     0
281
     0
  0
CLASS
  1
LWPOLYLINE
  2
AcDbPolyline
  3
AutoCAD 2000
 90
        0
280
     0
281
     1
  0
CLASS
  1
HATCH
  2
AcDbHatch
  3
AutoCAD 2000
 90
        0
280
     0
281
     1
  0
CLASS
  1
XRECORD
  2
AcDbXrecord
  3
AutoCAD 2000
 90
        0
280
     0
281
     0
  0
ENDSEC
  0
SECTION
  2
TABLES
  0
TABLE
  2
VPORT
  5
8
330
0
100
AcDbSymbolTable
 70
     5
  0
VPORT
  5
1143
330
8
100
AcDbSymbolTableRecord
100
AcDbViewportTableRecord
  2
*ACTIVE
 70
     0
 10
0.0
 20
0.0
 11
1.0
 21
1.0
 12
44.00615953
 22
15.86995765
 13
0.0
 23
0.0
 14
7.0
 24
7.0
 15
7.0
 25
7.0
 16
0.0
 26
0.0
 36
1.0
 17
0.0
 27
0.0
 37
0.0
 40
206.17405339
 41
1.43184713
 42
50.0
 43
0.0
 44
0.0
 50
0.0
 51
0.0
 71
     0
 72
  2000
 73
     1
 74
     0
 75
     0
 76
     0
 77
     0
 78
     0
  0
ENDTAB
  0
TABLE
  2
LTYPE
  5
5
330
0
100
AcDbSymbolTable
 70
     3
  0
LTYPE
  5
14
330
5
100
AcDbSymbolTableRecord
100
AcDbLinetypeTableRecord
  2
BYBLOCK
 70
     0
  3

 72
    65
 73
     0
 40
0.0
  0
LTYPE
  5
15
330
5
100
AcDbSymbolTableRecord
100
AcDbLinetypeTableRecord
  2
BYLAYER
 70
     0
  3

 72
    65
 73
     0
 40
0.0
  0
LTYPE
  5
16
330
5
100
AcDbSymbolTableRecord
100
AcDbLinetypeTableRecord
  2
CONTINUOUS
 70
     0
  3
Solid line
 72
    65
 73
     0
 40
0.0
  0
LTYPE
  5
258
330
5
100
AcDbSymbolTableRecord
100
AcDbLinetypeTableRecord
  2
CENTER2
 70
     0
  3
___ _ ___ _ ___ _ ___ _ ___ _ ___ _ ___ _ ___ _
 72
    65
 73
     4
 40
1.125
 49
0.75
 74
     0
 49
-0.125
 74
     0
 49
0.125
 74
     0
 49
-0.125
 74
     0
  0
LTYPE
  5
25C
330
5
100
AcDbSymbolTableRecord
100
AcDbLinetypeTableRecord
  2
HIDDEN2
 70
     0
  3
_ _ _ _ _ _ _ _ _ _ _ _ _ _ _ _ _ _ _ _ _ _ _ _
 72
    65
 73
     2
 40
0.1875
 49
0.125
 74
     0
 49
-0.0625
 74
     0
  0
ENDTAB
  0
TABLE
  2
LAYER
  5
2
330
0
100
AcDbSymbolTable
 70
    10
  0
LAYER
  5
F
330
2
100
AcDbSymbolTableRecord
100
AcDbLayerTableRecord
  2
0
 70
     0
 62
     7
  6
CONTINUOUS
  0
LAYER
  5
1AA
330
2
100
AcDbSymbolTableRecord
100
AcDbLayerTableRecord
  2
240
 70
     0
 62
     4
  6
CONTINUOUS
  0
LAYER
  5
1AB
330
2
100
AcDbSymbolTableRecord
100
AcDbLayerTableRecord
  2
241
 70
     0
 62
   211
  6
CONTINUOUS
  0
LAYER
  5
1AF
330
2
100
AcDbSymbolTableRecord
100
AcDbLayerTableRecord
  2
245
 70
     0
 62
     2
  6
CENTER2
  0
LAYER
  5
21E
330
2
100
AcDbSymbolTableRecord
100
AcDbLayerTableRecord
  2
250
 70
     0
 62
     3
  6
CONTINUOUS
  0
LAYER
  5
21F
330
2
100
AcDbSymbolTableRecord
100
AcDbLayerTableRecord
  2
251
 70
     0
 62
    40
  6
CONTINUOUS
  0
LAYER
  5
5C4
330
2
100
AcDbSymbolTableRecord
100
AcDbLayerTableRecord
  2
DEFPOINTS
 70
     0
 62
     7
  6
CONTINUOUS
  0
ENDTAB
  0
TABLE
  2
STYLE
  5
3
330
0
100
AcDbSymbolTable
 70
     2
  0
STYLE
  5
10
330
3
100
AcDbSymbolTableRecord
100
AcDbTextStyleTableRecord
  2
STANDARD
 70
     0
 40
0.0
 41
1.0
 50
0.0
 71
     0
 42
3.0
  3
romans.shx
  4
BIGFONT.SHX
  0
STYLE
  5
339
330
3
100
AcDbSymbolTableRecord
100
AcDbTextStyleTableRecord
  2
YOKO
 70
     0
 40
0.0
 41
1.0
 50
0.0
 71
     0
 42
3.0
  3
romans.shx
  4
extfont.shx
  0
ENDTAB
  0
TABLE
  2
VIEW
  5
6
330
0
100
AcDbSymbolTable
 70
     0
  0
ENDTAB
  0
TABLE
  2
UCS
  5
7
330
0
100
AcDbSymbolTable
 70
     0
  0
ENDTAB
  0
TABLE
  2
APPID
  5
9
330
0
100
AcDbSymbolTable
 70
     9
  0
APPID
  5
11
330
9
100
AcDbSymbolTableRecord
100
AcDbRegAppTableRecord
  2
ACAD
 70
     0
  0
APPID
  5
1B1
330
9
100
AcDbSymbolTableRecord
100
AcDbRegAppTableRecord
  2
GLOBAL
 70
     0
  0
APPID
  5
2A4
330
9
100
AcDbSymbolTableRecord
100
AcDbRegAppTableRecord
  2
DETAIL
 70
     0
  0
APPID
  5
5FD
330
9
100
AcDbSymbolTableRecord
100
AcDbRegAppTableRecord
  2
GRPNAME
 70
     0
  0
APPID
  5
5FE
330
9
100
AcDbSymbolTableRecord
100
AcDbRegAppTableRecord
  2
GPARA
 70
     0
  0
APPID
  5
6C4
330
9
100
AcDbSymbolTableRecord
100
AcDbRegAppTableRecord
  2
DCO15
 70
     0
  0
APPID
  5
6C5
330
9
100
AcDbSymbolTableRecord
100
AcDbRegAppTableRecord
  2
ITEMNAME
 70
     0
  0
APPID
  5
6C6
330
9
100
AcDbSymbolTableRecord
100
AcDbRegAppTableRecord
  2
GRADE_0
 70
     0
  0
APPID
  5
C35
330
9
100
AcDbSymbolTableRecord
100
AcDbRegAppTableRecord
  2
CONTENTBLOCKICON
 70
     0
  0
ENDTAB
  0
TABLE
  2
DIMSTYLE
  5
A
330
0
100
AcDbSymbolTable
 70
     5
  0
DIMSTYLE
105
725
330
A
100
AcDbSymbolTableRecord
100
AcDbDimStyleTableRecord
  2
BIGT
 70
     0
  3

  4

  5

  6
OPEN
  7
OPEN
 40
1.0
 41
2.23
 42
0.5
 43
2.5
 44
1.0
 45
0.0
 46
0.0
 47
0.0
 48
0.0
140
2.8
141
0.0
142
0.0
143
25.4
144
1.0
145
0.0
146
1.0
147
1.0
 71
     0
 72
     0
 73
     0
 74
     0
 75
     0
 76
     0
 77
     3
 78
     8
170
     0
171
     2
172
     1
173
     1
174
     1
175
     0
176
   256
177
   256
178
    40
270
     2
271
     3
272
     3
273
     2
274
     2
340
10
275
     0
280
     0
281
     0
282
     0
283
     1
284
     8
285
     0
286
     0
287
     3
288
     0
  0
DIMSTYLE
105
858
102
{ACAD_REACTORS
330
868
330
869
330
AAB
330
AC2
330
AC7
102
}
330
A
100
AcDbSymbolTableRecord
100
AcDbDimStyleTableRecord
  2
BIGT$0
 70
     0
  3

  4
"
  5
OPEN
  6

  7

 40
1.0
 41
2.23
 42
0.5
 43
7.0
 44
1.0
 45
0.0
 46
0.0
 47
0.1
 48
0.1
140
3.0
141
0.0
142
0.0
143
0.0393701
144
1.0
145
0.0
146
0.71
147
1.0
 71
     0
 72
     0
 73
     0
 74
     0
 75
     0
 76
     0
 77
     3
 78
     8
170
     0
171
     2
172
     1
173
     0
174
     0
175
     0
176
     3
177
     3
178
    40
270
     2
271
     3
272
     3
273
     2
274
     2
340
10
275
     0
280
     0
281
     0
282
     0
283
     1
284
     8
285
     0
286
     0
287
     3
288
     0
  0
ENDTAB
  0
TABLE
  2
BLOCK_RECORD
  5
1
330
0
100
AcDbSymbolTable
 70
    14
  0
BLOCK_RECORD
  5
1A
102
{ACAD_XDICTIONARY
360
C33
102
}
330
1
100
AcDbSymbolTableRecord
100
AcDbBlockTableRecord
  2
*MODEL_SPACE
  0
BLOCK_RECORD
  5
17
102
{ACAD_XDICTIONARY
360
C31
102
}
330
1
100
AcDbSymbolTableRecord
100
AcDbBlockTableRecord
  2
*PAPER_SPACE
  0
BLOCK_RECORD
  5
594
330
1
100
AcDbSymbolTableRecord
100
AcDbBlockTableRecord
  2
_OPEN
  0
BLOCK_RECORD
  5
6E3
330
1
100
AcDbSymbolTableRecord
100
AcDbBlockTableRecord
  2
矢印なし
  0
BLOCK_RECORD
  5
762
330
1
100
AcDbSymbolTableRecord
100
AcDbBlockTableRecord
  2
_NONE
  0
BLOCK_RECORD
  5
765
330
1
100
AcDbSymbolTableRecord
100
AcDbBlockTableRecord
  2
1
1001
CONTENTBLOCKICON
1071
        0
1004
2800000020000000200000000100080000000000000400000000000000000000000000000000000000000000000080000080000000808000800000008000800080800000C0C0C000C0DCC000F0CAA6000020400000206000002080000020A0000020C0000020E00000400000004020000040400000406000004080000040A0
1004
000040C0000040E00000600000006020000060400000606000006080000060A0000060C0000060E00000800000008020000080400000806000008080000080A0000080C0000080E00000A0000000A0200000A0400000A0600000A0800000A0A00000A0C00000A0E00000C0000000C0200000C0400000C0600000C0800000C0
1004
A00000C0C00000C0E00000E0000000E0200000E0400000E0600000E0800000E0A00000E0C00000E0E00040000000400020004000400040006000400080004000A0004000C0004000E00040200000402020004020400040206000402080004020A0004020C0004020E000404000004040200040404000404060004040800040
1004
40A0004040C0004040E00040600000406020004060400040606000406080004060A0004060C0004060E00040800000408020004080400040806000408080004080A0004080C0004080E00040A0000040A0200040A0400040A0600040A0800040A0A00040A0C00040A0E00040C0000040C0200040C0400040C0600040C08000
1004
40C0A00040C0C00040C0E00040E0000040E0200040E0400040E0600040E0800040E0A00040E0C00040E0E00080000000800020008000400080006000800080008000A0008000C0008000E00080200000802020008020400080206000802080008020A0008020C0008020E00080400000804020008040400080406000804080
1004
008040A0008040C0008040E00080600000806020008060400080606000806080008060A0008060C0008060E00080800000808020008080400080806000808080008080A0008080C0008080E00080A0000080A0200080A0400080A0600080A0800080A0A00080A0C00080A0E00080C0000080C0200080C0400080C0600080C0
1004
800080C0A00080C0C00080C0E00080E0000080E0200080E0400080E0600080E0800080E0A00080E0C00080E0E000C0000000C0002000C0004000C0006000C0008000C000A000C000C000C000E000C0200000C0202000C0204000C0206000C0208000C020A000C020C000C020E000C0400000C0402000C0404000C0406000C0
1004
408000C040A000C040C000C040E000C0600000C0602000C0604000C0606000C0608000C060A000C060C000C060E000C0800000C0802000C0804000C0806000C0808000C080A000C080C000C080E000C0A00000C0A02000C0A04000C0A06000C0A08000C0A0A000C0A0C000C0A0E000C0C00000C0C02000C0C04000C0C06000
1004
C0C08000C0C0A000F0FBFF00A4A0A000808080000000FF0000FF000000FFFF00FF000000FF00FF00FFFF0000FFFFFF0000000000000000000000000000000000000000000000000000000000000000000000000000000000000000000000000000000000000000000000000000000000000000000000000000000000000000
1004
00000000000000000000000000000000000000000000000000000000000000000000000000000000000000000000000000000000000000000000000000000000000000000000000000000000000000000000000000000000000000000000000000000000000000000000000000000000000000000000000000000000000000
1004
000000000000000000000000000000000000000000000000000000000000000000000000000000000000000000000000000000000000000000000000000000000000000000000000000000000000000000000000000000000000000000000000000000000000000000000000000000000000000000000000000000000000FE
1004
FEFEFEFE000000000000000000000000000000000000000000000000000000FE00FEFEE70000000000000000000000000000000000000000000000FEFEFEFEFEE7E7E7FEFEFEFEFEFE000000000000000000000000FEFEFEFEFEFE00000000E700E7E7E700E7E7E7FEFEFEFEFEFEFEFEFE00000000FE000000000000000000
1004
E700E7E7E700E7E7E7E700E7E700E7E7E7FE00000000FE000000000000000000E700E7E7E700E7E7E7E700E7E700E7E7E7E7000000FBFEFBFBFBFBFBFBFBFBFBE7FBE7E7E7FBE7E7E7E7FBE7E7FBE7E7E7E7FB000000FE000000000000000000E700E7E7E700E7E7E7E700E7E700E7E7E7FE00000000FEFEFEFEFE00000000
1004
00E700E7E7E700E7E7E7FE00FEFEFEFEFEFEFE000000000000000000FEFEFEFEFEFEE7E7E7FEFEFEFEFEFEFE000000000000000000000000000000000000000000FE00FEFEFE000000000000000000000000000000000000000000000000000000FEFEFEFEFE00000000000000000000000000000000000000000000000000
1004
00000000000000000000000000000000000000000000000000000000000000000000000000000000000000000000000000000000000000000000000000000000000000000000000000000000000000000000000000000000000000000000000000000000000000000000000000000000000000000000000000000000000000
1004
00000000000000000000000000000000000000000000000000000000000000000000000000000000000000000000000000000000000000000000000000000000000000000000000000000000000000000000000000000000000000000000000000000000000000000000000000000000000000000000000000000000000000
1004
0000000000000000000000000000000000000000000000000000000000000000000000000000000000000000000000000000000000000000
  0
BLOCK_RECORD
  5
871
330
1
100
AcDbSymbolTableRecord
100
AcDbBlockTableRecord
  2
*D4
  0
BLOCK_RECORD
  5
87D
330
1
100
AcDbSymbolTableRecord
100
AcDbBlockTableRecord
  2
*D5
  0
BLOCK_RECORD
  5
ACD
330
1
100
AcDbSymbolTableRecord
100
AcDbBlockTableRecord
  2
*D6
  0
BLOCK_RECORD
  5
AD9
330
1
100
AcDbSymbolTableRecord
100
AcDbBlockTableRecord
  2
*D7
  0
BLOCK_RECORD
  5
AE5
330
1
100
AcDbSymbolTableRecord
100
AcDbBlockTableRecord
  2
*D8
  0
ENDTAB
  0
ENDSEC
  0
SECTION
  2
BLOCKS
  0
BLOCK
  5
1B
330
1A
100
AcDbEntity
  8
0
100
AcDbBlockBegin
  2
*MODEL_SPACE
 70
     0
 10
0.0
 20
0.0
 30
0.0
  3
*MODEL_SPACE
  1

  0
ENDBLK
  5
1C
330
1A
100
AcDbEntity
  8
0
100
AcDbBlockEnd
  0
BLOCK
  5
18
330
17
100
AcDbEntity
 67
     1
  8
0
100
AcDbBlockBegin
  2
*PAPER_SPACE
 70
     0
 10
0.0
 20
0.0
 30
0.0
  3
*PAPER_SPACE
  1

  0
ENDBLK
  5
19
330
17
100
AcDbEntity
 67
     1
  8
0
100
AcDbBlockEnd
  0
BLOCK
  5
598
330
594
100
AcDbEntity
  8
0
100
AcDbBlockBegin
  2
_OPEN
 70
     0
 10
0.0
 20
0.0
 30
0.0
  3
_OPEN
  1

  0
LINE
  5
595
330
594
100
AcDbEntity
  8
0
  6
BYBLOCK
 62
     0
100
AcDbLine
 10
-1.0
 20
0.16666667
 30
0.0
 11
0.0
 21
0.0
 31
0.0
  0
LINE
  5
596
330
594
100
AcDbEntity
  8
0
  6
BYBLOCK
 62
     0
100
AcDbLine
 10
-1.0
 20
-0.16666667
 30
0.0
 11
0.0
 21
0.0
 31
0.0
  0
LINE
  5
597
330
594
100
AcDbEntity
  8
0
  6
BYBLOCK
 62
     0
100
AcDbLine
 10
0.0
 20
0.0
 30
0.0
 11
-1.0
 21
0.0
 31
0.0
  0
ENDBLK
  5
599
330
594
100
AcDbEntity
  8
0
100
AcDbBlockEnd
  0
BLOCK
  5
6E4
330
6E3
100
AcDbEntity
  8
0
100
AcDbBlockBegin
  2
矢印なし
 70
     0
 10
0.0
 20
0.0
 30
0.0
  3
矢印なし
  1

  0
ENDBLK
  5
6E5
330
6E3
100
AcDbEntity
  8
0
100
AcDbBlockEnd
  0
BLOCK
  5
763
330
762
100
AcDbEntity
  8
0
100
AcDbBlockBegin
  2
_NONE
 70
     0
 10
0.0
 20
0.0
 30
0.0
  3
_NONE
  1

  0
ENDBLK
  5
764
330
762
100
AcDbEntity
  8
0
100
AcDbBlockEnd
  0
BLOCK
  5
81C
330
765
100
AcDbEntity
  8
0
100
AcDbBlockBegin
  2
1
 70
     0
 10
0.0
 20
0.0
 30
0.0
  3
1
  1

  0
LINE
  5
108F
330
765
100
AcDbEntity
  8
241
  6
HIDDEN2
100
AcDbLine
 10
106.21243557
 20
8.0
 30
0.0
 11
165.0
 21
8.0
 31
0.0
  0
LINE
  5
1090
330
765
100
AcDbEntity
  8
240
100
AcDbLine
 10
148.25
 20
23.0
 30
0.0
 11
159.2
 21
23.0
 31
0.0
1001
GRPNAME
1000
PASTMD1P
  0
LINE
  5
1091
330
765
100
AcDbEntity
  8
240
100
AcDbLine
 10
148.25
 20
-23.0
 30
0.0
 11
159.2
 21
-23.0
 31
0.0
  0
LINE
  5
1092
330
765
100
AcDbEntity
  8
245
  6
CENTER2
100
AcDbLine
 10
166.8
 20
0.0
 30
0.0
 11
-102.8
 21
0.0
 31
0.0
  0
LINE
  5
1093
330
765
100
AcDbEntity
  8
240
  6
CONTINUOUS
100
AcDbLine
 10
0.0
 20
34.925
 30
0.0
 11
-100.43089103
 21
20.27882839
 31
0.0
  0
LINE
  5
1094
330
765
100
AcDbEntity
  8
240
  6
CONTINUOUS
100
AcDbLine
 10
0.0
 20
-34.925
 30
0.0
 11
-100.43089103
 21
-20.27882839
 31
0.0
  0
LINE
  5
1095
330
765
100
AcDbEntity
  8
240
  6
CONTINUOUS
100
AcDbLine
 10
-101.8
 20
18.69557562
 30
0.0
 11
-101.8
 21
0.0
 31
0.0
  0
LINE
  5
1096
330
765
100
AcDbEntity
  8
240
  6
CONTINUOUS
100
AcDbLine
 10
-101.8
 20
-18.69557562
 30
0.0
 11
-101.8
 21
0.0
 31
0.0
  0
ARC
  5
1097
330
765
100
AcDbEntity
  8
240
  6
CONTINUOUS
100
AcDbCircle
 10
-100.2
 20
-18.69557562
 30
0.0
 40
1.6
100
AcDbArc
 50
180.0
 51
261.70285503
  0
ARC
  5
1098
330
765
100
AcDbEntity
  8
240
  6
CONTINUOUS
100
AcDbCircle
 10
-100.2
 20
18.69557562
 30
0.0
 40
1.6
100
AcDbArc
 50
98.29714497
 51
180.0
  0
LINE
  5
1099
330
765
100
AcDbEntity
  8
241
100
AcDbLine
 10
113.9
 20
28.24946467
 30
0.0
 11
113.9
 21
0.0
 31
0.0
  0
LINE
  5
109A
330
765
100
AcDbEntity
  8
241
100
AcDbLine
 10
116.9
 20
28.12098501
 30
0.0
 11
116.9
 21
0.0
 31
0.0
  0
LINE
  5
109B
330
765
100
AcDbEntity
  8
241
100
AcDbLine
 10
111.9
 20
0.0
 30
0.0
 11
111.9
 21
28.33511777
 31
0.0
  0
LINE
  5
109C
330
765
100
AcDbEntity
  8
241
100
AcDbLine
 10
108.9
 20
0.0
 30
0.0
 11
108.9
 21
28.46359743
 31
0.0
  0
LINE
  5
109D
330
765
100
AcDbEntity
  8
241
100
AcDbLine
 10
106.9
 20
0.0
 30
0.0
 11
106.9
 21
28.54925054
 31
0.0
  0
LINE
  5
109E
330
765
100
AcDbEntity
  8
241
100
AcDbLine
 10
103.9
 20
0.0
 30
0.0
 11
103.9
 21
28.67773019
 31
0.0
  0
LINE
  5
109F
330
765
100
AcDbEntity
  8
241
100
AcDbLine
 10
86.0
 20
0.0
 30
0.0
 11
86.0
 21
29.44432548
 31
0.0
  0
LINE
  5
10A0
330
765
100
AcDbEntity
  8
241
100
AcDbLine
 10
76.0
 20
0.0
 30
0.0
 11
76.0
 21
29.87259101
 31
0.0
  0
LINE
  5
10A1
330
765
100
AcDbEntity
  8
241
100
AcDbLine
 10
68.0
 20
0.0
 30
0.0
 11
68.0
 21
30.21520343
 31
0.0
  0
LINE
  5
10A2
330
765
100
AcDbEntity
  8
241
100
AcDbLine
 10
58.0
 20
0.0
 30
0.0
 11
58.0
 21
30.64346895
 31
0.0
  0
LINE
  5
10A3
330
765
100
AcDbEntity
  8
241
  6
CONTINUOUS
100
AcDbLine
 10
38.0
 20
0.0
 30
0.0
 11
38.0
 21
36.29045042
 31
0.0
  0
LINE
  5
10A4
330
765
100
AcDbEntity
  8
241
100
AcDbLine
 10
139.10399638
 20
0.0
 30
0.0
 11
139.10399638
 21
27.13299316
 31
0.0
  0
LINE
  5
10A5
330
765
100
AcDbEntity
  8
241
100
AcDbLine
 10
141.5
 20
23.71700684
 30
0.0
 11
141.5
 21
0.0
 31
0.0
  0
LINE
  5
10A6
330
765
100
AcDbEntity
  8
241
  6
CONTINUOUS
100
AcDbLine
 10
131.4
 20
27.5
 30
0.0
 11
131.4
 21
0.0
 31
0.0
  0
LINE
  5
10A7
330
765
100
AcDbEntity
  8
241
100
AcDbLine
 10
148.25
 20
23.0
 30
0.0
 11
148.25
 21
0.0
 31
0.0
  0
LINE
  5
10A8
330
765
100
AcDbEntity
  8
241
  6
CONTINUOUS
100
AcDbLine
 10
20.03012702
 20
42.5
 30
0.0
 11
20.03012702
 21
0.0
 31
0.0
  0
LINE
  5
10A9
330
765
100
AcDbEntity
  8
241
  6
CONTINUOUS
100
AcDbLine
 10
26.36987298
 20
42.5
 30
0.0
 11
26.36987298
 21
0.0
 31
0.0
  0
LINE
  5
10AA
330
765
100
AcDbEntity
  8
245
  6
CENTER2
100
AcDbLine
 10
23.2
 20
-50.0
 30
0.0
 11
23.2
 21
50.0
 31
0.0
  0
LINE
  5
10AB
330
765
100
AcDbEntity
  8
241
100
AcDbLine
 10
1.5
 20
34.925
 30
0.0
 11
1.5
 21
0.0
 31
0.0
  0
LINE
  5
10AC
330
765
100
AcDbEntity
  8
241
  6
CONTINUOUS
100
AcDbLine
 10
0.0
 20
34.925
 30
0.0
 11
0.0
 21
0.0
 31
0.0
  0
LINE
  5
10AD
330
765
100
AcDbEntity
  8
241
  6
CONTINUOUS
100
AcDbLine
 10
30.7
 20
50.0
 30
0.0
 11
30.7
 21
0.0
 31
0.0
  0
LINE
  5
10AE
330
765
100
AcDbEntity
  8
241
  6
CONTINUOUS
100
AcDbLine
 10
15.7
 20
50.0
 30
0.0
 11
15.7
 21
0.0
 31
0.0
  0
LINE
  5
10AF
330
765
100
AcDbEntity
  8
240
100
AcDbLine
 10
77.04570038
 20
-28.82689063
 30
0.0
 11
76.0
 21
-29.87259101
 31
0.0
  0
LINE
  5
10B0
330
765
100
AcDbEntity
  8
240
  6
CONTINUOUS
100
AcDbLine
 10
38.0
 20
-48.7
 30
0.0
 11
38.0
 21
-36.29045042
 31
0.0
  0
LINE
  5
10B1
330
765
100
AcDbEntity
  8
241
  6
CONTINUOUS
100
AcDbLine
 10
26.36987298
 20
-42.5
 30
0.0
 11
26.36987298
 21
0.0
 31
0.0
  0
LINE
  5
10B2
330
765
100
AcDbEntity
  8
241
  6
CONTINUOUS
100
AcDbLine
 10
20.03012702
 20
-42.5
 30
0.0
 11
20.03012702
 21
0.0
 31
0.0
  0
LINE
  5
10B3
330
765
100
AcDbEntity
  8
241
  6
CONTINUOUS
100
AcDbLine
 10
15.7
 20
-50.0
 30
0.0
 11
15.7
 21
0.0
 31
0.0
  0
LINE
  5
10B4
330
765
100
AcDbEntity
  8
241
  6
CONTINUOUS
100
AcDbLine
 10
30.7
 20
-50.0
 30
0.0
 11
30.7
 21
0.0
 31
0.0
  0
LINE
  5
10B5
330
765
100
AcDbEntity
  8
240
  6
CONTINUOUS
100
AcDbLine
 10
1.5
 20
-48.7
 30
0.0
 11
1.5
 21
-34.925
 31
0.0
  0
LINE
  5
10B6
330
765
100
AcDbEntity
  8
241
  6
HIDDEN2
100
AcDbLine
 10
34.0
 20
-35.4
 30
0.0
 11
34.0
 21
-50.0
 31
0.0
  0
LINE
  5
10B7
330
765
100
AcDbEntity
  8
240
  6
CONTINUOUS
100
AcDbLine
 10
36.7
 20
-50.0
 30
0.0
 11
30.7
 21
-50.0
 31
0.0
  0
LINE
  5
10B8
330
765
100
AcDbEntity
  8
240
  6
CONTINUOUS
100
AcDbLine
 10
2.8
 20
-50.0
 30
0.0
 11
15.7
 21
-50.0
 31
0.0
  0
ARC
  5
10B9
330
765
100
AcDbEntity
  8
240
  6
CONTINUOUS
100
AcDbCircle
 10
2.8
 20
-48.7
 30
0.0
 40
1.3
100
AcDbArc
 50
180.0
 51
270.0
  0
LINE
  5
10BA
330
765
100
AcDbEntity
  8
240
  6
CONTINUOUS
100
AcDbLine
 10
26.36987298
 20
-42.5
 30
0.0
 11
20.03012702
 21
-42.5
 31
0.0
  0
LINE
  5
10BB
330
765
100
AcDbEntity
  8
240
  6
CONTINUOUS
100
AcDbLine
 10
20.03012702
 20
-42.5
 30
0.0
 11
15.7
 21
-50.0
 31
0.0
  0
LINE
  5
10BC
330
765
100
AcDbEntity
  8
240
  6
CONTINUOUS
100
AcDbLine
 10
26.36987298
 20
-42.5
 30
0.0
 11
30.7
 21
-50.0
 31
0.0
  0
ARC
  5
10BD
330
765
100
AcDbEntity
  8
240
  6
CONTINUOUS
100
AcDbCircle
 10
36.7
 20
-48.7
 30
0.0
 40
1.3
100
AcDbArc
 50
270.0
 51
0.0
  0
LINE
  5
10BE
330
765
100
AcDbEntity
  8
241
100
AcDbLine
 10
1.5
 20
-34.925
 30
0.0
 11
1.5
 21
0.0
 31
0.0
  0
LINE
  5
10BF
330
765
100
AcDbEntity
  8
241
  6
CONTINUOUS
100
AcDbLine
 10
0.0
 20
-34.925
 30
0.0
 11
0.0
 21
0.0
 31
0.0
  0
LINE
  5
10C0
330
765
100
AcDbEntity
  8
241
  6
HIDDEN2
100
AcDbLine
 10
1.5
 20
-35.4
 30
0.0
 11
34.0
 21
-35.4
 31
0.0
  0
LINE
  5
10C1
330
765
100
AcDbEntity
  8
240
100
AcDbLine
 10
0.0
 20
-34.925
 30
0.0
 11
1.5
 21
-34.925
 31
0.0
  0
LINE
  5
10C2
330
765
100
AcDbEntity
  8
241
  6
CONTINUOUS
100
AcDbLine
 10
38.0
 20
0.0
 30
0.0
 11
38.0
 21
-36.29045042
 31
0.0
  0
LINE
  5
10C3
330
765
100
AcDbEntity
  8
241
100
AcDbLine
 10
58.0
 20
0.0
 30
0.0
 11
58.0
 21
-30.64346895
 31
0.0
  0
LINE
  5
10C4
330
765
100
AcDbEntity
  8
241
100
AcDbLine
 10
68.0
 20
0.0
 30
0.0
 11
68.0
 21
-30.21520343
 31
0.0
  0
LINE
  5
10C5
330
765
100
AcDbEntity
  8
241
100
AcDbLine
 10
76.0
 20
0.0
 30
0.0
 11
76.0
 21
-29.87259101
 31
0.0
  0
LINE
  5
10C6
330
765
100
AcDbEntity
  8
240
  6
CONTINUOUS
100
AcDbLine
 10
58.0
 20
-30.64346895
 30
0.0
 11
42.78606334
 21
-31.29502941
 31
0.0
  0
ARC
  5
10C7
330
765
100
AcDbEntity
  8
240
  6
CONTINUOUS
100
AcDbCircle
 10
43.0
 20
-36.29045042
 30
0.0
 40
5.0
100
AcDbArc
 50
92.45228219
 51
180.0
  0
LINE
  5
10C8
330
765
100
AcDbEntity
  8
240
100
AcDbLine
 10
59.04570038
 20
-29.59776857
 30
0.0
 11
67.04018877
 21
-29.2553922
 31
0.0
  0
LINE
  5
10C9
330
765
100
AcDbEntity
  8
240
100
AcDbLine
 10
59.04570038
 20
-29.59776857
 30
0.0
 11
58.0
 21
-30.64346895
 31
0.0
  0
LINE
  5
10CA
330
765
100
AcDbEntity
  8
240
  6
CONTINUOUS
100
AcDbLine
 10
76.0
 20
-29.87259101
 30
0.0
 11
68.0
 21
-30.21520343
 31
0.0
  0
LINE
  5
10CB
330
765
100
AcDbEntity
  8
240
100
AcDbLine
 10
67.04018877
 20
-29.2553922
 30
0.0
 11
68.0
 21
-30.21520343
 31
0.0
  0
LINE
  5
10CC
330
765
100
AcDbEntity
  8
240
  6
CONTINUOUS
100
AcDbLine
 10
116.9
 20
-28.12098501
 30
0.0
 11
131.4
 21
-27.5
 31
0.0
  0
LINE
  5
10CD
330
765
100
AcDbEntity
  8
241
100
AcDbLine
 10
86.0
 20
0.0
 30
0.0
 11
86.0
 21
-29.44432548
 31
0.0
  0
LINE
  5
10CE
330
765
100
AcDbEntity
  8
241
100
AcDbLine
 10
103.9
 20
0.0
 30
0.0
 11
103.9
 21
-28.67773019
 31
0.0
  0
LINE
  5
10CF
330
765
100
AcDbEntity
  8
241
100
AcDbLine
 10
106.9
 20
0.0
 30
0.0
 11
106.9
 21
-28.54925054
 31
0.0
  0
LINE
  5
10D0
330
765
100
AcDbEntity
  8
241
100
AcDbLine
 10
108.9
 20
0.0
 30
0.0
 11
108.9
 21
-28.46359743
 31
0.0
  0
LINE
  5
10D1
330
765
100
AcDbEntity
  8
241
100
AcDbLine
 10
111.9
 20
0.0
 30
0.0
 11
111.9
 21
-28.33511777
 31
0.0
  0
LINE
  5
10D2
330
765
100
AcDbEntity
  8
241
100
AcDbLine
 10
116.9
 20
-28.12098501
 30
0.0
 11
116.9
 21
0.0
 31
0.0
  0
LINE
  5
10D3
330
765
100
AcDbEntity
  8
241
100
AcDbLine
 10
113.9
 20
-28.24946467
 30
0.0
 11
113.9
 21
0.0
 31
0.0
  0
LINE
  5
10D4
330
765
100
AcDbEntity
  8
240
  6
CONTINUOUS
100
AcDbLine
 10
86.0
 20
-29.44432548
 30
0.0
 11
103.9
 21
-28.67773019
 31
0.0
  0
LINE
  5
10D5
330
765
100
AcDbEntity
  8
240
100
AcDbLine
 10
77.04570038
 20
-28.82689063
 30
0.0
 11
85.04018877
 21
-28.48451425
 31
0.0
  0
LINE
  5
10D6
330
765
100
AcDbEntity
  8
240
100
AcDbLine
 10
85.04018877
 20
-28.48451425
 30
0.0
 11
86.0
 21
-29.44432548
 31
0.0
  0
LINE
  5
10D7
330
765
100
AcDbEntity
  8
240
  6
CONTINUOUS
100
AcDbLine
 10
108.9
 20
-28.46359743
 30
0.0
 11
106.9
 21
-28.54925054
 31
0.0
  0
LINE
  5
10D8
330
765
100
AcDbEntity
  8
240
100
AcDbLine
 10
106.42009438
 20
-28.06934492
 30
0.0
 11
106.9
 21
-28.54925054
 31
0.0
  0
LINE
  5
10D9
330
765
100
AcDbEntity
  8
240
100
AcDbLine
 10
104.42285019
 20
-28.15488
 30
0.0
 11
106.42009438
 21
-28.06934492
 31
0.0
  0
LINE
  5
10DA
330
765
100
AcDbEntity
  8
240
100
AcDbLine
 10
104.42285019
 20
-28.15488
 30
0.0
 11
103.9
 21
-28.67773019
 31
0.0
  0
LINE
  5
10DB
330
765
100
AcDbEntity
  8
240
  6
CONTINUOUS
100
AcDbLine
 10
113.9
 20
-28.24946467
 30
0.0
 11
111.9
 21
-28.33511777
 31
0.0
  0
LINE
  5
10DC
330
765
100
AcDbEntity
  8
240
100
AcDbLine
 10
109.42285019
 20
-27.94074724
 30
0.0
 11
108.9
 21
-28.46359743
 31
0.0
  0
LINE
  5
10DD
330
765
100
AcDbEntity
  8
240
100
AcDbLine
 10
109.42285019
 20
-27.94074724
 30
0.0
 11
111.42009438
 21
-27.85521216
 31
0.0
  0
LINE
  5
10DE
330
765
100
AcDbEntity
  8
240
100
AcDbLine
 10
111.42009438
 20
-27.85521216
 30
0.0
 11
111.9
 21
-28.33511777
 31
0.0
  0
LINE
  5
10DF
330
765
100
AcDbEntity
  8
240
100
AcDbLine
 10
114.42285019
 20
-27.72661448
 30
0.0
 11
113.9
 21
-28.24946467
 31
0.0
  0
LINE
  5
10E0
330
765
100
AcDbEntity
  8
240
100
AcDbLine
 10
114.42285019
 20
-27.72661448
 30
0.0
 11
116.42009438
 21
-27.6410794
 31
0.0
  0
LINE
  5
10E1
330
765
100
AcDbEntity
  8
240
100
AcDbLine
 10
116.42009438
 20
-27.6410794
 30
0.0
 11
116.9
 21
-28.12098501
 31
0.0
  0
LINE
  5
10E2
330
765
100
AcDbEntity
  8
241
  6
CONTINUOUS
100
AcDbLine
 10
131.4
 20
-27.5
 30
0.0
 11
131.4
 21
0.0
 31
0.0
  0
LINE
  5
10E3
330
765
100
AcDbEntity
  8
241
100
AcDbLine
 10
139.10399638
 20
0.0
 30
0.0
 11
139.10399638
 21
-27.13299316
 31
0.0
  0
LINE
  5
10E4
330
765
100
AcDbEntity
  8
241
100
AcDbLine
 10
141.5
 20
-23.71700684
 30
0.0
 11
141.5
 21
0.0
 31
0.0
  0
LINE
  5
10E5
330
765
100
AcDbEntity
  8
241
100
AcDbLine
 10
148.25
 20
-23.0
 30
0.0
 11
148.25
 21
0.0
 31
0.0
  0
ARC
  5
10E6
330
765
100
AcDbEntity
  8
240
100
AcDbCircle
 10
137.94929584
 20
-25.5
 30
0.0
 40
2.0
100
AcDbArc
 50
270.0
 51
330.0
  0
LINE
  5
10E7
330
765
100
AcDbEntity
  8
240
100
AcDbLine
 10
131.4
 20
-27.5
 30
0.0
 11
137.94929584
 21
-27.5
 31
0.0
  0
LINE
  5
10E8
330
765
100
AcDbEntity
  8
240
100
AcDbLine
 10
140.92264973
 20
-24.35
 30
0.0
 11
139.68134665
 21
-26.5
 31
0.0
  0
LINE
  5
10E9
330
765
100
AcDbEntity
  8
240
100
AcDbLine
 10
142.65470054
 20
-23.35
 30
0.0
 11
147.9
 21
-23.35
 31
0.0
  0
ARC
  5
10EA
330
765
100
AcDbEntity
  8
240
100
AcDbCircle
 10
142.65470054
 20
-25.35
 30
0.0
 40
2.0
100
AcDbArc
 50
90.0
 51
150.0
  0
LINE
  5
10EB
330
765
100
AcDbEntity
  8
240
100
AcDbLine
 10
148.25
 20
-23.0
 30
0.0
 11
147.9
 21
-23.35
 31
0.0
  0
LINE
  5
10EC
330
765
100
AcDbEntity
  8
240
100
AcDbLine
 10
77.04570038
 20
28.82689063
 30
0.0
 11
76.0
 21
29.87259101
 31
0.0
  0
LINE
  5
10ED
330
765
100
AcDbEntity
  8
240
  6
CONTINUOUS
100
AcDbLine
 10
30.7
 20
50.0
 30
0.0
 11
36.7
 21
50.0
 31
0.0
  0
LINE
  5
10EE
330
765
100
AcDbEntity
  8
241
  6
HIDDEN2
100
AcDbLine
 10
34.0
 20
35.4
 30
0.0
 11
34.0
 21
50.0
 31
0.0
  0
LINE
  5
10EF
330
765
100
AcDbEntity
  8
240
  6
CONTINUOUS
100
AcDbLine
 10
1.5
 20
48.7
 30
0.0
 11
1.5
 21
34.925
 31
0.0
  0
LINE
  5
10F0
330
765
100
AcDbEntity
  8
241
  6
HIDDEN2
100
AcDbLine
 10
34.0
 20
35.4
 30
0.0
 11
1.5
 21
35.4
 31
0.0
  0
LINE
  5
10F1
330
765
100
AcDbEntity
  8
240
100
AcDbLine
 10
0.0
 20
34.925
 30
0.0
 11
1.5
 21
34.925
 31
0.0
  0
LINE
  5
10F2
330
765
100
AcDbEntity
  8
240
  6
CONTINUOUS
100
AcDbLine
 10
15.7
 20
50.0
 30
0.0
 11
2.8
 21
50.0
 31
0.0
  0
ARC
  5
10F3
330
765
100
AcDbEntity
  8
240
  6
CONTINUOUS
100
AcDbCircle
 10
2.8
 20
48.7
 30
0.0
 40
1.3
100
AcDbArc
 50
90.0
 51
180.0
  0
LINE
  5
10F4
330
765
100
AcDbEntity
  8
240
  6
CONTINUOUS
100
AcDbLine
 10
26.36987298
 20
42.5
 30
0.0
 11
20.03012702
 21
42.5
 31
0.0
  0
LINE
  5
10F5
330
765
100
AcDbEntity
  8
240
  6
CONTINUOUS
100
AcDbLine
 10
20.03012702
 20
42.5
 30
0.0
 11
15.7
 21
50.0
 31
0.0
  0
LINE
  5
10F6
330
765
100
AcDbEntity
  8
240
  6
CONTINUOUS
100
AcDbLine
 10
26.36987298
 20
42.5
 30
0.0
 11
30.7
 21
50.0
 31
0.0
  0
LINE
  5
10F7
330
765
100
AcDbEntity
  8
240
  6
CONTINUOUS
100
AcDbLine
 10
38.0
 20
48.7
 30
0.0
 11
38.0
 21
36.29045042
 31
0.0
  0
LINE
  5
10F8
330
765
100
AcDbEntity
  8
240
  6
CONTINUOUS
100
AcDbLine
 10
58.0
 20
30.64346895
 30
0.0
 11
42.78606334
 21
31.29502941
 31
0.0
  0
ARC
  5
10F9
330
765
100
AcDbEntity
  8
240
  6
CONTINUOUS
100
AcDbCircle
 10
43.0
 20
36.29045042
 30
0.0
 40
5.0
100
AcDbArc
 50
180.0
 51
267.54771781
  0
LINE
  5
10FA
330
765
100
AcDbEntity
  8
240
100
AcDbLine
 10
59.04570038
 20
29.59776857
 30
0.0
 11
67.04018877
 21
29.2553922
 31
0.0
  0
LINE
  5
10FB
330
765
100
AcDbEntity
  8
240
100
AcDbLine
 10
59.04570038
 20
29.59776857
 30
0.0
 11
58.0
 21
30.64346895
 31
0.0
  0
LINE
  5
10FC
330
765
100
AcDbEntity
  8
240
  6
CONTINUOUS
100
AcDbLine
 10
76.0
 20
29.87259101
 30
0.0
 11
68.0
 21
30.21520343
 31
0.0
  0
LINE
  5
10FD
330
765
100
AcDbEntity
  8
240
100
AcDbLine
 10
67.04018877
 20
29.2553922
 30
0.0
 11
68.0
 21
30.21520343
 31
0.0
  0
ARC
  5
10FE
330
765
100
AcDbEntity
  8
240
  6
CONTINUOUS
100
AcDbCircle
 10
36.7
 20
48.7
 30
0.0
 40
1.3
100
AcDbArc
 50
0.0
 51
90.0
  0
LINE
  5
10FF
330
765
100
AcDbEntity
  8
240
  6
CONTINUOUS
100
AcDbLine
 10
116.9
 20
28.12098501
 30
0.0
 11
131.4
 21
27.5
 31
0.0
  0
LINE
  5
1100
330
765
100
AcDbEntity
  8
240
  6
CONTINUOUS
100
AcDbLine
 10
86.0
 20
29.44432548
 30
0.0
 11
103.9
 21
28.67773019
 31
0.0
  0
LINE
  5
1101
330
765
100
AcDbEntity
  8
240
100
AcDbLine
 10
85.04018877
 20
28.48451425
 30
0.0
 11
86.0
 21
29.44432548
 31
0.0
  0
LINE
  5
1102
330
765
100
AcDbEntity
  8
240
100
AcDbLine
 10
77.04570038
 20
28.82689063
 30
0.0
 11
85.04018877
 21
28.48451425
 31
0.0
  0
LINE
  5
1103
330
765
100
AcDbEntity
  8
240
100
AcDbLine
 10
104.42285019
 20
28.15488
 30
0.0
 11
103.9
 21
28.67773019
 31
0.0
  0
LINE
  5
1104
330
765
100
AcDbEntity
  8
240
  6
CONTINUOUS
100
AcDbLine
 10
108.9
 20
28.46359743
 30
0.0
 11
106.9
 21
28.54925054
 31
0.0
  0
LINE
  5
1105
330
765
100
AcDbEntity
  8
240
100
AcDbLine
 10
104.42285019
 20
28.15488
 30
0.0
 11
106.42009438
 21
28.06934492
 31
0.0
  0
LINE
  5
1106
330
765
100
AcDbEntity
  8
240
100
AcDbLine
 10
106.42009438
 20
28.06934492
 30
0.0
 11
106.9
 21
28.54925054
 31
0.0
  0
LINE
  5
1107
330
765
100
AcDbEntity
  8
240
  6
CONTINUOUS
100
AcDbLine
 10
113.9
 20
28.24946467
 30
0.0
 11
111.9
 21
28.33511777
 31
0.0
  0
LINE
  5
1108
330
765
100
AcDbEntity
  8
240
100
AcDbLine
 10
111.42009438
 20
27.85521216
 30
0.0
 11
111.9
 21
28.33511777
 31
0.0
  0
LINE
  5
1109
330
765
100
AcDbEntity
  8
240
100
AcDbLine
 10
109.42285019
 20
27.94074724
 30
0.0
 11
111.42009438
 21
27.85521216
 31
0.0
  0
LINE
  5
110A
330
765
100
AcDbEntity
  8
240
100
AcDbLine
 10
109.42285019
 20
27.94074724
 30
0.0
 11
108.9
 21
28.46359743
 31
0.0
  0
LINE
  5
110B
330
765
100
AcDbEntity
  8
240
100
AcDbLine
 10
116.42009438
 20
27.6410794
 30
0.0
 11
116.9
 21
28.12098501
 31
0.0
  0
LINE
  5
110C
330
765
100
AcDbEntity
  8
240
100
AcDbLine
 10
114.42285019
 20
27.72661448
 30
0.0
 11
116.42009438
 21
27.6410794
 31
0.0
  0
LINE
  5
110D
330
765
100
AcDbEntity
  8
240
100
AcDbLine
 10
114.42285019
 20
27.72661448
 30
0.0
 11
113.9
 21
28.24946467
 31
0.0
  0
ARC
  5
110E
330
765
100
AcDbEntity
  8
240
100
AcDbCircle
 10
137.94929584
 20
25.5
 30
0.0
 40
2.0
100
AcDbArc
 50
30.0
 51
90.0
  0
LINE
  5
110F
330
765
100
AcDbEntity
  8
240
100
AcDbLine
 10
131.4
 20
27.5
 30
0.0
 11
137.94929584
 21
27.5
 31
0.0
  0
LINE
  5
1110
330
765
100
AcDbEntity
  8
240
100
AcDbLine
 10
142.65470054
 20
23.35
 30
0.0
 11
147.9
 21
23.35
 31
0.0
  0
ARC
  5
1111
330
765
100
AcDbEntity
  8
240
100
AcDbCircle
 10
142.65470054
 20
25.35
 30
0.0
 40
2.0
100
AcDbArc
 50
210.0
 51
270.0
  0
LINE
  5
1112
330
765
100
AcDbEntity
  8
240
100
AcDbLine
 10
140.92264973
 20
24.35
 30
0.0
 11
139.68134665
 21
26.5
 31
0.0
  0
LINE
  5
1113
330
765
100
AcDbEntity
  8
240
100
AcDbLine
 10
148.25
 20
23.0
 30
0.0
 11
147.9
 21
23.35
 31
0.0
1001
GRPNAME
1000
PASTMD1P
  0
LINE
  5
1114
330
765
100
AcDbEntity
  8
240
100
AcDbLine
 10
165.8
 20
18.92955437
 30
0.0
 11
165.8
 21
0.0
 31
0.0
  0
LINE
  5
1115
330
765
100
AcDbEntity
  8
241
100
AcDbLine
 10
159.2
 20
23.0
 30
0.0
 11
159.2
 21
0.0
 31
0.0
  0
LINE
  5
1116
330
765
100
AcDbEntity
  8
240
100
AcDbLine
 10
165.8
 20
-18.92955437
 30
0.0
 11
165.8
 21
0.0
 31
0.0
  0
LINE
  5
1117
330
765
100
AcDbEntity
  8
241
100
AcDbLine
 10
159.2
 20
-23.0
 30
0.0
 11
159.2
 21
0.0
 31
0.0
  0
ARC
  5
1118
330
765
100
AcDbEntity
  8
240
100
AcDbCircle
 10
162.8
 20
-18.92955437
 30
0.0
 40
3.000000000000051
100
AcDbArc
 50
285.00000003
 51
0.00000003
  0
LINE
  5
1119
330
765
100
AcDbEntity
  8
240
100
AcDbLine
 10
163.57645714
 20
-21.82733184
 30
0.0
 11
159.2
 21
-23.0
 31
0.0
  0
LINE
  5
111A
330
765
100
AcDbEntity
  8
241
  6
HIDDEN2
100
AcDbLine
 10
165.0
 20
13.03981435
 30
0.0
 11
165.0
 21
0.0
 31
0.0
  0
LINE
  5
111B
330
765
100
AcDbEntity
  8
240
100
AcDbLine
 10
163.57645714
 20
21.82733184
 30
0.0
 11
159.2
 21
23.0
 31
0.0
1001
GRPNAME
1000
PASTMD1P
  0
ARC
  5
111C
330
765
100
AcDbEntity
  8
240
100
AcDbCircle
 10
162.8
 20
18.92955437
 30
0.0
 40
3.000000000000055
100
AcDbArc
 50
359.99999997
 51
74.99999997
1001
GRPNAME
1000
PASTMD1P
  0
ENDBLK
  5
81D
330
765
100
AcDbEntity
  8
0
100
AcDbBlockEnd
  0
BLOCK
  5
87B
330
871
100
AcDbEntity
  8
0
100
AcDbBlockBegin
  2
*D4
 70
     1
 10
0.0
 20
0.0
 30
0.0
  3
*D4
  1

  0
LINE
  5
FCF
330
871
100
AcDbEntity
  8
250
  6
CONTINUOUS
 62
     3
100
AcDbLine
 10
94.0
 20
8.5
 30
0.0
 11
94.0
 21
57.0
 31
0.0
  0
LINE
  5
FD0
330
871
100
AcDbEntity
  8
250
  6
CONTINUOUS
 62
     3
100
AcDbLine
 10
165.0
 20
13.53981436
 30
0.0
 11
165.0
 21
57.0
 31
0.0
  0
LINE
  5
FD1
330
871
100
AcDbEntity
  8
250
  6
CONTINUOUS
 62
     3
100
AcDbLine
 10
96.23
 20
56.0
 30
0.0
 11
162.77
 21
56.0
 31
0.0
  0
INSERT
  5
FD2
330
871
100
AcDbEntity
  8
250
  6
CONTINUOUS
 62
     3
100
AcDbBlockReference
  2
_OPEN
 10
94.0
 20
56.0
 30
0.0
 41
2.23
 42
2.23
 43
2.23
 50
180.0
  0
INSERT
  5
FD3
330
871
100
AcDbEntity
  8
250
  6
CONTINUOUS
 62
     3
100
AcDbBlockReference
  2
_OPEN
 10
165.0
 20
56.0
 30
0.0
 41
2.23
 42
2.23
 43
2.23
  0
MTEXT
  5
FD4
330
871
100
AcDbEntity
  8
250
  6
CONTINUOUS
 62
    40
100
AcDbMText
 10
131.28402808
 20
58.5
 30
0.0
 40
3.0
 41
0.0
 71
     5
 72
     1
  1
\A1;（max.71）
1001
ACAD
1000
MTEXTBEGIN
1070
    73
1070
     1
1070
    44
1040
1.0
1070
    74
1070
     0
1000
MTEXTEND
  0
POINT
  5
FD5
330
871
100
AcDbEntity
  8
DEFPOINTS
  6
CONTINUOUS
 62
     0
100
AcDbPoint
 10
94.0
 20
8.0
 30
0.0
  0
POINT
  5
FD6
330
871
100
AcDbEntity
  8
DEFPOINTS
  6
CONTINUOUS
 62
     0
100
AcDbPoint
 10
165.0
 20
13.03981436
 30
0.0
  0
POINT
  5
FD7
330
871
100
AcDbEntity
  8
DEFPOINTS
  6
CONTINUOUS
 62
     0
100
AcDbPoint
 10
165.0
 20
56.0
 30
0.0
  0
ENDBLK
  5
87C
330
871
100
AcDbEntity
  8
0
100
AcDbBlockEnd
  0
BLOCK
  5
887
330
87D
100
AcDbEntity
  8
0
100
AcDbBlockBegin
  2
*D5
 70
     1
 10
0.0
 20
0.0
 30
0.0
  3
*D5
  1

  0
LINE
  5
FB4
330
87D
100
AcDbEntity
  8
250
  6
CONTINUOUS
 62
     3
100
AcDbLine
 10
0.0
 20
35.425
 30
0.0
 11
0.0
 21
64.0
 31
0.0
  0
LINE
  5
FB5
330
87D
100
AcDbEntity
  8
250
  6
CONTINUOUS
 62
     3
100
AcDbLine
 10
165.0
 20
13.53981435
 30
0.0
 11
165.0
 21
64.0
 31
0.0
  0
LINE
  5
FB6
330
87D
100
AcDbEntity
  8
250
  6
CONTINUOUS
 62
     3
100
AcDbLine
 10
2.23
 20
63.0
 30
0.0
 11
162.77
 21
63.0
 31
0.0
  0
INSERT
  5
FB7
330
87D
100
AcDbEntity
  8
250
  6
CONTINUOUS
 62
     3
100
AcDbBlockReference
  2
_OPEN
 10
0.0
 20
63.0
 30
0.0
 41
2.23
 42
2.23
 43
2.23
 50
180.0
  0
INSERT
  5
FB8
330
87D
100
AcDbEntity
  8
250
  6
CONTINUOUS
 62
     3
100
AcDbBlockReference
  2
_OPEN
 10
165.0
 20
63.0
 30
0.0
 41
2.23
 42
2.23
 43
2.23
  0
MTEXT
  5
FB9
330
87D
100
AcDbEntity
  8
250
  6
CONTINUOUS
 62
    40
100
AcDbMText
 10
82.5
 20
65.5
 30
0.0
 40
3.0
 41
0.0
 71
     5
 72
     1
  1
\A1;165
1001
ACAD
1000
MTEXTBEGIN
1070
    73
1070
     1
1070
    44
1040
1.0
1070
    74
1070
     0
1000
MTEXTEND
  0
POINT
  5
FBA
330
87D
100
AcDbEntity
  8
DEFPOINTS
  6
CONTINUOUS
 62
     0
100
AcDbPoint
 10
0.0
 20
34.925
 30
0.0
  0
POINT
  5
FBB
330
87D
100
AcDbEntity
  8
DEFPOINTS
  6
CONTINUOUS
 62
     0
100
AcDbPoint
 10
165.0
 20
13.03981435
 30
0.0
  0
POINT
  5
FBC
330
87D
100
AcDbEntity
  8
DEFPOINTS
  6
CONTINUOUS
 62
     0
100
AcDbPoint
 10
165.0
 20
63.0
 30
0.0
  0
ENDBLK
  5
888
330
87D
100
AcDbEntity
  8
0
100
AcDbBlockEnd
  0
BLOCK
  5
AD7
330
ACD
100
AcDbEntity
  8
0
100
AcDbBlockBegin
  2
*D6
 70
     1
 10
0.0
 20
0.0
 30
0.0
  3
*D6
  1

  0
LINE
  5
FC6
330
ACD
100
AcDbEntity
  8
250
  6
CONTINUOUS
 62
     3
100
AcDbLine
 10
138.44929584
 20
-27.5
 30
0.0
 11
190.8
 21
-27.5
 31
0.0
  0
LINE
  5
FC7
330
ACD
100
AcDbEntity
  8
250
  6
CONTINUOUS
 62
     3
100
AcDbLine
 10
138.44929584
 20
27.5
 30
0.0
 11
190.8
 21
27.5
 31
0.0
  0
LINE
  5
FC8
330
ACD
100
AcDbEntity
  8
250
  6
CONTINUOUS
 62
     3
100
AcDbLine
 10
189.8
 20
-25.27
 30
0.0
 11
189.8
 21
25.27
 31
0.0
  0
INSERT
  5
FC9
330
ACD
100
AcDbEntity
  8
250
  6
CONTINUOUS
 62
     3
100
AcDbBlockReference
  2
_OPEN
 10
189.8
 20
-27.5
 30
0.0
 41
2.23
 42
2.23
 43
2.23
 50
270.0
  0
INSERT
  5
FCA
330
ACD
100
AcDbEntity
  8
250
  6
CONTINUOUS
 62
     3
100
AcDbBlockReference
  2
_OPEN
 10
189.8
 20
27.5
 30
0.0
 41
2.23
 42
2.23
 43
2.23
 50
90.0
  0
MTEXT
  5
FCB
330
ACD
100
AcDbEntity
  8
250
  6
CONTINUOUS
 62
    40
100
AcDbMText
 10
187.3
 20
0.0
 30
0.0
 40
3.0
 41
0.0
 71
     5
 72
     1
  1
\A1;{\H3;\U+2205}55
 11
0.0
 21
1.0
 31
0.0
1001
ACAD
1000
MTEXTBEGIN
1070
    73
1070
     1
1070
    44
1040
1.0
1070
    74
1070
     0
1000
MTEXTEND
  0
POINT
  5
FCC
330
ACD
100
AcDbEntity
  8
DEFPOINTS
  6
CONTINUOUS
 62
     0
100
AcDbPoint
 10
137.94929584
 20
-27.5
 30
0.0
  0
POINT
  5
FCD
330
ACD
100
AcDbEntity
  8
DEFPOINTS
  6
CONTINUOUS
 62
     0
100
AcDbPoint
 10
137.94929584
 20
27.5
 30
0.0
  0
POINT
  5
FCE
330
ACD
100
AcDbEntity
  8
DEFPOINTS
  6
CONTINUOUS
 62
     0
100
AcDbPoint
 10
189.8
 20
27.5
 30
0.0
  0
ENDBLK
  5
AD8
330
ACD
100
AcDbEntity
  8
0
100
AcDbBlockEnd
  0
BLOCK
  5
AE3
330
AD9
100
AcDbEntity
  8
0
100
AcDbBlockBegin
  2
*D7
 70
     1
 10
0.0
 20
0.0
 30
0.0
  3
*D7
  1

  0
LINE
  5
FBD
330
AD9
100
AcDbEntity
  8
250
  6
CONTINUOUS
 62
     3
100
AcDbLine
 10
159.7
 20
-23.0
 30
0.0
 11
183.8
 21
-23.0
 31
0.0
  0
LINE
  5
FBE
330
AD9
100
AcDbEntity
  8
250
  6
CONTINUOUS
 62
     3
100
AcDbLine
 10
159.7
 20
23.0
 30
0.0
 11
183.8
 21
23.0
 31
0.0
  0
LINE
  5
FBF
330
AD9
100
AcDbEntity
  8
250
  6
CONTINUOUS
 62
     3
100
AcDbLine
 10
182.8
 20
-20.77
 30
0.0
 11
182.8
 21
20.77
 31
0.0
  0
INSERT
  5
FC0
330
AD9
100
AcDbEntity
  8
250
  6
CONTINUOUS
 62
     3
100
AcDbBlockReference
  2
_OPEN
 10
182.8
 20
-23.0
 30
0.0
 41
2.23
 42
2.23
 43
2.23
 50
270.0
  0
INSERT
  5
FC1
330
AD9
100
AcDbEntity
  8
250
  6
CONTINUOUS
 62
     3
100
AcDbBlockReference
  2
_OPEN
 10
182.8
 20
23.0
 30
0.0
 41
2.23
 42
2.23
 43
2.23
 50
90.0
  0
MTEXT
  5
FC2
330
AD9
100
AcDbEntity
  8
250
  6
CONTINUOUS
 62
    40
100
AcDbMText
 10
180.3
 20
0.0
 30
0.0
 40
3.0
 41
0.0
 71
     5
 72
     1
  1
\A1;{\H3;\U+2205}46
 11
0.0
 21
1.0
 31
0.0
1001
ACAD
1000
MTEXTBEGIN
1070
    73
1070
     1
1070
    44
1040
1.0
1070
    74
1070
     0
1000
MTEXTEND
  0
POINT
  5
FC3
330
AD9
100
AcDbEntity
  8
DEFPOINTS
  6
CONTINUOUS
 62
     0
100
AcDbPoint
 10
159.2
 20
-23.0
 30
0.0
  0
POINT
  5
FC4
330
AD9
100
AcDbEntity
  8
DEFPOINTS
  6
CONTINUOUS
 62
     0
100
AcDbPoint
 10
159.2
 20
23.0
 30
0.0
  0
POINT
  5
FC5
330
AD9
100
AcDbEntity
  8
DEFPOINTS
  6
CONTINUOUS
 62
     0
100
AcDbPoint
 10
182.8
 20
23.0
 30
0.0
  0
ENDBLK
  5
AE4
330
AD9
100
AcDbEntity
  8
0
100
AcDbBlockEnd
  0
BLOCK
  5
AED
330
AE5
100
AcDbEntity
  8
0
100
AcDbBlockBegin
  2
*D8
 70
     1
 10
0.0
 20
0.0
 30
0.0
  3
*D8
  1

  0
LINE
  5
FD8
330
AE5
100
AcDbEntity
  8
250
  6
CONTINUOUS
 62
     3
100
AcDbLine
 10
165.5
 20
8.0
 30
0.0
 11
176.8
 21
8.0
 31
0.0
  0
LINE
  5
FD9
330
AE5
100
AcDbEntity
  8
250
  6
CONTINUOUS
 62
     3
100
AcDbLine
 10
175.8
 20
-8.0
 30
0.0
 11
175.8
 21
5.77
 31
0.0
  0
INSERT
  5
FDA
330
AE5
100
AcDbEntity
  8
250
  6
CONTINUOUS
 62
     3
100
AcDbBlockReference
  2
_OPEN
 10
175.8
 20
8.0
 30
0.0
 41
2.23
 42
2.23
 43
2.23
 50
90.0
  0
MTEXT
  5
FDB
330
AE5
100
AcDbEntity
  8
250
  6
CONTINUOUS
 62
    40
100
AcDbMText
 10
173.3
 20
0.0
 30
0.0
 40
3.0
 41
0.0
 71
     5
 72
     1
  1
\A1;{\H3;\U+2205}16
 11
0.0
 21
1.0
 31
0.0
1001
ACAD
1000
MTEXTBEGIN
1070
    73
1070
     1
1070
    44
1040
1.0
1070
    74
1070
     0
1000
MTEXTEND
  0
POINT
  5
FDC
330
AE5
100
AcDbEntity
  8
DEFPOINTS
  6
CONTINUOUS
 62
     0
100
AcDbPoint
 10
165.0
 20
-8.0
 30
0.0
  0
POINT
  5
FDD
330
AE5
100
AcDbEntity
  8
DEFPOINTS
  6
CONTINUOUS
 62
     0
100
AcDbPoint
 10
165.0
 20
8.0
 30
0.0
  0
POINT
  5
FDE
330
AE5
100
AcDbEntity
  8
DEFPOINTS
  6
CONTINUOUS
 62
     0
100
AcDbPoint
 10
175.8
 20
8.0
 30
0.0
  0
ENDBLK
  5
AEE
330
AE5
100
AcDbEntity
  8
0
100
AcDbBlockEnd
  0
ENDSEC
  0
SECTION
  2
ENTITIES
  0
INSERT
  5
6E6
330
1A
100
AcDbEntity
  8
245
100
AcDbBlockReference
  2
矢印なし
 10
175.62382697
 20
90.55123572
 30
0.0
  0
DIMENSION
  5
868
330
1A
100
AcDbEntity
  8
250
  6
CONTINUOUS
100
AcDbDimension
  2
*D4
 10
165.0
 20
56.0
 30
0.0
 11
131.28402808
 21
56.0
 31
0.0
 70
   160
  1
（max.<>）
  3
BIGT$0
100
AcDbAlignedDimension
 13
94.0
 23
8.0
 33
0.0
 14
165.0
 24
13.03981436
 34
0.0
100
AcDbRotatedDimension
  0
DIMENSION
  5
869
330
1A
100
AcDbEntity
  8
250
  6
CONTINUOUS
100
AcDbDimension
  2
*D5
 10
165.0
 20
63.0
 30
0.0
 11
82.5
 21
65.5
 31
0.0
 70
    32
  3
BIGT$0
100
AcDbAlignedDimension
 13
0.0
 23
34.925
 33
0.0
 14
165.0
 24
13.03981435
 34
0.0
100
AcDbRotatedDimension
  0
TEXT
  5
86D
330
1A
100
AcDbEntity
  8
241
100
AcDbText
 10
-101.8
 20
77.0
 30
0.0
 40
5.0
  1
BBT50-MEGA16D-165
  7
YOKO
 11
-101.8
 21
77.0
 31
0.0
100
AcDbText
 73
     1
  0
LINE
  5
9C4
330
1A
100
AcDbEntity
  8
250
  6
CONTINUOUS
100
AcDbLine
 10
-53.78156985
 20
-37.79107178
 30
0.0
 11
-71.51490318
 21
-37.79107178
 31
0.0
1001
ITEMNAME
1000
LNSP2
  0
MTEXT
  5
9C5
330
1A
100
AcDbEntity
  8
251
  6
CONTINUOUS
100
AcDbMText
 10
-68.71490318
 20
-36.79107178
 30
0.0
 40
2.8
 41
0.0
 71
     7
 72
     1
  1
BBT50
  7
YOKO
1001
ITEMNAME
1000
LNSP3
1001
ACAD
1000
MTEXTBEGIN
1070
    73
1070
     1
1070
    44
1040
1.0
1070
    74
1070
     0
1000
MTEXTEND
1000
MTEXTBEGIN
1070
    73
1070
     1
1070
    44
1040
1.0
1070
    74
1070
     0
1000
MTEXTEND
1000
MTEXTBEGIN
1070
    73
1070
     1
1070
    44
1040
1.0
1070
    74
1070
     0
1000
MTEXTEND
1000
MTEXTBEGIN
1070
    73
1070
     1
1070
    44
1040
1.0
1070
    74
1070
     0
1000
MTEXTEND
  0
LEADER
  5
9C6
330
1A
100
AcDbEntity
  8
250
  6
CONTINUOUS
100
AcDbLeader
  3
BIGT
 76
     2
 10
-48.07875936
 20
-27.91351426
 30
0.0
 10
-53.78156985
 20
-37.79107178
 30
0.0
1001
ACAD
1000
DSTYLE
1002
{
1070
     6
1000
OPEN
1070
    41
1040
2.0
1070
   343
1005
594
1002
}
  0
DIMENSION
  5
AAB
330
1A
100
AcDbEntity
  8
250
  6
CONTINUOUS
100
AcDbDimension
  2
*D6
 10
189.8
 20
27.5
 30
0.0
 11
189.8
 21
0.0
 31
0.0
 70
   160
  1
{\H3;\U+2205}<>
  3
BIGT$0
100
AcDbAlignedDimension
 13
137.94929584
 23
-27.5
 33
0.0
 14
137.94929584
 24
27.5
 34
0.0
 50
90.0
100
AcDbRotatedDimension
  0
DIMENSION
  5
AC2
330
1A
100
AcDbEntity
  8
250
  6
CONTINUOUS
100
AcDbDimension
  2
*D7
 10
182.8
 20
23.0
 30
0.0
 11
182.8
 21
0.0
 31
0.0
 70
   160
  1
{\H3;\U+2205}<>
  3
BIGT$0
100
AcDbAlignedDimension
 13
159.2
 23
-23.0
 33
0.0
 14
159.2
 24
23.0
 34
0.0
 50
90.0
100
AcDbRotatedDimension
  0
DIMENSION
  5
AC7
330
1A
100
AcDbEntity
  8
250
  6
CONTINUOUS
100
AcDbDimension
  2
*D8
 10
175.8
 20
8.0
 30
0.0
 11
175.8
 21
0.0
 31
0.0
 70
   160
  1
{\H3;\U+2205}<>
  3
BIGT$0
100
AcDbAlignedDimension
 13
165.0
 23
-8.0
 33
0.0
 14
165.0
 24
8.0
 34
0.0
 50
90.0
100
AcDbRotatedDimension
1001
ACAD
1000
DSTYLE
1002
{
1070
     5
1000

1070
   173
1070
     1
1070
     7
1000
OPEN
1070
    75
1070
     1
1070
     6
1000
NONE
1002
}
  0
INSERT
  5
111D
330
1A
100
AcDbEntity
  8
245
100
AcDbBlockReference
  2
1
 10
0.0
 20
0.0
 30
0.0
  0
VIEWPORT
  5
22
330
17
100
AcDbEntity
 67
     1
  8
0
100
AcDbViewport
 10
261.51769912
 20
148.5
 30
0.0
 40
523.03539823
 41
297.0
 68
     1
 69
     1
1001
ACAD
1000
MVIEW
1002
{
1070
    16
1010
0.0
1020
0.0
1030
0.0
1010
0.0
1020
0.0
1030
1.0
1040
0.0
1040
297.0
1040
261.51769912
1040
148.5
1040
50.0
1040
0.0
1040
0.0
1070
     0
1070
   100
1070
     1
1070
     1
1070
     0
1070
     0
1070
     0
1070
     0
1040
0.0
1040
0.0
1040
0.0
1040
1.0
1040
1.0
1040
10.0
1040
10.0
1070
     0
1002
{
1002
}
1002
}
  0
ENDSEC
  0
SECTION
  2
OBJECTS
  0
DICTIONARY
  5
C
330
0
100
AcDbDictionary
  3
ACAD_GROUP
350
D
  3
ACAD_LAYOUT
350
565
  3
ACAD_MLINESTYLE
350
E
  3
ACAD_PLOTSETTINGS
350
566
  3
ACAD_PLOTSTYLENAME
350
563
  3
ACDBHEADERROUNDTRIPXREC
350
1144
  3
GRADE_DWG
350
540
  0
DICTIONARY
  5
C33
330
1A
100
AcDbDictionary
280
     1
  3
ACAD_LAYOUTSELFREF
360
1166
  0
DICTIONARY
  5
C31
330
17
100
AcDbDictionary
280
     1
  3
ACAD_LAYOUTSELFREF
360
1165
  0
DICTIONARY
  5
D
102
{ACAD_REACTORS
330
C
102
}
330
C
100
AcDbDictionary
  3
*A1
350
6C7
  3
*A2
350
6C8
  3
*A3
350
6D4
  3
*A4
350
6D5
  3
DREC-1
350
5FC
  3
DREC-2
350
654
  3
DREC-3
350
673
  0
DICTIONARY
  5
565
102
{ACAD_REACTORS
330
C
102
}
330
C
100
AcDbDictionary
  0
DICTIONARY
  5
E
102
{ACAD_REACTORS
330
C
102
}
330
C
100
AcDbDictionary
  3
STANDARD
350
13
  0
DICTIONARY
  5
566
102
{ACAD_REACTORS
330
C
102
}
330
C
100
AcDbDictionary
  3
A3_0_5倍_
350
758
  3
A3_1倍_
350
757
  3
A3_1倍__2000_
350
707
  3
A3_2倍_
350
759
  3
A4_0_5倍_
350
755
  3
A4_1倍_
350
754
  3
A4_1倍__2000_
350
708
  3
A4_2倍_
350
756
  0
ACDBDICTIONARYWDFLT
  5
563
102
{ACAD_REACTORS
330
C
102
}
330
C
100
AcDbDictionary
281
     1
  3
Normal
350
564
100
AcDbDictionaryWithDefault
340
564
  0
DICTIONARY
  5
1144
102
{ACAD_REACTORS
330
C
102
}
330
C
100
AcDbDictionary
  3
CEPSNTYPE
350
114E
  3
DIMSTYLEDATA
350
1152
  3
FINGERPRINTGUID
350
114F
  3
HYPERLINKBASE
350
1147
  3
INSUNITS
350
114D
  3
LAYOUTDICT
350
1149
  3
LWETCUNION
350
114C
  3
PLOTSETDICT
350
114A
  3
PLOTSTYLNAMDICT
350
114B
  3
PSVPSCALE
350
1151
  3
PUCSBASE
350
1155
  3
PUCSORGBACK
350
115B
  3
PUCSORGBOTTOM
350
1157
  3
PUCSORGFRONT
350
115A
  3
PUCSORGLEFT
350
1158
  3
PUCSORGRIGHT
350
1159
  3
PUCSORGTOP
350
1156
  3
PUCSORTHOREF
350
1153
  3
PUCSORTHOVIEW
350
1154
  3
STYLESHEET
350
1148
  3
TSTACKALIGN
350
1145
  3
TSTACKSIZE
350
1146
  3
UCSBASE
350
115E
  3
UCSORGBACK
350
1164
  3
UCSORGBOTTOM
350
1160
  3
UCSORGFRONT
350
1163
  3
UCSORGLEFT
350
1161
  3
UCSORGRIGHT
350
1162
  3
UCSORGTOP
350
115F
  3
UCSORTHOREF
350
115C
  3
UCSORTHOVIEW
350
115D
  3
VERSIONGUID
350
1150
  0
DICTIONARY
  5
540
102
{ACAD_REACTORS
330
C
102
}
330
C
100
AcDbDictionary
  3
VERSION
350
560
  0
XRECORD
  5
1166
102
{ACAD_REACTORS
330
C33
102
}
330
C33
100
AcDbXrecord
340
1A
  0
XRECORD
  5
1165
102
{ACAD_REACTORS
330
C31
102
}
330
C31
100
AcDbXrecord
340
17
  0
GROUP
  5
6C7
102
{ACAD_REACTORS
330
D
102
}
330
D
100
AcDbGroup
300

 70
     0
 71
     1
1001
GRPNAME
1000
DMA00
  0
GROUP
  5
6C8
102
{ACAD_REACTORS
330
D
102
}
330
D
100
AcDbGroup
300

 70
     0
 71
     1
1001
GRPNAME
1000
DMA00
  0
GROUP
  5
6D4
102
{ACAD_REACTORS
330
D
102
}
330
D
100
AcDbGroup
300

 70
     0
 71
     1
1001
GRPNAME
1000
DMA00
  0
GROUP
  5
6D5
102
{ACAD_REACTORS
330
D
102
}
330
D
100
AcDbGroup
300

 70
     0
 71
     1
1001
GRPNAME
1000
DMA00
  0
GROUP
  5
5FC
102
{ACAD_REACTORS
330
D
102
}
330
D
100
AcDbGroup
300

 70
     0
 71
     1
1001
GRPNAME
1000
DREC-
1001
GPARA
1000
xsiz
1000
44.182
1000
ysiz
1000
40.677
1000
angl
1000
0
1000
ctyp
1000
0
1000
csiz
1000
5
1000
lfnt
1000
cont
1000
hcnt
1000
hoff
1000
vcnt
1000
voff
1000
opnt
1000
4
1000
dxpt
1000
0
1000
dypt
1000
0
  0
GROUP
  5
654
102
{ACAD_REACTORS
330
D
102
}
330
D
100
AcDbGroup
300

 70
     0
 71
     1
1001
GRPNAME
1000
DREC-
1001
GPARA
1000
xsiz
1000
54.592
1000
ysiz
1000
53.036
1000
angl
1000
0
1000
ctyp
1000
0
1000
csiz
1000
5
1000
lfnt
1000
cont
1000
hcnt
1000
hoff
1000
vcnt
1000
voff
1000
opnt
1000
4
1000
dxpt
1000
0
1000
dypt
1000
0
  0
GROUP
  5
673
102
{ACAD_REACTORS
330
D
102
}
330
D
100
AcDbGroup
300

 70
     0
 71
     1
1001
GRPNAME
1000
DREC-
1001
GPARA
1000
xsiz
1000
30.363
1000
ysiz
1000
36.175
1000
angl
1000
0
1000
ctyp
1000
0
1000
csiz
1000
5
1000
lfnt
1000
cont
1000
hcnt
1000
hoff
1000
vcnt
1000
voff
1000
opnt
1000
4
1000
dxpt
1000
0
1000
dypt
1000
0
  0
MLINESTYLE
  5
13
102
{ACAD_REACTORS
330
E
102
}
330
E
100
AcDbMlineStyle
  2
STANDARD
 70
     0
  3

 62
     0
 51
90.0
 52
90.0
 71
     2
 49
0.5
 62
   256
  6
BYLAYER
 49
-0.5
 62
   256
  6
BYLAYER
  0
PLOTSETTINGS
  5
758
102
{ACAD_REACTORS
330
566
102
}
330
566
100
AcDbPlotSettings
  1
A3(0.5倍)
  2
\\AWTECPC05\HP DeskJet 1120C
  4
A3
  6

 40
5.95841646
 41
13.49375153
 42
6.04309082
 43
3.67242432
 44
296.92599487
 45
419.94665527
 46
89.96
 47
127.14
 48
0.0
 49
0.0
140
0.0
141
0.0
142
1.0
143
2.0
 70
  1716
 72
     1
 73
     1
 74
     2
  7
big.ctb
 75
    17
147
0.5
148
0.0
149
0.0
  0
PLOTSETTINGS
  5
757
102
{ACAD_REACTORS
330
566
102
}
330
566
100
AcDbPlotSettings
  1
A3(1倍)
  2
\\AWTECPC05\HP DeskJet 1120C
  4
A3
  6

 40
5.95841646
 41
13.49375153
 42
6.04309082
 43
3.67242432
 44
296.92599487
 45
419.94665527
 46
37.46
 47
52.89
 48
0.0
 49
0.0
140
0.0
141
0.0
142
1.0
143
1.0
 70
  1716
 72
     1
 73
     1
 74
     2
  7
big.ctb
 75
    16
147
1.0
148
0.0
149
0.0
  0
PLOTSETTINGS
  5
707
102
{ACAD_REACTORS
330
566
102
}
330
566
100
AcDbPlotSettings
  1
A3(1倍)(2000)
  2
SII LS-1300 (D-SCAN)
  4
User258
  6

 40
3.17499995
 41
3.17499995
 42
3.17498779
 43
3.17498779
 44
419.98898315
 45
296.98950195
 46
58.32
 47
40.32
 48
0.0
 49
0.0
140
0.0
141
0.0
142
1.0
143
1.0
 70
  1716
 72
     1
 73
     0
 74
     2
  7
big.ctb
 75
    16
147
1.0
148
0.0
149
0.0
  0
PLOTSETTINGS
  5
759
102
{ACAD_REACTORS
330
566
102
}
330
566
100
AcDbPlotSettings
  1
A3(2倍)
  2
\\AWTECPC05\HP DeskJet 1120C
  4
A3
  6

 40
5.95841646
 41
13.49375153
 42
6.04309082
 43
3.67242432
 44
296.92599487
 45
419.94665527
 46
-67.54
 47
-95.61
 48
0.0
 49
0.0
140
0.0
141
0.0
142
1.0
143
0.5
 70
  1716
 72
     1
 73
     1
 74
     2
  7
big.ctb
 75
    27
147
2.0
148
0.0
149
0.0
  0
PLOTSETTINGS
  5
755
102
{ACAD_REACTORS
330
566
102
}
330
566
100
AcDbPlotSettings
  1
A4(0.5倍)
  2
\\AWTECPC05\HP DeskJet 1120C
  4
A4
  6

 40
4.18041658
 41
13.49374962
 42
4.18040466
 43
3.92642212
 44
209.97332764
 45
296.92599487
 46
48.31
 47
65.5
 48
0.0
 49
0.0
140
0.0
141
0.0
142
1.0
143
2.0
 70
  1716
 72
     1
 73
     1
 74
     2
  7
big.ctb
 75
    17
147
0.5
148
0.0
149
0.0
  0
PLOTSETTINGS
  5
754
102
{ACAD_REACTORS
330
566
102
}
330
566
100
AcDbPlotSettings
  1
A4(1倍)
  2
\\AWTECPC05\HP DeskJet 1120C
  4
A4
  6

 40
4.18041658
 41
13.49374962
 42
4.18040466
 43
3.92642212
 44
209.97332764
 45
296.92599487
 46
-4.19
 47
-8.75
 48
0.0
 49
0.0
140
0.0
141
0.0
142
1.0
143
1.0
 70
  1716
 72
     1
 73
     1
 74
     2
  7
big.ctb
 75
    16
147
1.0
148
0.0
149
0.0
  0
PLOTSETTINGS
  5
708
102
{ACAD_REACTORS
330
566
102
}
330
566
100
AcDbPlotSettings
  1
A4(1倍)(2000)
  2
SII LS-1300 (D-SCAN)
  4
User259
  6

 40
3.17499995
 41
3.17499995
 42
3.17498779
 43
3.17500305
 44
296.98950195
 45
209.99449158
 46
-3.18
 47
-3.18
 48
0.0
 49
0.0
140
0.0
141
0.0
142
1.0
143
1.0
 70
  1716
 72
     1
 73
     0
 74
     2
  7
big.ctb
 75
    16
147
1.0
148
0.0
149
0.0
  0
PLOTSETTINGS
  5
756
102
{ACAD_REACTORS
330
566
102
}
330
566
100
AcDbPlotSettings
  1
A4(2倍)
  2
\\AWTECPC05\HP DeskJet 1120C
  4
A4
  6

 40
4.18041658
 41
13.49374962
 42
4.18040466
 43
3.92642212
 44
209.97332764
 45
296.92599487
 46
-109.19
 47
-157.25
 48
0.0
 49
0.0
140
0.0
141
0.0
142
1.0
143
0.5
 70
  1716
 72
     1
 73
     1
 74
     2
  7
big.ctb
 75
    27
147
2.0
148
0.0
149
0.0
  0
ACDBPLACEHOLDER
  5
564
102
{ACAD_REACTORS
330
563
102
}
330
563
100
AcDbPlaceHolder
280
     0
  0
XRECORD
  5
114E
102
{ACAD_REACTORS
330
1144
102
}
330
1144
100
AcDbXrecord
 90
        0
  0
XRECORD
  5
1152
102
{ACAD_REACTORS
330
1144
102
}
330
1144
100
AcDbXrecord
1000
DSTYLE
1002
{
1070
    79
 70
     2
1070
   179
 70
     3
1070
   341
340
594
1070
   343
340
594
1070
   344
340
594
1070
   371
 70
    -1
1070
   372
 70
    -1
1002
}
  0
XRECORD
  5
114F
102
{ACAD_REACTORS
330
1144
102
}
330
1144
100
AcDbXrecord
  1
{51294030-9CB4-11D3-8E18-00A0C925D94D}
  0
XRECORD
  5
1147
102
{ACAD_REACTORS
330
1144
102
}
330
1144
100
AcDbXrecord
  1

  0
XRECORD
  5
114D
102
{ACAD_REACTORS
330
1144
102
}
330
1144
100
AcDbXrecord
 90
        0
  0
XRECORD
  5
1149
102
{ACAD_REACTORS
330
1144
102
}
330
1144
100
AcDbXrecord
340
565
  0
XRECORD
  5
114C
102
{ACAD_REACTORS
330
1144
102
}
330
1144
100
AcDbXrecord
 90
    10781
  0
XRECORD
  5
114A
102
{ACAD_REACTORS
330
1144
102
}
330
1144
100
AcDbXrecord
340
566
  0
XRECORD
  5
114B
102
{ACAD_REACTORS
330
1144
102
}
330
1144
100
AcDbXrecord
340
563
  0
XRECORD
  5
1151
102
{ACAD_REACTORS
330
1144
102
}
330
1144
100
AcDbXrecord
 40
0.0
  0
XRECORD
  5
1155
102
{ACAD_REACTORS
330
1144
102
}
330
1144
100
AcDbXrecord
340
0
  0
XRECORD
  5
115B
102
{ACAD_REACTORS
330
1144
102
}
330
1144
100
AcDbXrecord
 10
0.0
 20
0.0
 30
0.0
  0
XRECORD
  5
1157
102
{ACAD_REACTORS
330
1144
102
}
330
1144
100
AcDbXrecord
 10
0.0
 20
0.0
 30
0.0
  0
XRECORD
  5
115A
102
{ACAD_REACTORS
330
1144
102
}
330
1144
100
AcDbXrecord
 10
0.0
 20
0.0
 30
0.0
  0
XRECORD
  5
1158
102
{ACAD_REACTORS
330
1144
102
}
330
1144
100
AcDbXrecord
 10
0.0
 20
0.0
 30
0.0
  0
XRECORD
  5
1159
102
{ACAD_REACTORS
330
1144
102
}
330
1144
100
AcDbXrecord
 10
0.0
 20
0.0
 30
0.0
  0
XRECORD
  5
1156
102
{ACAD_REACTORS
330
1144
102
}
330
1144
100
AcDbXrecord
 10
0.0
 20
0.0
 30
0.0
  0
XRECORD
  5
1153
102
{ACAD_REACTORS
330
1144
102
}
330
1144
100
AcDbXrecord
340
0
  0
XRECORD
  5
1154
102
{ACAD_REACTORS
330
1144
102
}
330
1144
100
AcDbXrecord
 70
     0
  0
XRECORD
  5
1148
102
{ACAD_REACTORS
330
1144
102
}
330
1144
100
AcDbXrecord
  1
big.ctb
  0
XRECORD
  5
1145
102
{ACAD_REACTORS
330
1144
102
}
330
1144
100
AcDbXrecord
 90
        1
  0
XRECORD
  5
1146
102
{ACAD_REACTORS
330
1144
102
}
330
1144
100
AcDbXrecord
 90
       70
  0
XRECORD
  5
115E
102
{ACAD_REACTORS
330
1144
102
}
330
1144
100
AcDbXrecord
340
0
  0
XRECORD
  5
1164
102
{ACAD_REACTORS
330
1144
102
}
330
1144
100
AcDbXrecord
 10
0.0
 20
0.0
 30
0.0
  0
XRECORD
  5
1160
102
{ACAD_REACTORS
330
1144
102
}
330
1144
100
AcDbXrecord
 10
0.0
 20
0.0
 30
0.0
  0
XRECORD
  5
1163
102
{ACAD_REACTORS
330
1144
102
}
330
1144
100
AcDbXrecord
 10
0.0
 20
0.0
 30
0.0
  0
XRECORD
  5
1161
102
{ACAD_REACTORS
330
1144
102
}
330
1144
100
AcDbXrecord
 10
0.0
 20
0.0
 30
0.0
  0
XRECORD
  5
1162
102
{ACAD_REACTORS
330
1144
102
}
330
1144
100
AcDbXrecord
 10
0.0
 20
0.0
 30
0.0
  0
XRECORD
  5
115F
102
{ACAD_REACTORS
330
1144
102
}
330
1144
100
AcDbXrecord
 10
0.0
 20
0.0
 30
0.0
  0
XRECORD
  5
115C
102
{ACAD_REACTORS
330
1144
102
}
330
1144
100
AcDbXrecord
340
0
  0
XRECORD
  5
115D
102
{ACAD_REACTORS
330
1144
102
}
330
1144
100
AcDbXrecord
 70
     0
  0
XRECORD
  5
1150
102
{ACAD_REACTORS
330
1144
102
}
330
1144
100
AcDbXrecord
  1
{347E3B1E-E4F7-4111-BF67-F7B7898C0673}
  0
XRECORD
  5
560
102
{ACAD_REACTORS
330
540
102
}
330
540
100
AcDbXrecord
  1
2.0.0
  0
ENDSEC
  0
EOF
