  0
SECTION
  2
HEADER
  9
$ACADVER
  1
AC1014
  9
$ACADMAINTVER
 70
     9
  9
$DWGCODEPAGE
  3
ANSI_932
  9
$INSBASE
 10
0.0
 20
0.0
 30
0.0
  9
$EXTMIN
 10
-103.8127219
 20
-50.29005369
 30
-0.00152582
  9
$EXTMAX
 10
266.33225178
 20
96.02105759
 30
0.00000003
  9
$LIMMIN
 10
0.0
 20
0.0
  9
$LIMMAX
 10
420.0
 20
297.0
  9
$ORTHOMODE
 70
     1
  9
$REGENMODE
 70
     1
  9
$FILLMODE
 70
     1
  9
$QTEXTMODE
 70
     0
  9
$MIRRTEXT
 70
     1
  9
$DRAGMODE
 70
     2
  9
$LTSCALE
 40
10.0
  9
$OSMODE
 70
   549
  9
$ATTMODE
 70
     1
  9
$TEXTSIZE
 40
3.0
  9
$TRACEWID
 40
1.0
  9
$TEXTSTYLE
  7
YOKO
  9
$CLAYER
  8
245
  9
$CELTYPE
  6
BYLAYER
  9
$CECOLOR
 62
   256
  9
$CELTSCALE
 40
1.0
  9
$DELOBJ
 70
     1
  9
$DISPSILH
 70
     0
  9
$DIMSCALE
 40
1.0
  9
$DIMASZ
 40
2.0
  9
$DIMEXO
 40
2.0
  9
$DIMDLI
 40
2.5
  9
$DIMRND
 40
0.0
  9
$DIMDLE
 40
0.0
  9
$DIMEXE
 40
2.0
  9
$DIMTP
 40
0.0
  9
$DIMTM
 40
0.0
  9
$DIMTXT
 40
4.0
  9
$DIMCEN
 40
0.0
  9
$DIMTSZ
 40
0.0
  9
$DIMTOL
 70
     0
  9
$DIMLIM
 70
     0
  9
$DIMTIH
 70
     0
  9
$DIMTOH
 70
     0
  9
$DIMSE1
 70
     0
  9
$DIMSE2
 70
     0
  9
$DIMTAD
 70
     3
  9
$DIMZIN
 70
     8
  9
$DIMBLK
  1

  9
$DIMASO
 70
     1
  9
$DIMSHO
 70
     1
  9
$DIMPOST
  1

  9
$DIMAPOST
  1

  9
$DIMALT
 70
     0
  9
$DIMALTD
 70
     2
  9
$DIMALTF
 40
25.4
  9
$DIMLFAC
 40
1.0
  9
$DIMTOFL
 70
     1
  9
$DIMTVP
 40
0.0
  9
$DIMTIX
 70
     1
  9
$DIMSOXD
 70
     0
  9
$DIMSAH
 70
     1
  9
$DIMBLK1
  1
OPEN
  9
$DIMBLK2
  1
OPEN
  9
$DIMSTYLE
  2
BIGT
  9
$DIMCLRD
 70
   256
  9
$DIMCLRE
 70
   256
  9
$DIMCLRT
 70
    40
  9
$DIMTFAC
 40
1.0
  9
$DIMGAP
 40
1.0
  9
$DIMJUST
 70
     0
  9
$DIMSD1
 70
     0
  9
$DIMSD2
 70
     0
  9
$DIMTOLJ
 70
     1
  9
$DIMTZIN
 70
     8
  9
$DIMALTZ
 70
     0
  9
$DIMALTTZ
 70
     0
  9
$DIMFIT
 70
     3
  9
$DIMUPT
 70
     0
  9
$DIMUNIT
 70
     2
  9
$DIMDEC
 70
     3
  9
$DIMTDEC
 70
     3
  9
$DIMALTU
 70
     2
  9
$DIMALTTD
 70
     2
  9
$DIMTXSTY
  7
STANDARD
  9
$DIMAUNIT
 70
     0
  9
$LUNITS
 70
     2
  9
$LUPREC
 70
     3
  9
$SKETCHINC
 40
1.0
  9
$FILLETRAD
 40
0.0
  9
$AUNITS
 70
     0
  9
$AUPREC
 70
     3
  9
$MENU
  1
.
  9
$ELEVATION
 40
0.0
  9
$PELEVATION
 40
0.0
  9
$THICKNESS
 40
0.0
  9
$LIMCHECK
 70
     0
  9
$BLIPMODE
 70
     0
  9
$CHAMFERA
 40
10.0
  9
$CHAMFERB
 40
10.0
  9
$CHAMFERC
 40
0.0
  9
$CHAMFERD
 40
0.0
  9
$SKPOLY
 70
     0
  9
$TDCREATE
 40
2455187.437322222
  9
$TDUPDATE
 40
2455279.695583761
  9
$TDINDWG
 40
0.0189623148
  9
$TDUSRTIMER
 40
0.0189623148
  9
$USRTIMER
 70
     1
  9
$ANGBASE
 50
0.0
  9
$ANGDIR
 70
     0
  9
$PDMODE
 70
     1
  9
$PDSIZE
 40
-5.0
  9
$PLINEWID
 40
0.0
  9
$COORDS
 70
     1
  9
$SPLFRAME
 70
     0
  9
$SPLINETYPE
 70
     6
  9
$SPLINESEGS
 70
     8
  9
$ATTDIA
 70
     0
  9
$ATTREQ
 70
     1
  9
$HANDLING
 70
-16383
  9
$HANDSEED
  5
FF3
  9
$SURFTAB1
 70
     6
  9
$SURFTAB2
 70
     6
  9
$SURFTYPE
 70
     6
  9
$SURFU
 70
     6
  9
$SURFV
 70
     6
  9
$UCSNAME
  2

  9
$UCSORG
 10
0.0
 20
0.0
 30
0.0
  9
$UCSXDIR
 10
1.0
 20
0.0
 30
0.0
  9
$UCSYDIR
 10
0.0
 20
1.0
 30
0.0
  9
$PUCSNAME
  2

  9
$PUCSORG
 10
0.0
 20
0.0
 30
0.0
  9
$PUCSXDIR
 10
1.0
 20
0.0
 30
0.0
  9
$PUCSYDIR
 10
0.0
 20
1.0
 30
0.0
  9
$USERI1
 70
     1
  9
$USERI2
 70
     0
  9
$USERI3
 70
     0
  9
$USERI4
 70
     0
  9
$USERI5
 70
     0
  9
$USERR1
 40
0.0
  9
$USERR2
 40
0.0
  9
$USERR3
 40
0.0
  9
$USERR4
 40
0.0
  9
$USERR5
 40
0.0
  9
$WORLDVIEW
 70
     1
  9
$SHADEDGE
 70
     3
  9
$SHADEDIF
 70
    70
  9
$TILEMODE
 70
     1
  9
$MAXACTVP
 70
    16
  9
$PINSBASE
 10
0.0
 20
0.0
 30
0.0
  9
$PLIMCHECK
 70
     0
  9
$PEXTMIN
 10
1.00000000E+20
 20
1.00000000E+20
 30
1.00000000E+20
  9
$PEXTMAX
 10
-1.00000000E+20
 20
-1.00000000E+20
 30
-1.00000000E+20
  9
$PLIMMIN
 10
0.0
 20
0.0
  9
$PLIMMAX
 10
420.0
 20
297.0
  9
$UNITMODE
 70
     0
  9
$VISRETAIN
 70
     0
  9
$PLINEGEN
 70
     0
  9
$PSLTSCALE
 70
     1
  9
$TREEDEPTH
 70
  3020
  9
$PICKSTYLE
 70
     0
  9
$CMLSTYLE
  2
STANDARD
  9
$CMLJUST
 70
     0
  9
$CMLSCALE
 40
1.0
  9
$PROXYGRAPHICS
 70
     1
  9
$MEASUREMENT
 70
     1
  0
ENDSEC
  0
SECTION
  2
CLASSES
  0
CLASS
  1
XRECORD
  2
AcDbXrecord
  3
AutoCAD 2000
 90
        0
280
     0
281
     0
  0
CLASS
  1
ACDBDICTIONARYWDFLT
  2
AcDbDictionaryWithDefault
  3
AutoCAD 2000
 90
        0
280
     0
281
     0
  0
CLASS
  1
ACDBPLACEHOLDER
  2
AcDbPlaceHolder
  3
AutoCAD 2000
 90
        0
280
     0
281
     0
  0
CLASS
  1
LAYOUT
  2
AcDbLayout
  3
AutoCAD 2000
 90
        0
280
     0
281
     0
  0
CLASS
  1
PLOTSETTINGS
  2
AcDbPlotSettings
  3
AutoCAD 2000
 90
        0
280
     0
281
     0
  0
CLASS
  1
LONG_TRANSACTION
  2
AcDbLongTransaction
  3
AutoCAD 2000
 90
        0
280
     0
281
     0
  0
CLASS
  1
LWPOLYLINE
  2
AcDbPolyline
  3
AutoCAD 2000
 90
        0
280
     0
281
     1
  0
CLASS
  1
HATCH
  2
AcDbHatch
  3
AutoCAD 2000
 90
        0
280
     0
281
     1
  0
CLASS
  1
XRECORD
  2
AcDbXrecord
  3
AutoCAD 2000
 90
        0
280
     0
281
     0
  0
CLASS
  1
LONG_TRANSACTION
  2
AcDbLongTransaction
  3
AutoCAD 2000
 90
        0
280
     0
281
     0
  0
CLASS
  1
LWPOLYLINE
  2
AcDbPolyline
  3
AutoCAD 2000
 90
        0
280
     0
281
     1
  0
CLASS
  1
HATCH
  2
AcDbHatch
  3
AutoCAD 2000
 90
        0
280
     0
281
     1
  0
CLASS
  1
XRECORD
  2
AcDbXrecord
  3
AutoCAD 2000
 90
        0
280
     0
281
     0
  0
ENDSEC
  0
SECTION
  2
TABLES
  0
TABLE
  2
VPORT
  5
8
330
0
100
AcDbSymbolTable
 70
     5
  0
VPORT
  5
FCE
330
8
100
AcDbSymbolTableRecord
100
AcDbViewportTableRecord
  2
*ACTIVE
 70
     0
 10
0.0
 20
0.0
 11
1.0
 21
1.0
 12
81.25976494
 22
22.86550195
 13
0.0
 23
0.0
 14
7.0
 24
7.0
 15
7.0
 25
7.0
 16
0.0
 26
0.0
 36
1.0
 17
0.0
 27
0.0
 37
0.0
 40
259.88690688
 41
1.43184713
 42
50.0
 43
0.0
 44
0.0
 50
0.0
 51
0.0
 71
     0
 72
  2000
 73
     1
 74
     0
 75
     0
 76
     0
 77
     0
 78
     0
  0
ENDTAB
  0
TABLE
  2
LTYPE
  5
5
330
0
100
AcDbSymbolTable
 70
     3
  0
LTYPE
  5
14
330
5
100
AcDbSymbolTableRecord
100
AcDbLinetypeTableRecord
  2
BYBLOCK
 70
     0
  3

 72
    65
 73
     0
 40
0.0
  0
LTYPE
  5
15
330
5
100
AcDbSymbolTableRecord
100
AcDbLinetypeTableRecord
  2
BYLAYER
 70
     0
  3

 72
    65
 73
     0
 40
0.0
  0
LTYPE
  5
16
330
5
100
AcDbSymbolTableRecord
100
AcDbLinetypeTableRecord
  2
CONTINUOUS
 70
     0
  3
Solid line
 72
    65
 73
     0
 40
0.0
  0
LTYPE
  5
258
330
5
100
AcDbSymbolTableRecord
100
AcDbLinetypeTableRecord
  2
CENTER2
 70
     0
  3
___ _ ___ _ ___ _ ___ _ ___ _ ___ _ ___ _ ___ _
 72
    65
 73
     4
 40
1.125
 49
0.75
 74
     0
 49
-0.125
 74
     0
 49
0.125
 74
     0
 49
-0.125
 74
     0
  0
LTYPE
  5
25C
330
5
100
AcDbSymbolTableRecord
100
AcDbLinetypeTableRecord
  2
HIDDEN2
 70
     0
  3
_ _ _ _ _ _ _ _ _ _ _ _ _ _ _ _ _ _ _ _ _ _ _ _
 72
    65
 73
     2
 40
0.1875
 49
0.125
 74
     0
 49
-0.0625
 74
     0
  0
ENDTAB
  0
TABLE
  2
LAYER
  5
2
330
0
100
AcDbSymbolTable
 70
    10
  0
LAYER
  5
F
330
2
100
AcDbSymbolTableRecord
100
AcDbLayerTableRecord
  2
0
 70
     0
 62
     7
  6
CONTINUOUS
  0
LAYER
  5
1AA
330
2
100
AcDbSymbolTableRecord
100
AcDbLayerTableRecord
  2
240
 70
     0
 62
     4
  6
CONTINUOUS
  0
LAYER
  5
1AB
330
2
100
AcDbSymbolTableRecord
100
AcDbLayerTableRecord
  2
241
 70
     0
 62
   211
  6
CONTINUOUS
  0
LAYER
  5
1AF
330
2
100
AcDbSymbolTableRecord
100
AcDbLayerTableRecord
  2
245
 70
     0
 62
     2
  6
CENTER2
  0
LAYER
  5
21E
330
2
100
AcDbSymbolTableRecord
100
AcDbLayerTableRecord
  2
250
 70
     0
 62
     3
  6
CONTINUOUS
  0
LAYER
  5
21F
330
2
100
AcDbSymbolTableRecord
100
AcDbLayerTableRecord
  2
251
 70
     0
 62
    40
  6
CONTINUOUS
  0
LAYER
  5
5C4
330
2
100
AcDbSymbolTableRecord
100
AcDbLayerTableRecord
  2
DEFPOINTS
 70
     0
 62
     7
  6
CONTINUOUS
  0
ENDTAB
  0
TABLE
  2
STYLE
  5
3
330
0
100
AcDbSymbolTable
 70
     2
  0
STYLE
  5
10
330
3
100
AcDbSymbolTableRecord
100
AcDbTextStyleTableRecord
  2
STANDARD
 70
     0
 40
0.0
 41
1.0
 50
0.0
 71
     0
 42
3.0
  3
romans.shx
  4
BIGFONT.SHX
  0
STYLE
  5
339
330
3
100
AcDbSymbolTableRecord
100
AcDbTextStyleTableRecord
  2
YOKO
 70
     0
 40
0.0
 41
1.0
 50
0.0
 71
     0
 42
3.0
  3
romans.shx
  4
extfont.shx
  0
ENDTAB
  0
TABLE
  2
VIEW
  5
6
330
0
100
AcDbSymbolTable
 70
     0
  0
ENDTAB
  0
TABLE
  2
UCS
  5
7
330
0
100
AcDbSymbolTable
 70
     0
  0
ENDTAB
  0
TABLE
  2
APPID
  5
9
330
0
100
AcDbSymbolTable
 70
     9
  0
APPID
  5
11
330
9
100
AcDbSymbolTableRecord
100
AcDbRegAppTableRecord
  2
ACAD
 70
     0
  0
APPID
  5
1B1
330
9
100
AcDbSymbolTableRecord
100
AcDbRegAppTableRecord
  2
GLOBAL
 70
     0
  0
APPID
  5
2A4
330
9
100
AcDbSymbolTableRecord
100
AcDbRegAppTableRecord
  2
DETAIL
 70
     0
  0
APPID
  5
5FD
330
9
100
AcDbSymbolTableRecord
100
AcDbRegAppTableRecord
  2
GRPNAME
 70
     0
  0
APPID
  5
5FE
330
9
100
AcDbSymbolTableRecord
100
AcDbRegAppTableRecord
  2
GPARA
 70
     0
  0
APPID
  5
6C4
330
9
100
AcDbSymbolTableRecord
100
AcDbRegAppTableRecord
  2
DCO15
 70
     0
  0
APPID
  5
6C5
330
9
100
AcDbSymbolTableRecord
100
AcDbRegAppTableRecord
  2
ITEMNAME
 70
     0
  0
APPID
  5
6C6
330
9
100
AcDbSymbolTableRecord
100
AcDbRegAppTableRecord
  2
GRADE_0
 70
     0
  0
APPID
  5
D61
330
9
100
AcDbSymbolTableRecord
100
AcDbRegAppTableRecord
  2
CONTENTBLOCKICON
 70
     0
  0
ENDTAB
  0
TABLE
  2
DIMSTYLE
  5
A
330
0
100
AcDbSymbolTable
 70
     7
  0
DIMSTYLE
105
725
102
{ACAD_REACTORS
330
82F
330
830
330
833
330
834
102
}
330
A
100
AcDbSymbolTableRecord
100
AcDbDimStyleTableRecord
  2
BIGT
 70
     0
  3

  4

  5

  6
OPEN
  7
OPEN
 40
1.0
 41
2.23
 42
0.5
 43
2.5
 44
1.0
 45
0.0
 46
0.0
 47
0.0
 48
0.0
140
2.8
141
0.0
142
0.0
143
25.4
144
1.0
145
0.0
146
1.0
147
1.0
 71
     0
 72
     0
 73
     0
 74
     0
 75
     0
 76
     0
 77
     3
 78
     8
170
     0
171
     2
172
     1
173
     1
174
     1
175
     0
176
   256
177
   256
178
    40
270
     2
271
     3
272
     3
273
     2
274
     2
340
10
275
     0
280
     0
281
     0
282
     0
283
     1
284
     8
285
     0
286
     0
287
     3
288
     0
  0
ENDTAB
  0
TABLE
  2
BLOCK_RECORD
  5
1
330
0
100
AcDbSymbolTable
 70
    11
  0
BLOCK_RECORD
  5
1A
102
{ACAD_XDICTIONARY
360
D5F
102
}
330
1
100
AcDbSymbolTableRecord
100
AcDbBlockTableRecord
  2
*MODEL_SPACE
  0
BLOCK_RECORD
  5
17
102
{ACAD_XDICTIONARY
360
D5D
102
}
330
1
100
AcDbSymbolTableRecord
100
AcDbBlockTableRecord
  2
*PAPER_SPACE
  0
BLOCK_RECORD
  5
594
330
1
100
AcDbSymbolTableRecord
100
AcDbBlockTableRecord
  2
_OPEN
  0
BLOCK_RECORD
  5
6E3
330
1
100
AcDbSymbolTableRecord
100
AcDbBlockTableRecord
  2
矢印なし
  0
BLOCK_RECORD
  5
762
330
1
100
AcDbSymbolTableRecord
100
AcDbBlockTableRecord
  2
1
1001
CONTENTBLOCKICON
1071
        0
1004
2800000020000000200000000100080000000000000400000000000000000000000000000000000000000000000080000080000000808000800000008000800080800000C0C0C000C0DCC000F0CAA6000020400000206000002080000020A0000020C0000020E00000400000004020000040400000406000004080000040A0
1004
000040C0000040E00000600000006020000060400000606000006080000060A0000060C0000060E00000800000008020000080400000806000008080000080A0000080C0000080E00000A0000000A0200000A0400000A0600000A0800000A0A00000A0C00000A0E00000C0000000C0200000C0400000C0600000C0800000C0
1004
A00000C0C00000C0E00000E0000000E0200000E0400000E0600000E0800000E0A00000E0C00000E0E00040000000400020004000400040006000400080004000A0004000C0004000E00040200000402020004020400040206000402080004020A0004020C0004020E000404000004040200040404000404060004040800040
1004
40A0004040C0004040E00040600000406020004060400040606000406080004060A0004060C0004060E00040800000408020004080400040806000408080004080A0004080C0004080E00040A0000040A0200040A0400040A0600040A0800040A0A00040A0C00040A0E00040C0000040C0200040C0400040C0600040C08000
1004
40C0A00040C0C00040C0E00040E0000040E0200040E0400040E0600040E0800040E0A00040E0C00040E0E00080000000800020008000400080006000800080008000A0008000C0008000E00080200000802020008020400080206000802080008020A0008020C0008020E00080400000804020008040400080406000804080
1004
008040A0008040C0008040E00080600000806020008060400080606000806080008060A0008060C0008060E00080800000808020008080400080806000808080008080A0008080C0008080E00080A0000080A0200080A0400080A0600080A0800080A0A00080A0C00080A0E00080C0000080C0200080C0400080C0600080C0
1004
800080C0A00080C0C00080C0E00080E0000080E0200080E0400080E0600080E0800080E0A00080E0C00080E0E000C0000000C0002000C0004000C0006000C0008000C000A000C000C000C000E000C0200000C0202000C0204000C0206000C0208000C020A000C020C000C020E000C0400000C0402000C0404000C0406000C0
1004
408000C040A000C040C000C040E000C0600000C0602000C0604000C0606000C0608000C060A000C060C000C060E000C0800000C0802000C0804000C0806000C0808000C080A000C080C000C080E000C0A00000C0A02000C0A04000C0A06000C0A08000C0A0A000C0A0C000C0A0E000C0C00000C0C02000C0C04000C0C06000
1004
C0C08000C0C0A000F0FBFF00A4A0A000808080000000FF0000FF000000FFFF00FF000000FF00FF00FFFF0000FFFFFF0000000000000000000000000000000000000000000000000000000000000000000000000000000000000000000000000000000000000000000000000000000000000000000000000000000000000000
1004
00000000000000000000000000000000000000000000000000000000000000000000000000000000000000000000000000000000000000000000000000000000000000000000000000000000000000000000000000000000000000000000000000000000000000000000000000000000000000000000000000000000000000
1004
00000000000000000000000000000000000000000000000000000000000000000000000000000000000000000000000000000000000000000000000000000000000000000000000000000000000000000000000000000000000000000000000000000000000000000000000000000000000000000000000000000000000000
1004
00000000000000000000000000000000000000000000000000000000000000000000000000000000000000000000000000000000000000000000000000FEFEFEFEFEFEFE00000000000000000000000000000000000000000000FEFEFEFEE7E7E700FE00FEFEFEFEFEE7FEFEFEFEFEFE0000000000FEFEFEFEFE000000E7FB
1004
E7E700E70000E7E70000E70000E7E7E7E7FEFE000000FE00000000000000E7FBE7E700E70000E7E70000E70000E7E7E7E7E7FE0000FBFEFBFBFBFBFBFBFBE7E7E7E7FBE7FBFBE7E7FBFBE7FBFBE7E7E7E7E7FE000000FEFEFEFE00000000E7E7E7E700E70000E7E70000E70000E7E7E7E7FEFE00000000000000FEFEFEFEFE
1004
E7E7E700FE00FEFEFEFEFEFEFEFEFEFEFEFE00000000000000000000000000FEFEFEFEFEFEFE0000000000000000000000000000000000000000000000000000000000000000000000000000000000000000000000000000000000000000000000000000000000000000000000000000000000000000000000000000000000
1004
00000000000000000000000000000000000000000000000000000000000000000000000000000000000000000000000000000000000000000000000000000000000000000000000000000000000000000000000000000000000000000000000000000000000000000000000000000000000000000000000000000000000000
1004
00000000000000000000000000000000000000000000000000000000000000000000000000000000000000000000000000000000000000000000000000000000000000000000000000000000000000000000000000000000000000000000000000000000000000000000000000000000000000000000000000000000000000
1004
0000000000000000000000000000000000000000000000000000000000000000000000000000000000000000000000000000000000000000
  0
BLOCK_RECORD
  5
835
330
1
100
AcDbSymbolTableRecord
100
AcDbBlockTableRecord
  2
*D3
  0
BLOCK_RECORD
  5
841
330
1
100
AcDbSymbolTableRecord
100
AcDbBlockTableRecord
  2
*D4
  0
BLOCK_RECORD
  5
84D
330
1
100
AcDbSymbolTableRecord
100
AcDbBlockTableRecord
  2
*D5
  0
BLOCK_RECORD
  5
858
330
1
100
AcDbSymbolTableRecord
100
AcDbBlockTableRecord
  2
*D6
  0
BLOCK_RECORD
  5
F5F
330
1
100
AcDbSymbolTableRecord
100
AcDbBlockTableRecord
  2
HDC-CLAMPSCREW
  0
ENDTAB
  0
ENDSEC
  0
SECTION
  2
BLOCKS
  0
BLOCK
  5
1B
330
1A
100
AcDbEntity
  8
0
100
AcDbBlockBegin
  2
*MODEL_SPACE
 70
     0
 10
0.0
 20
0.0
 30
0.0
  3
*MODEL_SPACE
  1

  0
ENDBLK
  5
1C
330
1A
100
AcDbEntity
  8
0
100
AcDbBlockEnd
  0
BLOCK
  5
18
330
17
100
AcDbEntity
 67
     1
  8
0
100
AcDbBlockBegin
  2
*PAPER_SPACE
 70
     0
 10
0.0
 20
0.0
 30
0.0
  3
*PAPER_SPACE
  1

  0
ENDBLK
  5
19
330
17
100
AcDbEntity
 67
     1
  8
0
100
AcDbBlockEnd
  0
BLOCK
  5
598
330
594
100
AcDbEntity
  8
0
100
AcDbBlockBegin
  2
_OPEN
 70
     0
 10
0.0
 20
0.0
 30
0.0
  3
_OPEN
  1

  0
LINE
  5
595
330
594
100
AcDbEntity
  8
0
  6
BYBLOCK
 62
     0
100
AcDbLine
 10
-1.0
 20
0.16666667
 30
0.0
 11
0.0
 21
0.0
 31
0.0
  0
LINE
  5
596
330
594
100
AcDbEntity
  8
0
  6
BYBLOCK
 62
     0
100
AcDbLine
 10
-1.0
 20
-0.16666667
 30
0.0
 11
0.0
 21
0.0
 31
0.0
  0
LINE
  5
597
330
594
100
AcDbEntity
  8
0
  6
BYBLOCK
 62
     0
100
AcDbLine
 10
0.0
 20
0.0
 30
0.0
 11
-1.0
 21
0.0
 31
0.0
  0
ENDBLK
  5
599
330
594
100
AcDbEntity
  8
0
100
AcDbBlockEnd
  0
BLOCK
  5
6E4
330
6E3
100
AcDbEntity
  8
0
100
AcDbBlockBegin
  2
矢印なし
 70
     0
 10
0.0
 20
0.0
 30
0.0
  3
矢印なし
  1

  0
ENDBLK
  5
6E5
330
6E3
100
AcDbEntity
  8
0
100
AcDbBlockEnd
  0
BLOCK
  5
7EE
330
762
100
AcDbEntity
  8
0
100
AcDbBlockBegin
  2
1
 70
     0
 10
0.0
 20
0.0
 30
0.0
  3
1
  1

  0
LINE
  5
EA1
330
762
100
AcDbEntity
  8
240
100
AcDbLine
 10
213.6
 20
31.1
 30
0.0
 11
214.0
 21
31.5
 31
0.0
  0
LINE
  5
EA2
330
762
100
AcDbEntity
  8
241
  6
HIDDEN2
100
AcDbLine
 10
189.1660254
 20
12.5
 30
0.0
 11
250.0
 21
12.5
 31
0.0
  0
LINE
  5
EA3
330
762
100
AcDbEntity
  8
240
100
AcDbLine
 10
213.6
 20
-31.1
 30
0.0
 11
214.0
 21
-31.5
 31
0.0
  0
LINE
  5
EA4
330
762
100
AcDbEntity
  8
245
  6
CENTER2
100
AcDbLine
 10
-103.8
 20
0.0
 30
0.0
 11
251.0
 21
0.0
 31
0.0
  0
LINE
  5
EA5
330
762
100
AcDbEntity
  8
240
  6
CONTINUOUS
100
AcDbLine
 10
0.0
 20
34.925
 30
0.0
 11
-100.43089103
 21
20.27882839
 31
0.0
  0
LINE
  5
EA6
330
762
100
AcDbEntity
  8
240
  6
CONTINUOUS
100
AcDbLine
 10
0.0
 20
-34.925
 30
0.0
 11
-100.43089103
 21
-20.27882839
 31
0.0
  0
LINE
  5
EA7
330
762
100
AcDbEntity
  8
240
  6
CONTINUOUS
100
AcDbLine
 10
-101.8
 20
18.69557562
 30
0.0
 11
-101.8
 21
0.0
 31
0.0
  0
LINE
  5
EA8
330
762
100
AcDbEntity
  8
240
  6
CONTINUOUS
100
AcDbLine
 10
-101.8
 20
-18.69557562
 30
0.0
 11
-101.8
 21
0.0
 31
0.0
  0
ARC
  5
EA9
330
762
100
AcDbEntity
  8
240
  6
CONTINUOUS
100
AcDbCircle
 10
-100.2
 20
-18.69557562
 30
0.0
 40
1.6
100
AcDbArc
 50
180.0
 51
261.70285503
  0
ARC
  5
EAA
330
762
100
AcDbEntity
  8
240
  6
CONTINUOUS
100
AcDbCircle
 10
-100.2
 20
18.69557562
 30
0.0
 40
1.6
100
AcDbArc
 50
98.29714497
 51
180.0
  0
LINE
  5
EAB
330
762
100
AcDbEntity
  8
241
100
AcDbLine
 10
65.04815559
 20
-37.87990413
 30
0.0
 11
65.04815559
 21
0.00252373
 31
0.0
  0
LINE
  5
EAC
330
762
100
AcDbEntity
  8
241
100
AcDbLine
 10
61.04815559
 20
-38.0
 30
0.0
 11
61.04815559
 21
0.00252373
 31
0.0
  0
LINE
  5
EAD
330
762
100
AcDbEntity
  8
240
100
AcDbLine
 10
100.04815559
 20
-36.04563186
 30
0.0
 11
65.04815559
 21
-37.87990413
 31
0.0
  0
LINE
  5
EAE
330
762
100
AcDbEntity
  8
241
  6
CONTINUOUS
100
AcDbLine
 10
26.36987298
 20
-42.5
 30
0.0
 11
26.36987298
 21
0.0
 31
0.0
  0
LINE
  5
EAF
330
762
100
AcDbEntity
  8
241
  6
CONTINUOUS
100
AcDbLine
 10
20.03012702
 20
-42.5
 30
0.0
 11
20.03012702
 21
0.0
 31
0.0
  0
LINE
  5
EB0
330
762
100
AcDbEntity
  8
241
100
AcDbLine
 10
42.90145277
 20
-38.43853762
 30
0.0
 11
42.90145277
 21
0.0
 31
0.0
  0
LINE
  5
EB1
330
762
100
AcDbEntity
  8
241
100
AcDbLine
 10
38.0
 20
0.0
 30
0.0
 11
38.0
 21
-45.63059758
 31
0.0
  0
LINE
  5
EB2
330
762
100
AcDbEntity
  8
240
  6
CONTINUOUS
100
AcDbLine
 10
1.5
 20
-48.7
 30
0.0
 11
1.5
 21
-34.925
 31
0.0
  0
LINE
  5
EB3
330
762
100
AcDbEntity
  8
241
  6
CONTINUOUS
100
AcDbLine
 10
30.7
 20
-50.0
 30
0.0
 11
30.7
 21
0.0
 31
0.0
  0
LINE
  5
EB4
330
762
100
AcDbEntity
  8
241
  6
CONTINUOUS
100
AcDbLine
 10
15.7
 20
-50.0
 30
0.0
 11
15.7
 21
0.0
 31
0.0
  0
LINE
  5
EB5
330
762
100
AcDbEntity
  8
241
  6
HIDDEN2
100
AcDbLine
 10
34.0
 20
-35.4
 30
0.0
 11
34.0
 21
-50.0
 31
0.0
  0
LINE
  5
EB6
330
762
100
AcDbEntity
  8
245
  6
CENTER2
100
AcDbLine
 10
23.2
 20
-50.0
 30
0.0
 11
23.2
 21
50.0
 31
0.0
  0
LINE
  5
EB7
330
762
100
AcDbEntity
  8
240
  6
CONTINUOUS
100
AcDbLine
 10
2.8
 20
-50.0
 30
0.0
 11
15.7
 21
-50.0
 31
0.0
  0
ARC
  5
EB8
330
762
100
AcDbEntity
  8
240
  6
CONTINUOUS
100
AcDbCircle
 10
2.8
 20
-48.7
 30
0.0
 40
1.3
100
AcDbArc
 50
180.0
 51
270.0
  0
LINE
  5
EB9
330
762
100
AcDbEntity
  8
240
100
AcDbLine
 10
44.46315392
 20
-38.0
 30
0.0
 11
61.04815559
 21
-38.0
 31
0.0
  0
LINE
  5
EBA
330
762
100
AcDbEntity
  8
240
  6
CONTINUOUS
100
AcDbLine
 10
26.36987298
 20
-42.5
 30
0.0
 11
30.7
 21
-50.0
 31
0.0
  0
LINE
  5
EBB
330
762
100
AcDbEntity
  8
240
  6
CONTINUOUS
100
AcDbLine
 10
20.03012702
 20
-42.5
 30
0.0
 11
15.7
 21
-50.0
 31
0.0
  0
LINE
  5
EBC
330
762
100
AcDbEntity
  8
240
  6
CONTINUOUS
100
AcDbLine
 10
26.36987298
 20
-42.5
 30
0.0
 11
20.03012702
 21
-42.5
 31
0.0
  0
ARC
  5
EBD
330
762
100
AcDbEntity
  8
240
  6
CONTINUOUS
100
AcDbCircle
 10
36.7
 20
-48.7
 30
0.0
 40
1.3
100
AcDbArc
 50
270.0
 51
0.0
  0
LINE
  5
EBE
330
762
100
AcDbEntity
  8
240
  6
CONTINUOUS
100
AcDbLine
 10
36.7
 20
-50.0
 30
0.0
 11
30.7
 21
-50.0
 31
0.0
  0
LINE
  5
EBF
330
762
100
AcDbEntity
  8
240
100
AcDbLine
 10
38.36169591
 20
-44.48344471
 30
0.0
 11
42.00569779
 21
-39.27927069
 31
0.0
  0
LINE
  5
EC0
330
762
100
AcDbEntity
  8
240
  6
CONTINUOUS
100
AcDbLine
 10
38.0
 20
-48.7
 30
0.0
 11
38.0
 21
-45.63059758
 31
0.0
  0
ARC
  5
EC1
330
762
100
AcDbEntity
  8
240
100
AcDbCircle
 10
40.0
 20
-45.63059758
 30
0.0
 40
2.0
100
AcDbArc
 50
145.0
 51
180.0
  0
ARC
  5
EC2
330
762
100
AcDbEntity
  8
240
100
AcDbCircle
 10
44.46315392
 20
-41.0
 30
0.0
 40
3.0
100
AcDbArc
 50
90.0
 51
145.0
  0
LINE
  5
EC3
330
762
100
AcDbEntity
  8
240
100
AcDbLine
 10
61.54815559
 20
-37.5
 30
0.0
 11
64.66825145
 21
-37.5
 31
0.0
  0
LINE
  5
EC4
330
762
100
AcDbEntity
  8
240
100
AcDbLine
 10
61.54815559
 20
-37.5
 30
0.0
 11
61.04815559
 21
-38.0
 31
0.0
  0
LINE
  5
EC5
330
762
100
AcDbEntity
  8
240
100
AcDbLine
 10
65.04815559
 20
-37.87990413
 30
0.0
 11
64.66825145
 21
-37.5
 31
0.0
  0
LINE
  5
EC6
330
762
100
AcDbEntity
  8
240
100
AcDbLine
 10
100.04815559
 20
36.04563186
 30
0.0
 11
65.04815559
 21
37.87990413
 31
0.0
  0
LINE
  5
EC7
330
762
100
AcDbEntity
  8
240
  6
CONTINUOUS
100
AcDbLine
 10
15.7
 20
50.0
 30
0.0
 11
2.8
 21
50.0
 31
0.0
  0
LINE
  5
EC8
330
762
100
AcDbEntity
  8
241
  6
HIDDEN2
100
AcDbLine
 10
34.0
 20
35.4
 30
0.0
 11
1.5
 21
35.4
 31
0.0
  0
LINE
  5
EC9
330
762
100
AcDbEntity
  8
241
  6
HIDDEN2
100
AcDbLine
 10
1.5
 20
-35.4
 30
0.0
 11
34.0
 21
-35.4
 31
0.0
  0
LINE
  5
ECA
330
762
100
AcDbEntity
  8
241
  6
CONTINUOUS
100
AcDbLine
 10
0.0
 20
34.925
 30
0.0
 11
0.0
 21
0.0
 31
0.0
  0
LINE
  5
ECB
330
762
100
AcDbEntity
  8
241
100
AcDbLine
 10
1.5
 20
34.925
 30
0.0
 11
1.5
 21
0.0
 31
0.0
  0
LINE
  5
ECC
330
762
100
AcDbEntity
  8
241
  6
CONTINUOUS
100
AcDbLine
 10
0.0
 20
-34.925
 30
0.0
 11
0.0
 21
0.0
 31
0.0
  0
LINE
  5
ECD
330
762
100
AcDbEntity
  8
241
100
AcDbLine
 10
1.5
 20
-34.925
 30
0.0
 11
1.5
 21
0.0
 31
0.0
  0
LINE
  5
ECE
330
762
100
AcDbEntity
  8
240
100
AcDbLine
 10
0.0
 20
-34.925
 30
0.0
 11
1.5
 21
-34.925
 31
0.0
  0
LINE
  5
ECF
330
762
100
AcDbEntity
  8
240
  6
CONTINUOUS
100
AcDbLine
 10
1.5
 20
48.7
 30
0.0
 11
1.5
 21
34.925
 31
0.0
  0
LINE
  5
ED0
330
762
100
AcDbEntity
  8
240
100
AcDbLine
 10
0.0
 20
34.925
 30
0.0
 11
1.5
 21
34.925
 31
0.0
  0
ARC
  5
ED1
330
762
100
AcDbEntity
  8
240
  6
CONTINUOUS
100
AcDbCircle
 10
2.8
 20
48.7
 30
0.0
 40
1.3
100
AcDbArc
 50
90.0
 51
180.0
  0
LINE
  5
ED2
330
762
100
AcDbEntity
  8
241
100
AcDbLine
 10
61.04815559
 20
38.0
 30
0.0
 11
61.04815559
 21
-0.00252373
 31
0.0
  0
LINE
  5
ED3
330
762
100
AcDbEntity
  8
241
100
AcDbLine
 10
65.04815559
 20
37.87990413
 30
0.0
 11
65.04815559
 21
-0.00252373
 31
0.0
  0
LINE
  5
ED4
330
762
100
AcDbEntity
  8
241
100
AcDbLine
 10
38.0
 20
0.0
 30
0.0
 11
38.0
 21
45.63059758
 31
0.0
  0
LINE
  5
ED5
330
762
100
AcDbEntity
  8
241
100
AcDbLine
 10
42.90145277
 20
38.43853762
 30
0.0
 11
42.90145277
 21
0.0
 31
0.0
  0
LINE
  5
ED6
330
762
100
AcDbEntity
  8
241
  6
CONTINUOUS
100
AcDbLine
 10
26.36987298
 20
42.5
 30
0.0
 11
26.36987298
 21
0.0
 31
0.0
  0
LINE
  5
ED7
330
762
100
AcDbEntity
  8
241
  6
CONTINUOUS
100
AcDbLine
 10
20.03012702
 20
42.5
 30
0.0
 11
20.03012702
 21
0.0
 31
0.0
  0
LINE
  5
ED8
330
762
100
AcDbEntity
  8
241
  6
CONTINUOUS
100
AcDbLine
 10
15.7
 20
50.0
 30
0.0
 11
15.7
 21
0.0
 31
0.0
  0
LINE
  5
ED9
330
762
100
AcDbEntity
  8
241
  6
CONTINUOUS
100
AcDbLine
 10
30.7
 20
50.0
 30
0.0
 11
30.7
 21
0.0
 31
0.0
  0
LINE
  5
EDA
330
762
100
AcDbEntity
  8
240
100
AcDbLine
 10
44.46315392
 20
38.0
 30
0.0
 11
61.04815559
 21
38.0
 31
0.0
  0
LINE
  5
EDB
330
762
100
AcDbEntity
  8
240
  6
CONTINUOUS
100
AcDbLine
 10
26.36987298
 20
42.5
 30
0.0
 11
30.7
 21
50.0
 31
0.0
  0
LINE
  5
EDC
330
762
100
AcDbEntity
  8
240
  6
CONTINUOUS
100
AcDbLine
 10
20.03012702
 20
42.5
 30
0.0
 11
15.7
 21
50.0
 31
0.0
  0
LINE
  5
EDD
330
762
100
AcDbEntity
  8
240
  6
CONTINUOUS
100
AcDbLine
 10
26.36987298
 20
42.5
 30
0.0
 11
20.03012702
 21
42.5
 31
0.0
  0
LINE
  5
EDE
330
762
100
AcDbEntity
  8
240
100
AcDbLine
 10
38.36169591
 20
44.48344471
 30
0.0
 11
42.00569779
 21
39.27927069
 31
0.0
  0
LINE
  5
EDF
330
762
100
AcDbEntity
  8
241
  6
HIDDEN2
100
AcDbLine
 10
34.0
 20
35.4
 30
0.0
 11
34.0
 21
50.0
 31
0.0
  0
ARC
  5
EE0
330
762
100
AcDbEntity
  8
240
100
AcDbCircle
 10
44.46315392
 20
41.0
 30
0.0
 40
3.0
100
AcDbArc
 50
215.0
 51
270.0
  0
ARC
  5
EE1
330
762
100
AcDbEntity
  8
240
  6
CONTINUOUS
100
AcDbCircle
 10
36.7
 20
48.7
 30
0.0
 40
1.3
100
AcDbArc
 50
0.0
 51
90.0
  0
ARC
  5
EE2
330
762
100
AcDbEntity
  8
240
100
AcDbCircle
 10
40.0
 20
45.63059758
 30
0.0
 40
2.0
100
AcDbArc
 50
180.0
 51
215.0
  0
LINE
  5
EE3
330
762
100
AcDbEntity
  8
240
  6
CONTINUOUS
100
AcDbLine
 10
38.0
 20
48.7
 30
0.0
 11
38.0
 21
45.63059758
 31
0.0
  0
LINE
  5
EE4
330
762
100
AcDbEntity
  8
240
  6
CONTINUOUS
100
AcDbLine
 10
30.7
 20
50.0
 30
0.0
 11
36.7
 21
50.0
 31
0.0
  0
LINE
  5
EE5
330
762
100
AcDbEntity
  8
240
100
AcDbLine
 10
61.54815559
 20
37.5
 30
0.0
 11
64.66825145
 21
37.5
 31
0.0
  0
LINE
  5
EE6
330
762
100
AcDbEntity
  8
240
100
AcDbLine
 10
61.54815559
 20
37.5
 30
0.0
 11
61.04815559
 21
38.0
 31
0.0
  0
LINE
  5
EE7
330
762
100
AcDbEntity
  8
240
100
AcDbLine
 10
65.04815559
 20
37.87990413
 30
0.0
 11
64.66825145
 21
37.5
 31
0.0
  0
LINE
  5
EE8
330
762
100
AcDbEntity
  8
240
100
AcDbLine
 10
150.0
 20
35.0
 30
0.0
 11
120.0
 21
35.0
 31
0.0
  0
LINE
  5
EE9
330
762
100
AcDbEntity
  8
240
100
AcDbLine
 10
150.0
 20
-35.0
 30
0.0
 11
120.0
 21
-35.0
 31
0.0
  0
LINE
  5
EEA
330
762
100
AcDbEntity
  8
241
100
AcDbLine
 10
120.0
 20
35.0
 30
0.0
 11
120.0
 21
0.0
 31
0.0
  0
LINE
  5
EEB
330
762
100
AcDbEntity
  8
241
100
AcDbLine
 10
116.0
 20
35.20963112
 30
0.0
 11
116.0
 21
0.0
 31
0.0
  0
LINE
  5
EEC
330
762
100
AcDbEntity
  8
241
100
AcDbLine
 10
112.0
 20
35.41926223
 30
0.0
 11
112.0
 21
0.0
 31
0.0
  0
LINE
  5
EED
330
762
100
AcDbEntity
  8
241
100
AcDbLine
 10
108.0
 20
35.62889335
 30
0.0
 11
108.0
 21
0.0
 31
0.0
  0
LINE
  5
EEE
330
762
100
AcDbEntity
  8
241
100
AcDbLine
 10
104.0
 20
35.83852447
 30
0.0
 11
104.0
 21
0.0
 31
0.0
  0
LINE
  5
EEF
330
762
100
AcDbEntity
  8
241
100
AcDbLine
 10
100.04815559
 20
0.0
 30
0.0
 11
100.04815559
 21
36.04563186
 31
0.0
  0
LINE
  5
EF0
330
762
100
AcDbEntity
  8
240
100
AcDbLine
 10
112.0
 20
-35.41926223
 30
0.0
 11
116.0
 21
-35.20963112
 31
0.0
  0
LINE
  5
EF1
330
762
100
AcDbEntity
  8
241
100
AcDbLine
 10
100.04815559
 20
0.0
 30
0.0
 11
100.04815559
 21
-36.04563186
 31
0.0
  0
LINE
  5
EF2
330
762
100
AcDbEntity
  8
241
100
AcDbLine
 10
104.0
 20
-35.83852447
 30
0.0
 11
104.0
 21
0.0
 31
0.0
  0
LINE
  5
EF3
330
762
100
AcDbEntity
  8
241
100
AcDbLine
 10
108.0
 20
-35.62889335
 30
0.0
 11
108.0
 21
0.0
 31
0.0
  0
LINE
  5
EF4
330
762
100
AcDbEntity
  8
241
100
AcDbLine
 10
112.0
 20
-35.41926223
 30
0.0
 11
112.0
 21
0.0
 31
0.0
  0
LINE
  5
EF5
330
762
100
AcDbEntity
  8
240
100
AcDbLine
 10
108.0
 20
-35.62889335
 30
0.0
 11
104.0
 21
-35.83852447
 31
0.0
  0
LINE
  5
EF6
330
762
100
AcDbEntity
  8
240
100
AcDbLine
 10
103.52424699
 20
-35.36277145
 30
0.0
 11
100.57653284
 21
-35.51725461
 31
0.0
  0
LINE
  5
EF7
330
762
100
AcDbEntity
  8
240
100
AcDbLine
 10
100.57653284
 20
-35.51725461
 30
0.0
 11
100.04815559
 21
-36.04563186
 31
0.0
  0
LINE
  5
EF8
330
762
100
AcDbEntity
  8
240
100
AcDbLine
 10
103.52424699
 20
-35.36277145
 30
0.0
 11
104.0
 21
-35.83852447
 31
0.0
  0
LINE
  5
EF9
330
762
100
AcDbEntity
  8
240
100
AcDbLine
 10
108.52837725
 20
-35.1005161
 30
0.0
 11
111.52424699
 21
-34.94350922
 31
0.0
  0
LINE
  5
EFA
330
762
100
AcDbEntity
  8
240
100
AcDbLine
 10
108.52837725
 20
-35.1005161
 30
0.0
 11
108.0
 21
-35.62889335
 31
0.0
  0
LINE
  5
EFB
330
762
100
AcDbEntity
  8
240
100
AcDbLine
 10
111.52424699
 20
-34.94350922
 30
0.0
 11
112.0
 21
-35.41926223
 31
0.0
  0
LINE
  5
EFC
330
762
100
AcDbEntity
  8
241
100
AcDbLine
 10
120.0
 20
-35.0
 30
0.0
 11
120.0
 21
0.0
 31
0.0
  0
LINE
  5
EFD
330
762
100
AcDbEntity
  8
241
100
AcDbLine
 10
116.0
 20
-35.20963112
 30
0.0
 11
116.0
 21
0.0
 31
0.0
  0
LINE
  5
EFE
330
762
100
AcDbEntity
  8
240
100
AcDbLine
 10
116.52837725
 20
-34.68125387
 30
0.0
 11
119.52424699
 21
-34.52424699
 31
0.0
  0
LINE
  5
EFF
330
762
100
AcDbEntity
  8
240
100
AcDbLine
 10
116.52837725
 20
-34.68125387
 30
0.0
 11
116.0
 21
-35.20963112
 31
0.0
  0
LINE
  5
F00
330
762
100
AcDbEntity
  8
240
100
AcDbLine
 10
119.52424699
 20
-34.52424699
 30
0.0
 11
120.0
 21
-35.0
 31
0.0
  0
LINE
  5
F01
330
762
100
AcDbEntity
  8
240
100
AcDbLine
 10
112.0
 20
35.41926223
 30
0.0
 11
116.0
 21
35.20963112
 31
0.0
  0
LINE
  5
F02
330
762
100
AcDbEntity
  8
240
100
AcDbLine
 10
108.0
 20
35.62889335
 30
0.0
 11
104.0
 21
35.83852447
 31
0.0
  0
LINE
  5
F03
330
762
100
AcDbEntity
  8
240
100
AcDbLine
 10
103.52424699
 20
35.36277145
 30
0.0
 11
100.57653284
 21
35.51725461
 31
0.0
  0
LINE
  5
F04
330
762
100
AcDbEntity
  8
240
100
AcDbLine
 10
100.57653284
 20
35.51725461
 30
0.0
 11
100.04815559
 21
36.04563186
 31
0.0
  0
LINE
  5
F05
330
762
100
AcDbEntity
  8
240
100
AcDbLine
 10
103.52424699
 20
35.36277145
 30
0.0
 11
104.0
 21
35.83852447
 31
0.0
  0
LINE
  5
F06
330
762
100
AcDbEntity
  8
240
100
AcDbLine
 10
108.52837725
 20
35.1005161
 30
0.0
 11
111.52424699
 21
34.94350922
 31
0.0
  0
LINE
  5
F07
330
762
100
AcDbEntity
  8
240
100
AcDbLine
 10
108.52837725
 20
35.1005161
 30
0.0
 11
108.0
 21
35.62889335
 31
0.0
  0
LINE
  5
F08
330
762
100
AcDbEntity
  8
240
100
AcDbLine
 10
111.52424699
 20
34.94350922
 30
0.0
 11
112.0
 21
35.41926223
 31
0.0
  0
LINE
  5
F09
330
762
100
AcDbEntity
  8
240
100
AcDbLine
 10
116.52837725
 20
34.68125387
 30
0.0
 11
119.52424699
 21
34.52424699
 31
0.0
  0
LINE
  5
F0A
330
762
100
AcDbEntity
  8
240
100
AcDbLine
 10
116.52837725
 20
34.68125387
 30
0.0
 11
116.0
 21
35.20963112
 31
0.0
  0
LINE
  5
F0B
330
762
100
AcDbEntity
  8
240
100
AcDbLine
 10
119.52424699
 20
34.52424699
 30
0.0
 11
120.0
 21
35.0
 31
0.0
  0
LINE
  5
F0C
330
762
100
AcDbEntity
  8
241
100
AcDbLine
 10
150.0
 20
35.0
 30
0.0
 11
150.0
 21
0.0
 31
0.0
  0
LINE
  5
F0D
330
762
100
AcDbEntity
  8
241
100
AcDbLine
 10
208.0
 20
0.0
 30
0.0
 11
208.0
 21
31.5
 31
0.0
  0
LINE
  5
F0E
330
762
100
AcDbEntity
  8
241
100
AcDbLine
 10
190.0
 20
31.5
 30
0.0
 11
190.0
 21
0.0
 31
0.0
  0
LINE
  5
F0F
330
762
100
AcDbEntity
  8
240
100
AcDbLine
 10
190.0
 20
-31.5
 30
0.0
 11
150.0
 21
-35.0
 31
0.0
  0
LINE
  5
F10
330
762
100
AcDbEntity
  8
241
100
AcDbLine
 10
150.0
 20
-35.0
 30
0.0
 11
150.0
 21
0.0
 31
0.0
  0
LINE
  5
F11
330
762
100
AcDbEntity
  8
241
100
AcDbLine
 10
190.0
 20
-31.5
 30
0.0
 11
190.0
 21
0.0
 31
0.0
  0
LINE
  5
F12
330
762
100
AcDbEntity
  8
241
100
AcDbLine
 10
208.0
 20
0.0
 30
0.0
 11
208.0
 21
-31.5
 31
0.0
  0
LINE
  5
F13
330
762
100
AcDbEntity
  8
240
100
AcDbLine
 10
190.0
 20
-31.5
 30
0.0
 11
208.0
 21
-31.5
 31
0.0
  0
LINE
  5
F14
330
762
100
AcDbEntity
  8
240
100
AcDbLine
 10
208.4
 20
-31.1
 30
0.0
 11
208.0
 21
-31.5
 31
0.0
  0
LINE
  5
F15
330
762
100
AcDbEntity
  8
240
100
AcDbLine
 10
208.4
 20
-31.1
 30
0.0
 11
213.6
 21
-31.1
 31
0.0
  0
LINE
  5
F16
330
762
100
AcDbEntity
  8
240
100
AcDbLine
 10
190.0
 20
31.5
 30
0.0
 11
150.0
 21
35.0
 31
0.0
  0
LINE
  5
F17
330
762
100
AcDbEntity
  8
240
100
AcDbLine
 10
190.0
 20
31.5
 30
0.0
 11
208.0
 21
31.5
 31
0.0
  0
LINE
  5
F18
330
762
100
AcDbEntity
  8
240
100
AcDbLine
 10
208.4
 20
31.1
 30
0.0
 11
213.6
 21
31.1
 31
0.0
  0
LINE
  5
F19
330
762
100
AcDbEntity
  8
240
100
AcDbLine
 10
208.4
 20
31.1
 30
0.0
 11
208.0
 21
31.5
 31
0.0
  0
LINE
  5
F1A
330
762
100
AcDbEntity
  8
241
100
AcDbLine
 10
233.38764923
 20
31.5
 30
0.0
 11
233.38764923
 21
0.0
 31
0.0
  0
LINE
  5
F1B
330
762
100
AcDbEntity
  8
241
100
AcDbLine
 10
214.0
 20
31.5
 30
0.0
 11
214.0
 21
0.0
 31
0.0
  0
LINE
  5
F1C
330
762
100
AcDbEntity
  8
241
100
AcDbLine
 10
216.0
 20
31.5
 30
0.0
 11
216.0
 21
0.0
 31
0.0
  0
LINE
  5
F1D
330
762
100
AcDbEntity
  8
241
100
AcDbLine
 10
222.0
 20
31.5
 30
0.0
 11
222.0
 21
0.0
 31
0.0
  0
LINE
  5
F1E
330
762
100
AcDbEntity
  8
241
100
AcDbLine
 10
249.3
 20
0.0
 30
0.0
 11
249.3
 21
16.0
 31
0.0
  0
LINE
  5
F1F
330
762
100
AcDbEntity
  8
240
  6
CONTINUOUS
100
AcDbLine
 10
250.0
 20
15.3
 30
0.0
 11
250.0
 21
0.0
 31
0.0
  0
LINE
  5
F20
330
762
100
AcDbEntity
  8
240
  6
CONTINUOUS
100
AcDbLine
 10
233.38764923
 20
-31.5
 30
0.0
 11
248.55
 21
-22.7460127
 31
0.0
  0
LINE
  5
F21
330
762
100
AcDbEntity
  8
241
100
AcDbLine
 10
233.38764923
 20
-31.5
 30
0.0
 11
233.38764923
 21
0.0
 31
0.0
  0
LINE
  5
F22
330
762
100
AcDbEntity
  8
241
100
AcDbLine
 10
222.0
 20
-31.5
 30
0.0
 11
222.0
 21
0.0
 31
0.0
  0
LINE
  5
F23
330
762
100
AcDbEntity
  8
241
100
AcDbLine
 10
216.0
 20
-31.5
 30
0.0
 11
216.0
 21
0.0
 31
0.0
  0
LINE
  5
F24
330
762
100
AcDbEntity
  8
241
100
AcDbLine
 10
214.0
 20
-31.5
 30
0.0
 11
214.0
 21
0.0
 31
0.0
  0
LINE
  5
F25
330
762
100
AcDbEntity
  8
240
  6
CONTINUOUS
100
AcDbLine
 10
233.38764923
 20
-31.5
 30
0.0
 11
222.0
 21
-31.5
 31
0.0
  0
LINE
  5
F26
330
762
100
AcDbEntity
  8
240
100
AcDbLine
 10
221.6
 20
-31.1
 30
0.0
 11
222.0
 21
-31.5
 31
0.0
  0
LINE
  5
F27
330
762
100
AcDbEntity
  8
240
100
AcDbLine
 10
216.4
 20
-31.1
 30
0.0
 11
216.0
 21
-31.5
 31
0.0
  0
LINE
  5
F28
330
762
100
AcDbEntity
  8
240
100
AcDbLine
 10
214.0
 20
-31.5
 30
0.0
 11
216.0
 21
-31.5
 31
0.0
  0
LINE
  5
F29
330
762
100
AcDbEntity
  8
240
100
AcDbLine
 10
216.4
 20
-31.1
 30
0.0
 11
221.6
 21
-31.1
 31
0.0
  0
LINE
  5
F2A
330
762
100
AcDbEntity
  8
240
  6
CONTINUOUS
100
AcDbLine
 10
250.0
 20
-15.3
 30
0.0
 11
250.0
 21
0.0
 31
0.0
  0
LINE
  5
F2B
330
762
100
AcDbEntity
  8
241
100
AcDbLine
 10
249.3
 20
0.0
 30
0.0
 11
249.3
 21
-16.0
 31
0.0
  0
LINE
  5
F2C
330
762
100
AcDbEntity
  8
240
  6
CONTINUOUS
100
AcDbLine
 10
249.3
 20
-16.0
 30
0.0
 11
249.3
 21
-21.4469746
 31
0.0
  0
ARC
  5
F2D
330
762
100
AcDbEntity
  8
240
  6
CONTINUOUS
100
AcDbCircle
 10
247.8
 20
-21.4469746
 30
0.0
 40
1.5
100
AcDbArc
 50
300.0
 51
0.0
  0
LINE
  5
F2E
330
762
100
AcDbEntity
  8
240
100
AcDbLine
 10
249.3
 20
-16.0
 30
0.0
 11
250.0
 21
-15.3
 31
0.0
  0
LINE
  5
F2F
330
762
100
AcDbEntity
  8
240
  6
CONTINUOUS
100
AcDbLine
 10
248.55
 20
22.7460127
 30
0.0
 11
233.38764923
 21
31.5
 31
0.0
  0
LINE
  5
F30
330
762
100
AcDbEntity
  8
240
100
AcDbLine
 10
233.38764923
 20
31.5
 30
0.0
 11
222.0
 21
31.5
 31
0.0
  0
LINE
  5
F31
330
762
100
AcDbEntity
  8
240
100
AcDbLine
 10
221.6
 20
31.1
 30
0.0
 11
222.0
 21
31.5
 31
0.0
  0
LINE
  5
F32
330
762
100
AcDbEntity
  8
240
100
AcDbLine
 10
216.4
 20
31.1
 30
0.0
 11
221.6
 21
31.1
 31
0.0
  0
LINE
  5
F33
330
762
100
AcDbEntity
  8
240
100
AcDbLine
 10
216.4
 20
31.1
 30
0.0
 11
216.0
 21
31.5
 31
0.0
  0
LINE
  5
F34
330
762
100
AcDbEntity
  8
240
100
AcDbLine
 10
214.0
 20
31.5
 30
0.0
 11
216.0
 21
31.5
 31
0.0
  0
LINE
  5
F35
330
762
100
AcDbEntity
  8
240
  6
CONTINUOUS
100
AcDbLine
 10
249.3
 20
16.0
 30
0.0
 11
249.3
 21
21.4469746
 31
0.0
  0
LINE
  5
F36
330
762
100
AcDbEntity
  8
240
100
AcDbLine
 10
249.3
 20
16.0
 30
0.0
 11
250.0
 21
15.3
 31
0.0
  0
ARC
  5
F37
330
762
100
AcDbEntity
  8
240
  6
CONTINUOUS
100
AcDbCircle
 10
247.8
 20
21.4469746
 30
0.0
 40
1.5
100
AcDbArc
 50
359.9999824
 51
60.0
  0
ENDBLK
  5
7EF
330
762
100
AcDbEntity
  8
0
100
AcDbBlockEnd
  0
BLOCK
  5
83F
330
835
100
AcDbEntity
  8
0
100
AcDbBlockBegin
  2
*D3
 70
     1
 10
0.0
 20
0.0
 30
0.0
  3
*D3
  1

  0
LINE
  5
F97
330
835
100
AcDbEntity
  8
250
  6
CONTINUOUS
100
AcDbLine
 10
50.0
 20
13.0
 30
0.0
 11
50.0
 21
71.0
 31
0.0
  0
LINE
  5
F98
330
835
100
AcDbEntity
  8
250
  6
CONTINUOUS
100
AcDbLine
 10
250.0
 20
15.8
 30
0.0
 11
250.0
 21
71.0
 31
0.0
  0
LINE
  5
F99
330
835
100
AcDbEntity
  8
250
  6
CONTINUOUS
100
AcDbLine
 10
52.23
 20
70.0
 30
0.0
 11
247.77
 21
70.0
 31
0.0
  0
INSERT
  5
F9A
330
835
100
AcDbEntity
  8
250
  6
CONTINUOUS
100
AcDbBlockReference
  2
_OPEN
 10
50.0
 20
70.0
 30
0.0
 41
2.23
 42
2.23
 43
2.23
 50
180.0
  0
INSERT
  5
F9B
330
835
100
AcDbEntity
  8
250
  6
CONTINUOUS
100
AcDbBlockReference
  2
_OPEN
 10
250.0
 20
70.0
 30
0.0
 41
2.23
 42
2.23
 43
2.23
  0
MTEXT
  5
F9C
330
835
100
AcDbEntity
  8
250
  6
CONTINUOUS
 62
    40
100
AcDbMText
 10
151.36605035
 20
72.4
 30
0.0
 40
2.8
 41
0.0
 71
     5
 72
     1
  1
\A1;（max.200）
1001
ACAD
1000
MTEXTBEGIN
1070
    73
1070
     1
1070
    44
1040
1.0
1070
    74
1070
     0
1000
MTEXTEND
  0
POINT
  5
F9D
330
835
100
AcDbEntity
  8
DEFPOINTS
  6
CONTINUOUS
 62
     0
100
AcDbPoint
 10
50.0
 20
12.5
 30
0.0
  0
POINT
  5
F9E
330
835
100
AcDbEntity
  8
DEFPOINTS
  6
CONTINUOUS
 62
     0
100
AcDbPoint
 10
250.0
 20
15.3
 30
0.0
  0
POINT
  5
F9F
330
835
100
AcDbEntity
  8
DEFPOINTS
  6
CONTINUOUS
 62
     0
100
AcDbPoint
 10
250.0
 20
70.0
 30
0.0
  0
ENDBLK
  5
840
330
835
100
AcDbEntity
  8
0
100
AcDbBlockEnd
  0
BLOCK
  5
84B
330
841
100
AcDbEntity
  8
0
100
AcDbBlockBegin
  2
*D4
 70
     1
 10
0.0
 20
0.0
 30
0.0
  3
*D4
  1

  0
LINE
  5
FA0
330
841
100
AcDbEntity
  8
250
  6
CONTINUOUS
100
AcDbLine
 10
0.0
 20
35.425
 30
0.0
 11
0.0
 21
78.0
 31
0.0
  0
LINE
  5
FA1
330
841
100
AcDbEntity
  8
250
  6
CONTINUOUS
100
AcDbLine
 10
250.0
 20
15.8
 30
0.0
 11
250.0
 21
78.0
 31
0.0
  0
LINE
  5
FA2
330
841
100
AcDbEntity
  8
250
  6
CONTINUOUS
100
AcDbLine
 10
2.23
 20
77.0
 30
0.0
 11
247.77
 21
77.0
 31
0.0
  0
INSERT
  5
FA3
330
841
100
AcDbEntity
  8
250
  6
CONTINUOUS
100
AcDbBlockReference
  2
_OPEN
 10
0.0
 20
77.0
 30
0.0
 41
2.23
 42
2.23
 43
2.23
 50
180.0
  0
INSERT
  5
FA4
330
841
100
AcDbEntity
  8
250
  6
CONTINUOUS
100
AcDbBlockReference
  2
_OPEN
 10
250.0
 20
77.0
 30
0.0
 41
2.23
 42
2.23
 43
2.23
  0
MTEXT
  5
FA5
330
841
100
AcDbEntity
  8
250
  6
CONTINUOUS
 62
    40
100
AcDbMText
 10
134.99702477
 20
79.4
 30
0.0
 40
2.8
 41
0.0
 71
     5
 72
     1
  1
\A1;250
1001
ACAD
1000
MTEXTBEGIN
1070
    73
1070
     1
1070
    44
1040
1.0
1070
    74
1070
     0
1000
MTEXTEND
  0
POINT
  5
FA6
330
841
100
AcDbEntity
  8
DEFPOINTS
  6
CONTINUOUS
 62
     0
100
AcDbPoint
 10
0.0
 20
34.925
 30
0.0
  0
POINT
  5
FA7
330
841
100
AcDbEntity
  8
DEFPOINTS
  6
CONTINUOUS
 62
     0
100
AcDbPoint
 10
250.0
 20
15.3
 30
0.0
  0
POINT
  5
FA8
330
841
100
AcDbEntity
  8
DEFPOINTS
  6
CONTINUOUS
 62
     0
100
AcDbPoint
 10
250.0
 20
77.0
 30
0.0
  0
ENDBLK
  5
84C
330
841
100
AcDbEntity
  8
0
100
AcDbBlockEnd
  0
BLOCK
  5
856
330
84D
100
AcDbEntity
  8
0
100
AcDbBlockBegin
  2
*D5
 70
     1
 10
0.0
 20
0.0
 30
0.0
  3
*D5
  1

  0
LINE
  5
E78
330
84D
100
AcDbEntity
  8
250
  6
CONTINUOUS
100
AcDbLine
 10
250.5
 20
12.5
 30
0.0
 11
259.3
 21
12.5
 31
0.0
  0
LINE
  5
E79
330
84D
100
AcDbEntity
  8
250
  6
CONTINUOUS
100
AcDbLine
 10
258.3
 20
-10.27
 30
0.0
 11
258.3
 21
10.27
 31
0.0
  0
INSERT
  5
E7A
330
84D
100
AcDbEntity
  8
250
  6
CONTINUOUS
100
AcDbBlockReference
  2
矢印なし
 10
258.3
 20
-12.5
 30
0.0
 41
2.23
 42
2.23
 43
2.23
 50
270.0
  0
INSERT
  5
E7B
330
84D
100
AcDbEntity
  8
250
  6
CONTINUOUS
100
AcDbBlockReference
  2
_OPEN
 10
258.3
 20
12.5
 30
0.0
 41
2.23
 42
2.23
 43
2.23
 50
90.0
  0
MTEXT
  5
E7C
330
84D
100
AcDbEntity
  8
250
  6
CONTINUOUS
 62
    40
100
AcDbMText
 10
255.9
 20
0.0
 30
0.0
 40
2.8
 41
0.0
 71
     5
 72
     1
  1
\A1;{\H2.8;\U+2205}25
 11
0.0
 21
1.0
 31
0.0
1001
ACAD
1000
MTEXTBEGIN
1070
    73
1070
     1
1070
    44
1040
1.0
1070
    74
1070
     0
1000
MTEXTEND
  0
POINT
  5
E7D
330
84D
100
AcDbEntity
  8
DEFPOINTS
  6
CONTINUOUS
 62
     0
100
AcDbPoint
 10
249.56582625
 20
-12.5
 30
0.0
  0
POINT
  5
E7E
330
84D
100
AcDbEntity
  8
DEFPOINTS
  6
CONTINUOUS
 62
     0
100
AcDbPoint
 10
250.0
 20
12.5
 30
0.0
  0
POINT
  5
E7F
330
84D
100
AcDbEntity
  8
DEFPOINTS
  6
CONTINUOUS
 62
     0
100
AcDbPoint
 10
258.3
 20
12.5
 30
0.0
  0
ENDBLK
  5
857
330
84D
100
AcDbEntity
  8
0
100
AcDbBlockEnd
  0
BLOCK
  5
862
330
858
100
AcDbEntity
  8
0
100
AcDbBlockBegin
  2
*D6
 70
     1
 10
0.0
 20
0.0
 30
0.0
  3
*D6
  1

  0
LINE
  5
E6F
330
858
100
AcDbEntity
  8
250
  6
CONTINUOUS
100
AcDbLine
 10
233.88764924
 20
-31.5
 30
0.0
 11
266.3
 21
-31.5
 31
0.0
  0
LINE
  5
E70
330
858
100
AcDbEntity
  8
250
  6
CONTINUOUS
100
AcDbLine
 10
233.88764924
 20
31.5
 30
0.0
 11
266.3
 21
31.5
 31
0.0
  0
LINE
  5
E71
330
858
100
AcDbEntity
  8
250
  6
CONTINUOUS
100
AcDbLine
 10
265.3
 20
-29.27
 30
0.0
 11
265.3
 21
29.27
 31
0.0
  0
INSERT
  5
E72
330
858
100
AcDbEntity
  8
250
  6
CONTINUOUS
100
AcDbBlockReference
  2
_OPEN
 10
265.3
 20
-31.5
 30
0.0
 41
2.23
 42
2.23
 43
2.23
 50
270.0
  0
INSERT
  5
E73
330
858
100
AcDbEntity
  8
250
  6
CONTINUOUS
100
AcDbBlockReference
  2
_OPEN
 10
265.3
 20
31.5
 30
0.0
 41
2.23
 42
2.23
 43
2.23
 50
90.0
  0
MTEXT
  5
E74
330
858
100
AcDbEntity
  8
250
  6
CONTINUOUS
 62
    40
100
AcDbMText
 10
262.9
 20
0.0
 30
0.0
 40
2.8
 41
0.0
 71
     5
 72
     1
  1
\A1;{\H2.8;\U+2205}63
 11
0.0
 21
1.0
 31
0.0
1001
ACAD
1000
MTEXTBEGIN
1070
    73
1070
     1
1070
    44
1040
1.0
1070
    74
1070
     0
1000
MTEXTEND
  0
POINT
  5
E75
330
858
100
AcDbEntity
  8
DEFPOINTS
  6
CONTINUOUS
 62
     0
100
AcDbPoint
 10
233.38764924
 20
-31.5
 30
0.0
  0
POINT
  5
E76
330
858
100
AcDbEntity
  8
DEFPOINTS
  6
CONTINUOUS
 62
     0
100
AcDbPoint
 10
233.38764924
 20
31.5
 30
0.0
  0
POINT
  5
E77
330
858
100
AcDbEntity
  8
DEFPOINTS
  6
CONTINUOUS
 62
     0
100
AcDbPoint
 10
265.3
 20
31.5
 30
0.0
  0
ENDBLK
  5
863
330
858
100
AcDbEntity
  8
0
100
AcDbBlockEnd
  0
BLOCK
  5
F65
330
F5F
100
AcDbEntity
  8
0
100
AcDbBlockBegin
  2
HDC-CLAMPSCREW
 70
     0
 10
0.0
 20
0.0
 30
0.0
  3
HDC-CLAMPSCREW
  1

  0
INSERT
  5
F60
330
F5F
100
AcDbEntity
  8
245
100
AcDbBlockReference
  2
矢印なし
 10
175.62382697
 20
90.55123572
 30
0.0
  0
LINE
  5
F61
330
F5F
100
AcDbEntity
  8
241
  6
CONTINUOUS
100
AcDbLine
 10
2.23
 20
0.0
 30
0.0
 11
20.0
 21
0.0
 31
0.0
  0
INSERT
  5
F62
330
F5F
100
AcDbEntity
  8
241
  6
CONTINUOUS
100
AcDbBlockReference
  2
_OPEN
 10
0.0
 20
0.0
 30
0.0
 41
6.69
 42
6.69
 43
6.69
 50
180.0
  0
ELLIPSE
  5
F63
330
F5F
100
AcDbEntity
  8
251
100
AcDbEllipse
 10
13.0
 20
0.0
 30
0.0
 11
0.0
 21
-7.000000000002512
 31
0.0
210
0.0
220
0.0
230
1.0
 40
0.5
 41
1.860548028230769
 42
7.564229932538514
  0
INSERT
  5
F64
330
F5F
100
AcDbEntity
  8
251
  6
CONTINUOUS
100
AcDbBlockReference
  2
_OPEN
 10
16.35410197
 20
2.0
 30
0.0
 41
2.23
 42
2.23
 43
2.23
 50
283.18143907
  0
ENDBLK
  5
F66
330
F5F
100
AcDbEntity
  8
0
100
AcDbBlockEnd
  0
ENDSEC
  0
SECTION
  2
ENTITIES
  0
INSERT
  5
6E6
330
1A
100
AcDbEntity
  8
245
100
AcDbBlockReference
  2
矢印なし
 10
175.62382697
 20
90.55123572
 30
0.0
  0
MTEXT
  5
82C
330
1A
100
AcDbEntity
  8
251
  6
CONTINUOUS
100
AcDbMText
 10
-68.71490318
 20
-36.79107178
 30
0.0
 40
2.8
 41
0.0
 71
     7
 72
     1
  1
BBT50
  7
YOKO
1001
ITEMNAME
1000
LNSP3
1001
ACAD
1000
MTEXTBEGIN
1070
    73
1070
     1
1070
    44
1040
1.0
1070
    74
1070
     0
1000
MTEXTEND
1000
MTEXTBEGIN
1070
    73
1070
     1
1070
    44
1040
1.0
1070
    74
1070
     0
1000
MTEXTEND
1000
MTEXTBEGIN
1070
    73
1070
     1
1070
    44
1040
1.0
1070
    74
1070
     0
1000
MTEXTEND
1000
MTEXTBEGIN
1070
    73
1070
     1
1070
    44
1040
1.0
1070
    74
1070
     0
1000
MTEXTEND
1000
MTEXTBEGIN
1070
    73
1070
     1
1070
    44
1040
1.0
1070
    74
1070
     0
1000
MTEXTEND
  0
LEADER
  5
82D
330
1A
100
AcDbEntity
  8
250
  6
CONTINUOUS
100
AcDbLeader
  3
BIGT
 76
     2
 10
-48.07875936
 20
-27.91351426
 30
0.0
 10
-53.78156985
 20
-37.79107178
 30
0.0
1001
ACAD
1000
DSTYLE
1002
{
1070
     6
1000
OPEN
1070
    41
1040
2.0
1070
   343
1005
594
1002
}
  0
DIMENSION
  5
82F
330
1A
100
AcDbEntity
  8
250
  6
CONTINUOUS
100
AcDbDimension
  2
*D3
 10
250.0
 20
70.0
 30
0.0
 11
151.36605035
 21
70.0
 31
0.0
 70
   160
  1
（max.<>）
  3
BIGT
100
AcDbAlignedDimension
 13
50.0
 23
12.5
 33
0.0
 14
250.0
 24
15.3
 34
0.0
100
AcDbRotatedDimension
  0
DIMENSION
  5
830
330
1A
100
AcDbEntity
  8
250
  6
CONTINUOUS
100
AcDbDimension
  2
*D4
 10
250.0
 20
77.0
 30
0.0
 11
134.99702477
 21
77.0
 31
0.0
 70
   160
  3
BIGT
100
AcDbAlignedDimension
 13
0.0
 23
34.925
 33
0.0
 14
250.0
 24
15.3
 34
0.0
100
AcDbRotatedDimension
  0
LINE
  5
831
330
1A
100
AcDbEntity
  8
250
  6
CONTINUOUS
100
AcDbLine
 10
-53.78156985
 20
-37.79107178
 30
0.0
 11
-71.51490318
 21
-37.79107178
 31
0.0
1001
ITEMNAME
1000
LNSP2
  0
TEXT
  5
832
330
1A
100
AcDbEntity
  8
241
100
AcDbText
 10
-101.8
 20
91.0
 30
0.0
 40
5.0
  1
BBT50-HDC25L-250
  7
YOKO
 11
-101.8
 21
91.0
 31
0.0
100
AcDbText
 73
     1
  0
DIMENSION
  5
833
330
1A
100
AcDbEntity
  8
250
  6
CONTINUOUS
100
AcDbDimension
  2
*D5
 10
258.3
 20
12.5
 30
0.0
 11
255.9
 21
0.0
 31
0.0
 70
    32
  1
{\H2.8;\U+2205}<>
  3
BIGT
100
AcDbAlignedDimension
 13
249.56582625
 23
-12.5
 33
0.0
 14
250.0
 24
12.5
 34
0.0
 50
90.0
100
AcDbRotatedDimension
1001
ACAD
1000
DSTYLE
1002
{
1070
    75
1070
     1
1070
     6
1000
矢印なし
1002
}
  0
DIMENSION
  5
834
330
1A
100
AcDbEntity
  8
250
  6
CONTINUOUS
100
AcDbDimension
  2
*D6
 10
265.3
 20
31.5
 30
0.0
 11
262.9
 21
0.0
 31
0.0
 70
    32
  1
{\H2.8;\U+2205}<>
  3
BIGT
100
AcDbAlignedDimension
 13
233.38764924
 23
-31.5
 33
0.0
 14
233.38764924
 24
31.5
 34
0.0
 50
90.0
100
AcDbRotatedDimension
  0
INSERT
  5
F38
330
1A
100
AcDbEntity
  8
245
100
AcDbBlockReference
  2
1
 10
0.0
 20
0.0
 30
0.0
  0
INSERT
  5
F70
330
1A
100
AcDbEntity
  8
245
100
AcDbBlockReference
  2
HDC-CLAMPSCREW
 10
140.0
 20
39.93200525
 30
0.0
 50
90.0
  0
TEXT
  5
F71
330
1A
100
AcDbEntity
  8
251
100
AcDbText
 10
126.33167805
 20
61.15848198
 30
0.0
 40
3.0
  1
クランプスクリュ
  7
YOKO
 11
126.33167805
 21
61.15848198
 31
0.0
100
AcDbText
 73
     1
  0
VIEWPORT
  5
22
330
17
100
AcDbEntity
 67
     1
  8
0
100
AcDbViewport
 10
261.51769912
 20
148.5
 30
0.0
 40
523.03539823
 41
297.0
 68
     1
 69
     1
1001
ACAD
1000
MVIEW
1002
{
1070
    16
1010
0.0
1020
0.0
1030
0.0
1010
0.0
1020
0.0
1030
1.0
1040
0.0
1040
297.0
1040
261.51769912
1040
148.5
1040
50.0
1040
0.0
1040
0.0
1070
     0
1070
   100
1070
     1
1070
     1
1070
     0
1070
     0
1070
     0
1070
     0
1040
0.0
1040
0.0
1040
0.0
1040
1.0
1040
1.0
1040
10.0
1040
10.0
1070
     0
1002
{
1002
}
1002
}
  0
ENDSEC
  0
SECTION
  2
OBJECTS
  0
DICTIONARY
  5
C
330
0
100
AcDbDictionary
  3
ACAD_GROUP
350
D
  3
ACAD_LAYOUT
350
565
  3
ACAD_MLINESTYLE
350
E
  3
ACAD_PLOTSETTINGS
350
566
  3
ACAD_PLOTSTYLENAME
350
563
  3
ACDBHEADERROUNDTRIPXREC
350
FCF
  3
GRADE_DWG
350
540
  0
DICTIONARY
  5
D5F
330
1A
100
AcDbDictionary
280
     1
  3
ACAD_LAYOUTSELFREF
360
FF1
  0
DICTIONARY
  5
D5D
330
17
100
AcDbDictionary
280
     1
  3
ACAD_LAYOUTSELFREF
360
FF0
  0
DICTIONARY
  5
D
102
{ACAD_REACTORS
330
C
102
}
330
C
100
AcDbDictionary
  3
*A1
350
6C7
  3
*A2
350
6C8
  3
*A3
350
6D4
  3
*A4
350
6D5
  3
DREC-1
350
5FC
  3
DREC-2
350
654
  3
DREC-3
350
673
  0
DICTIONARY
  5
565
102
{ACAD_REACTORS
330
C
102
}
330
C
100
AcDbDictionary
  0
DICTIONARY
  5
E
102
{ACAD_REACTORS
330
C
102
}
330
C
100
AcDbDictionary
  3
STANDARD
350
13
  0
DICTIONARY
  5
566
102
{ACAD_REACTORS
330
C
102
}
330
C
100
AcDbDictionary
  3
A3_0_5倍_
350
758
  3
A3_1倍_
350
757
  3
A3_1倍__2000_
350
707
  3
A3_2倍_
350
759
  3
A4_0_5倍_
350
755
  3
A4_1倍_
350
754
  3
A4_1倍__2000_
350
708
  3
A4_2倍_
350
756
  0
ACDBDICTIONARYWDFLT
  5
563
102
{ACAD_REACTORS
330
C
102
}
330
C
100
AcDbDictionary
281
     1
  3
Normal
350
564
100
AcDbDictionaryWithDefault
340
564
  0
DICTIONARY
  5
FCF
102
{ACAD_REACTORS
330
C
102
}
330
C
100
AcDbDictionary
  3
CEPSNTYPE
350
FD9
  3
DIMSTYLEDATA
350
FDD
  3
FINGERPRINTGUID
350
FDA
  3
HYPERLINKBASE
350
FD2
  3
INSUNITS
350
FD8
  3
LAYOUTDICT
350
FD4
  3
LWETCUNION
350
FD7
  3
PLOTSETDICT
350
FD5
  3
PLOTSTYLNAMDICT
350
FD6
  3
PSVPSCALE
350
FDC
  3
PUCSBASE
350
FE0
  3
PUCSORGBACK
350
FE6
  3
PUCSORGBOTTOM
350
FE2
  3
PUCSORGFRONT
350
FE5
  3
PUCSORGLEFT
350
FE3
  3
PUCSORGRIGHT
350
FE4
  3
PUCSORGTOP
350
FE1
  3
PUCSORTHOREF
350
FDE
  3
PUCSORTHOVIEW
350
FDF
  3
STYLESHEET
350
FD3
  3
TSTACKALIGN
350
FD0
  3
TSTACKSIZE
350
FD1
  3
UCSBASE
350
FE9
  3
UCSORGBACK
350
FEF
  3
UCSORGBOTTOM
350
FEB
  3
UCSORGFRONT
350
FEE
  3
UCSORGLEFT
350
FEC
  3
UCSORGRIGHT
350
FED
  3
UCSORGTOP
350
FEA
  3
UCSORTHOREF
350
FE7
  3
UCSORTHOVIEW
350
FE8
  3
VERSIONGUID
350
FDB
  0
DICTIONARY
  5
540
102
{ACAD_REACTORS
330
C
102
}
330
C
100
AcDbDictionary
  3
VERSION
350
560
  0
XRECORD
  5
FF1
102
{ACAD_REACTORS
330
D5F
102
}
330
D5F
100
AcDbXrecord
340
1A
  0
XRECORD
  5
FF0
102
{ACAD_REACTORS
330
D5D
102
}
330
D5D
100
AcDbXrecord
340
17
  0
GROUP
  5
6C7
102
{ACAD_REACTORS
330
D
102
}
330
D
100
AcDbGroup
300

 70
     0
 71
     1
1001
GRPNAME
1000
DMA00
  0
GROUP
  5
6C8
102
{ACAD_REACTORS
330
D
102
}
330
D
100
AcDbGroup
300

 70
     0
 71
     1
1001
GRPNAME
1000
DMA00
  0
GROUP
  5
6D4
102
{ACAD_REACTORS
330
D
102
}
330
D
100
AcDbGroup
300

 70
     0
 71
     1
1001
GRPNAME
1000
DMA00
  0
GROUP
  5
6D5
102
{ACAD_REACTORS
330
D
102
}
330
D
100
AcDbGroup
300

 70
     0
 71
     1
1001
GRPNAME
1000
DMA00
  0
GROUP
  5
5FC
102
{ACAD_REACTORS
330
D
102
}
330
D
100
AcDbGroup
300

 70
     0
 71
     1
1001
GRPNAME
1000
DREC-
1001
GPARA
1000
xsiz
1000
44.182
1000
ysiz
1000
40.677
1000
angl
1000
0
1000
ctyp
1000
0
1000
csiz
1000
5
1000
lfnt
1000
cont
1000
hcnt
1000
hoff
1000
vcnt
1000
voff
1000
opnt
1000
4
1000
dxpt
1000
0
1000
dypt
1000
0
  0
GROUP
  5
654
102
{ACAD_REACTORS
330
D
102
}
330
D
100
AcDbGroup
300

 70
     0
 71
     1
1001
GRPNAME
1000
DREC-
1001
GPARA
1000
xsiz
1000
54.592
1000
ysiz
1000
53.036
1000
angl
1000
0
1000
ctyp
1000
0
1000
csiz
1000
5
1000
lfnt
1000
cont
1000
hcnt
1000
hoff
1000
vcnt
1000
voff
1000
opnt
1000
4
1000
dxpt
1000
0
1000
dypt
1000
0
  0
GROUP
  5
673
102
{ACAD_REACTORS
330
D
102
}
330
D
100
AcDbGroup
300

 70
     0
 71
     1
1001
GRPNAME
1000
DREC-
1001
GPARA
1000
xsiz
1000
30.363
1000
ysiz
1000
36.175
1000
angl
1000
0
1000
ctyp
1000
0
1000
csiz
1000
5
1000
lfnt
1000
cont
1000
hcnt
1000
hoff
1000
vcnt
1000
voff
1000
opnt
1000
4
1000
dxpt
1000
0
1000
dypt
1000
0
  0
MLINESTYLE
  5
13
102
{ACAD_REACTORS
330
E
102
}
330
E
100
AcDbMlineStyle
  2
STANDARD
 70
     0
  3

 62
     0
 51
90.0
 52
90.0
 71
     2
 49
0.5
 62
   256
  6
BYLAYER
 49
-0.5
 62
   256
  6
BYLAYER
  0
PLOTSETTINGS
  5
758
102
{ACAD_REACTORS
330
566
102
}
330
566
100
AcDbPlotSettings
  1
A3(0.5倍)
  2
\\AWTECPC05\HP DeskJet 1120C
  4
A3
  6

 40
5.95841646
 41
13.49375153
 42
6.04309082
 43
3.67242432
 44
296.92599487
 45
419.94665527
 46
89.96
 47
127.14
 48
0.0
 49
0.0
140
0.0
141
0.0
142
1.0
143
2.0
 70
  1716
 72
     1
 73
     1
 74
     2
  7
big.ctb
 75
    17
147
0.5
148
0.0
149
0.0
  0
PLOTSETTINGS
  5
757
102
{ACAD_REACTORS
330
566
102
}
330
566
100
AcDbPlotSettings
  1
A3(1倍)
  2
\\AWTECPC05\HP DeskJet 1120C
  4
A3
  6

 40
5.95841646
 41
13.49375153
 42
6.04309082
 43
3.67242432
 44
296.92599487
 45
419.94665527
 46
37.46
 47
52.89
 48
0.0
 49
0.0
140
0.0
141
0.0
142
1.0
143
1.0
 70
  1716
 72
     1
 73
     1
 74
     2
  7
big.ctb
 75
    16
147
1.0
148
0.0
149
0.0
  0
PLOTSETTINGS
  5
707
102
{ACAD_REACTORS
330
566
102
}
330
566
100
AcDbPlotSettings
  1
A3(1倍)(2000)
  2
SII LS-1300 (D-SCAN)
  4
User258
  6

 40
3.17499995
 41
3.17499995
 42
3.17498779
 43
3.17498779
 44
419.98898315
 45
296.98950195
 46
58.32
 47
40.32
 48
0.0
 49
0.0
140
0.0
141
0.0
142
1.0
143
1.0
 70
  1716
 72
     1
 73
     0
 74
     2
  7
big.ctb
 75
    16
147
1.0
148
0.0
149
0.0
  0
PLOTSETTINGS
  5
759
102
{ACAD_REACTORS
330
566
102
}
330
566
100
AcDbPlotSettings
  1
A3(2倍)
  2
\\AWTECPC05\HP DeskJet 1120C
  4
A3
  6

 40
5.95841646
 41
13.49375153
 42
6.04309082
 43
3.67242432
 44
296.92599487
 45
419.94665527
 46
-67.54
 47
-95.61
 48
0.0
 49
0.0
140
0.0
141
0.0
142
1.0
143
0.5
 70
  1716
 72
     1
 73
     1
 74
     2
  7
big.ctb
 75
    27
147
2.0
148
0.0
149
0.0
  0
PLOTSETTINGS
  5
755
102
{ACAD_REACTORS
330
566
102
}
330
566
100
AcDbPlotSettings
  1
A4(0.5倍)
  2
\\AWTECPC05\HP DeskJet 1120C
  4
A4
  6

 40
4.18041658
 41
13.49374962
 42
4.18040466
 43
3.92642212
 44
209.97332764
 45
296.92599487
 46
48.31
 47
65.5
 48
0.0
 49
0.0
140
0.0
141
0.0
142
1.0
143
2.0
 70
  1716
 72
     1
 73
     1
 74
     2
  7
big.ctb
 75
    17
147
0.5
148
0.0
149
0.0
  0
PLOTSETTINGS
  5
754
102
{ACAD_REACTORS
330
566
102
}
330
566
100
AcDbPlotSettings
  1
A4(1倍)
  2
\\AWTECPC05\HP DeskJet 1120C
  4
A4
  6

 40
4.18041658
 41
13.49374962
 42
4.18040466
 43
3.92642212
 44
209.97332764
 45
296.92599487
 46
-4.19
 47
-8.75
 48
0.0
 49
0.0
140
0.0
141
0.0
142
1.0
143
1.0
 70
  1716
 72
     1
 73
     1
 74
     2
  7
big.ctb
 75
    16
147
1.0
148
0.0
149
0.0
  0
PLOTSETTINGS
  5
708
102
{ACAD_REACTORS
330
566
102
}
330
566
100
AcDbPlotSettings
  1
A4(1倍)(2000)
  2
SII LS-1300 (D-SCAN)
  4
User259
  6

 40
3.17499995
 41
3.17499995
 42
3.17498779
 43
3.17500305
 44
296.98950195
 45
209.99449158
 46
-3.18
 47
-3.18
 48
0.0
 49
0.0
140
0.0
141
0.0
142
1.0
143
1.0
 70
  1716
 72
     1
 73
     0
 74
     2
  7
big.ctb
 75
    16
147
1.0
148
0.0
149
0.0
  0
PLOTSETTINGS
  5
756
102
{ACAD_REACTORS
330
566
102
}
330
566
100
AcDbPlotSettings
  1
A4(2倍)
  2
\\AWTECPC05\HP DeskJet 1120C
  4
A4
  6

 40
4.18041658
 41
13.49374962
 42
4.18040466
 43
3.92642212
 44
209.97332764
 45
296.92599487
 46
-109.19
 47
-157.25
 48
0.0
 49
0.0
140
0.0
141
0.0
142
1.0
143
0.5
 70
  1716
 72
     1
 73
     1
 74
     2
  7
big.ctb
 75
    27
147
2.0
148
0.0
149
0.0
  0
ACDBPLACEHOLDER
  5
564
102
{ACAD_REACTORS
330
563
102
}
330
563
100
AcDbPlaceHolder
280
     0
  0
XRECORD
  5
FD9
102
{ACAD_REACTORS
330
FCF
102
}
330
FCF
100
AcDbXrecord
 90
        0
  0
XRECORD
  5
FDD
102
{ACAD_REACTORS
330
FCF
102
}
330
FCF
100
AcDbXrecord
1000
DSTYLE
1002
{
1070
    79
 70
     2
1070
   179
 70
     3
1070
   341
340
594
1070
   343
340
594
1070
   344
340
594
1070
   371
 70
    -1
1070
   372
 70
    -1
1002
}
  0
XRECORD
  5
FDA
102
{ACAD_REACTORS
330
FCF
102
}
330
FCF
100
AcDbXrecord
  1
{51294030-9CB4-11D3-8E18-00A0C925D94D}
  0
XRECORD
  5
FD2
102
{ACAD_REACTORS
330
FCF
102
}
330
FCF
100
AcDbXrecord
  1

  0
XRECORD
  5
FD8
102
{ACAD_REACTORS
330
FCF
102
}
330
FCF
100
AcDbXrecord
 90
        0
  0
XRECORD
  5
FD4
102
{ACAD_REACTORS
330
FCF
102
}
330
FCF
100
AcDbXrecord
340
565
  0
XRECORD
  5
FD7
102
{ACAD_REACTORS
330
FCF
102
}
330
FCF
100
AcDbXrecord
 90
    10781
  0
XRECORD
  5
FD5
102
{ACAD_REACTORS
330
FCF
102
}
330
FCF
100
AcDbXrecord
340
566
  0
XRECORD
  5
FD6
102
{ACAD_REACTORS
330
FCF
102
}
330
FCF
100
AcDbXrecord
340
563
  0
XRECORD
  5
FDC
102
{ACAD_REACTORS
330
FCF
102
}
330
FCF
100
AcDbXrecord
 40
0.0
  0
XRECORD
  5
FE0
102
{ACAD_REACTORS
330
FCF
102
}
330
FCF
100
AcDbXrecord
340
0
  0
XRECORD
  5
FE6
102
{ACAD_REACTORS
330
FCF
102
}
330
FCF
100
AcDbXrecord
 10
0.0
 20
0.0
 30
0.0
  0
XRECORD
  5
FE2
102
{ACAD_REACTORS
330
FCF
102
}
330
FCF
100
AcDbXrecord
 10
0.0
 20
0.0
 30
0.0
  0
XRECORD
  5
FE5
102
{ACAD_REACTORS
330
FCF
102
}
330
FCF
100
AcDbXrecord
 10
0.0
 20
0.0
 30
0.0
  0
XRECORD
  5
FE3
102
{ACAD_REACTORS
330
FCF
102
}
330
FCF
100
AcDbXrecord
 10
0.0
 20
0.0
 30
0.0
  0
XRECORD
  5
FE4
102
{ACAD_REACTORS
330
FCF
102
}
330
FCF
100
AcDbXrecord
 10
0.0
 20
0.0
 30
0.0
  0
XRECORD
  5
FE1
102
{ACAD_REACTORS
330
FCF
102
}
330
FCF
100
AcDbXrecord
 10
0.0
 20
0.0
 30
0.0
  0
XRECORD
  5
FDE
102
{ACAD_REACTORS
330
FCF
102
}
330
FCF
100
AcDbXrecord
340
0
  0
XRECORD
  5
FDF
102
{ACAD_REACTORS
330
FCF
102
}
330
FCF
100
AcDbXrecord
 70
     0
  0
XRECORD
  5
FD3
102
{ACAD_REACTORS
330
FCF
102
}
330
FCF
100
AcDbXrecord
  1
big.ctb
  0
XRECORD
  5
FD0
102
{ACAD_REACTORS
330
FCF
102
}
330
FCF
100
AcDbXrecord
 90
        1
  0
XRECORD
  5
FD1
102
{ACAD_REACTORS
330
FCF
102
}
330
FCF
100
AcDbXrecord
 90
       70
  0
XRECORD
  5
FE9
102
{ACAD_REACTORS
330
FCF
102
}
330
FCF
100
AcDbXrecord
340
0
  0
XRECORD
  5
FEF
102
{ACAD_REACTORS
330
FCF
102
}
330
FCF
100
AcDbXrecord
 10
0.0
 20
0.0
 30
0.0
  0
XRECORD
  5
FEB
102
{ACAD_REACTORS
330
FCF
102
}
330
FCF
100
AcDbXrecord
 10
0.0
 20
0.0
 30
0.0
  0
XRECORD
  5
FEE
102
{ACAD_REACTORS
330
FCF
102
}
330
FCF
100
AcDbXrecord
 10
0.0
 20
0.0
 30
0.0
  0
XRECORD
  5
FEC
102
{ACAD_REACTORS
330
FCF
102
}
330
FCF
100
AcDbXrecord
 10
0.0
 20
0.0
 30
0.0
  0
XRECORD
  5
FED
102
{ACAD_REACTORS
330
FCF
102
}
330
FCF
100
AcDbXrecord
 10
0.0
 20
0.0
 30
0.0
  0
XRECORD
  5
FEA
102
{ACAD_REACTORS
330
FCF
102
}
330
FCF
100
AcDbXrecord
 10
0.0
 20
0.0
 30
0.0
  0
XRECORD
  5
FE7
102
{ACAD_REACTORS
330
FCF
102
}
330
FCF
100
AcDbXrecord
340
0
  0
XRECORD
  5
FE8
102
{ACAD_REACTORS
330
FCF
102
}
330
FCF
100
AcDbXrecord
 70
     0
  0
XRECORD
  5
FDB
102
{ACAD_REACTORS
330
FCF
102
}
330
FCF
100
AcDbXrecord
  1
{933D98CE-7A0E-40CA-9102-3C8C6107C3CC}
  0
XRECORD
  5
560
102
{ACAD_REACTORS
330
540
102
}
330
540
100
AcDbXrecord
  1
2.0.0
  0
ENDSEC
  0
EOF
