  0
SECTION
  2
HEADER
  9
$ACADVER
  1
AC1014
  9
$ACADMAINTVER
 70
     9
  9
$DWGCODEPAGE
  3
ANSI_932
  9
$INSBASE
 10
0.0
 20
0.0
 30
0.0
  9
$EXTMIN
 10
-66.41484262
 20
-31.71713736
 30
-0.00152582
  9
$EXTMAX
 10
110.00312577
 20
64.50853747
 30
0.00000003
  9
$LIMMIN
 10
0.0
 20
0.0
  9
$LIMMAX
 10
420.0
 20
297.0
  9
$ORTHOMODE
 70
     0
  9
$REGENMODE
 70
     1
  9
$FILLMODE
 70
     1
  9
$QTEXTMODE
 70
     0
  9
$MIRRTEXT
 70
     1
  9
$DRAGMODE
 70
     2
  9
$LTSCALE
 40
10.0
  9
$OSMODE
 70
   549
  9
$ATTMODE
 70
     1
  9
$TEXTSIZE
 40
3.0
  9
$TRACEWID
 40
1.0
  9
$TEXTSTYLE
  7
YOKO
  9
$CLAYER
  8
245
  9
$CELTYPE
  6
BYLAYER
  9
$CECOLOR
 62
   256
  9
$CELTSCALE
 40
1.0
  9
$DELOBJ
 70
     1
  9
$DISPSILH
 70
     0
  9
$DIMSCALE
 40
1.0
  9
$DIMASZ
 40
2.23
  9
$DIMEXO
 40
0.5
  9
$DIMDLI
 40
2.5
  9
$DIMRND
 40
0.0
  9
$DIMDLE
 40
0.0
  9
$DIMEXE
 40
1.0
  9
$DIMTP
 40
0.0
  9
$DIMTM
 40
0.0
  9
$DIMTXT
 40
2.8
  9
$DIMCEN
 40
0.0
  9
$DIMTSZ
 40
0.0
  9
$DIMTOL
 70
     0
  9
$DIMLIM
 70
     0
  9
$DIMTIH
 70
     0
  9
$DIMTOH
 70
     0
  9
$DIMSE1
 70
     0
  9
$DIMSE2
 70
     0
  9
$DIMTAD
 70
     3
  9
$DIMZIN
 70
     8
  9
$DIMBLK
  1

  9
$DIMASO
 70
     1
  9
$DIMSHO
 70
     1
  9
$DIMPOST
  1

  9
$DIMAPOST
  1

  9
$DIMALT
 70
     0
  9
$DIMALTD
 70
     2
  9
$DIMALTF
 40
25.4
  9
$DIMLFAC
 40
1.0
  9
$DIMTOFL
 70
     1
  9
$DIMTVP
 40
0.0
  9
$DIMTIX
 70
     1
  9
$DIMSOXD
 70
     0
  9
$DIMSAH
 70
     1
  9
$DIMBLK1
  1
OPEN
  9
$DIMBLK2
  1
OPEN
  9
$DIMSTYLE
  2
BIGT
  9
$DIMCLRD
 70
   256
  9
$DIMCLRE
 70
   256
  9
$DIMCLRT
 70
    40
  9
$DIMTFAC
 40
1.0
  9
$DIMGAP
 40
1.0
  9
$DIMJUST
 70
     0
  9
$DIMSD1
 70
     0
  9
$DIMSD2
 70
     0
  9
$DIMTOLJ
 70
     1
  9
$DIMTZIN
 70
     8
  9
$DIMALTZ
 70
     0
  9
$DIMALTTZ
 70
     0
  9
$DIMFIT
 70
     3
  9
$DIMUPT
 70
     0
  9
$DIMUNIT
 70
     2
  9
$DIMDEC
 70
     3
  9
$DIMTDEC
 70
     3
  9
$DIMALTU
 70
     2
  9
$DIMALTTD
 70
     2
  9
$DIMTXSTY
  7
STANDARD
  9
$DIMAUNIT
 70
     0
  9
$LUNITS
 70
     2
  9
$LUPREC
 70
     3
  9
$SKETCHINC
 40
1.0
  9
$FILLETRAD
 40
1.0
  9
$AUNITS
 70
     0
  9
$AUPREC
 70
     3
  9
$MENU
  1
.
  9
$ELEVATION
 40
0.0
  9
$PELEVATION
 40
0.0
  9
$THICKNESS
 40
0.0
  9
$LIMCHECK
 70
     0
  9
$BLIPMODE
 70
     0
  9
$CHAMFERA
 40
10.0
  9
$CHAMFERB
 40
10.0
  9
$CHAMFERC
 40
0.0
  9
$CHAMFERD
 40
0.0
  9
$SKPOLY
 70
     0
  9
$TDCREATE
 40
2455456.684528715
  9
$TDUPDATE
 40
2455457.386703738
  9
$TDINDWG
 40
0.0479587963
  9
$TDUSRTIMER
 40
0.0479587963
  9
$USRTIMER
 70
     1
  9
$ANGBASE
 50
0.0
  9
$ANGDIR
 70
     0
  9
$PDMODE
 70
     1
  9
$PDSIZE
 40
-5.0
  9
$PLINEWID
 40
0.0
  9
$COORDS
 70
     2
  9
$SPLFRAME
 70
     0
  9
$SPLINETYPE
 70
     6
  9
$SPLINESEGS
 70
     8
  9
$ATTDIA
 70
     0
  9
$ATTREQ
 70
     1
  9
$HANDLING
 70
-16383
  9
$HANDSEED
  5
FA0
  9
$SURFTAB1
 70
     6
  9
$SURFTAB2
 70
     6
  9
$SURFTYPE
 70
     6
  9
$SURFU
 70
     6
  9
$SURFV
 70
     6
  9
$UCSNAME
  2

  9
$UCSORG
 10
0.0
 20
0.0
 30
0.0
  9
$UCSXDIR
 10
1.0
 20
0.0
 30
0.0
  9
$UCSYDIR
 10
0.0
 20
1.0
 30
0.0
  9
$PUCSNAME
  2

  9
$PUCSORG
 10
0.0
 20
0.0
 30
0.0
  9
$PUCSXDIR
 10
1.0
 20
0.0
 30
0.0
  9
$PUCSYDIR
 10
0.0
 20
1.0
 30
0.0
  9
$USERI1
 70
     1
  9
$USERI2
 70
     0
  9
$USERI3
 70
     0
  9
$USERI4
 70
     0
  9
$USERI5
 70
     0
  9
$USERR1
 40
0.0
  9
$USERR2
 40
0.0
  9
$USERR3
 40
0.0
  9
$USERR4
 40
0.0
  9
$USERR5
 40
0.0
  9
$WORLDVIEW
 70
     1
  9
$SHADEDGE
 70
     3
  9
$SHADEDIF
 70
    70
  9
$TILEMODE
 70
     1
  9
$MAXACTVP
 70
    16
  9
$PINSBASE
 10
0.0
 20
0.0
 30
0.0
  9
$PLIMCHECK
 70
     0
  9
$PEXTMIN
 10
1.00000000E+20
 20
1.00000000E+20
 30
1.00000000E+20
  9
$PEXTMAX
 10
-1.00000000E+20
 20
-1.00000000E+20
 30
-1.00000000E+20
  9
$PLIMMIN
 10
0.0
 20
0.0
  9
$PLIMMAX
 10
420.0
 20
297.0
  9
$UNITMODE
 70
     0
  9
$VISRETAIN
 70
     0
  9
$PLINEGEN
 70
     0
  9
$PSLTSCALE
 70
     1
  9
$TREEDEPTH
 70
  3020
  9
$PICKSTYLE
 70
     0
  9
$CMLSTYLE
  2
STANDARD
  9
$CMLJUST
 70
     0
  9
$CMLSCALE
 40
1.0
  9
$PROXYGRAPHICS
 70
     1
  9
$MEASUREMENT
 70
     1
  0
ENDSEC
  0
SECTION
  2
CLASSES
  0
CLASS
  1
XRECORD
  2
AcDbXrecord
  3
AutoCAD 2000
 90
        0
280
     0
281
     0
  0
CLASS
  1
ACDBDICTIONARYWDFLT
  2
AcDbDictionaryWithDefault
  3
AutoCAD 2000
 90
        0
280
     0
281
     0
  0
CLASS
  1
ACDBPLACEHOLDER
  2
AcDbPlaceHolder
  3
AutoCAD 2000
 90
        0
280
     0
281
     0
  0
CLASS
  1
LAYOUT
  2
AcDbLayout
  3
AutoCAD 2000
 90
        0
280
     0
281
     0
  0
CLASS
  1
PLOTSETTINGS
  2
AcDbPlotSettings
  3
AutoCAD 2000
 90
        0
280
     0
281
     0
  0
CLASS
  1
DICTIONARYVAR
  2
AcDbDictionaryVar
  3
AutoCAD 2000
 90
        0
280
     0
281
     0
  0
CLASS
  1
LONG_TRANSACTION
  2
AcDbLongTransaction
  3
AutoCAD 2000
 90
        0
280
     0
281
     0
  0
CLASS
  1
LWPOLYLINE
  2
AcDbPolyline
  3
AutoCAD 2000
 90
        0
280
     0
281
     1
  0
CLASS
  1
HATCH
  2
AcDbHatch
  3
AutoCAD 2000
 90
        0
280
     0
281
     1
  0
CLASS
  1
XRECORD
  2
AcDbXrecord
  3
AutoCAD 2000
 90
        0
280
     0
281
     0
  0
CLASS
  1
LONG_TRANSACTION
  2
AcDbLongTransaction
  3
AutoCAD 2000
 90
        0
280
     0
281
     0
  0
CLASS
  1
LWPOLYLINE
  2
AcDbPolyline
  3
AutoCAD 2000
 90
        0
280
     0
281
     1
  0
CLASS
  1
HATCH
  2
AcDbHatch
  3
AutoCAD 2000
 90
        0
280
     0
281
     1
  0
CLASS
  1
XRECORD
  2
AcDbXrecord
  3
AutoCAD 2000
 90
        0
280
     0
281
     0
  0
CLASS
  1
LONG_TRANSACTION
  2
AcDbLongTransaction
  3
AutoCAD 2000
 90
        0
280
     0
281
     0
  0
CLASS
  1
LWPOLYLINE
  2
AcDbPolyline
  3
AutoCAD 2000
 90
        0
280
     0
281
     1
  0
CLASS
  1
HATCH
  2
AcDbHatch
  3
AutoCAD 2000
 90
        0
280
     0
281
     1
  0
CLASS
  1
XRECORD
  2
AcDbXrecord
  3
AutoCAD 2000
 90
        0
280
     0
281
     0
  0
ENDSEC
  0
SECTION
  2
TABLES
  0
TABLE
  2
VPORT
  5
8
330
0
100
AcDbSymbolTable
 70
     3
  0
VPORT
  5
F73
330
8
100
AcDbSymbolTableRecord
100
AcDbViewportTableRecord
  2
*ACTIVE
 70
     0
 10
0.0
 20
0.0
 11
1.0
 21
1.0
 12
21.79414158
 22
16.39570006
 13
0.0
 23
0.0
 14
7.0
 24
7.0
 15
7.0
 25
7.0
 16
0.0
 26
0.0
 36
1.0
 17
0.0
 27
0.0
 37
0.0
 40
125.91823941
 41
1.4085213
 42
50.0
 43
0.0
 44
0.0
 50
0.0
 51
0.0
 71
     0
 72
  2000
 73
     1
 74
     0
 75
     0
 76
     0
 77
     0
 78
     0
  0
ENDTAB
  0
TABLE
  2
LTYPE
  5
5
330
0
100
AcDbSymbolTable
 70
     3
  0
LTYPE
  5
14
330
5
100
AcDbSymbolTableRecord
100
AcDbLinetypeTableRecord
  2
BYBLOCK
 70
     0
  3

 72
    65
 73
     0
 40
0.0
  0
LTYPE
  5
15
330
5
100
AcDbSymbolTableRecord
100
AcDbLinetypeTableRecord
  2
BYLAYER
 70
     0
  3

 72
    65
 73
     0
 40
0.0
  0
LTYPE
  5
16
330
5
100
AcDbSymbolTableRecord
100
AcDbLinetypeTableRecord
  2
CONTINUOUS
 70
     0
  3
Solid line
 72
    65
 73
     0
 40
0.0
  0
LTYPE
  5
258
330
5
100
AcDbSymbolTableRecord
100
AcDbLinetypeTableRecord
  2
CENTER2
 70
     0
  3
___ _ ___ _ ___ _ ___ _ ___ _ ___ _ ___ _ ___ _
 72
    65
 73
     4
 40
1.125
 49
0.75
 74
     0
 49
-0.125
 74
     0
 49
0.125
 74
     0
 49
-0.125
 74
     0
  0
LTYPE
  5
25C
330
5
100
AcDbSymbolTableRecord
100
AcDbLinetypeTableRecord
  2
HIDDEN2
 70
     0
  3
_ _ _ _ _ _ _ _ _ _ _ _ _ _ _ _ _ _ _ _ _ _ _ _
 72
    65
 73
     2
 40
0.1875
 49
0.125
 74
     0
 49
-0.0625
 74
     0
  0
ENDTAB
  0
TABLE
  2
LAYER
  5
2
330
0
100
AcDbSymbolTable
 70
     8
  0
LAYER
  5
F
330
2
100
AcDbSymbolTableRecord
100
AcDbLayerTableRecord
  2
0
 70
     0
 62
     7
  6
CONTINUOUS
  0
LAYER
  5
1AA
330
2
100
AcDbSymbolTableRecord
100
AcDbLayerTableRecord
  2
240
 70
     0
 62
     4
  6
CONTINUOUS
  0
LAYER
  5
1AB
330
2
100
AcDbSymbolTableRecord
100
AcDbLayerTableRecord
  2
241
 70
     0
 62
   211
  6
CONTINUOUS
  0
LAYER
  5
1AC
330
2
100
AcDbSymbolTableRecord
100
AcDbLayerTableRecord
  2
242
 70
     0
 62
     3
  6
CONTINUOUS
  0
LAYER
  5
1AF
330
2
100
AcDbSymbolTableRecord
100
AcDbLayerTableRecord
  2
245
 70
     0
 62
     2
  6
CENTER2
  0
LAYER
  5
21E
330
2
100
AcDbSymbolTableRecord
100
AcDbLayerTableRecord
  2
250
 70
     0
 62
     3
  6
CONTINUOUS
  0
LAYER
  5
5C4
330
2
100
AcDbSymbolTableRecord
100
AcDbLayerTableRecord
  2
DEFPOINTS
 70
     0
 62
     7
  6
CONTINUOUS
  0
ENDTAB
  0
TABLE
  2
STYLE
  5
3
330
0
100
AcDbSymbolTable
 70
     2
  0
STYLE
  5
10
330
3
100
AcDbSymbolTableRecord
100
AcDbTextStyleTableRecord
  2
STANDARD
 70
     0
 40
0.0
 41
1.0
 50
0.0
 71
     0
 42
3.0
  3
romans.shx
  4
BIGFONT.SHX
  0
STYLE
  5
339
330
3
100
AcDbSymbolTableRecord
100
AcDbTextStyleTableRecord
  2
YOKO
 70
     0
 40
0.0
 41
1.0
 50
0.0
 71
     0
 42
3.0
  3
romans.shx
  4
extfont.shx
  0
ENDTAB
  0
TABLE
  2
VIEW
  5
6
330
0
100
AcDbSymbolTable
 70
     0
  0
ENDTAB
  0
TABLE
  2
UCS
  5
7
330
0
100
AcDbSymbolTable
 70
     0
  0
ENDTAB
  0
TABLE
  2
APPID
  5
9
330
0
100
AcDbSymbolTable
 70
    10
  0
APPID
  5
11
330
9
100
AcDbSymbolTableRecord
100
AcDbRegAppTableRecord
  2
ACAD
 70
     0
  0
APPID
  5
1B1
330
9
100
AcDbSymbolTableRecord
100
AcDbRegAppTableRecord
  2
GLOBAL
 70
     0
  0
APPID
  5
2A4
330
9
100
AcDbSymbolTableRecord
100
AcDbRegAppTableRecord
  2
DETAIL
 70
     0
  0
APPID
  5
5FD
330
9
100
AcDbSymbolTableRecord
100
AcDbRegAppTableRecord
  2
GRPNAME
 70
     0
  0
APPID
  5
5FE
330
9
100
AcDbSymbolTableRecord
100
AcDbRegAppTableRecord
  2
GPARA
 70
     0
  0
APPID
  5
6C4
330
9
100
AcDbSymbolTableRecord
100
AcDbRegAppTableRecord
  2
DCO15
 70
     0
  0
APPID
  5
6C5
330
9
100
AcDbSymbolTableRecord
100
AcDbRegAppTableRecord
  2
ITEMNAME
 70
     0
  0
APPID
  5
6C6
330
9
100
AcDbSymbolTableRecord
100
AcDbRegAppTableRecord
  2
GRADE_0
 70
     0
  0
APPID
  5
7E6
330
9
100
AcDbSymbolTableRecord
100
AcDbRegAppTableRecord
  2
ACAD_PSEXT
 70
     0
  0
APPID
  5
D94
330
9
100
AcDbSymbolTableRecord
100
AcDbRegAppTableRecord
  2
CONTENTBLOCKICON
 70
     0
  0
ENDTAB
  0
TABLE
  2
DIMSTYLE
  5
A
330
0
100
AcDbSymbolTable
 70
     1
  0
DIMSTYLE
105
725
102
{ACAD_REACTORS
330
958
330
967
330
992
330
C0C
102
}
330
A
100
AcDbSymbolTableRecord
100
AcDbDimStyleTableRecord
  2
BIGT
 70
     0
  3

  4

  5

  6
OPEN
  7
OPEN
 40
1.0
 41
2.23
 42
0.5
 43
2.5
 44
1.0
 45
0.0
 46
0.0
 47
0.0
 48
0.0
140
2.8
141
0.0
142
0.0
143
25.4
144
1.0
145
0.0
146
1.0
147
1.0
 71
     0
 72
     0
 73
     0
 74
     0
 75
     0
 76
     0
 77
     3
 78
     8
170
     0
171
     2
172
     1
173
     1
174
     1
175
     0
176
   256
177
   256
178
    40
270
     2
271
     3
272
     3
273
     2
274
     2
340
10
275
     0
280
     0
281
     0
282
     0
283
     1
284
     8
285
     0
286
     0
287
     3
288
     0
  0
ENDTAB
  0
TABLE
  2
BLOCK_RECORD
  5
1
330
0
100
AcDbSymbolTable
 70
     7
  0
BLOCK_RECORD
  5
1A
102
{ACAD_XDICTIONARY
360
D8A
102
}
330
1
100
AcDbSymbolTableRecord
100
AcDbBlockTableRecord
  2
*MODEL_SPACE
  0
BLOCK_RECORD
  5
17
102
{ACAD_XDICTIONARY
360
D88
102
}
330
1
100
AcDbSymbolTableRecord
100
AcDbBlockTableRecord
  2
*PAPER_SPACE
  0
BLOCK_RECORD
  5
594
330
1
100
AcDbSymbolTableRecord
100
AcDbBlockTableRecord
  2
_OPEN
  0
BLOCK_RECORD
  5
6E3
330
1
100
AcDbSymbolTableRecord
100
AcDbBlockTableRecord
  2
矢印なし
  0
BLOCK_RECORD
  5
959
330
1
100
AcDbSymbolTableRecord
100
AcDbBlockTableRecord
  2
*D2
  0
BLOCK_RECORD
  5
968
330
1
100
AcDbSymbolTableRecord
100
AcDbBlockTableRecord
  2
*D3
  0
BLOCK_RECORD
  5
993
330
1
100
AcDbSymbolTableRecord
100
AcDbBlockTableRecord
  2
*D4
  0
BLOCK_RECORD
  5
C0D
330
1
100
AcDbSymbolTableRecord
100
AcDbBlockTableRecord
  2
*D5
  0
BLOCK_RECORD
  5
CA7
330
1
100
AcDbSymbolTableRecord
100
AcDbBlockTableRecord
  2
1
1001
CONTENTBLOCKICON
1071
        0
1004
2800000020000000200000000100080000000000000400000000000000000000000000000000000000000000000080000080000000808000800000008000800080800000C0C0C000C0DCC000F0CAA6000020400000206000002080000020A0000020C0000020E00000400000004020000040400000406000004080000040A0
1004
000040C0000040E00000600000006020000060400000606000006080000060A0000060C0000060E00000800000008020000080400000806000008080000080A0000080C0000080E00000A0000000A0200000A0400000A0600000A0800000A0A00000A0C00000A0E00000C0000000C0200000C0400000C0600000C0800000C0
1004
A00000C0C00000C0E00000E0000000E0200000E0400000E0600000E0800000E0A00000E0C00000E0E00040000000400020004000400040006000400080004000A0004000C0004000E00040200000402020004020400040206000402080004020A0004020C0004020E000404000004040200040404000404060004040800040
1004
40A0004040C0004040E00040600000406020004060400040606000406080004060A0004060C0004060E00040800000408020004080400040806000408080004080A0004080C0004080E00040A0000040A0200040A0400040A0600040A0800040A0A00040A0C00040A0E00040C0000040C0200040C0400040C0600040C08000
1004
40C0A00040C0C00040C0E00040E0000040E0200040E0400040E0600040E0800040E0A00040E0C00040E0E00080000000800020008000400080006000800080008000A0008000C0008000E00080200000802020008020400080206000802080008020A0008020C0008020E00080400000804020008040400080406000804080
1004
008040A0008040C0008040E00080600000806020008060400080606000806080008060A0008060C0008060E00080800000808020008080400080806000808080008080A0008080C0008080E00080A0000080A0200080A0400080A0600080A0800080A0A00080A0C00080A0E00080C0000080C0200080C0400080C0600080C0
1004
800080C0A00080C0C00080C0E00080E0000080E0200080E0400080E0600080E0800080E0A00080E0C00080E0E000C0000000C0002000C0004000C0006000C0008000C000A000C000C000C000E000C0200000C0202000C0204000C0206000C0208000C020A000C020C000C020E000C0400000C0402000C0404000C0406000C0
1004
408000C040A000C040C000C040E000C0600000C0602000C0604000C0606000C0608000C060A000C060C000C060E000C0800000C0802000C0804000C0806000C0808000C080A000C080C000C080E000C0A00000C0A02000C0A04000C0A06000C0A08000C0A0A000C0A0C000C0A0E000C0C00000C0C02000C0C04000C0C06000
1004
C0C08000C0C0A000F0FBFF00A4A0A000808080000000FF0000FF000000FFFF00FF000000FF00FF00FFFF0000FFFFFF0000000000000000000000000000000000000000000000000000000000000000000000000000000000000000000000000000000000000000000000000000000000000000000000000000000000000000
1004
00000000000000000000000000000000000000000000000000000000000000000000000000000000000000000000000000000000000000000000000000000000000000000000000000000000000000000000000000000000000000000000000000000000000000000000000000000000000000000000000000000000000000
1004
00000000000000000000000000000000000000000000000000000000000000000000000000000000000000000000000000000000000000000000000000000000000000000000000000000000000000000000000000000000000000000000000000000000000000000000000000000000000000000000000000000000000000
1004
FEFEFEFBFEFE0000000000000000000000000000000000000000000000000000FE00E7FEFEFEFEFEFEFEFEFEFEFEFEFEFE00000000000000000000FEFEFEFEFEFE00E7E7E7E70000000000E7E7E7FAE7FE00000000FEFEFEFEFEFE0000000000E700E7E7E7E70000000000E7E7E7FAE7FE00000000FE000000000000000000
1004
00E7E7E7E7E7E70000000000E7E7E7FAE7FE00000000FE00000000000000000000E70000FBE7E70000000000FAFAE7E7FAFE000000FBFEFBFBFBFBFBFBFBFBFBFBE7FBFBFBE7E7FBFBFBFBFBE7E7E7E7E7FEFB000000FE00000000000000000000E7E7E7E7E7E7000000E7E7E7E7E7E7E7FE00000000FEFEFEFEFEFE000000
1004
0000E700E7E7E7E70000000000E7E7E7FAE7FE00000000000000000000FEFEFEFEFEFE00E7E7E7E70000000000E7E7E7FAE7FE000000000000000000000000000000FE00E7FEFEFEFEFEFEFEFEFEFEFEFEFEFE000000000000000000000000000000FEFEFEFBFEFE0000000000000000000000000000000000000000000000
1004
00000000000000000000000000000000000000000000000000000000000000000000000000000000000000000000000000000000000000000000000000000000000000000000000000000000000000000000000000000000000000000000000000000000000000000000000000000000000000000000000000000000000000
1004
00000000000000000000000000000000000000000000000000000000000000000000000000000000000000000000000000000000000000000000000000000000000000000000000000000000000000000000000000000000000000000000000000000000000000000000000000000000000000000000000000000000000000
1004
0000000000000000000000000000000000000000000000000000000000000000000000000000000000000000000000000000000000000000
  0
ENDTAB
  0
ENDSEC
  0
SECTION
  2
BLOCKS
  0
BLOCK
  5
1B
330
1A
100
AcDbEntity
  8
0
100
AcDbBlockBegin
  2
*MODEL_SPACE
 70
     0
 10
0.0
 20
0.0
 30
0.0
  3
*MODEL_SPACE
  1

  0
ENDBLK
  5
1C
330
1A
100
AcDbEntity
  8
0
100
AcDbBlockEnd
  0
BLOCK
  5
18
330
17
100
AcDbEntity
 67
     1
  8
0
100
AcDbBlockBegin
  2
*PAPER_SPACE
 70
     0
 10
0.0
 20
0.0
 30
0.0
  3
*PAPER_SPACE
  1

  0
ENDBLK
  5
19
330
17
100
AcDbEntity
 67
     1
  8
0
100
AcDbBlockEnd
  0
BLOCK
  5
598
330
594
100
AcDbEntity
  8
0
100
AcDbBlockBegin
  2
_OPEN
 70
     0
 10
0.0
 20
0.0
 30
0.0
  3
_OPEN
  1

  0
LINE
  5
595
330
594
100
AcDbEntity
  8
0
  6
BYBLOCK
 62
     0
100
AcDbLine
 10
-1.0
 20
0.16666667
 30
0.0
 11
0.0
 21
0.0
 31
0.0
  0
LINE
  5
596
330
594
100
AcDbEntity
  8
0
  6
BYBLOCK
 62
     0
100
AcDbLine
 10
-1.0
 20
-0.16666667
 30
0.0
 11
0.0
 21
0.0
 31
0.0
  0
LINE
  5
597
330
594
100
AcDbEntity
  8
0
  6
BYBLOCK
 62
     0
100
AcDbLine
 10
0.0
 20
0.0
 30
0.0
 11
-1.0
 21
0.0
 31
0.0
  0
ENDBLK
  5
599
330
594
100
AcDbEntity
  8
0
100
AcDbBlockEnd
  0
BLOCK
  5
6E4
330
6E3
100
AcDbEntity
  8
0
100
AcDbBlockBegin
  2
矢印なし
 70
     0
 10
0.0
 20
0.0
 30
0.0
  3
矢印なし
  1

  0
ENDBLK
  5
6E5
330
6E3
100
AcDbEntity
  8
0
100
AcDbBlockEnd
  0
BLOCK
  5
963
330
959
100
AcDbEntity
  8
0
100
AcDbBlockBegin
  2
*D2
 70
     1
 10
0.0
 20
0.0
 30
0.0
  3
*D2
  1

  0
LINE
  5
E52
330
959
100
AcDbEntity
  8
250
  6
CONTINUOUS
100
AcDbLine
 10
37.0
 20
10.5
 30
0.0
 11
37.0
 21
39.5
 31
0.0
  0
LINE
  5
E53
330
959
100
AcDbEntity
  8
250
  6
CONTINUOUS
100
AcDbLine
 10
90.0
 20
24.5
 30
0.0
 11
90.0
 21
39.5
 31
0.0
  0
LINE
  5
E54
330
959
100
AcDbEntity
  8
250
  6
CONTINUOUS
100
AcDbLine
 10
39.23
 20
38.5
 30
0.0
 11
87.77
 21
38.5
 31
0.0
  0
INSERT
  5
E55
330
959
100
AcDbEntity
  8
250
  6
CONTINUOUS
100
AcDbBlockReference
  2
_OPEN
 10
37.0
 20
38.5
 30
0.0
 41
2.23
 42
2.23
 43
2.23
 50
180.0
  0
INSERT
  5
E56
330
959
100
AcDbEntity
  8
250
  6
CONTINUOUS
100
AcDbBlockReference
  2
_OPEN
 10
90.0
 20
38.5
 30
0.0
 41
2.23
 42
2.23
 43
2.23
  0
MTEXT
  5
E57
330
959
100
AcDbEntity
  8
250
  6
CONTINUOUS
 62
    40
100
AcDbMText
 10
63.5
 20
40.9
 30
0.0
 40
2.8
 41
0.0
 71
     5
 72
     1
  1
\A1;（max.53）
1001
ACAD
1000
MTEXTBEGIN
1070
    73
1070
     1
1070
    44
1040
1.0
1070
    74
1070
     0
1000
MTEXTEND
1000
MTEXTBEGIN
1070
    73
1070
     1
1070
    44
1040
1.0
1070
    74
1070
     0
1000
MTEXTEND
  0
POINT
  5
E58
330
959
100
AcDbEntity
  8
DEFPOINTS
  6
CONTINUOUS
 62
     0
100
AcDbPoint
 10
37.0
 20
10.0
 30
0.0
  0
POINT
  5
E59
330
959
100
AcDbEntity
  8
DEFPOINTS
  6
CONTINUOUS
 62
     0
100
AcDbPoint
 10
90.0
 20
24.0
 30
0.0
  0
POINT
  5
E5A
330
959
100
AcDbEntity
  8
DEFPOINTS
  6
CONTINUOUS
 62
     0
100
AcDbPoint
 10
90.0
 20
38.5
 30
0.0
  0
ENDBLK
  5
964
330
959
100
AcDbEntity
  8
0
100
AcDbBlockEnd
  0
BLOCK
  5
972
330
968
100
AcDbEntity
  8
0
100
AcDbBlockBegin
  2
*D3
 70
     1
 10
0.0
 20
0.0
 30
0.0
  3
*D3
  1

  0
LINE
  5
E49
330
968
100
AcDbEntity
  8
250
  6
CONTINUOUS
100
AcDbLine
 10
0.0
 20
22.725
 30
0.0
 11
0.0
 21
46.5
 31
0.0
  0
LINE
  5
E4A
330
968
100
AcDbEntity
  8
250
  6
CONTINUOUS
100
AcDbLine
 10
90.0
 20
24.5
 30
0.0
 11
90.0
 21
46.5
 31
0.0
  0
LINE
  5
E4B
330
968
100
AcDbEntity
  8
250
  6
CONTINUOUS
100
AcDbLine
 10
2.23
 20
45.5
 30
0.0
 11
87.77
 21
45.5
 31
0.0
  0
INSERT
  5
E4C
330
968
100
AcDbEntity
  8
250
  6
CONTINUOUS
100
AcDbBlockReference
  2
_OPEN
 10
0.0
 20
45.5
 30
0.0
 41
2.23
 42
2.23
 43
2.23
 50
180.0
  0
INSERT
  5
E4D
330
968
100
AcDbEntity
  8
250
  6
CONTINUOUS
100
AcDbBlockReference
  2
_OPEN
 10
90.0
 20
45.5
 30
0.0
 41
2.23
 42
2.23
 43
2.23
  0
MTEXT
  5
E4E
330
968
100
AcDbEntity
  8
250
  6
CONTINUOUS
 62
    40
100
AcDbMText
 10
45.0
 20
47.9
 30
0.0
 40
2.8
 41
0.0
 71
     5
 72
     1
  1
\A1;90
1001
ACAD
1000
MTEXTBEGIN
1070
    73
1070
     1
1070
    44
1040
1.0
1070
    74
1070
     0
1000
MTEXTEND
1000
MTEXTBEGIN
1070
    73
1070
     1
1070
    44
1040
1.0
1070
    74
1070
     0
1000
MTEXTEND
  0
POINT
  5
E4F
330
968
100
AcDbEntity
  8
DEFPOINTS
  6
CONTINUOUS
 62
     0
100
AcDbPoint
 10
0.0
 20
22.225
 30
0.0
  0
POINT
  5
E50
330
968
100
AcDbEntity
  8
DEFPOINTS
  6
CONTINUOUS
 62
     0
100
AcDbPoint
 10
90.0
 20
24.0
 30
0.0
  0
POINT
  5
E51
330
968
100
AcDbEntity
  8
DEFPOINTS
  6
CONTINUOUS
 62
     0
100
AcDbPoint
 10
90.0
 20
45.5
 30
0.0
  0
ENDBLK
  5
973
330
968
100
AcDbEntity
  8
0
100
AcDbBlockEnd
  0
BLOCK
  5
99D
330
993
100
AcDbEntity
  8
0
100
AcDbBlockBegin
  2
*D4
 70
     1
 10
0.0
 20
0.0
 30
0.0
  3
*D4
  1

  0
LINE
  5
F97
330
993
100
AcDbEntity
  8
250
  6
CONTINUOUS
100
AcDbLine
 10
90.5
 20
10.0
 30
0.0
 11
103.0
 21
10.0
 31
0.0
  0
LINE
  5
F98
330
993
100
AcDbEntity
  8
250
  6
CONTINUOUS
100
AcDbLine
 10
102.0
 20
-7.77
 30
0.0
 11
102.0
 21
7.77
 31
0.0
  0
INSERT
  5
F99
330
993
100
AcDbEntity
  8
250
  6
CONTINUOUS
100
AcDbBlockReference
  2
矢印なし
 10
102.0
 20
-10.0
 30
0.0
 41
2.23
 42
2.23
 43
2.23
 50
270.0
  0
INSERT
  5
F9A
330
993
100
AcDbEntity
  8
250
  6
CONTINUOUS
100
AcDbBlockReference
  2
_OPEN
 10
102.0
 20
10.0
 30
0.0
 41
2.23
 42
2.23
 43
2.23
 50
90.0
  0
MTEXT
  5
F9B
330
993
100
AcDbEntity
  8
250
  6
CONTINUOUS
 62
    40
100
AcDbMText
 10
98.86666667
 20
0.0
 30
0.0
 40
2.8
 41
0.0
 71
     5
 72
     1
  1
\A1;{\H2.8;\U+2205}20（-0.2～+1.0/φ）
 11
0.0
 21
1.0
 31
0.0
  0
POINT
  5
F9C
330
993
100
AcDbEntity
  8
DEFPOINTS
  6
CONTINUOUS
 62
     0
100
AcDbPoint
 10
90.0
 20
-10.0
 30
0.0
  0
POINT
  5
F9D
330
993
100
AcDbEntity
  8
DEFPOINTS
  6
CONTINUOUS
 62
     0
100
AcDbPoint
 10
90.0
 20
10.0
 30
0.0
  0
POINT
  5
F9E
330
993
100
AcDbEntity
  8
DEFPOINTS
  6
CONTINUOUS
 62
     0
100
AcDbPoint
 10
102.0
 20
10.0
 30
0.0
  0
ENDBLK
  5
99E
330
993
100
AcDbEntity
  8
0
100
AcDbBlockEnd
  0
BLOCK
  5
C17
330
C0D
100
AcDbEntity
  8
0
100
AcDbBlockBegin
  2
*D5
 70
     1
 10
0.0
 20
0.0
 30
0.0
  3
*D5
  1

  0
LINE
  5
E63
330
C0D
100
AcDbEntity
  8
250
  6
CONTINUOUS
100
AcDbLine
 10
89.5
 20
-25.0
 30
0.0
 11
110.0
 21
-25.0
 31
0.0
  0
LINE
  5
E64
330
C0D
100
AcDbEntity
  8
250
  6
CONTINUOUS
100
AcDbLine
 10
89.5
 20
25.0
 30
0.0
 11
110.0
 21
25.0
 31
0.0
  0
LINE
  5
E65
330
C0D
100
AcDbEntity
  8
250
  6
CONTINUOUS
100
AcDbLine
 10
109.0
 20
-22.77
 30
0.0
 11
109.0
 21
22.77
 31
0.0
  0
INSERT
  5
E66
330
C0D
100
AcDbEntity
  8
250
  6
CONTINUOUS
100
AcDbBlockReference
  2
_OPEN
 10
109.0
 20
-25.0
 30
0.0
 41
2.23
 42
2.23
 43
2.23
 50
270.0
  0
INSERT
  5
E67
330
C0D
100
AcDbEntity
  8
250
  6
CONTINUOUS
100
AcDbBlockReference
  2
_OPEN
 10
109.0
 20
25.0
 30
0.0
 41
2.23
 42
2.23
 43
2.23
 50
90.0
  0
MTEXT
  5
E68
330
C0D
100
AcDbEntity
  8
250
  6
CONTINUOUS
 62
    40
100
AcDbMText
 10
106.6
 20
0.0
 30
0.0
 40
2.8
 41
0.0
 71
     5
 72
     1
  1
\A1;{\H2.8;\U+2205}50
 11
0.0
 21
1.0
 31
0.0
1001
ACAD
1000
MTEXTBEGIN
1070
    73
1070
     1
1070
    44
1040
1.0
1070
    74
1070
     0
1000
MTEXTEND
1000
MTEXTBEGIN
1070
    73
1070
     1
1070
    44
1040
1.0
1070
    74
1070
     0
1000
MTEXTEND
  0
POINT
  5
E69
330
C0D
100
AcDbEntity
  8
DEFPOINTS
  6
CONTINUOUS
 62
     0
100
AcDbPoint
 10
89.0
 20
-25.0
 30
0.0
  0
POINT
  5
E6A
330
C0D
100
AcDbEntity
  8
DEFPOINTS
  6
CONTINUOUS
 62
     0
100
AcDbPoint
 10
89.0
 20
25.0
 30
0.0
  0
POINT
  5
E6B
330
C0D
100
AcDbEntity
  8
DEFPOINTS
  6
CONTINUOUS
 62
     0
100
AcDbPoint
 10
109.0
 20
25.0
 30
0.0
  0
ENDBLK
  5
C18
330
C0D
100
AcDbEntity
  8
0
100
AcDbBlockEnd
  0
BLOCK
  5
CA8
330
CA7
100
AcDbEntity
  8
0
100
AcDbBlockBegin
  2
1
 70
     0
 10
0.0
 20
0.0
 30
0.0
  3
1
  1

  0
LINE
  5
E6C
330
CA7
100
AcDbEntity
  8
245
  6
CENTER2
100
AcDbLine
 10
-66.4
 20
0.0
 30
0.0
 11
91.0
 21
0.0
 31
0.0
  0
LINE
  5
E6D
330
CA7
100
AcDbEntity
  8
240
  6
CONTINUOUS
100
AcDbLine
 10
21.6
 20
-31.5
 30
0.0
 11
26.0
 21
-31.5
 31
0.0
  0
LINE
  5
E6E
330
CA7
100
AcDbEntity
  8
240
  6
CONTINUOUS
100
AcDbLine
 10
21.6
 20
31.5
 30
0.0
 11
26.0
 21
31.5
 31
0.0
  0
LINE
  5
E6F
330
CA7
100
AcDbEntity
  8
240
  6
CONTINUOUS
100
AcDbLine
 10
11.6
 20
31.5
 30
0.0
 11
14.48675135
 21
26.5
 31
0.0
  0
LINE
  5
E70
330
CA7
100
AcDbEntity
  8
241
  6
CONTINUOUS
100
AcDbLine
 10
11.6
 20
31.5
 30
0.0
 11
11.6
 21
8.05
 31
0.0
  0
LINE
  5
E71
330
CA7
100
AcDbEntity
  8
240
  6
CONTINUOUS
100
AcDbLine
 10
1.0
 20
22.225
 30
0.0
 11
1.0
 21
30.5
 31
0.0
  0
LINE
  5
E72
330
CA7
100
AcDbEntity
  8
241
  6
CONTINUOUS
100
AcDbLine
 10
21.6
 20
31.5
 30
0.0
 11
21.6
 21
4.53651849
 31
0.0
  0
LINE
  5
E73
330
CA7
100
AcDbEntity
  8
245
  6
CENTER2
100
AcDbLine
 10
16.6
 20
-31.5
 30
0.0
 11
16.6
 21
31.5
 31
0.0
  0
LINE
  5
E74
330
CA7
100
AcDbEntity
  8
240
  6
CONTINUOUS
100
AcDbLine
 10
21.6
 20
31.5
 30
0.0
 11
18.71324865
 21
26.5
 31
0.0
  0
LINE
  5
E75
330
CA7
100
AcDbEntity
  8
240
  6
CONTINUOUS
100
AcDbLine
 10
0.0
 20
22.225
 30
0.0
 11
-64.03089103
 21
12.88716173
 31
0.0
  0
LINE
  5
E76
330
CA7
100
AcDbEntity
  8
240
  6
CONTINUOUS
100
AcDbLine
 10
0.0
 20
-22.225
 30
0.0
 11
-64.03089103
 21
-12.88716173
 31
0.0
  0
LINE
  5
E77
330
CA7
100
AcDbEntity
  8
240
  6
CONTINUOUS
100
AcDbLine
 10
-65.4
 20
11.30390896
 30
0.0
 11
-65.4
 21
0.0
 31
0.0
  0
LINE
  5
E78
330
CA7
100
AcDbEntity
  8
240
  6
CONTINUOUS
100
AcDbLine
 10
-65.4
 20
-11.30390896
 30
0.0
 11
-65.4
 21
0.0
 31
0.0
  0
ARC
  5
E79
330
CA7
100
AcDbEntity
  8
240
  6
CONTINUOUS
100
AcDbCircle
 10
-63.8
 20
-11.30390896
 30
0.0
 40
1.6
100
AcDbArc
 50
180.0
 51
261.70285503
  0
ARC
  5
E7A
330
CA7
100
AcDbEntity
  8
240
  6
CONTINUOUS
100
AcDbCircle
 10
-63.8
 20
11.30390896
 30
0.0
 40
1.6
100
AcDbArc
 50
98.29714497
 51
180.0
  0
LINE
  5
E7B
330
CA7
100
AcDbEntity
  8
241
  6
CONTINUOUS
100
AcDbLine
 10
11.6
 20
-31.5
 30
0.0
 11
11.6
 21
-8.05
 31
0.0
  0
LINE
  5
E7C
330
CA7
100
AcDbEntity
  8
241
100
AcDbLine
 10
1.0
 20
0.0
 30
0.0
 11
1.0
 21
-22.225
 31
0.0
  0
LINE
  5
E7D
330
CA7
100
AcDbEntity
  8
241
  6
CONTINUOUS
100
AcDbLine
 10
0.0
 20
-22.225
 30
0.0
 11
0.0
 21
0.0
 31
0.0
  0
LINE
  5
E7E
330
CA7
100
AcDbEntity
  8
241
  6
CONTINUOUS
100
AcDbLine
 10
18.71324865
 20
-26.5
 30
0.0
 11
18.71324865
 21
-7.11621104
 31
0.0
  0
LINE
  5
E7F
330
CA7
100
AcDbEntity
  8
241
  6
CONTINUOUS
100
AcDbLine
 10
14.48675135
 20
-26.5
 30
0.0
 11
14.48675135
 21
-8.05
 31
0.0
  0
LINE
  5
E80
330
CA7
100
AcDbEntity
  8
241
  6
CONTINUOUS
100
AcDbLine
 10
21.6
 20
-31.5
 30
0.0
 11
21.6
 21
-4.53651849
 31
0.0
  0
LINE
  5
E81
330
CA7
100
AcDbEntity
  8
240
  6
CONTINUOUS
100
AcDbLine
 10
2.0
 20
-31.5
 30
0.0
 11
11.6
 21
-31.5
 31
0.0
  0
LINE
  5
E82
330
CA7
100
AcDbEntity
  8
240
  6
CONTINUOUS
100
AcDbLine
 10
1.0
 20
-22.225
 30
0.0
 11
1.0
 21
-30.5
 31
0.0
  0
ARC
  5
E83
330
CA7
100
AcDbEntity
  8
240
  6
CONTINUOUS
100
AcDbCircle
 10
2.0
 20
-30.5
 30
0.0
 40
1.0
100
AcDbArc
 50
180.0
 51
270.0
  0
LINE
  5
E84
330
CA7
100
AcDbEntity
  8
240
100
AcDbLine
 10
0.0
 20
-22.225
 30
0.0
 11
1.0
 21
-22.225
 31
0.0
  0
LINE
  5
E85
330
CA7
100
AcDbEntity
  8
240
  6
CONTINUOUS
100
AcDbLine
 10
18.71324865
 20
-26.5
 30
0.0
 11
14.48675135
 21
-26.5
 31
0.0
  0
LINE
  5
E86
330
CA7
100
AcDbEntity
  8
240
  6
CONTINUOUS
100
AcDbLine
 10
14.48675135
 20
-26.5
 30
0.0
 11
11.6
 21
-31.5
 31
0.0
  0
LINE
  5
E87
330
CA7
100
AcDbEntity
  8
240
  6
CONTINUOUS
100
AcDbLine
 10
18.71324865
 20
-26.5
 30
0.0
 11
21.6
 21
-31.5
 31
0.0
  0
LINE
  5
E88
330
CA7
100
AcDbEntity
  8
241
100
AcDbLine
 10
1.0
 20
0.0
 30
0.0
 11
1.0
 21
22.225
 31
0.0
  0
LINE
  5
E89
330
CA7
100
AcDbEntity
  8
241
  6
CONTINUOUS
100
AcDbLine
 10
0.0
 20
22.225
 30
0.0
 11
0.0
 21
0.0
 31
0.0
  0
ARC
  5
E8A
330
CA7
100
AcDbEntity
  8
241
  6
CONTINUOUS
100
AcDbCircle
 10
14.95
 20
0.0
 30
0.0
 40
8.050000000000068
100
AcDbArc
 50
270.0
 51
90.0
  0
LINE
  5
E8B
330
CA7
100
AcDbEntity
  8
241
  6
CONTINUOUS
100
AcDbLine
 10
14.95
 20
-8.05
 30
0.0
 11
1.0
 21
-8.05
 31
0.0
  0
LINE
  5
E8C
330
CA7
100
AcDbEntity
  8
241
  6
CONTINUOUS
100
AcDbLine
 10
14.95
 20
8.05
 30
0.0
 11
1.0
 21
8.05
 31
0.0
  0
LINE
  5
E8D
330
CA7
100
AcDbEntity
  8
240
100
AcDbLine
 10
0.0
 20
22.225
 30
0.0
 11
1.0
 21
22.225
 31
0.0
  0
LINE
  5
E8E
330
CA7
100
AcDbEntity
  8
241
  6
CONTINUOUS
100
AcDbLine
 10
18.71324865
 20
26.5
 30
0.0
 11
18.71324865
 21
7.11621104
 31
0.0
  0
LINE
  5
E8F
330
CA7
100
AcDbEntity
  8
241
  6
CONTINUOUS
100
AcDbLine
 10
14.48675135
 20
26.5
 30
0.0
 11
14.48675135
 21
8.05
 31
0.0
  0
LINE
  5
E90
330
CA7
100
AcDbEntity
  8
240
  6
CONTINUOUS
100
AcDbLine
 10
18.71324865
 20
26.5
 30
0.0
 11
14.48675135
 21
26.5
 31
0.0
  0
LINE
  5
E91
330
CA7
100
AcDbEntity
  8
240
  6
CONTINUOUS
100
AcDbLine
 10
2.0
 20
31.5
 30
0.0
 11
11.6
 21
31.5
 31
0.0
  0
ARC
  5
E92
330
CA7
100
AcDbEntity
  8
240
  6
CONTINUOUS
100
AcDbCircle
 10
2.0
 20
30.5
 30
0.0
 40
1.0
100
AcDbArc
 50
90.0
 51
180.0
  0
LINE
  5
E93
330
CA7
100
AcDbEntity
  8
240
  6
CONTINUOUS
100
AcDbLine
 10
27.0
 20
30.5
 30
0.0
 11
27.0
 21
28.5
 31
0.0
  0
HATCH
  5
E94
330
CA7
100
AcDbEntity
  8
242
100
AcDbHatch
 10
0.0
 20
0.0
 30
0.0
210
0.0
220
0.0
230
1.0
  2
ANSI37
 70
     0
 71
     1
 91
        4
 92
        7
 72
     1
 73
     1
 93
        6
 10
66.0
 20
-3.0
 42
-0.5
 10
58.0
 20
-3.0
 42
0.0
 10
58.0
 20
-23.5
 42
0.0
 10
58.5
 20
-24.0
 42
0.0
 10
65.5
 20
-24.0
 42
0.0
 10
66.0
 20
-23.5
 42
0.0
 97
        6
330
EAD
330
E99
330
EA1
330
E9C
330
EA5
330
E98
 92
        7
 72
     1
 73
     1
 93
        6
 10
66.0
 20
23.49999999999999
 42
0.0
 10
65.5
 20
24.0
 42
0.0
 10
58.5
 20
24.0
 42
0.0
 10
58.0
 20
23.5
 42
0.0
 10
58.0
 20
3.0
 42
-0.5
 10
66.0
 20
3.0
 42
0.0
 97
        6
330
EC0
330
EAF
330
EB5
330
EB1
330
EAD
330
EB8
 92
        7
 72
     1
 73
     1
 93
        6
 10
80.0
 20
-3.0
 42
-0.5
 10
72.0
 20
-3.0
 42
0.0
 10
72.0
 20
-23.5
 42
0.0
 10
72.5
 20
-24.0
 42
0.0
 10
79.5
 20
-24.0
 42
0.0
 10
80.0
 20
-23.5
 42
0.0
 97
        6
330
EB6
330
E97
330
EA3
330
EA6
330
EA7
330
E9B
 92
        7
 72
     1
 73
     1
 93
        6
 10
80.0
 20
23.5
 42
0.0
 10
79.5
 20
24.0
 42
0.0
 10
72.5
 20
24.0
 42
0.0
 10
72.0
 20
23.5
 42
0.0
 10
72.0
 20
3.0
 42
-0.5
 10
80.0
 20
3.0
 42
0.0
 97
        6
330
EC2
330
EC3
330
EBF
330
EB9
330
EB6
330
EBC
 75
     0
 76
     1
 52
0.0
 41
0.5
 77
     0
 78
     2
 53
45.0
 43
-161.0
 44
-154.0
 45
-1.122532015133643
 46
1.122532015133643
 79
     0
 53
135.0
 43
-161.0
 44
-154.0
 45
-1.122532015133643
 46
-1.122532015133643
 79
     0
 47
0.2156379
 98
        4
 10
63.40644465984826
 20
-12.69639093203966
 10
62.54358048946425
 20
13.61143298566446
 10
76.78084974848798
 20
-10.54001180079364
 10
76.34941679265534
 20
15.76781211691047
  0
LINE
  5
E95
330
CA7
100
AcDbEntity
  8
241
100
AcDbLine
 10
86.0
 20
0.0
 30
0.0
 11
86.0
 21
-23.5
 31
0.0
  0
LINE
  5
E96
330
CA7
100
AcDbEntity
  8
241
  6
CONTINUOUS
100
AcDbLine
 10
27.0
 20
-28.5
 30
0.0
 11
27.0
 21
0.0
 31
0.0
  0
LINE
  5
E97
102
{ACAD_REACTORS
330
E94
102
}
330
CA7
100
AcDbEntity
  8
241
100
AcDbLine
 10
72.0
 20
-3.0
 30
0.0
 11
72.0
 21
-23.5
 31
0.0
  0
LINE
  5
E98
102
{ACAD_REACTORS
330
E94
102
}
330
CA7
100
AcDbEntity
  8
241
100
AcDbLine
 10
66.0
 20
-23.5
 30
0.0
 11
66.0
 21
-3.0
 31
0.0
  0
LINE
  5
E99
102
{ACAD_REACTORS
330
E94
102
}
330
CA7
100
AcDbEntity
  8
241
100
AcDbLine
 10
58.0
 20
-23.5
 30
0.0
 11
58.0
 21
-3.0
 31
0.0
  0
LINE
  5
E9A
330
CA7
100
AcDbEntity
  8
240
100
AcDbLine
 10
90.0
 20
-24.0
 30
0.0
 11
90.0
 21
0.0
 31
0.0
  0
LINE
  5
E9B
102
{ACAD_REACTORS
330
E94
102
}
330
CA7
100
AcDbEntity
  8
241
100
AcDbLine
 10
80.0
 20
-3.0
 30
0.0
 11
80.0
 21
-23.5
 31
0.0
  0
LINE
  5
E9C
102
{ACAD_REACTORS
330
E94
102
}
330
CA7
100
AcDbEntity
  8
240
100
AcDbLine
 10
58.5
 20
-24.0
 30
0.0
 11
65.5
 21
-24.0
 31
0.0
  0
LINE
  5
E9D
330
CA7
100
AcDbEntity
  8
240
100
AcDbLine
 10
58.0
 20
-23.5
 30
0.0
 11
32.0
 21
-23.5
 31
0.0
  0
ARC
  5
E9E
330
CA7
100
AcDbEntity
  8
240
100
AcDbCircle
 10
32.0
 20
-28.5
 30
0.0
 40
5.0
100
AcDbArc
 50
90.0
 51
180.0
  0
ARC
  5
E9F
330
CA7
100
AcDbEntity
  8
240
  6
CONTINUOUS
100
AcDbCircle
 10
26.0
 20
-30.5
 30
0.0
 40
1.0
100
AcDbArc
 50
270.0
 51
0.0
  0
LINE
  5
EA0
330
CA7
100
AcDbEntity
  8
240
  6
CONTINUOUS
100
AcDbLine
 10
27.0
 20
-30.5
 30
0.0
 11
27.0
 21
-28.5
 31
0.0
  0
LINE
  5
EA1
102
{ACAD_REACTORS
330
E94
102
}
330
CA7
100
AcDbEntity
  8
240
100
AcDbLine
 10
58.5
 20
-24.0
 30
0.0
 11
58.0
 21
-23.5
 31
0.0
  0
LINE
  5
EA2
330
CA7
100
AcDbEntity
  8
240
100
AcDbLine
 10
80.0
 20
-23.5
 30
0.0
 11
86.0
 21
-23.5
 31
0.0
  0
LINE
  5
EA3
102
{ACAD_REACTORS
330
E94
102
}
330
CA7
100
AcDbEntity
  8
240
100
AcDbLine
 10
72.5
 20
-24.0
 30
0.0
 11
72.0
 21
-23.5
 31
0.0
  0
LINE
  5
EA4
330
CA7
100
AcDbEntity
  8
240
100
AcDbLine
 10
66.0
 20
-23.5
 30
0.0
 11
72.0
 21
-23.5
 31
0.0
  0
LINE
  5
EA5
102
{ACAD_REACTORS
330
E94
102
}
330
CA7
100
AcDbEntity
  8
240
100
AcDbLine
 10
65.5
 20
-24.0
 30
0.0
 11
66.0
 21
-23.5
 31
0.0
  0
LINE
  5
EA6
102
{ACAD_REACTORS
330
E94
102
}
330
CA7
100
AcDbEntity
  8
240
100
AcDbLine
 10
72.5
 20
-24.0
 30
0.0
 11
79.5
 21
-24.0
 31
0.0
  0
LINE
  5
EA7
102
{ACAD_REACTORS
330
E94
102
}
330
CA7
100
AcDbEntity
  8
240
100
AcDbLine
 10
79.5
 20
-24.0
 30
0.0
 11
80.0
 21
-23.5
 31
0.0
  0
ARC
  5
EA8
330
CA7
100
AcDbEntity
  8
240
100
AcDbCircle
 10
87.0
 20
-24.0
 30
0.0
 40
1.0
100
AcDbArc
 50
180.0
 51
270.0
  0
LINE
  5
EA9
330
CA7
100
AcDbEntity
  8
240
100
AcDbLine
 10
86.0
 20
-24.0
 30
0.0
 11
86.0
 21
-23.5
 31
0.0
  0
LINE
  5
EAA
330
CA7
100
AcDbEntity
  8
240
100
AcDbLine
 10
87.0
 20
-25.0
 30
0.0
 11
89.0
 21
-25.0
 31
0.0
  0
ARC
  5
EAB
330
CA7
100
AcDbEntity
  8
240
100
AcDbCircle
 10
89.0
 20
-24.0
 30
0.0
 40
1.0
100
AcDbArc
 50
270.0
 51
0.0
  0
LWPOLYLINE
  5
EAC
330
CA7
100
AcDbEntity
  8
241
100
AcDbPolyline
 90
        6
 70
     1
 43
0.0
 10
59.5
 20
-1.44337567
 10
62.0
 20
-2.88675135
 10
64.5
 20
-1.44337567
 10
64.5
 20
1.44337567
 10
62.0
 20
2.88675135
 10
59.5
 20
1.44337567
  0
CIRCLE
  5
EAD
102
{ACAD_REACTORS
330
E94
102
}
330
CA7
100
AcDbEntity
  8
241
100
AcDbCircle
 10
62.0
 20
0.0
 30
0.0
 40
5.0
  0
CIRCLE
  5
EAE
330
CA7
100
AcDbEntity
  8
242
100
AcDbCircle
 10
62.0
 20
0.0
 30
0.0
 40
4.4
  0
LINE
  5
EAF
102
{ACAD_REACTORS
330
E94
102
}
330
CA7
100
AcDbEntity
  8
240
100
AcDbLine
 10
58.5
 20
24.0
 30
0.0
 11
65.5
 21
24.0
 31
0.0
  0
LINE
  5
EB0
330
CA7
100
AcDbEntity
  8
241
  6
HIDDEN2
100
AcDbLine
 10
49.5
 20
10.0
 30
0.0
 11
90.0
 21
10.0
 31
0.0
  0
LINE
  5
EB1
102
{ACAD_REACTORS
330
E94
102
}
330
CA7
100
AcDbEntity
  8
241
100
AcDbLine
 10
58.0
 20
23.5
 30
0.0
 11
58.0
 21
3.0
 31
0.0
  0
LINE
  5
EB2
330
CA7
100
AcDbEntity
  8
241
  6
CONTINUOUS
100
AcDbLine
 10
27.0
 20
28.5
 30
0.0
 11
27.0
 21
0.0
 31
0.0
  0
LINE
  5
EB3
330
CA7
100
AcDbEntity
  8
240
100
AcDbLine
 10
58.0
 20
23.5
 30
0.0
 11
32.0
 21
23.5
 31
0.0
  0
ARC
  5
EB4
330
CA7
100
AcDbEntity
  8
240
100
AcDbCircle
 10
32.0
 20
28.5
 30
0.0
 40
5.0
100
AcDbArc
 50
180.0
 51
270.0
  0
LINE
  5
EB5
102
{ACAD_REACTORS
330
E94
102
}
330
CA7
100
AcDbEntity
  8
240
100
AcDbLine
 10
58.5
 20
24.0
 30
0.0
 11
58.0
 21
23.5
 31
0.0
  0
CIRCLE
  5
EB6
102
{ACAD_REACTORS
330
E94
102
}
330
CA7
100
AcDbEntity
  8
241
100
AcDbCircle
 10
76.0
 20
0.0
 30
0.0
 40
5.0
  0
CIRCLE
  5
EB7
330
CA7
100
AcDbEntity
  8
242
100
AcDbCircle
 10
76.0
 20
0.0
 30
0.0
 40
4.4
  0
LINE
  5
EB8
102
{ACAD_REACTORS
330
E94
102
}
330
CA7
100
AcDbEntity
  8
241
100
AcDbLine
 10
66.0
 20
23.5
 30
0.0
 11
66.0
 21
3.0
 31
0.0
  0
LINE
  5
EB9
102
{ACAD_REACTORS
330
E94
102
}
330
CA7
100
AcDbEntity
  8
241
100
AcDbLine
 10
72.0
 20
3.0
 30
0.0
 11
72.0
 21
23.5
 31
0.0
  0
LINE
  5
EBA
330
CA7
100
AcDbEntity
  8
241
100
AcDbLine
 10
86.0
 20
0.0
 30
0.0
 11
86.0
 21
23.5
 31
0.0
  0
LINE
  5
EBB
330
CA7
100
AcDbEntity
  8
240
100
AcDbLine
 10
90.0
 20
24.0
 30
0.0
 11
90.0
 21
0.0
 31
0.0
  0
LINE
  5
EBC
102
{ACAD_REACTORS
330
E94
102
}
330
CA7
100
AcDbEntity
  8
241
100
AcDbLine
 10
80.0
 20
3.0
 30
0.0
 11
80.0
 21
23.5
 31
0.0
  0
LWPOLYLINE
  5
EBD
330
CA7
100
AcDbEntity
  8
241
100
AcDbPolyline
 90
        6
 70
     1
 43
0.0
 10
73.5
 20
-1.44337567
 10
76.0
 20
-2.88675135
 10
78.5
 20
-1.44337567
 10
78.5
 20
1.44337567
 10
76.0
 20
2.88675135
 10
73.5
 20
1.44337567
  0
LINE
  5
EBE
330
CA7
100
AcDbEntity
  8
240
100
AcDbLine
 10
80.0
 20
23.5
 30
0.0
 11
86.0
 21
23.5
 31
0.0
  0
LINE
  5
EBF
102
{ACAD_REACTORS
330
E94
102
}
330
CA7
100
AcDbEntity
  8
240
100
AcDbLine
 10
72.5
 20
24.0
 30
0.0
 11
72.0
 21
23.5
 31
0.0
  0
LINE
  5
EC0
102
{ACAD_REACTORS
330
E94
102
}
330
CA7
100
AcDbEntity
  8
240
100
AcDbLine
 10
65.5
 20
24.0
 30
0.0
 11
66.0
 21
23.5
 31
0.0
  0
LINE
  5
EC1
330
CA7
100
AcDbEntity
  8
240
100
AcDbLine
 10
66.0
 20
23.5
 30
0.0
 11
72.0
 21
23.5
 31
0.0
  0
LINE
  5
EC2
102
{ACAD_REACTORS
330
E94
102
}
330
CA7
100
AcDbEntity
  8
240
100
AcDbLine
 10
79.5
 20
24.0
 30
0.0
 11
80.0
 21
23.5
 31
0.0
  0
LINE
  5
EC3
102
{ACAD_REACTORS
330
E94
102
}
330
CA7
100
AcDbEntity
  8
240
100
AcDbLine
 10
72.5
 20
24.0
 30
0.0
 11
79.5
 21
24.0
 31
0.0
  0
LINE
  5
EC4
330
CA7
100
AcDbEntity
  8
240
100
AcDbLine
 10
86.0
 20
24.0
 30
0.0
 11
86.0
 21
23.5
 31
0.0
  0
ARC
  5
EC5
330
CA7
100
AcDbEntity
  8
240
100
AcDbCircle
 10
87.0
 20
24.0
 30
0.0
 40
1.0
100
AcDbArc
 50
90.0
 51
180.0
  0
LINE
  5
EC6
330
CA7
100
AcDbEntity
  8
240
100
AcDbLine
 10
87.0
 20
25.0
 30
0.0
 11
89.0
 21
25.0
 31
0.0
  0
ARC
  5
EC7
330
CA7
100
AcDbEntity
  8
240
100
AcDbCircle
 10
89.0
 20
24.0
 30
0.0
 40
1.0
100
AcDbArc
 50
0.0
 51
90.0
  0
ARC
  5
EC8
330
CA7
100
AcDbEntity
  8
240
  6
CONTINUOUS
100
AcDbCircle
 10
26.0
 20
30.5
 30
0.0
 40
1.0
100
AcDbArc
 50
0.0
 51
90.0
  0
ENDBLK
  5
CA9
330
CA7
100
AcDbEntity
  8
0
100
AcDbBlockEnd
  0
ENDSEC
  0
SECTION
  2
ENTITIES
  0
INSERT
  5
6E6
330
1A
100
AcDbEntity
  8
245
100
AcDbBlockReference
  2
矢印なし
 10
175.62382697
 20
90.55123572
 30
0.0
  0
LEADER
  5
79D
330
1A
100
AcDbEntity
  8
250
  6
CONTINUOUS
100
AcDbLeader
  3
BIGT
 76
     2
 10
-26.64442081
 20
-18.3393553
 30
0.0
 10
-32.4583971
 20
-28.40945762
 30
0.0
1001
ACAD
1000
DSTYLE
1002
{
1070
     6
1000
OPEN
1070
   343
1005
594
1002
}
  0
MTEXT
  5
79E
330
1A
100
AcDbEntity
  8
250
  6
CONTINUOUS
 62
    40
100
AcDbMText
 10
-47.39173044
 20
-27.40945762
 30
0.0
 40
2.8
 41
0.0
 71
     7
 72
     1
  1
BBT40
  7
YOKO
1001
ITEMNAME
1000
LNSP3
1001
ACAD
1000
MTEXTBEGIN
1070
    73
1070
     1
1070
    44
1040
1.0
1070
    74
1070
     0
1000
MTEXTEND
1000
MTEXTBEGIN
1070
    73
1070
     1
1070
    44
1040
1.0
1070
    74
1070
     0
1000
MTEXTEND
1000
MTEXTBEGIN
1070
    73
1070
     1
1070
    44
1040
1.0
1070
    74
1070
     0
1000
MTEXTEND
1000
MTEXTBEGIN
1070
    73
1070
     1
1070
    44
1040
1.0
1070
    74
1070
     0
1000
MTEXTEND
  0
LINE
  5
7A1
330
1A
100
AcDbEntity
  8
250
  6
CONTINUOUS
100
AcDbLine
 10
-32.4583971
 20
-28.40945762
 30
0.0
 11
-50.19173044
 21
-28.40945762
 31
0.0
1001
ITEMNAME
1000
LNSP2
  0
DIMENSION
  5
958
330
1A
100
AcDbEntity
  8
250
  6
CONTINUOUS
100
AcDbDimension
  2
*D2
 10
90.0
 20
38.5
 30
0.0
 11
63.5
 21
40.9
 31
0.0
 70
    32
  1
（max.<>）
  3
BIGT
100
AcDbAlignedDimension
 13
37.0
 23
10.0
 33
0.0
 14
90.0
 24
24.0
 34
0.0
100
AcDbRotatedDimension
  0
DIMENSION
  5
967
330
1A
100
AcDbEntity
  8
250
  6
CONTINUOUS
100
AcDbDimension
  2
*D3
 10
90.0
 20
45.5
 30
0.0
 11
45.0
 21
47.9
 31
0.0
 70
    32
  3
BIGT
100
AcDbAlignedDimension
 13
0.0
 23
22.225
 33
0.0
 14
90.0
 24
24.0
 34
0.0
100
AcDbRotatedDimension
  0
DIMENSION
  5
992
330
1A
100
AcDbEntity
  8
250
  6
CONTINUOUS
100
AcDbDimension
  2
*D4
 10
102.0
 20
10.0
 30
0.0
 11
102.0
 21
0.0
 31
0.0
 70
   160
  1
{\H2.8;\U+2205}<>（-0.2～+1.0/φ）
  3
BIGT
100
AcDbAlignedDimension
 13
90.0
 23
-10.0
 33
0.0
 14
90.0
 24
10.0
 34
0.0
 50
90.0
100
AcDbRotatedDimension
1001
ACAD
1000
DSTYLE
1002
{
1070
    75
1070
     1
1070
    77
1070
     3
1070
   145
1040
1.0
1070
   279
1070
     0
1070
   289
1070
     3
1070
     6
1000
矢印なし
1002
}
  0
DIMENSION
  5
C0C
330
1A
100
AcDbEntity
  8
250
  6
CONTINUOUS
100
AcDbDimension
  2
*D5
 10
109.0
 20
25.0
 30
0.0
 11
106.6
 21
0.0
 31
0.0
 70
    32
  1
{\H2.8;\U+2205}<>
  3
BIGT
100
AcDbAlignedDimension
 13
89.0
 23
-25.0
 33
0.0
 14
89.0
 24
25.0
 34
0.0
 50
90.0
100
AcDbRotatedDimension
  0
TEXT
  5
C4D
330
1A
100
AcDbEntity
  8
241
100
AcDbText
 10
-65.4
 20
59.5
 30
0.0
 40
5.0
  1
BBT40-TSLE20-90
  7
YOKO
 11
-65.4
 21
59.5
 31
0.0
100
AcDbText
 73
     1
  0
INSERT
  5
EC9
330
1A
100
AcDbEntity
  8
245
100
AcDbBlockReference
  2
1
 10
0.0
 20
0.0
 30
0.0
  0
VIEWPORT
  5
22
330
17
100
AcDbEntity
 67
     1
  8
0
100
AcDbViewport
 10
261.51769912
 20
148.5
 30
0.0
 40
523.03539823
 41
297.0
 68
     1
 69
     1
1001
ACAD
1000
MVIEW
1002
{
1070
    16
1010
0.0
1020
0.0
1030
0.0
1010
0.0
1020
0.0
1030
1.0
1040
0.0
1040
297.0
1040
261.51769912
1040
148.5
1040
50.0
1040
0.0
1040
0.0
1070
     0
1070
   100
1070
     1
1070
     1
1070
     0
1070
     0
1070
     0
1070
     0
1040
0.0
1040
0.0
1040
0.0
1040
1.0
1040
1.0
1040
10.0
1040
10.0
1070
     0
1002
{
1002
}
1002
}
  0
ENDSEC
  0
SECTION
  2
OBJECTS
  0
DICTIONARY
  5
C
330
0
100
AcDbDictionary
  3
ACAD_GROUP
350
D
  3
ACAD_LAYOUT
350
565
  3
ACAD_MLINESTYLE
350
E
  3
ACAD_PLOTSETTINGS
350
566
  3
ACAD_PLOTSTYLENAME
350
563
  3
ACDBHEADERROUNDTRIPXREC
350
F74
  3
ACDBVARIABLEDICTIONARY
350
91A
  3
GRADE_DWG
350
540
  0
DICTIONARY
  5
D8A
330
1A
100
AcDbDictionary
280
     1
  3
ACAD_LAYOUTSELFREF
360
F96
  0
DICTIONARY
  5
D88
330
17
100
AcDbDictionary
280
     1
  3
ACAD_LAYOUTSELFREF
360
F95
  0
DICTIONARY
  5
D
102
{ACAD_REACTORS
330
C
102
}
330
C
100
AcDbDictionary
  3
*A1
350
6C7
  3
*A2
350
6C8
  3
*A3
350
6D4
  3
*A4
350
6D5
  3
DREC-1
350
5FC
  3
DREC-2
350
654
  3
DREC-3
350
673
  0
DICTIONARY
  5
565
102
{ACAD_REACTORS
330
C
102
}
330
C
100
AcDbDictionary
  0
DICTIONARY
  5
E
102
{ACAD_REACTORS
330
C
102
}
330
C
100
AcDbDictionary
  3
STANDARD
350
13
  0
DICTIONARY
  5
566
102
{ACAD_REACTORS
330
C
102
}
330
C
100
AcDbDictionary
  3
A3_0_5倍_
350
758
  3
A3_1倍_
350
757
  3
A3_1倍__2000_
350
707
  3
A3_2倍_
350
759
  3
A4_0_5倍_
350
755
  3
A4_1倍_
350
754
  3
A4_1倍__2000_
350
708
  3
A4_2倍_
350
756
  0
ACDBDICTIONARYWDFLT
  5
563
102
{ACAD_REACTORS
330
C
102
}
330
C
100
AcDbDictionary
281
     1
  3
Normal
350
564
100
AcDbDictionaryWithDefault
340
564
  0
DICTIONARY
  5
F74
102
{ACAD_REACTORS
330
C
102
}
330
C
100
AcDbDictionary
  3
CEPSNTYPE
350
F7E
  3
DIMSTYLEDATA
350
F82
  3
FINGERPRINTGUID
350
F7F
  3
HYPERLINKBASE
350
F77
  3
INSUNITS
350
F7D
  3
LAYOUTDICT
350
F79
  3
LWETCUNION
350
F7C
  3
PLOTSETDICT
350
F7A
  3
PLOTSTYLNAMDICT
350
F7B
  3
PSVPSCALE
350
F81
  3
PUCSBASE
350
F85
  3
PUCSORGBACK
350
F8B
  3
PUCSORGBOTTOM
350
F87
  3
PUCSORGFRONT
350
F8A
  3
PUCSORGLEFT
350
F88
  3
PUCSORGRIGHT
350
F89
  3
PUCSORGTOP
350
F86
  3
PUCSORTHOREF
350
F83
  3
PUCSORTHOVIEW
350
F84
  3
STYLESHEET
350
F78
  3
TSTACKALIGN
350
F75
  3
TSTACKSIZE
350
F76
  3
UCSBASE
350
F8E
  3
UCSORGBACK
350
F94
  3
UCSORGBOTTOM
350
F90
  3
UCSORGFRONT
350
F93
  3
UCSORGLEFT
350
F91
  3
UCSORGRIGHT
350
F92
  3
UCSORGTOP
350
F8F
  3
UCSORTHOREF
350
F8C
  3
UCSORTHOVIEW
350
F8D
  3
VERSIONGUID
350
F80
  0
DICTIONARY
  5
91A
102
{ACAD_REACTORS
330
C
102
}
330
C
100
AcDbDictionary
  3
SORTENTS
350
91B
  0
DICTIONARY
  5
540
102
{ACAD_REACTORS
330
C
102
}
330
C
100
AcDbDictionary
  3
VERSION
350
560
  0
XRECORD
  5
F96
102
{ACAD_REACTORS
330
D8A
102
}
330
D8A
100
AcDbXrecord
340
1A
  0
XRECORD
  5
F95
102
{ACAD_REACTORS
330
D88
102
}
330
D88
100
AcDbXrecord
340
17
  0
GROUP
  5
6C7
102
{ACAD_REACTORS
330
D
102
}
330
D
100
AcDbGroup
300

 70
     0
 71
     1
1001
GRPNAME
1000
DMA00
  0
GROUP
  5
6C8
102
{ACAD_REACTORS
330
D
102
}
330
D
100
AcDbGroup
300

 70
     0
 71
     1
1001
GRPNAME
1000
DMA00
  0
GROUP
  5
6D4
102
{ACAD_REACTORS
330
D
102
}
330
D
100
AcDbGroup
300

 70
     0
 71
     1
1001
GRPNAME
1000
DMA00
  0
GROUP
  5
6D5
102
{ACAD_REACTORS
330
D
102
}
330
D
100
AcDbGroup
300

 70
     0
 71
     1
1001
GRPNAME
1000
DMA00
  0
GROUP
  5
5FC
102
{ACAD_REACTORS
330
D
102
}
330
D
100
AcDbGroup
300

 70
     0
 71
     1
1001
GRPNAME
1000
DREC-
1001
GPARA
1000
xsiz
1000
44.182
1000
ysiz
1000
40.677
1000
angl
1000
0
1000
ctyp
1000
0
1000
csiz
1000
5
1000
lfnt
1000
cont
1000
hcnt
1000
hoff
1000
vcnt
1000
voff
1000
opnt
1000
4
1000
dxpt
1000
0
1000
dypt
1000
0
  0
GROUP
  5
654
102
{ACAD_REACTORS
330
D
102
}
330
D
100
AcDbGroup
300

 70
     0
 71
     1
1001
GRPNAME
1000
DREC-
1001
GPARA
1000
xsiz
1000
54.592
1000
ysiz
1000
53.036
1000
angl
1000
0
1000
ctyp
1000
0
1000
csiz
1000
5
1000
lfnt
1000
cont
1000
hcnt
1000
hoff
1000
vcnt
1000
voff
1000
opnt
1000
4
1000
dxpt
1000
0
1000
dypt
1000
0
  0
GROUP
  5
673
102
{ACAD_REACTORS
330
D
102
}
330
D
100
AcDbGroup
300

 70
     0
 71
     1
1001
GRPNAME
1000
DREC-
1001
GPARA
1000
xsiz
1000
30.363
1000
ysiz
1000
36.175
1000
angl
1000
0
1000
ctyp
1000
0
1000
csiz
1000
5
1000
lfnt
1000
cont
1000
hcnt
1000
hoff
1000
vcnt
1000
voff
1000
opnt
1000
4
1000
dxpt
1000
0
1000
dypt
1000
0
  0
MLINESTYLE
  5
13
102
{ACAD_REACTORS
330
E
102
}
330
E
100
AcDbMlineStyle
  2
STANDARD
 70
     0
  3

 62
     0
 51
90.0
 52
90.0
 71
     2
 49
0.5
 62
   256
  6
BYLAYER
 49
-0.5
 62
   256
  6
BYLAYER
  0
PLOTSETTINGS
  5
758
102
{ACAD_REACTORS
330
566
102
}
330
566
100
AcDbPlotSettings
  1
A3(0.5倍)
  2
\\AWTECPC05\HP DeskJet 1120C
  4
A3
  6

 40
5.95841646
 41
13.49375153
 42
6.04309082
 43
3.67242432
 44
296.92599487
 45
419.94665527
 46
89.96
 47
127.14
 48
0.0
 49
0.0
140
0.0
141
0.0
142
1.0
143
2.0
 70
  1716
 72
     1
 73
     1
 74
     2
  7
big.ctb
 75
    17
147
0.5
148
0.0
149
0.0
  0
PLOTSETTINGS
  5
757
102
{ACAD_REACTORS
330
566
102
}
330
566
100
AcDbPlotSettings
  1
A3(1倍)
  2
\\AWTECPC05\HP DeskJet 1120C
  4
A3
  6

 40
5.95841646
 41
13.49375153
 42
6.04309082
 43
3.67242432
 44
296.92599487
 45
419.94665527
 46
37.46
 47
52.89
 48
0.0
 49
0.0
140
0.0
141
0.0
142
1.0
143
1.0
 70
  1716
 72
     1
 73
     1
 74
     2
  7
big.ctb
 75
    16
147
1.0
148
0.0
149
0.0
  0
PLOTSETTINGS
  5
707
102
{ACAD_REACTORS
330
566
102
}
330
566
100
AcDbPlotSettings
  1
A3(1倍)(2000)
  2
SII LS-1300 (D-SCAN)
  4
User258
  6

 40
3.17499995
 41
3.17499995
 42
3.17498779
 43
3.17498779
 44
419.98898315
 45
296.98950195
 46
58.32
 47
40.32
 48
0.0
 49
0.0
140
0.0
141
0.0
142
1.0
143
1.0
 70
  1716
 72
     1
 73
     0
 74
     2
  7
big.ctb
 75
    16
147
1.0
148
0.0
149
0.0
  0
PLOTSETTINGS
  5
759
102
{ACAD_REACTORS
330
566
102
}
330
566
100
AcDbPlotSettings
  1
A3(2倍)
  2
\\AWTECPC05\HP DeskJet 1120C
  4
A3
  6

 40
5.95841646
 41
13.49375153
 42
6.04309082
 43
3.67242432
 44
296.92599487
 45
419.94665527
 46
-67.54
 47
-95.61
 48
0.0
 49
0.0
140
0.0
141
0.0
142
1.0
143
0.5
 70
  1716
 72
     1
 73
     1
 74
     2
  7
big.ctb
 75
    27
147
2.0
148
0.0
149
0.0
  0
PLOTSETTINGS
  5
755
102
{ACAD_REACTORS
330
566
102
}
330
566
100
AcDbPlotSettings
  1
A4(0.5倍)
  2
\\AWTECPC05\HP DeskJet 1120C
  4
A4
  6

 40
4.18041658
 41
13.49374962
 42
4.18040466
 43
3.92642212
 44
209.97332764
 45
296.92599487
 46
48.31
 47
65.5
 48
0.0
 49
0.0
140
0.0
141
0.0
142
1.0
143
2.0
 70
  1716
 72
     1
 73
     1
 74
     2
  7
big.ctb
 75
    17
147
0.5
148
0.0
149
0.0
  0
PLOTSETTINGS
  5
754
102
{ACAD_REACTORS
330
566
102
}
330
566
100
AcDbPlotSettings
  1
A4(1倍)
  2
\\AWTECPC05\HP DeskJet 1120C
  4
A4
  6

 40
4.18041658
 41
13.49374962
 42
4.18040466
 43
3.92642212
 44
209.97332764
 45
296.92599487
 46
-4.19
 47
-8.75
 48
0.0
 49
0.0
140
0.0
141
0.0
142
1.0
143
1.0
 70
  1716
 72
     1
 73
     1
 74
     2
  7
big.ctb
 75
    16
147
1.0
148
0.0
149
0.0
  0
PLOTSETTINGS
  5
708
102
{ACAD_REACTORS
330
566
102
}
330
566
100
AcDbPlotSettings
  1
A4(1倍)(2000)
  2
SII LS-1300 (D-SCAN)
  4
User259
  6

 40
3.17499995
 41
3.17499995
 42
3.17498779
 43
3.17500305
 44
296.98950195
 45
209.99449158
 46
-3.18
 47
-3.18
 48
0.0
 49
0.0
140
0.0
141
0.0
142
1.0
143
1.0
 70
  1716
 72
     1
 73
     0
 74
     2
  7
big.ctb
 75
    16
147
1.0
148
0.0
149
0.0
  0
PLOTSETTINGS
  5
756
102
{ACAD_REACTORS
330
566
102
}
330
566
100
AcDbPlotSettings
  1
A4(2倍)
  2
\\AWTECPC05\HP DeskJet 1120C
  4
A4
  6

 40
4.18041658
 41
13.49374962
 42
4.18040466
 43
3.92642212
 44
209.97332764
 45
296.92599487
 46
-109.19
 47
-157.25
 48
0.0
 49
0.0
140
0.0
141
0.0
142
1.0
143
0.5
 70
  1716
 72
     1
 73
     1
 74
     2
  7
big.ctb
 75
    27
147
2.0
148
0.0
149
0.0
  0
ACDBPLACEHOLDER
  5
564
102
{ACAD_REACTORS
330
563
102
}
330
563
100
AcDbPlaceHolder
280
     0
  0
XRECORD
  5
F7E
102
{ACAD_REACTORS
330
F74
102
}
330
F74
100
AcDbXrecord
 90
        0
  0
XRECORD
  5
F82
102
{ACAD_REACTORS
330
F74
102
}
330
F74
100
AcDbXrecord
1000
DSTYLE
1002
{
1070
    79
 70
     2
1070
   179
 70
     3
1070
   341
340
594
1070
   343
340
594
1070
   344
340
594
1070
   371
 70
    -1
1070
   372
 70
    -1
1002
}
  0
XRECORD
  5
F7F
102
{ACAD_REACTORS
330
F74
102
}
330
F74
100
AcDbXrecord
  1
{51294030-9CB4-11D3-8E18-00A0C925D94D}
  0
XRECORD
  5
F77
102
{ACAD_REACTORS
330
F74
102
}
330
F74
100
AcDbXrecord
  1

  0
XRECORD
  5
F7D
102
{ACAD_REACTORS
330
F74
102
}
330
F74
100
AcDbXrecord
 90
        0
  0
XRECORD
  5
F79
102
{ACAD_REACTORS
330
F74
102
}
330
F74
100
AcDbXrecord
340
565
  0
XRECORD
  5
F7C
102
{ACAD_REACTORS
330
F74
102
}
330
F74
100
AcDbXrecord
 90
    10781
  0
XRECORD
  5
F7A
102
{ACAD_REACTORS
330
F74
102
}
330
F74
100
AcDbXrecord
340
566
  0
XRECORD
  5
F7B
102
{ACAD_REACTORS
330
F74
102
}
330
F74
100
AcDbXrecord
340
563
  0
XRECORD
  5
F81
102
{ACAD_REACTORS
330
F74
102
}
330
F74
100
AcDbXrecord
 40
0.0
  0
XRECORD
  5
F85
102
{ACAD_REACTORS
330
F74
102
}
330
F74
100
AcDbXrecord
340
0
  0
XRECORD
  5
F8B
102
{ACAD_REACTORS
330
F74
102
}
330
F74
100
AcDbXrecord
 10
0.0
 20
0.0
 30
0.0
  0
XRECORD
  5
F87
102
{ACAD_REACTORS
330
F74
102
}
330
F74
100
AcDbXrecord
 10
0.0
 20
0.0
 30
0.0
  0
XRECORD
  5
F8A
102
{ACAD_REACTORS
330
F74
102
}
330
F74
100
AcDbXrecord
 10
0.0
 20
0.0
 30
0.0
  0
XRECORD
  5
F88
102
{ACAD_REACTORS
330
F74
102
}
330
F74
100
AcDbXrecord
 10
0.0
 20
0.0
 30
0.0
  0
XRECORD
  5
F89
102
{ACAD_REACTORS
330
F74
102
}
330
F74
100
AcDbXrecord
 10
0.0
 20
0.0
 30
0.0
  0
XRECORD
  5
F86
102
{ACAD_REACTORS
330
F74
102
}
330
F74
100
AcDbXrecord
 10
0.0
 20
0.0
 30
0.0
  0
XRECORD
  5
F83
102
{ACAD_REACTORS
330
F74
102
}
330
F74
100
AcDbXrecord
340
0
  0
XRECORD
  5
F84
102
{ACAD_REACTORS
330
F74
102
}
330
F74
100
AcDbXrecord
 70
     0
  0
XRECORD
  5
F78
102
{ACAD_REACTORS
330
F74
102
}
330
F74
100
AcDbXrecord
  1
big.ctb
  0
XRECORD
  5
F75
102
{ACAD_REACTORS
330
F74
102
}
330
F74
100
AcDbXrecord
 90
        1
  0
XRECORD
  5
F76
102
{ACAD_REACTORS
330
F74
102
}
330
F74
100
AcDbXrecord
 90
       70
  0
XRECORD
  5
F8E
102
{ACAD_REACTORS
330
F74
102
}
330
F74
100
AcDbXrecord
340
0
  0
XRECORD
  5
F94
102
{ACAD_REACTORS
330
F74
102
}
330
F74
100
AcDbXrecord
 10
0.0
 20
0.0
 30
0.0
  0
XRECORD
  5
F90
102
{ACAD_REACTORS
330
F74
102
}
330
F74
100
AcDbXrecord
 10
0.0
 20
0.0
 30
0.0
  0
XRECORD
  5
F93
102
{ACAD_REACTORS
330
F74
102
}
330
F74
100
AcDbXrecord
 10
0.0
 20
0.0
 30
0.0
  0
XRECORD
  5
F91
102
{ACAD_REACTORS
330
F74
102
}
330
F74
100
AcDbXrecord
 10
0.0
 20
0.0
 30
0.0
  0
XRECORD
  5
F92
102
{ACAD_REACTORS
330
F74
102
}
330
F74
100
AcDbXrecord
 10
0.0
 20
0.0
 30
0.0
  0
XRECORD
  5
F8F
102
{ACAD_REACTORS
330
F74
102
}
330
F74
100
AcDbXrecord
 10
0.0
 20
0.0
 30
0.0
  0
XRECORD
  5
F8C
102
{ACAD_REACTORS
330
F74
102
}
330
F74
100
AcDbXrecord
340
0
  0
XRECORD
  5
F8D
102
{ACAD_REACTORS
330
F74
102
}
330
F74
100
AcDbXrecord
 70
     0
  0
XRECORD
  5
F80
102
{ACAD_REACTORS
330
F74
102
}
330
F74
100
AcDbXrecord
  1
{A5F12AE7-12F2-447B-9880-2E9E62E9EF4F}
  0
DICTIONARYVAR
  5
91B
102
{ACAD_REACTORS
330
91A
102
}
330
91A
100
DictionaryVariables
280
     0
  1
96
  0
XRECORD
  5
560
102
{ACAD_REACTORS
330
540
102
}
330
540
100
AcDbXrecord
  1
2.0.0
  0
ENDSEC
  0
EOF
