  0
SECTION
  2
HEADER
  9
$ACADVER
  1
AC1014
  9
$ACADMAINTVER
 70
     9
  9
$DWGCODEPAGE
  3
ANSI_932
  9
$INSBASE
 10
0.0
 20
0.0
 30
0.0
  9
$EXTMIN
 10
-66.41484262
 20
-31.71713736
 30
-0.00152582
  9
$EXTMAX
 10
152.01093832
 20
64.50853747
 30
0.00000003
  9
$LIMMIN
 10
0.0
 20
0.0
  9
$LIMMAX
 10
420.0
 20
297.0
  9
$ORTHOMODE
 70
     1
  9
$REGENMODE
 70
     1
  9
$FILLMODE
 70
     1
  9
$QTEXTMODE
 70
     0
  9
$MIRRTEXT
 70
     1
  9
$DRAGMODE
 70
     2
  9
$LTSCALE
 40
10.0
  9
$OSMODE
 70
   549
  9
$ATTMODE
 70
     1
  9
$TEXTSIZE
 40
3.0
  9
$TRACEWID
 40
1.0
  9
$TEXTSTYLE
  7
YOKO
  9
$CLAYER
  8
245
  9
$CELTYPE
  6
BYLAYER
  9
$CECOLOR
 62
   256
  9
$CELTSCALE
 40
1.0
  9
$DELOBJ
 70
     1
  9
$DISPSILH
 70
     0
  9
$DIMSCALE
 40
1.0
  9
$DIMASZ
 40
2.0
  9
$DIMEXO
 40
2.0
  9
$DIMDLI
 40
2.5
  9
$DIMRND
 40
0.0
  9
$DIMDLE
 40
0.0
  9
$DIMEXE
 40
2.0
  9
$DIMTP
 40
0.0
  9
$DIMTM
 40
0.0
  9
$DIMTXT
 40
4.0
  9
$DIMCEN
 40
0.0
  9
$DIMTSZ
 40
0.0
  9
$DIMTOL
 70
     0
  9
$DIMLIM
 70
     0
  9
$DIMTIH
 70
     0
  9
$DIMTOH
 70
     0
  9
$DIMSE1
 70
     0
  9
$DIMSE2
 70
     0
  9
$DIMTAD
 70
     3
  9
$DIMZIN
 70
     8
  9
$DIMBLK
  1

  9
$DIMASO
 70
     1
  9
$DIMSHO
 70
     1
  9
$DIMPOST
  1

  9
$DIMAPOST
  1

  9
$DIMALT
 70
     0
  9
$DIMALTD
 70
     2
  9
$DIMALTF
 40
25.4
  9
$DIMLFAC
 40
1.0
  9
$DIMTOFL
 70
     1
  9
$DIMTVP
 40
0.0
  9
$DIMTIX
 70
     1
  9
$DIMSOXD
 70
     0
  9
$DIMSAH
 70
     1
  9
$DIMBLK1
  1
OPEN
  9
$DIMBLK2
  1
OPEN
  9
$DIMSTYLE
  2
BIGT
  9
$DIMCLRD
 70
   256
  9
$DIMCLRE
 70
   256
  9
$DIMCLRT
 70
    40
  9
$DIMTFAC
 40
1.0
  9
$DIMGAP
 40
1.0
  9
$DIMJUST
 70
     0
  9
$DIMSD1
 70
     0
  9
$DIMSD2
 70
     0
  9
$DIMTOLJ
 70
     1
  9
$DIMTZIN
 70
     8
  9
$DIMALTZ
 70
     0
  9
$DIMALTTZ
 70
     0
  9
$DIMFIT
 70
     3
  9
$DIMUPT
 70
     0
  9
$DIMUNIT
 70
     2
  9
$DIMDEC
 70
     3
  9
$DIMTDEC
 70
     3
  9
$DIMALTU
 70
     2
  9
$DIMALTTD
 70
     2
  9
$DIMTXSTY
  7
STANDARD
  9
$DIMAUNIT
 70
     0
  9
$LUNITS
 70
     2
  9
$LUPREC
 70
     3
  9
$SKETCHINC
 40
1.0
  9
$FILLETRAD
 40
1.0
  9
$AUNITS
 70
     0
  9
$AUPREC
 70
     3
  9
$MENU
  1
.
  9
$ELEVATION
 40
0.0
  9
$PELEVATION
 40
0.0
  9
$THICKNESS
 40
0.0
  9
$LIMCHECK
 70
     0
  9
$BLIPMODE
 70
     0
  9
$CHAMFERA
 40
10.0
  9
$CHAMFERB
 40
10.0
  9
$CHAMFERC
 40
0.0
  9
$CHAMFERD
 40
0.0
  9
$SKPOLY
 70
     0
  9
$TDCREATE
 40
2455050.564276250
  9
$TDUPDATE
 40
2455288.587698564
  9
$TDINDWG
 40
0.0957646065
  9
$TDUSRTIMER
 40
0.0957646065
  9
$USRTIMER
 70
     1
  9
$ANGBASE
 50
0.0
  9
$ANGDIR
 70
     0
  9
$PDMODE
 70
     1
  9
$PDSIZE
 40
-5.0
  9
$PLINEWID
 40
0.0
  9
$COORDS
 70
     2
  9
$SPLFRAME
 70
     0
  9
$SPLINETYPE
 70
     6
  9
$SPLINESEGS
 70
     8
  9
$ATTDIA
 70
     0
  9
$ATTREQ
 70
     1
  9
$HANDLING
 70
-16383
  9
$HANDSEED
  5
FE4
  9
$SURFTAB1
 70
     6
  9
$SURFTAB2
 70
     6
  9
$SURFTYPE
 70
     6
  9
$SURFU
 70
     6
  9
$SURFV
 70
     6
  9
$UCSNAME
  2

  9
$UCSORG
 10
0.0
 20
0.0
 30
0.0
  9
$UCSXDIR
 10
1.0
 20
0.0
 30
0.0
  9
$UCSYDIR
 10
0.0
 20
1.0
 30
0.0
  9
$PUCSNAME
  2

  9
$PUCSORG
 10
0.0
 20
0.0
 30
0.0
  9
$PUCSXDIR
 10
1.0
 20
0.0
 30
0.0
  9
$PUCSYDIR
 10
0.0
 20
1.0
 30
0.0
  9
$USERI1
 70
     1
  9
$USERI2
 70
     0
  9
$USERI3
 70
     0
  9
$USERI4
 70
     0
  9
$USERI5
 70
     0
  9
$USERR1
 40
0.0
  9
$USERR2
 40
0.0
  9
$USERR3
 40
0.0
  9
$USERR4
 40
0.0
  9
$USERR5
 40
0.0
  9
$WORLDVIEW
 70
     1
  9
$SHADEDGE
 70
     3
  9
$SHADEDIF
 70
    70
  9
$TILEMODE
 70
     1
  9
$MAXACTVP
 70
    16
  9
$PINSBASE
 10
0.0
 20
0.0
 30
0.0
  9
$PLIMCHECK
 70
     0
  9
$PEXTMIN
 10
1.00000000E+20
 20
1.00000000E+20
 30
1.00000000E+20
  9
$PEXTMAX
 10
-1.00000000E+20
 20
-1.00000000E+20
 30
-1.00000000E+20
  9
$PLIMMIN
 10
0.0
 20
0.0
  9
$PLIMMAX
 10
420.0
 20
297.0
  9
$UNITMODE
 70
     0
  9
$VISRETAIN
 70
     0
  9
$PLINEGEN
 70
     0
  9
$PSLTSCALE
 70
     1
  9
$TREEDEPTH
 70
  3020
  9
$PICKSTYLE
 70
     0
  9
$CMLSTYLE
  2
STANDARD
  9
$CMLJUST
 70
     0
  9
$CMLSCALE
 40
1.0
  9
$PROXYGRAPHICS
 70
     1
  9
$MEASUREMENT
 70
     1
  0
ENDSEC
  0
SECTION
  2
CLASSES
  0
CLASS
  1
XRECORD
  2
AcDbXrecord
  3
AutoCAD 2000
 90
        0
280
     0
281
     0
  0
CLASS
  1
ACDBDICTIONARYWDFLT
  2
AcDbDictionaryWithDefault
  3
AutoCAD 2000
 90
        0
280
     0
281
     0
  0
CLASS
  1
ACDBPLACEHOLDER
  2
AcDbPlaceHolder
  3
AutoCAD 2000
 90
        0
280
     0
281
     0
  0
CLASS
  1
LAYOUT
  2
AcDbLayout
  3
AutoCAD 2000
 90
        0
280
     0
281
     0
  0
CLASS
  1
PLOTSETTINGS
  2
AcDbPlotSettings
  3
AutoCAD 2000
 90
        0
280
     0
281
     0
  0
CLASS
  1
LONG_TRANSACTION
  2
AcDbLongTransaction
  3
AutoCAD 2000
 90
        0
280
     0
281
     0
  0
CLASS
  1
LWPOLYLINE
  2
AcDbPolyline
  3
AutoCAD 2000
 90
        0
280
     0
281
     1
  0
CLASS
  1
HATCH
  2
AcDbHatch
  3
AutoCAD 2000
 90
        0
280
     0
281
     1
  0
CLASS
  1
XRECORD
  2
AcDbXrecord
  3
AutoCAD 2000
 90
        0
280
     0
281
     0
  0
CLASS
  1
LONG_TRANSACTION
  2
AcDbLongTransaction
  3
AutoCAD 2000
 90
        0
280
     0
281
     0
  0
CLASS
  1
LWPOLYLINE
  2
AcDbPolyline
  3
AutoCAD 2000
 90
        0
280
     0
281
     1
  0
CLASS
  1
HATCH
  2
AcDbHatch
  3
AutoCAD 2000
 90
        0
280
     0
281
     1
  0
CLASS
  1
XRECORD
  2
AcDbXrecord
  3
AutoCAD 2000
 90
        0
280
     0
281
     0
  0
CLASS
  1
LONG_TRANSACTION
  2
AcDbLongTransaction
  3
AutoCAD 2000
 90
        0
280
     0
281
     0
  0
CLASS
  1
LWPOLYLINE
  2
AcDbPolyline
  3
AutoCAD 2000
 90
        0
280
     0
281
     1
  0
CLASS
  1
HATCH
  2
AcDbHatch
  3
AutoCAD 2000
 90
        0
280
     0
281
     1
  0
CLASS
  1
XRECORD
  2
AcDbXrecord
  3
AutoCAD 2000
 90
        0
280
     0
281
     0
  0
CLASS
  1
LONG_TRANSACTION
  2
AcDbLongTransaction
  3
AutoCAD 2000
 90
        0
280
     0
281
     0
  0
CLASS
  1
LWPOLYLINE
  2
AcDbPolyline
  3
AutoCAD 2000
 90
        0
280
     0
281
     1
  0
CLASS
  1
HATCH
  2
AcDbHatch
  3
AutoCAD 2000
 90
        0
280
     0
281
     1
  0
CLASS
  1
XRECORD
  2
AcDbXrecord
  3
AutoCAD 2000
 90
        0
280
     0
281
     0
  0
CLASS
  1
LONG_TRANSACTION
  2
AcDbLongTransaction
  3
AutoCAD 2000
 90
        0
280
     0
281
     0
  0
CLASS
  1
LWPOLYLINE
  2
AcDbPolyline
  3
AutoCAD 2000
 90
        0
280
     0
281
     1
  0
CLASS
  1
HATCH
  2
AcDbHatch
  3
AutoCAD 2000
 90
        0
280
     0
281
     1
  0
CLASS
  1
XRECORD
  2
AcDbXrecord
  3
AutoCAD 2000
 90
        0
280
     0
281
     0
  0
ENDSEC
  0
SECTION
  2
TABLES
  0
TABLE
  2
VPORT
  5
8
330
0
100
AcDbSymbolTable
 70
     2
  0
VPORT
  5
FBF
330
8
100
AcDbSymbolTableRecord
100
AcDbViewportTableRecord
  2
*ACTIVE
 70
     0
 10
0.0
 20
0.0
 11
1.0
 21
1.0
 12
42.79804785
 22
16.39570006
 13
0.0
 23
0.0
 14
7.0
 24
7.0
 15
7.0
 25
7.0
 16
0.0
 26
0.0
 36
1.0
 17
0.0
 27
0.0
 37
0.0
 40
153.36153298
 41
1.43184713
 42
50.0
 43
0.0
 44
0.0
 50
0.0
 51
0.0
 71
     0
 72
  2000
 73
     1
 74
     0
 75
     0
 76
     0
 77
     0
 78
     0
  0
ENDTAB
  0
TABLE
  2
LTYPE
  5
5
330
0
100
AcDbSymbolTable
 70
     3
  0
LTYPE
  5
14
330
5
100
AcDbSymbolTableRecord
100
AcDbLinetypeTableRecord
  2
BYBLOCK
 70
     0
  3

 72
    65
 73
     0
 40
0.0
  0
LTYPE
  5
15
330
5
100
AcDbSymbolTableRecord
100
AcDbLinetypeTableRecord
  2
BYLAYER
 70
     0
  3

 72
    65
 73
     0
 40
0.0
  0
LTYPE
  5
16
330
5
100
AcDbSymbolTableRecord
100
AcDbLinetypeTableRecord
  2
CONTINUOUS
 70
     0
  3
Solid line
 72
    65
 73
     0
 40
0.0
  0
LTYPE
  5
258
330
5
100
AcDbSymbolTableRecord
100
AcDbLinetypeTableRecord
  2
CENTER2
 70
     0
  3
___ _ ___ _ ___ _ ___ _ ___ _ ___ _ ___ _ ___ _
 72
    65
 73
     4
 40
1.125
 49
0.75
 74
     0
 49
-0.125
 74
     0
 49
0.125
 74
     0
 49
-0.125
 74
     0
  0
LTYPE
  5
25C
330
5
100
AcDbSymbolTableRecord
100
AcDbLinetypeTableRecord
  2
HIDDEN2
 70
     0
  3
_ _ _ _ _ _ _ _ _ _ _ _ _ _ _ _ _ _ _ _ _ _ _ _
 72
    65
 73
     2
 40
0.1875
 49
0.125
 74
     0
 49
-0.0625
 74
     0
  0
ENDTAB
  0
TABLE
  2
LAYER
  5
2
330
0
100
AcDbSymbolTable
 70
     9
  0
LAYER
  5
F
330
2
100
AcDbSymbolTableRecord
100
AcDbLayerTableRecord
  2
0
 70
     0
 62
     7
  6
CONTINUOUS
  0
LAYER
  5
1AA
330
2
100
AcDbSymbolTableRecord
100
AcDbLayerTableRecord
  2
240
 70
     0
 62
     4
  6
CONTINUOUS
  0
LAYER
  5
1AB
330
2
100
AcDbSymbolTableRecord
100
AcDbLayerTableRecord
  2
241
 70
     0
 62
   211
  6
CONTINUOUS
  0
LAYER
  5
1AC
330
2
100
AcDbSymbolTableRecord
100
AcDbLayerTableRecord
  2
242
 70
     0
 62
     3
  6
CONTINUOUS
  0
LAYER
  5
1AF
330
2
100
AcDbSymbolTableRecord
100
AcDbLayerTableRecord
  2
245
 70
     0
 62
     2
  6
CENTER2
  0
LAYER
  5
21E
330
2
100
AcDbSymbolTableRecord
100
AcDbLayerTableRecord
  2
250
 70
     0
 62
     3
  6
CONTINUOUS
  0
LAYER
  5
5C4
330
2
100
AcDbSymbolTableRecord
100
AcDbLayerTableRecord
  2
DEFPOINTS
 70
     0
 62
     7
  6
CONTINUOUS
  0
LAYER
  5
B36
330
2
100
AcDbSymbolTableRecord
100
AcDbLayerTableRecord
  2
243
 70
     0
 62
   211
  6
HIDDEN2
  0
ENDTAB
  0
TABLE
  2
STYLE
  5
3
330
0
100
AcDbSymbolTable
 70
     2
  0
STYLE
  5
10
330
3
100
AcDbSymbolTableRecord
100
AcDbTextStyleTableRecord
  2
STANDARD
 70
     0
 40
0.0
 41
1.0
 50
0.0
 71
     0
 42
3.0
  3
romans.shx
  4
BIGFONT.SHX
  0
STYLE
  5
339
330
3
100
AcDbSymbolTableRecord
100
AcDbTextStyleTableRecord
  2
YOKO
 70
     0
 40
0.0
 41
1.0
 50
0.0
 71
     0
 42
3.0
  3
romans.shx
  4
extfont.shx
  0
ENDTAB
  0
TABLE
  2
VIEW
  5
6
330
0
100
AcDbSymbolTable
 70
     0
  0
ENDTAB
  0
TABLE
  2
UCS
  5
7
330
0
100
AcDbSymbolTable
 70
     0
  0
ENDTAB
  0
TABLE
  2
APPID
  5
9
330
0
100
AcDbSymbolTable
 70
     9
  0
APPID
  5
11
330
9
100
AcDbSymbolTableRecord
100
AcDbRegAppTableRecord
  2
ACAD
 70
     0
  0
APPID
  5
1B1
330
9
100
AcDbSymbolTableRecord
100
AcDbRegAppTableRecord
  2
GLOBAL
 70
     0
  0
APPID
  5
2A4
330
9
100
AcDbSymbolTableRecord
100
AcDbRegAppTableRecord
  2
DETAIL
 70
     0
  0
APPID
  5
5FD
330
9
100
AcDbSymbolTableRecord
100
AcDbRegAppTableRecord
  2
GRPNAME
 70
     0
  0
APPID
  5
5FE
330
9
100
AcDbSymbolTableRecord
100
AcDbRegAppTableRecord
  2
GPARA
 70
     0
  0
APPID
  5
6C4
330
9
100
AcDbSymbolTableRecord
100
AcDbRegAppTableRecord
  2
DCO15
 70
     0
  0
APPID
  5
6C5
330
9
100
AcDbSymbolTableRecord
100
AcDbRegAppTableRecord
  2
ITEMNAME
 70
     0
  0
APPID
  5
6C6
330
9
100
AcDbSymbolTableRecord
100
AcDbRegAppTableRecord
  2
GRADE_0
 70
     0
  0
APPID
  5
B2A
330
9
100
AcDbSymbolTableRecord
100
AcDbRegAppTableRecord
  2
CONTENTBLOCKICON
 70
     0
  0
ENDTAB
  0
TABLE
  2
DIMSTYLE
  5
A
330
0
100
AcDbSymbolTable
 70
     4
  0
DIMSTYLE
105
725
102
{ACAD_REACTORS
330
825
330
985
102
}
330
A
100
AcDbSymbolTableRecord
100
AcDbDimStyleTableRecord
  2
BIGT
 70
     0
  3

  4

  5

  6
OPEN
  7
OPEN
 40
1.0
 41
2.23
 42
0.5
 43
2.5
 44
1.0
 45
0.0
 46
0.0
 47
0.0
 48
0.0
140
2.8
141
0.0
142
0.0
143
25.4
144
1.0
145
0.0
146
1.0
147
1.0
 71
     0
 72
     0
 73
     0
 74
     0
 75
     0
 76
     0
 77
     3
 78
     8
170
     0
171
     2
172
     1
173
     1
174
     1
175
     0
176
   256
177
   256
178
    40
270
     2
271
     3
272
     3
273
     2
274
     2
340
10
275
     0
280
     0
281
     0
282
     0
283
     1
284
     8
285
     0
286
     0
287
     3
288
     0
  0
DIMSTYLE
105
908
102
{ACAD_REACTORS
330
98C
330
C86
102
}
330
A
100
AcDbSymbolTableRecord
100
AcDbDimStyleTableRecord
  2
BIGT$0
 70
     0
  3

  4
"
  5
OPEN
  6

  7

 40
1.0
 41
2.23
 42
0.5
 43
7.0
 44
1.0
 45
0.0
 46
0.0
 47
0.1
 48
0.1
140
3.0
141
0.0
142
0.0
143
0.0393701
144
1.0
145
0.0
146
0.71
147
1.0
 71
     0
 72
     0
 73
     0
 74
     0
 75
     0
 76
     0
 77
     3
 78
     8
170
     0
171
     2
172
     1
173
     0
174
     0
175
     0
176
     3
177
     3
178
    40
270
     2
271
     3
272
     3
273
     2
274
     2
340
10
275
     0
280
     0
281
     0
282
     0
283
     1
284
     8
285
     0
286
     0
287
     3
288
     0
  0
ENDTAB
  0
TABLE
  2
BLOCK_RECORD
  5
1
330
0
100
AcDbSymbolTable
 70
    10
  0
BLOCK_RECORD
  5
1A
102
{ACAD_XDICTIONARY
360
B28
102
}
330
1
100
AcDbSymbolTableRecord
100
AcDbBlockTableRecord
  2
*MODEL_SPACE
  0
BLOCK_RECORD
  5
17
102
{ACAD_XDICTIONARY
360
B26
102
}
330
1
100
AcDbSymbolTableRecord
100
AcDbBlockTableRecord
  2
*PAPER_SPACE
  0
BLOCK_RECORD
  5
594
330
1
100
AcDbSymbolTableRecord
100
AcDbBlockTableRecord
  2
_OPEN
  0
BLOCK_RECORD
  5
6E3
330
1
100
AcDbSymbolTableRecord
100
AcDbBlockTableRecord
  2
矢印なし
  0
BLOCK_RECORD
  5
836
330
1
100
AcDbSymbolTableRecord
100
AcDbBlockTableRecord
  2
*D2
  0
BLOCK_RECORD
  5
8FB
330
1
100
AcDbSymbolTableRecord
100
AcDbBlockTableRecord
  2
_NONE
  0
BLOCK_RECORD
  5
993
330
1
100
AcDbSymbolTableRecord
100
AcDbBlockTableRecord
  2
*D4
  0
BLOCK_RECORD
  5
99F
330
1
100
AcDbSymbolTableRecord
100
AcDbBlockTableRecord
  2
*D5
  0
BLOCK_RECORD
  5
A60
330
1
100
AcDbSymbolTableRecord
100
AcDbBlockTableRecord
  2
1
1001
CONTENTBLOCKICON
1071
        0
1004
2800000020000000200000000100080000000000000400000000000000000000000000000000000000000000000080000080000000808000800000008000800080800000C0C0C000C0DCC000F0CAA6000020400000206000002080000020A0000020C0000020E00000400000004020000040400000406000004080000040A0
1004
000040C0000040E00000600000006020000060400000606000006080000060A0000060C0000060E00000800000008020000080400000806000008080000080A0000080C0000080E00000A0000000A0200000A0400000A0600000A0800000A0A00000A0C00000A0E00000C0000000C0200000C0400000C0600000C0800000C0
1004
A00000C0C00000C0E00000E0000000E0200000E0400000E0600000E0800000E0A00000E0C00000E0E00040000000400020004000400040006000400080004000A0004000C0004000E00040200000402020004020400040206000402080004020A0004020C0004020E000404000004040200040404000404060004040800040
1004
40A0004040C0004040E00040600000406020004060400040606000406080004060A0004060C0004060E00040800000408020004080400040806000408080004080A0004080C0004080E00040A0000040A0200040A0400040A0600040A0800040A0A00040A0C00040A0E00040C0000040C0200040C0400040C0600040C08000
1004
40C0A00040C0C00040C0E00040E0000040E0200040E0400040E0600040E0800040E0A00040E0C00040E0E00080000000800020008000400080006000800080008000A0008000C0008000E00080200000802020008020400080206000802080008020A0008020C0008020E00080400000804020008040400080406000804080
1004
008040A0008040C0008040E00080600000806020008060400080606000806080008060A0008060C0008060E00080800000808020008080400080806000808080008080A0008080C0008080E00080A0000080A0200080A0400080A0600080A0800080A0A00080A0C00080A0E00080C0000080C0200080C0400080C0600080C0
1004
800080C0A00080C0C00080C0E00080E0000080E0200080E0400080E0600080E0800080E0A00080E0C00080E0E000C0000000C0002000C0004000C0006000C0008000C000A000C000C000C000E000C0200000C0202000C0204000C0206000C0208000C020A000C020C000C020E000C0400000C0402000C0404000C0406000C0
1004
408000C040A000C040C000C040E000C0600000C0602000C0604000C0606000C0608000C060A000C060C000C060E000C0800000C0802000C0804000C0806000C0808000C080A000C080C000C080E000C0A00000C0A02000C0A04000C0A06000C0A08000C0A0A000C0A0C000C0A0E000C0C00000C0C02000C0C04000C0C06000
1004
C0C08000C0C0A000F0FBFF00A4A0A000808080000000FF0000FF000000FFFF00FF000000FF00FF00FFFF0000FFFFFF0000000000000000000000000000000000000000000000000000000000000000000000000000000000000000000000000000000000000000000000000000000000000000000000000000000000000000
1004
00000000000000000000000000000000000000000000000000000000000000000000000000000000000000000000000000000000000000000000000000000000000000000000000000000000000000000000000000000000000000000000000000000000000000000000000000000000000000000000000000000000000000
1004
00000000000000000000000000000000000000000000000000000000000000000000000000000000000000000000000000000000000000000000000000000000000000000000000000000000000000000000000000000000000000000000000000000000000000000000000000000000000000000000000000000000000000
1004
000000000000000000000000000000000000000000000000000000000000FEFEFBFE0000000000000000000000000000000000000000000000000000FEFEFEE7FEE700000000000000000000000000000000000000000000FEFEFEFE0000E7E7E7FEFEFEFEFEFE0000000000000000000000000000FEFEFE000000000000E7
1004
E7E7E700E7000000FEFEFEFEFEE7FE00000000000000FE0000000000000000E7E7E7E700E700000000000000E7E700FEFEFE000000FBFEFBFBFBFBFBFBFBFBE7E7E7E7FBE7FBFBFBE7E7E7E7E7E7E7E7FEFEFB000000FEFEFE000000000000E7E7E7E700E700000000FEFEFEFEFEFEFEFB0000000000000000FEFEFEFE0000
1004
E7E7E7FEFEFEFEFEFEFE0000000000000000000000000000000000000000FEFEFEE7FEE700000000000000000000000000000000000000000000000000000000FEFEFBFE0000000000000000000000000000000000000000000000000000000000000000000000000000000000000000000000000000000000000000000000
1004
00000000000000000000000000000000000000000000000000000000000000000000000000000000000000000000000000000000000000000000000000000000000000000000000000000000000000000000000000000000000000000000000000000000000000000000000000000000000000000000000000000000000000
1004
00000000000000000000000000000000000000000000000000000000000000000000000000000000000000000000000000000000000000000000000000000000000000000000000000000000000000000000000000000000000000000000000000000000000000000000000000000000000000000000000000000000000000
1004
0000000000000000000000000000000000000000000000000000000000000000000000000000000000000000000000000000000000000000
  0
BLOCK_RECORD
  5
C87
330
1
100
AcDbSymbolTableRecord
100
AcDbBlockTableRecord
  2
*D8
  0
ENDTAB
  0
ENDSEC
  0
SECTION
  2
BLOCKS
  0
BLOCK
  5
1B
330
1A
100
AcDbEntity
  8
0
100
AcDbBlockBegin
  2
*MODEL_SPACE
 70
     0
 10
0.0
 20
0.0
 30
0.0
  3
*MODEL_SPACE
  1

  0
ENDBLK
  5
1C
330
1A
100
AcDbEntity
  8
0
100
AcDbBlockEnd
  0
BLOCK
  5
18
330
17
100
AcDbEntity
 67
     1
  8
0
100
AcDbBlockBegin
  2
*PAPER_SPACE
 70
     0
 10
0.0
 20
0.0
 30
0.0
  3
*PAPER_SPACE
  1

  0
ENDBLK
  5
19
330
17
100
AcDbEntity
 67
     1
  8
0
100
AcDbBlockEnd
  0
BLOCK
  5
598
330
594
100
AcDbEntity
  8
0
100
AcDbBlockBegin
  2
_OPEN
 70
     0
 10
0.0
 20
0.0
 30
0.0
  3
_OPEN
  1

  0
LINE
  5
595
330
594
100
AcDbEntity
  8
0
  6
BYBLOCK
 62
     0
100
AcDbLine
 10
-1.0
 20
0.16666667
 30
0.0
 11
0.0
 21
0.0
 31
0.0
  0
LINE
  5
596
330
594
100
AcDbEntity
  8
0
  6
BYBLOCK
 62
     0
100
AcDbLine
 10
-1.0
 20
-0.16666667
 30
0.0
 11
0.0
 21
0.0
 31
0.0
  0
LINE
  5
597
330
594
100
AcDbEntity
  8
0
  6
BYBLOCK
 62
     0
100
AcDbLine
 10
0.0
 20
0.0
 30
0.0
 11
-1.0
 21
0.0
 31
0.0
  0
ENDBLK
  5
599
330
594
100
AcDbEntity
  8
0
100
AcDbBlockEnd
  0
BLOCK
  5
6E4
330
6E3
100
AcDbEntity
  8
0
100
AcDbBlockBegin
  2
矢印なし
 70
     0
 10
0.0
 20
0.0
 30
0.0
  3
矢印なし
  1

  0
ENDBLK
  5
6E5
330
6E3
100
AcDbEntity
  8
0
100
AcDbBlockEnd
  0
BLOCK
  5
840
330
836
100
AcDbEntity
  8
0
100
AcDbBlockBegin
  2
*D2
 70
     1
 10
0.0
 20
0.0
 30
0.0
  3
*D2
  1

  0
LINE
  5
CA5
330
836
100
AcDbEntity
  8
250
  6
CONTINUOUS
100
AcDbLine
 10
0.0
 20
22.725
 30
0.0
 11
0.0
 21
39.5
 31
0.0
  0
LINE
  5
CA6
330
836
100
AcDbEntity
  8
250
  6
CONTINUOUS
100
AcDbLine
 10
135.0
 20
6.08366883
 30
0.0
 11
135.0
 21
39.5
 31
0.0
  0
LINE
  5
CA7
330
836
100
AcDbEntity
  8
250
  6
CONTINUOUS
100
AcDbLine
 10
2.23
 20
38.5
 30
0.0
 11
132.77
 21
38.5
 31
0.0
  0
INSERT
  5
CA8
330
836
100
AcDbEntity
  8
250
  6
CONTINUOUS
100
AcDbBlockReference
  2
_OPEN
 10
0.0
 20
38.5
 30
0.0
 41
2.23
 42
2.23
 43
2.23
 50
180.0
  0
INSERT
  5
CA9
330
836
100
AcDbEntity
  8
250
  6
CONTINUOUS
100
AcDbBlockReference
  2
_OPEN
 10
135.0
 20
38.5
 30
0.0
 41
2.23
 42
2.23
 43
2.23
  0
MTEXT
  5
CAA
330
836
100
AcDbEntity
  8
250
  6
CONTINUOUS
 62
    40
100
AcDbMText
 10
67.5
 20
40.9
 30
0.0
 40
2.8
 41
0.0
 71
     5
 72
     1
  1
\A1;135
1001
ACAD
1000
MTEXTBEGIN
1070
    73
1070
     1
1070
    44
1040
1.0
1070
    74
1070
     0
1000
MTEXTEND
1000
MTEXTBEGIN
1070
    73
1070
     1
1070
    44
1040
1.0
1070
    74
1070
     0
1000
MTEXTEND
1000
MTEXTBEGIN
1070
    73
1070
     1
1070
    44
1040
1.0
1070
    74
1070
     0
1000
MTEXTEND
1000
MTEXTBEGIN
1070
    73
1070
     1
1070
    44
1040
1.0
1070
    74
1070
     0
1000
MTEXTEND
  0
POINT
  5
CAB
330
836
100
AcDbEntity
  8
DEFPOINTS
  6
CONTINUOUS
 62
     0
100
AcDbPoint
 10
0.0
 20
22.225
 30
0.0
  0
POINT
  5
CAC
330
836
100
AcDbEntity
  8
DEFPOINTS
  6
CONTINUOUS
 62
     0
100
AcDbPoint
 10
135.0
 20
5.58366883
 30
0.0
  0
POINT
  5
CAD
330
836
100
AcDbEntity
  8
DEFPOINTS
  6
CONTINUOUS
 62
     0
100
AcDbPoint
 10
135.0
 20
38.5
 30
0.0
  0
ENDBLK
  5
841
330
836
100
AcDbEntity
  8
0
100
AcDbBlockEnd
  0
BLOCK
  5
8FC
330
8FB
100
AcDbEntity
  8
0
100
AcDbBlockBegin
  2
_NONE
 70
     0
 10
0.0
 20
0.0
 30
0.0
  3
_NONE
  1

  0
ENDBLK
  5
8FD
330
8FB
100
AcDbEntity
  8
0
100
AcDbBlockEnd
  0
BLOCK
  5
99D
330
993
100
AcDbEntity
  8
0
100
AcDbBlockBegin
  2
*D4
 70
     1
 10
0.0
 20
0.0
 30
0.0
  3
*D4
  1

  0
LINE
  5
BC9
330
993
100
AcDbEntity
  8
250
  6
CONTINUOUS
100
AcDbLine
 10
135.5
 20
-6.5
 30
0.0
 11
152.0
 21
-6.5
 31
0.0
  0
LINE
  5
BCA
330
993
100
AcDbEntity
  8
250
  6
CONTINUOUS
100
AcDbLine
 10
135.5
 20
6.5
 30
0.0
 11
152.0
 21
6.5
 31
0.0
  0
LINE
  5
BCB
330
993
100
AcDbEntity
  8
250
  6
CONTINUOUS
100
AcDbLine
 10
151.0
 20
-4.27
 30
0.0
 11
151.0
 21
4.27
 31
0.0
  0
INSERT
  5
BCC
330
993
100
AcDbEntity
  8
250
  6
CONTINUOUS
100
AcDbBlockReference
  2
_OPEN
 10
151.0
 20
-6.5
 30
0.0
 41
2.23
 42
2.23
 43
2.23
 50
270.0
  0
INSERT
  5
BCD
330
993
100
AcDbEntity
  8
250
  6
CONTINUOUS
100
AcDbBlockReference
  2
_OPEN
 10
151.0
 20
6.5
 30
0.0
 41
2.23
 42
2.23
 43
2.23
 50
90.0
  0
MTEXT
  5
BCE
330
993
100
AcDbEntity
  8
250
  6
CONTINUOUS
 62
    40
100
AcDbMText
 10
148.6
 20
0.0
 30
0.0
 40
2.8
 41
0.0
 71
     5
 72
     1
  1
\A1;{\H2.8;\U+2205}13
 11
0.0
 21
1.0
 31
0.0
1001
ACAD
1000
MTEXTBEGIN
1070
    73
1070
     1
1070
    44
1040
1.0
1070
    74
1070
     0
1000
MTEXTEND
1000
MTEXTBEGIN
1070
    73
1070
     1
1070
    44
1040
1.0
1070
    74
1070
     0
1000
MTEXTEND
1000
MTEXTBEGIN
1070
    73
1070
     1
1070
    44
1040
1.0
1070
    74
1070
     0
1000
MTEXTEND
1000
MTEXTBEGIN
1070
    73
1070
     1
1070
    44
1040
1.0
1070
    74
1070
     0
1000
MTEXTEND
  0
POINT
  5
BCF
330
993
100
AcDbEntity
  8
DEFPOINTS
  6
CONTINUOUS
 62
     0
100
AcDbPoint
 10
135.0
 20
-6.5
 30
0.0
  0
POINT
  5
BD0
330
993
100
AcDbEntity
  8
DEFPOINTS
  6
CONTINUOUS
 62
     0
100
AcDbPoint
 10
135.0
 20
6.5
 30
0.0
  0
POINT
  5
BD1
330
993
100
AcDbEntity
  8
DEFPOINTS
  6
CONTINUOUS
 62
     0
100
AcDbPoint
 10
151.0
 20
6.5
 30
0.0
  0
ENDBLK
  5
99E
330
993
100
AcDbEntity
  8
0
100
AcDbBlockEnd
  0
BLOCK
  5
9A7
330
99F
100
AcDbEntity
  8
0
100
AcDbBlockBegin
  2
*D5
 70
     1
 10
0.0
 20
0.0
 30
0.0
  3
*D5
  1

  0
LINE
  5
BD8
330
99F
100
AcDbEntity
  8
250
  6
CONTINUOUS
 62
     3
100
AcDbLine
 10
135.5
 20
3.0
 30
0.0
 11
145.02548331
 21
3.0
 31
0.0
  0
LINE
  5
BD9
330
99F
100
AcDbEntity
  8
250
  6
CONTINUOUS
 62
     3
100
AcDbLine
 10
144.02548331
 20
-3.0
 30
0.0
 11
144.02548331
 21
0.77
 31
0.0
  0
INSERT
  5
BDA
330
99F
100
AcDbEntity
  8
250
  6
CONTINUOUS
 62
     3
100
AcDbBlockReference
  2
_OPEN
 10
144.02548331
 20
3.0
 30
0.0
 41
2.23
 42
2.23
 43
2.23
 50
90.0
  0
MTEXT
  5
BDB
330
99F
100
AcDbEntity
  8
250
  6
CONTINUOUS
 62
    40
100
AcDbMText
 10
141.52548331
 20
-1.13115945
 30
0.0
 40
3.0
 41
0.0
 71
     5
 72
     1
  1
\A1;{\H3;\U+2205}6
 11
0.0
 21
1.0
 31
0.0
1001
ACAD
1000
MTEXTBEGIN
1070
    73
1070
     1
1070
    44
1040
1.0
1070
    74
1070
     0
1000
MTEXTEND
1000
MTEXTBEGIN
1070
    73
1070
     1
1070
    44
1040
1.0
1070
    74
1070
     0
1000
MTEXTEND
1000
MTEXTBEGIN
1070
    73
1070
     1
1070
    44
1040
1.0
1070
    74
1070
     0
1000
MTEXTEND
1000
MTEXTBEGIN
1070
    73
1070
     1
1070
    44
1040
1.0
1070
    74
1070
     0
1000
MTEXTEND
  0
POINT
  5
BDC
330
99F
100
AcDbEntity
  8
DEFPOINTS
  6
CONTINUOUS
 62
     0
100
AcDbPoint
 10
134.2
 20
-3.0
 30
0.0
  0
POINT
  5
BDD
330
99F
100
AcDbEntity
  8
DEFPOINTS
  6
CONTINUOUS
 62
     0
100
AcDbPoint
 10
135.0
 20
3.0
 30
0.0
  0
POINT
  5
BDE
330
99F
100
AcDbEntity
  8
DEFPOINTS
  6
CONTINUOUS
 62
     0
100
AcDbPoint
 10
144.02548331
 20
3.0
 30
0.0
  0
ENDBLK
  5
9A8
330
99F
100
AcDbEntity
  8
0
100
AcDbBlockEnd
  0
BLOCK
  5
A61
330
A60
100
AcDbEntity
  8
0
100
AcDbBlockBegin
  2
1
 70
     0
 10
0.0
 20
0.0
 30
0.0
  3
1
  1

  0
LINE
  5
F4A
330
A60
100
AcDbEntity
  8
240
  6
CONTINUOUS
100
AcDbLine
 10
21.6
 20
-31.5
 30
0.0
 11
26.03431159
 21
-31.5
 31
0.0
  0
LINE
  5
F4B
330
A60
100
AcDbEntity
  8
245
  6
CENTER2
100
AcDbLine
 10
-66.4
 20
0.0
 30
0.0
 11
136.0
 21
0.0
 31
0.0
  0
LINE
  5
F4C
330
A60
100
AcDbEntity
  8
240
  6
CONTINUOUS
100
AcDbLine
 10
21.6
 20
31.5
 30
0.0
 11
26.03431159
 21
31.5
 31
0.0
  0
LINE
  5
F4D
330
A60
100
AcDbEntity
  8
240
  6
CONTINUOUS
100
AcDbLine
 10
21.6
 20
31.5
 30
0.0
 11
18.71324865
 21
26.5
 31
0.0
  0
LINE
  5
F4E
330
A60
100
AcDbEntity
  8
241
  6
HIDDEN2
100
AcDbLine
 10
23.0
 20
22.5
 30
0.0
 11
23.0
 21
31.5
 31
0.0
  0
LINE
  5
F4F
330
A60
100
AcDbEntity
  8
240
  6
CONTINUOUS
100
AcDbLine
 10
11.6
 20
31.5
 30
0.0
 11
14.48675135
 21
26.5
 31
0.0
  0
LINE
  5
F50
330
A60
100
AcDbEntity
  8
240
  6
CONTINUOUS
100
AcDbLine
 10
1.0
 20
22.225
 30
0.0
 11
1.0
 21
30.5
 31
0.0
  0
LINE
  5
F51
330
A60
100
AcDbEntity
  8
241
  6
CONTINUOUS
100
AcDbLine
 10
11.6
 20
31.5
 30
0.0
 11
11.6
 21
0.0
 31
0.0
  0
LINE
  5
F52
330
A60
100
AcDbEntity
  8
241
  6
CONTINUOUS
100
AcDbLine
 10
21.6
 20
0.0
 30
0.0
 11
21.6
 21
31.5
 31
0.0
  0
LINE
  5
F53
330
A60
100
AcDbEntity
  8
245
  6
CENTER2
100
AcDbLine
 10
16.6
 20
-31.5
 30
0.0
 11
16.6
 21
31.5
 31
0.0
  0
LINE
  5
F54
330
A60
100
AcDbEntity
  8
240
  6
CONTINUOUS
100
AcDbLine
 10
0.0
 20
-22.225
 30
0.0
 11
-64.03089103
 21
-12.88716173
 31
0.0
  0
LINE
  5
F55
330
A60
100
AcDbEntity
  8
240
  6
CONTINUOUS
100
AcDbLine
 10
0.0
 20
22.225
 30
0.0
 11
-64.03089103
 21
12.88716173
 31
0.0
  0
LINE
  5
F56
330
A60
100
AcDbEntity
  8
240
  6
CONTINUOUS
100
AcDbLine
 10
-65.4
 20
11.30390896
 30
0.0
 11
-65.4
 21
0.0
 31
0.0
  0
LINE
  5
F57
330
A60
100
AcDbEntity
  8
240
  6
CONTINUOUS
100
AcDbLine
 10
-65.4
 20
-11.30390896
 30
0.0
 11
-65.4
 21
0.0
 31
0.0
  0
ARC
  5
F58
330
A60
100
AcDbEntity
  8
240
  6
CONTINUOUS
100
AcDbCircle
 10
-63.8
 20
-11.30390896
 30
0.0
 40
1.6
100
AcDbArc
 50
180.0
 51
261.70285503
  0
ARC
  5
F59
330
A60
100
AcDbEntity
  8
240
  6
CONTINUOUS
100
AcDbCircle
 10
-63.8
 20
11.30390896
 30
0.0
 40
1.6
100
AcDbArc
 50
98.29714497
 51
180.0
  0
LINE
  5
F5A
330
A60
100
AcDbEntity
  8
241
  6
CONTINUOUS
100
AcDbLine
 10
0.0
 20
-22.225
 30
0.0
 11
0.0
 21
0.0
 31
0.0
  0
LINE
  5
F5B
330
A60
100
AcDbEntity
  8
241
100
AcDbLine
 10
1.0
 20
0.0
 30
0.0
 11
1.0
 21
-22.225
 31
0.0
  0
LINE
  5
F5C
330
A60
100
AcDbEntity
  8
241
  6
CONTINUOUS
100
AcDbLine
 10
11.6
 20
-31.5
 30
0.0
 11
11.6
 21
0.0
 31
0.0
  0
LINE
  5
F5D
330
A60
100
AcDbEntity
  8
241
  6
CONTINUOUS
100
AcDbLine
 10
21.6
 20
0.0
 30
0.0
 11
21.6
 21
-31.5
 31
0.0
  0
LINE
  5
F5E
330
A60
100
AcDbEntity
  8
241
  6
CONTINUOUS
100
AcDbLine
 10
18.71324865
 20
-26.5
 30
0.0
 11
18.71324865
 21
0.0
 31
0.0
  0
LINE
  5
F5F
330
A60
100
AcDbEntity
  8
241
  6
CONTINUOUS
100
AcDbLine
 10
14.48675135
 20
-26.5
 30
0.0
 11
14.48675135
 21
0.0
 31
0.0
  0
LINE
  5
F60
330
A60
100
AcDbEntity
  8
240
  6
CONTINUOUS
100
AcDbLine
 10
2.0
 20
-31.5
 30
0.0
 11
11.6
 21
-31.5
 31
0.0
  0
LINE
  5
F61
330
A60
100
AcDbEntity
  8
241
  6
HIDDEN2
100
AcDbLine
 10
23.0
 20
-22.5
 30
0.0
 11
1.0
 21
-22.5
 31
0.0
  0
LINE
  5
F62
330
A60
100
AcDbEntity
  8
240
  6
CONTINUOUS
100
AcDbLine
 10
1.0
 20
-22.225
 30
0.0
 11
1.0
 21
-30.5
 31
0.0
  0
ARC
  5
F63
330
A60
100
AcDbEntity
  8
240
  6
CONTINUOUS
100
AcDbCircle
 10
2.0
 20
-30.5
 30
0.0
 40
1.0
100
AcDbArc
 50
180.0
 51
270.0
  0
LINE
  5
F64
330
A60
100
AcDbEntity
  8
240
100
AcDbLine
 10
0.0
 20
-22.225
 30
0.0
 11
1.0
 21
-22.225
 31
0.0
  0
LINE
  5
F65
330
A60
100
AcDbEntity
  8
240
  6
CONTINUOUS
100
AcDbLine
 10
18.71324865
 20
-26.5
 30
0.0
 11
14.48675135
 21
-26.5
 31
0.0
  0
LINE
  5
F66
330
A60
100
AcDbEntity
  8
240
  6
CONTINUOUS
100
AcDbLine
 10
14.48675135
 20
-26.5
 30
0.0
 11
11.6
 21
-31.5
 31
0.0
  0
LINE
  5
F67
330
A60
100
AcDbEntity
  8
240
  6
CONTINUOUS
100
AcDbLine
 10
18.71324865
 20
-26.5
 30
0.0
 11
21.6
 21
-31.5
 31
0.0
  0
LINE
  5
F68
330
A60
100
AcDbEntity
  8
241
  6
HIDDEN2
100
AcDbLine
 10
23.0
 20
-22.5
 30
0.0
 11
23.0
 21
-31.5
 31
0.0
  0
LINE
  5
F69
330
A60
100
AcDbEntity
  8
241
  6
CONTINUOUS
100
AcDbLine
 10
14.48675135
 20
26.5
 30
0.0
 11
14.48675135
 21
0.0
 31
0.0
  0
LINE
  5
F6A
330
A60
100
AcDbEntity
  8
241
  6
CONTINUOUS
100
AcDbLine
 10
18.71324865
 20
26.5
 30
0.0
 11
18.71324865
 21
0.0
 31
0.0
  0
LINE
  5
F6B
330
A60
100
AcDbEntity
  8
241
  6
CONTINUOUS
100
AcDbLine
 10
0.0
 20
22.225
 30
0.0
 11
0.0
 21
0.0
 31
0.0
  0
LINE
  5
F6C
330
A60
100
AcDbEntity
  8
241
100
AcDbLine
 10
1.0
 20
0.0
 30
0.0
 11
1.0
 21
22.225
 31
0.0
  0
LINE
  5
F6D
330
A60
100
AcDbEntity
  8
241
  6
HIDDEN2
100
AcDbLine
 10
23.0
 20
22.5
 30
0.0
 11
1.0
 21
22.5
 31
0.0
  0
LINE
  5
F6E
330
A60
100
AcDbEntity
  8
240
100
AcDbLine
 10
0.0
 20
22.225
 30
0.0
 11
1.0
 21
22.225
 31
0.0
  0
LINE
  5
F6F
330
A60
100
AcDbEntity
  8
240
  6
CONTINUOUS
100
AcDbLine
 10
18.71324865
 20
26.5
 30
0.0
 11
14.48675135
 21
26.5
 31
0.0
  0
LINE
  5
F70
330
A60
100
AcDbEntity
  8
240
  6
CONTINUOUS
100
AcDbLine
 10
2.0
 20
31.5
 30
0.0
 11
11.6
 21
31.5
 31
0.0
  0
ARC
  5
F71
330
A60
100
AcDbEntity
  8
240
  6
CONTINUOUS
100
AcDbCircle
 10
2.0
 20
30.5
 30
0.0
 40
1.0
100
AcDbArc
 50
90.0
 51
180.0
  0
LINE
  5
F72
330
A60
100
AcDbEntity
  8
240
100
AcDbLine
 10
27.385232
 20
20.468394
 30
0.0
 11
27.03370242
 21
30.53489944
 31
0.0
  0
LINE
  5
F73
330
A60
100
AcDbEntity
  8
241
  6
CONTINUOUS
100
AcDbLine
 10
27.0
 20
30.5
 30
0.0
 11
27.0
 21
0.0
 31
0.0
  0
LINE
  5
F74
330
A60
100
AcDbEntity
  8
240
100
AcDbLine
 10
100.64739017
 20
-9.12200473
 30
0.0
 11
101.0
 21
-9.47461456
 31
0.0
  0
LINE
  5
F75
330
A60
100
AcDbEntity
  8
243
100
AcDbLine
 10
63.89903811
 20
4.25
 30
0.0
 11
105.1
 21
4.25
 31
0.0
  0
LINE
  5
F76
330
A60
100
AcDbEntity
  8
240
100
AcDbLine
 10
100.64739017
 20
9.12200473
 30
0.0
 11
101.0
 21
9.47461456
 31
0.0
  0
LINE
  5
F77
330
A60
100
AcDbEntity
  8
240
100
AcDbLine
 10
27.385232
 20
-20.468394
 30
0.0
 11
27.03370242
 21
-30.53489944
 31
0.0
  0
LINE
  5
F78
330
A60
100
AcDbEntity
  8
241
  6
CONTINUOUS
100
AcDbLine
 10
27.0
 20
-30.5
 30
0.0
 11
27.0
 21
0.0
 31
0.0
  0
ARC
  5
F79
330
A60
100
AcDbEntity
  8
240
100
AcDbCircle
 10
26.03431159
 20
-30.5
 30
0.0
 40
1.0
100
AcDbArc
 50
270.0
 51
358.00000303
  0
LINE
  5
F7A
330
A60
100
AcDbEntity
  8
240
100
AcDbLine
 10
93.4
 20
10.139529
 30
0.0
 11
38.0
 21
14.986401
 31
0.0
  0
LINE
  5
F7B
330
A60
100
AcDbEntity
  8
240
100
AcDbLine
 10
93.4
 20
-10.139529
 30
0.0
 11
38.0
 21
-14.986401
 31
0.0
  0
LINE
  5
F7C
330
A60
100
AcDbEntity
  8
241
100
AcDbLine
 10
35.0
 20
15.05953508
 30
0.0
 11
35.0
 21
0.0
 31
0.0
  0
LINE
  5
F7D
330
A60
100
AcDbEntity
  8
241
100
AcDbLine
 10
38.0
 20
14.986401
 30
0.0
 11
38.0
 21
0.0
 31
0.0
  0
LINE
  5
F7E
330
A60
100
AcDbEntity
  8
241
100
AcDbLine
 10
38.0
 20
-14.986401
 30
0.0
 11
38.0
 21
0.0
 31
0.0
  0
LINE
  5
F7F
330
A60
100
AcDbEntity
  8
241
100
AcDbLine
 10
35.0
 20
-15.05953508
 30
0.0
 11
35.0
 21
0.0
 31
0.0
  0
LINE
  5
F80
330
A60
100
AcDbEntity
  8
240
100
AcDbLine
 10
28.384014
 20
-18.806142
 30
0.0
 11
34.535899
 21
-15.25435
 31
0.0
  0
ARC
  5
F81
330
A60
100
AcDbEntity
  8
240
100
AcDbCircle
 10
29.384014
 20
-20.538193
 30
0.0
 40
2.0
100
AcDbArc
 50
120.0
 51
178.0
  0
ARC
  5
F82
330
A60
100
AcDbEntity
  8
240
100
AcDbCircle
 10
35.535899
 20
-16.986401
 30
0.0
 40
2.0
100
AcDbArc
 50
90.0
 51
120.0
  0
LINE
  5
F83
330
A60
100
AcDbEntity
  8
240
100
AcDbLine
 10
35.535899
 20
-14.986401
 30
0.0
 11
38.0
 21
-14.986401
 31
0.0
  0
LINE
  5
F84
330
A60
100
AcDbEntity
  8
240
100
AcDbLine
 10
28.384014
 20
18.806142
 30
0.0
 11
34.535899
 21
15.25435
 31
0.0
  0
ARC
  5
F85
330
A60
100
AcDbEntity
  8
240
100
AcDbCircle
 10
35.535899
 20
16.986401
 30
0.0
 40
2.0
100
AcDbArc
 50
240.0
 51
270.0
  0
LINE
  5
F86
330
A60
100
AcDbEntity
  8
240
100
AcDbLine
 10
35.535899
 20
14.986401
 30
0.0
 11
38.0
 21
14.986401
 31
0.0
  0
ARC
  5
F87
330
A60
100
AcDbEntity
  8
240
100
AcDbCircle
 10
29.384014
 20
20.538193
 30
0.0
 40
2.0
100
AcDbArc
 50
182.0
 51
240.0
  0
LINE
  5
F88
330
A60
100
AcDbEntity
  8
241
100
AcDbLine
 10
93.4
 20
10.1395284
 30
0.0
 11
93.4
 21
0.0
 31
0.0
  0
LINE
  5
F89
330
A60
100
AcDbEntity
  8
241
100
AcDbLine
 10
95.0
 20
9.99954654
 30
0.0
 11
95.0
 21
0.0
 31
0.0
  0
LINE
  5
F8A
330
A60
100
AcDbEntity
  8
241
100
AcDbLine
 10
96.4
 20
9.87706241
 30
0.0
 11
96.4
 21
0.0
 31
0.0
  0
LINE
  5
F8B
330
A60
100
AcDbEntity
  8
241
100
AcDbLine
 10
98.0
 20
9.73708055
 30
0.0
 11
98.0
 21
0.0
 31
0.0
  0
LINE
  5
F8C
330
A60
100
AcDbEntity
  8
241
100
AcDbLine
 10
99.4
 20
9.61459642
 30
0.0
 11
99.4
 21
0.0
 31
0.0
  0
LINE
  5
F8D
330
A60
100
AcDbEntity
  8
241
100
AcDbLine
 10
99.4
 20
-9.61459642
 30
0.0
 11
99.4
 21
0.0
 31
0.0
  0
LINE
  5
F8E
330
A60
100
AcDbEntity
  8
241
100
AcDbLine
 10
98.0
 20
-9.73708055
 30
0.0
 11
98.0
 21
0.0
 31
0.0
  0
LINE
  5
F8F
330
A60
100
AcDbEntity
  8
241
100
AcDbLine
 10
96.4
 20
-9.87706241
 30
0.0
 11
96.4
 21
0.0
 31
0.0
  0
LINE
  5
F90
330
A60
100
AcDbEntity
  8
241
100
AcDbLine
 10
95.0
 20
-9.99954654
 30
0.0
 11
95.0
 21
0.0
 31
0.0
  0
LINE
  5
F91
330
A60
100
AcDbEntity
  8
241
100
AcDbLine
 10
93.4
 20
-10.1395284
 30
0.0
 11
93.4
 21
0.0
 31
0.0
  0
LINE
  5
F92
330
A60
100
AcDbEntity
  8
240
100
AcDbLine
 10
95.0
 20
-9.99954654
 30
0.0
 11
96.4
 21
-9.87706241
 31
0.0
  0
LINE
  5
F93
330
A60
100
AcDbEntity
  8
240
100
AcDbLine
 10
93.4
 20
-10.1395284
 30
0.0
 11
93.82022401
 21
-9.71930439
 31
0.0
  0
LINE
  5
F94
330
A60
100
AcDbEntity
  8
240
100
AcDbLine
 10
94.64739017
 20
-9.64693671
 30
0.0
 11
93.82022401
 21
-9.71930439
 31
0.0
  0
LINE
  5
F95
330
A60
100
AcDbEntity
  8
240
100
AcDbLine
 10
94.64739017
 20
-9.64693671
 30
0.0
 11
95.0
 21
-9.99954654
 31
0.0
  0
LINE
  5
F96
330
A60
100
AcDbEntity
  8
240
100
AcDbLine
 10
98.0
 20
-9.73708055
 30
0.0
 11
99.4
 21
-9.61459642
 31
0.0
  0
LINE
  5
F97
330
A60
100
AcDbEntity
  8
240
100
AcDbLine
 10
97.64739017
 20
-9.38447072
 30
0.0
 11
98.0
 21
-9.73708055
 31
0.0
  0
LINE
  5
F98
330
A60
100
AcDbEntity
  8
240
100
AcDbLine
 10
99.4
 20
-9.61459642
 30
0.0
 11
99.82022401
 21
-9.19437241
 31
0.0
  0
LINE
  5
F99
330
A60
100
AcDbEntity
  8
240
100
AcDbLine
 10
100.64739017
 20
-9.12200473
 30
0.0
 11
99.82022401
 21
-9.19437241
 31
0.0
  0
LINE
  5
F9A
330
A60
100
AcDbEntity
  8
240
100
AcDbLine
 10
96.4
 20
-9.87706241
 30
0.0
 11
96.82022401
 21
-9.4568384
 31
0.0
  0
LINE
  5
F9B
330
A60
100
AcDbEntity
  8
240
100
AcDbLine
 10
97.64739017
 20
-9.38447072
 30
0.0
 11
96.82022401
 21
-9.4568384
 31
0.0
  0
LINE
  5
F9C
330
A60
100
AcDbEntity
  8
240
100
AcDbLine
 10
95.0
 20
9.99954654
 30
0.0
 11
96.4
 21
9.87706241
 31
0.0
  0
LINE
  5
F9D
330
A60
100
AcDbEntity
  8
240
100
AcDbLine
 10
94.64739017
 20
9.64693671
 30
0.0
 11
95.0
 21
9.99954654
 31
0.0
  0
LINE
  5
F9E
330
A60
100
AcDbEntity
  8
240
100
AcDbLine
 10
94.64739017
 20
9.64693671
 30
0.0
 11
93.82022401
 21
9.71930439
 31
0.0
  0
LINE
  5
F9F
330
A60
100
AcDbEntity
  8
240
100
AcDbLine
 10
93.4
 20
10.1395284
 30
0.0
 11
93.82022401
 21
9.71930439
 31
0.0
  0
LINE
  5
FA0
330
A60
100
AcDbEntity
  8
240
100
AcDbLine
 10
98.0
 20
9.73708055
 30
0.0
 11
99.4
 21
9.61459642
 31
0.0
  0
LINE
  5
FA1
330
A60
100
AcDbEntity
  8
240
100
AcDbLine
 10
96.4
 20
9.87706241
 30
0.0
 11
96.82022401
 21
9.4568384
 31
0.0
  0
LINE
  5
FA2
330
A60
100
AcDbEntity
  8
240
100
AcDbLine
 10
100.64739017
 20
9.12200473
 30
0.0
 11
99.82022401
 21
9.19437241
 31
0.0
  0
LINE
  5
FA3
330
A60
100
AcDbEntity
  8
240
100
AcDbLine
 10
99.4
 20
9.61459642
 30
0.0
 11
99.82022401
 21
9.19437241
 31
0.0
  0
LINE
  5
FA4
330
A60
100
AcDbEntity
  8
240
100
AcDbLine
 10
97.64739017
 20
9.38447072
 30
0.0
 11
98.0
 21
9.73708055
 31
0.0
  0
LINE
  5
FA5
330
A60
100
AcDbEntity
  8
240
100
AcDbLine
 10
97.64739017
 20
9.38447072
 30
0.0
 11
96.82022401
 21
9.4568384
 31
0.0
  0
LINE
  5
FA6
330
A60
100
AcDbEntity
  8
241
100
AcDbLine
 10
101.0
 20
9.47461456
 30
0.0
 11
101.0
 21
0.0
 31
0.0
  0
LINE
  5
FA7
330
A60
100
AcDbEntity
  8
245
  6
CENTER2
100
AcDbLine
 10
110.0
 20
9.68721659
 30
0.0
 11
110.0
 21
2.0
 31
0.0
  0
LINE
  5
FA8
330
A60
100
AcDbEntity
  8
241
  6
HIDDEN2
100
AcDbLine
 10
105.82168784
 20
3.0
 30
0.0
 11
105.1
 21
4.25
 31
0.0
  0
LINE
  5
FA9
330
A60
100
AcDbEntity
  8
241
  6
HIDDEN2
100
AcDbLine
 10
105.1
 20
4.25
 30
0.0
 11
105.1
 21
0.0
 31
0.0
  0
LINE
  5
FAA
330
A60
100
AcDbEntity
  8
240
100
AcDbLine
 10
135.0
 20
5.58366883
 30
0.0
 11
135.0
 21
0.0
 31
0.0
  0
LINE
  5
FAB
330
A60
100
AcDbEntity
  8
241
  6
HIDDEN2
100
AcDbLine
 10
125.625
 20
3.0
 30
0.0
 11
125.625
 21
7.32020622
 31
0.0
  0
LINE
  5
FAC
330
A60
100
AcDbEntity
  8
242
  6
HIDDEN2
100
AcDbLine
 10
126.0
 20
3.0
 30
0.0
 11
126.0
 21
7.28739797
 31
0.0
  0
LINE
  5
FAD
330
A60
100
AcDbEntity
  8
241
  6
HIDDEN2
100
AcDbLine
 10
120.375
 20
3.0
 30
0.0
 11
120.375
 21
7.7795217
 31
0.0
  0
LINE
  5
FAE
330
A60
100
AcDbEntity
  8
242
  6
HIDDEN2
100
AcDbLine
 10
120.0
 20
3.0
 30
0.0
 11
120.0
 21
7.81232995
 31
0.0
  0
LINE
  5
FAF
330
A60
100
AcDbEntity
  8
245
  6
CENTER2
100
AcDbLine
 10
123.0
 20
8.54986396
 30
0.0
 11
123.0
 21
2.0
 31
0.0
  0
LINE
  5
FB0
330
A60
100
AcDbEntity
  8
242
  6
HIDDEN2
100
AcDbLine
 10
113.0
 20
3.0
 30
0.0
 11
113.0
 21
8.4247506
 31
0.0
  0
LINE
  5
FB1
330
A60
100
AcDbEntity
  8
241
  6
HIDDEN2
100
AcDbLine
 10
112.625
 20
3.0
 30
0.0
 11
112.625
 21
8.45755885
 31
0.0
  0
LINE
  5
FB2
330
A60
100
AcDbEntity
  8
241
  6
HIDDEN2
100
AcDbLine
 10
107.375
 20
3.0
 30
0.0
 11
107.375
 21
8.91687433
 31
0.0
  0
LINE
  5
FB3
330
A60
100
AcDbEntity
  8
242
  6
HIDDEN2
100
AcDbLine
 10
107.0
 20
3.0
 30
0.0
 11
107.0
 21
8.94968258
 31
0.0
  0
LINE
  5
FB4
330
A60
100
AcDbEntity
  8
243
100
AcDbLine
 10
105.82168784
 20
0.9860133
 30
0.0
 11
135.0
 21
0.9860133
 31
0.0
  0
LINE
  5
FB5
330
A60
100
AcDbEntity
  8
241
  6
HIDDEN2
100
AcDbLine
 10
105.82168784
 20
3.0
 30
0.0
 11
135.0
 21
3.0
 31
0.0
  0
LINE
  5
FB6
330
A60
100
AcDbEntity
  8
240
100
AcDbLine
 10
101.0
 20
-9.47461456
 30
0.0
 11
134.08715574
 21
-6.57986352
 31
0.0
  0
LINE
  5
FB7
330
A60
100
AcDbEntity
  8
241
100
AcDbLine
 10
101.0
 20
-9.47461456
 30
0.0
 11
101.0
 21
0.0
 31
0.0
  0
LINE
  5
FB8
330
A60
100
AcDbEntity
  8
241
  6
HIDDEN2
100
AcDbLine
 10
105.82168784
 20
0.0
 30
0.0
 11
105.82168784
 21
3.0
 31
0.0
  0
LINE
  5
FB9
330
A60
100
AcDbEntity
  8
240
100
AcDbLine
 10
135.0
 20
-5.58366883
 30
0.0
 11
135.0
 21
0.0
 31
0.0
  0
ARC
  5
FBA
330
A60
100
AcDbEntity
  8
240
100
AcDbCircle
 10
134.0
 20
-5.58366883
 30
0.0
 40
1.0
100
AcDbArc
 50
275.0
 51
0.0
  0
LINE
  5
FBB
330
A60
100
AcDbEntity
  8
240
100
AcDbLine
 10
101.0
 20
9.47461456
 30
0.0
 11
134.08715574
 21
6.57986352
 31
0.0
  0
ARC
  5
FBC
330
A60
100
AcDbEntity
  8
240
100
AcDbCircle
 10
134.0
 20
5.58366883
 30
0.0
 40
1.0
100
AcDbArc
 50
0.0
 51
85.0
  0
ARC
  5
FBD
330
A60
100
AcDbEntity
  8
240
100
AcDbCircle
 10
26.03431159
 20
30.5
 30
0.0
 40
1.0
100
AcDbArc
 50
1.99999697
 51
90.0
  0
ENDBLK
  5
A62
330
A60
100
AcDbEntity
  8
0
100
AcDbBlockEnd
  0
BLOCK
  5
C91
330
C87
100
AcDbEntity
  8
0
100
AcDbBlockBegin
  2
*D8
 70
     1
 10
0.0
 20
0.0
 30
0.0
  3
*D8
  1

  0
LINE
  5
CB7
330
C87
100
AcDbEntity
  8
250
  6
CONTINUOUS
 62
     3
100
AcDbLine
 10
-35.0
 20
5.75
 30
0.0
 11
-35.0
 21
46.5
 31
0.0
  0
LINE
  5
CB8
330
C87
100
AcDbEntity
  8
250
  6
CONTINUOUS
 62
     3
100
AcDbLine
 10
135.0
 20
6.08366883
 30
0.0
 11
135.0
 21
46.5
 31
0.0
  0
LINE
  5
CB9
330
C87
100
AcDbEntity
  8
250
  6
CONTINUOUS
 62
     3
100
AcDbLine
 10
-32.77
 20
45.5
 30
0.0
 11
132.77
 21
45.5
 31
0.0
  0
INSERT
  5
CBA
330
C87
100
AcDbEntity
  8
250
  6
CONTINUOUS
 62
     3
100
AcDbBlockReference
  2
_OPEN
 10
-35.0
 20
45.5
 30
0.0
 41
2.23
 42
2.23
 43
2.23
 50
180.0
  0
INSERT
  5
CBB
330
C87
100
AcDbEntity
  8
250
  6
CONTINUOUS
 62
     3
100
AcDbBlockReference
  2
_OPEN
 10
135.0
 20
45.5
 30
0.0
 41
2.23
 42
2.23
 43
2.23
  0
MTEXT
  5
CBC
330
C87
100
AcDbEntity
  8
250
  6
CONTINUOUS
 62
    40
100
AcDbMText
 10
50.0
 20
48.0
 30
0.0
 40
3.0
 41
0.0
 71
     5
 72
     1
  1
\A1;（max.170）
1001
ACAD
1000
MTEXTBEGIN
1070
    73
1070
     1
1070
    44
1040
1.0
1070
    74
1070
     0
1000
MTEXTEND
1000
MTEXTBEGIN
1070
    73
1070
     1
1070
    44
1040
1.0
1070
    74
1070
     0
1000
MTEXTEND
1000
MTEXTBEGIN
1070
    73
1070
     1
1070
    44
1040
1.0
1070
    74
1070
     0
1000
MTEXTEND
1000
MTEXTBEGIN
1070
    73
1070
     1
1070
    44
1040
1.0
1070
    74
1070
     0
1000
MTEXTEND
  0
POINT
  5
CBD
330
C87
100
AcDbEntity
  8
DEFPOINTS
  6
CONTINUOUS
 62
     0
100
AcDbPoint
 10
-35.0
 20
5.25
 30
0.0
  0
POINT
  5
CBE
330
C87
100
AcDbEntity
  8
DEFPOINTS
  6
CONTINUOUS
 62
     0
100
AcDbPoint
 10
135.0
 20
5.58366883
 30
0.0
  0
POINT
  5
CBF
330
C87
100
AcDbEntity
  8
DEFPOINTS
  6
CONTINUOUS
 62
     0
100
AcDbPoint
 10
135.0
 20
45.5
 30
0.0
  0
ENDBLK
  5
C92
330
C87
100
AcDbEntity
  8
0
100
AcDbBlockEnd
  0
ENDSEC
  0
SECTION
  2
ENTITIES
  0
INSERT
  5
6E6
330
1A
100
AcDbEntity
  8
245
100
AcDbBlockReference
  2
矢印なし
 10
175.62382697
 20
90.55123572
 30
0.0
  0
TEXT
  5
823
330
1A
100
AcDbEntity
  8
241
100
AcDbText
 10
-65.4
 20
59.5
 30
0.0
 40
5.0
  1
BBT40-SSL6-135
  7
YOKO
 11
-65.4
 21
59.5
 31
0.0
100
AcDbText
 73
     1
  0
DIMENSION
  5
825
330
1A
100
AcDbEntity
  8
250
  6
CONTINUOUS
100
AcDbDimension
  2
*D2
 10
135.0
 20
38.5
 30
0.0
 11
67.5
 21
38.5
 31
0.0
 70
   160
  3
BIGT
100
AcDbAlignedDimension
 13
0.0
 23
22.225
 33
0.0
 14
135.0
 24
5.58366883
 34
0.0
100
AcDbRotatedDimension
  0
DIMENSION
  5
985
330
1A
100
AcDbEntity
  8
250
  6
CONTINUOUS
100
AcDbDimension
  2
*D4
 10
151.0
 20
6.5
 30
0.0
 11
148.6
 21
0.0
 31
0.0
 70
    32
  1
{\H2.8;\U+2205}<>
  3
BIGT
100
AcDbAlignedDimension
 13
135.0
 23
-6.5
 33
0.0
 14
135.0
 24
6.5
 34
0.0
 50
90.0
100
AcDbRotatedDimension
  0
DIMENSION
  5
98C
330
1A
100
AcDbEntity
  8
250
  6
CONTINUOUS
100
AcDbDimension
  2
*D5
 10
144.02548331
 20
3.0
 30
0.0
 11
144.02548331
 21
-1.13115945
 31
0.0
 70
   160
  1
{\H3;\U+2205}<>
  3
BIGT$0
100
AcDbAlignedDimension
 13
134.2
 23
-3.0
 33
0.0
 14
135.0
 24
3.0
 34
0.0
 50
90.0
100
AcDbRotatedDimension
1001
ACAD
1000
DSTYLE
1002
{
1070
     5
1000

1070
   173
1070
     1
1070
     7
1000
OPEN
1070
    75
1070
     1
1070
     6
1000
NONE
1002
}
  0
LEADER
  5
C2D
330
1A
100
AcDbEntity
  8
250
  6
CONTINUOUS
100
AcDbLeader
  3
BIGT
 76
     2
 10
-26.64442081
 20
-18.3393553
 30
0.0
 10
-32.4583971
 20
-28.40945762
 30
0.0
1001
ACAD
1000
DSTYLE
1002
{
1070
     6
1000
OPEN
1070
   343
1005
594
1002
}
  0
MTEXT
  5
C2E
330
1A
100
AcDbEntity
  8
250
  6
CONTINUOUS
 62
    40
100
AcDbMText
 10
-47.39173044
 20
-27.40945762
 30
0.0
 40
2.8
 41
0.0
 71
     7
 72
     1
  1
BBT40
  7
YOKO
1001
ITEMNAME
1000
LNSP3
1001
ACAD
1000
MTEXTBEGIN
1070
    73
1070
     1
1070
    44
1040
1.0
1070
    74
1070
     0
1000
MTEXTEND
1000
MTEXTBEGIN
1070
    73
1070
     1
1070
    44
1040
1.0
1070
    74
1070
     0
1000
MTEXTEND
1000
MTEXTBEGIN
1070
    73
1070
     1
1070
    44
1040
1.0
1070
    74
1070
     0
1000
MTEXTEND
1000
MTEXTBEGIN
1070
    73
1070
     1
1070
    44
1040
1.0
1070
    74
1070
     0
1000
MTEXTEND
1000
MTEXTBEGIN
1070
    73
1070
     1
1070
    44
1040
1.0
1070
    74
1070
     0
1000
MTEXTEND
  0
LINE
  5
C31
330
1A
100
AcDbEntity
  8
250
  6
CONTINUOUS
100
AcDbLine
 10
-32.4583971
 20
-28.40945762
 30
0.0
 11
-50.19173044
 21
-28.40945762
 31
0.0
1001
ITEMNAME
1000
LNSP2
  0
DIMENSION
  5
C86
330
1A
100
AcDbEntity
  8
250
  6
CONTINUOUS
100
AcDbDimension
  2
*D8
 10
135.0
 20
45.5
 30
0.0
 11
50.0
 21
48.0
 31
0.0
 70
    32
  1
（max.<>）
  3
BIGT$0
100
AcDbAlignedDimension
 13
-35.0
 23
5.25
 33
0.0
 14
135.0
 24
5.58366883
 34
0.0
100
AcDbRotatedDimension
  0
INSERT
  5
FBE
330
1A
100
AcDbEntity
  8
245
100
AcDbBlockReference
  2
1
 10
0.0
 20
0.0
 30
0.0
  0
VIEWPORT
  5
22
330
17
100
AcDbEntity
 67
     1
  8
0
100
AcDbViewport
 10
261.51769912
 20
148.5
 30
0.0
 40
523.03539823
 41
297.0
 68
     1
 69
     1
1001
ACAD
1000
MVIEW
1002
{
1070
    16
1010
0.0
1020
0.0
1030
0.0
1010
0.0
1020
0.0
1030
1.0
1040
0.0
1040
297.0
1040
261.51769912
1040
148.5
1040
50.0
1040
0.0
1040
0.0
1070
     0
1070
   100
1070
     1
1070
     1
1070
     0
1070
     0
1070
     0
1070
     0
1040
0.0
1040
0.0
1040
0.0
1040
1.0
1040
1.0
1040
10.0
1040
10.0
1070
     0
1002
{
1002
}
1002
}
  0
ENDSEC
  0
SECTION
  2
OBJECTS
  0
DICTIONARY
  5
C
330
0
100
AcDbDictionary
  3
ACAD_GROUP
350
D
  3
ACAD_LAYOUT
350
565
  3
ACAD_MLINESTYLE
350
E
  3
ACAD_PLOTSETTINGS
350
566
  3
ACAD_PLOTSTYLENAME
350
563
  3
ACDBHEADERROUNDTRIPXREC
350
FC0
  3
GRADE_DWG
350
540
  0
DICTIONARY
  5
B28
330
1A
100
AcDbDictionary
280
     1
  3
ACAD_LAYOUTSELFREF
360
FE2
  0
DICTIONARY
  5
B26
330
17
100
AcDbDictionary
280
     1
  3
ACAD_LAYOUTSELFREF
360
FE1
  0
DICTIONARY
  5
D
102
{ACAD_REACTORS
330
C
102
}
330
C
100
AcDbDictionary
  3
*A1
350
6C7
  3
*A2
350
6C8
  3
*A3
350
6D4
  3
*A4
350
6D5
  3
DREC-1
350
5FC
  3
DREC-2
350
654
  3
DREC-3
350
673
  0
DICTIONARY
  5
565
102
{ACAD_REACTORS
330
C
102
}
330
C
100
AcDbDictionary
  0
DICTIONARY
  5
E
102
{ACAD_REACTORS
330
C
102
}
330
C
100
AcDbDictionary
  3
STANDARD
350
13
  0
DICTIONARY
  5
566
102
{ACAD_REACTORS
330
C
102
}
330
C
100
AcDbDictionary
  3
A3_0_5倍_
350
758
  3
A3_1倍_
350
757
  3
A3_1倍__2000_
350
707
  3
A3_2倍_
350
759
  3
A4_0_5倍_
350
755
  3
A4_1倍_
350
754
  3
A4_1倍__2000_
350
708
  3
A4_2倍_
350
756
  0
ACDBDICTIONARYWDFLT
  5
563
102
{ACAD_REACTORS
330
C
102
}
330
C
100
AcDbDictionary
281
     1
  3
Normal
350
564
100
AcDbDictionaryWithDefault
340
564
  0
DICTIONARY
  5
FC0
102
{ACAD_REACTORS
330
C
102
}
330
C
100
AcDbDictionary
  3
CEPSNTYPE
350
FCA
  3
DIMSTYLEDATA
350
FCE
  3
FINGERPRINTGUID
350
FCB
  3
HYPERLINKBASE
350
FC3
  3
INSUNITS
350
FC9
  3
LAYOUTDICT
350
FC5
  3
LWETCUNION
350
FC8
  3
PLOTSETDICT
350
FC6
  3
PLOTSTYLNAMDICT
350
FC7
  3
PSVPSCALE
350
FCD
  3
PUCSBASE
350
FD1
  3
PUCSORGBACK
350
FD7
  3
PUCSORGBOTTOM
350
FD3
  3
PUCSORGFRONT
350
FD6
  3
PUCSORGLEFT
350
FD4
  3
PUCSORGRIGHT
350
FD5
  3
PUCSORGTOP
350
FD2
  3
PUCSORTHOREF
350
FCF
  3
PUCSORTHOVIEW
350
FD0
  3
STYLESHEET
350
FC4
  3
TSTACKALIGN
350
FC1
  3
TSTACKSIZE
350
FC2
  3
UCSBASE
350
FDA
  3
UCSORGBACK
350
FE0
  3
UCSORGBOTTOM
350
FDC
  3
UCSORGFRONT
350
FDF
  3
UCSORGLEFT
350
FDD
  3
UCSORGRIGHT
350
FDE
  3
UCSORGTOP
350
FDB
  3
UCSORTHOREF
350
FD8
  3
UCSORTHOVIEW
350
FD9
  3
VERSIONGUID
350
FCC
  0
DICTIONARY
  5
540
102
{ACAD_REACTORS
330
C
102
}
330
C
100
AcDbDictionary
  3
VERSION
350
560
  0
XRECORD
  5
FE2
102
{ACAD_REACTORS
330
B28
102
}
330
B28
100
AcDbXrecord
340
1A
  0
XRECORD
  5
FE1
102
{ACAD_REACTORS
330
B26
102
}
330
B26
100
AcDbXrecord
340
17
  0
GROUP
  5
6C7
102
{ACAD_REACTORS
330
D
102
}
330
D
100
AcDbGroup
300

 70
     0
 71
     1
1001
GRPNAME
1000
DMA00
  0
GROUP
  5
6C8
102
{ACAD_REACTORS
330
D
102
}
330
D
100
AcDbGroup
300

 70
     0
 71
     1
1001
GRPNAME
1000
DMA00
  0
GROUP
  5
6D4
102
{ACAD_REACTORS
330
D
102
}
330
D
100
AcDbGroup
300

 70
     0
 71
     1
1001
GRPNAME
1000
DMA00
  0
GROUP
  5
6D5
102
{ACAD_REACTORS
330
D
102
}
330
D
100
AcDbGroup
300

 70
     0
 71
     1
1001
GRPNAME
1000
DMA00
  0
GROUP
  5
5FC
102
{ACAD_REACTORS
330
D
102
}
330
D
100
AcDbGroup
300

 70
     0
 71
     1
1001
GRPNAME
1000
DREC-
1001
GPARA
1000
xsiz
1000
44.182
1000
ysiz
1000
40.677
1000
angl
1000
0
1000
ctyp
1000
0
1000
csiz
1000
5
1000
lfnt
1000
cont
1000
hcnt
1000
hoff
1000
vcnt
1000
voff
1000
opnt
1000
4
1000
dxpt
1000
0
1000
dypt
1000
0
  0
GROUP
  5
654
102
{ACAD_REACTORS
330
D
102
}
330
D
100
AcDbGroup
300

 70
     0
 71
     1
1001
GRPNAME
1000
DREC-
1001
GPARA
1000
xsiz
1000
54.592
1000
ysiz
1000
53.036
1000
angl
1000
0
1000
ctyp
1000
0
1000
csiz
1000
5
1000
lfnt
1000
cont
1000
hcnt
1000
hoff
1000
vcnt
1000
voff
1000
opnt
1000
4
1000
dxpt
1000
0
1000
dypt
1000
0
  0
GROUP
  5
673
102
{ACAD_REACTORS
330
D
102
}
330
D
100
AcDbGroup
300

 70
     0
 71
     1
1001
GRPNAME
1000
DREC-
1001
GPARA
1000
xsiz
1000
30.363
1000
ysiz
1000
36.175
1000
angl
1000
0
1000
ctyp
1000
0
1000
csiz
1000
5
1000
lfnt
1000
cont
1000
hcnt
1000
hoff
1000
vcnt
1000
voff
1000
opnt
1000
4
1000
dxpt
1000
0
1000
dypt
1000
0
  0
MLINESTYLE
  5
13
102
{ACAD_REACTORS
330
E
102
}
330
E
100
AcDbMlineStyle
  2
STANDARD
 70
     0
  3

 62
     0
 51
90.0
 52
90.0
 71
     2
 49
0.5
 62
   256
  6
BYLAYER
 49
-0.5
 62
   256
  6
BYLAYER
  0
PLOTSETTINGS
  5
758
102
{ACAD_REACTORS
330
566
102
}
330
566
100
AcDbPlotSettings
  1
A3(0.5倍)
  2
\\AWTECPC05\HP DeskJet 1120C
  4
A3
  6

 40
5.95841646
 41
13.49375153
 42
6.04309082
 43
3.67242432
 44
296.92599487
 45
419.94665527
 46
89.96
 47
127.14
 48
0.0
 49
0.0
140
0.0
141
0.0
142
1.0
143
2.0
 70
  1716
 72
     1
 73
     1
 74
     2
  7
big.ctb
 75
    17
147
0.5
148
0.0
149
0.0
  0
PLOTSETTINGS
  5
757
102
{ACAD_REACTORS
330
566
102
}
330
566
100
AcDbPlotSettings
  1
A3(1倍)
  2
\\AWTECPC05\HP DeskJet 1120C
  4
A3
  6

 40
5.95841646
 41
13.49375153
 42
6.04309082
 43
3.67242432
 44
296.92599487
 45
419.94665527
 46
37.46
 47
52.89
 48
0.0
 49
0.0
140
0.0
141
0.0
142
1.0
143
1.0
 70
  1716
 72
     1
 73
     1
 74
     2
  7
big.ctb
 75
    16
147
1.0
148
0.0
149
0.0
  0
PLOTSETTINGS
  5
707
102
{ACAD_REACTORS
330
566
102
}
330
566
100
AcDbPlotSettings
  1
A3(1倍)(2000)
  2
SII LS-1300 (D-SCAN)
  4
User258
  6

 40
3.17499995
 41
3.17499995
 42
3.17498779
 43
3.17498779
 44
419.98898315
 45
296.98950195
 46
58.32
 47
40.32
 48
0.0
 49
0.0
140
0.0
141
0.0
142
1.0
143
1.0
 70
  1716
 72
     1
 73
     0
 74
     2
  7
big.ctb
 75
    16
147
1.0
148
0.0
149
0.0
  0
PLOTSETTINGS
  5
759
102
{ACAD_REACTORS
330
566
102
}
330
566
100
AcDbPlotSettings
  1
A3(2倍)
  2
\\AWTECPC05\HP DeskJet 1120C
  4
A3
  6

 40
5.95841646
 41
13.49375153
 42
6.04309082
 43
3.67242432
 44
296.92599487
 45
419.94665527
 46
-67.54
 47
-95.61
 48
0.0
 49
0.0
140
0.0
141
0.0
142
1.0
143
0.5
 70
  1716
 72
     1
 73
     1
 74
     2
  7
big.ctb
 75
    27
147
2.0
148
0.0
149
0.0
  0
PLOTSETTINGS
  5
755
102
{ACAD_REACTORS
330
566
102
}
330
566
100
AcDbPlotSettings
  1
A4(0.5倍)
  2
\\AWTECPC05\HP DeskJet 1120C
  4
A4
  6

 40
4.18041658
 41
13.49374962
 42
4.18040466
 43
3.92642212
 44
209.97332764
 45
296.92599487
 46
48.31
 47
65.5
 48
0.0
 49
0.0
140
0.0
141
0.0
142
1.0
143
2.0
 70
  1716
 72
     1
 73
     1
 74
     2
  7
big.ctb
 75
    17
147
0.5
148
0.0
149
0.0
  0
PLOTSETTINGS
  5
754
102
{ACAD_REACTORS
330
566
102
}
330
566
100
AcDbPlotSettings
  1
A4(1倍)
  2
\\AWTECPC05\HP DeskJet 1120C
  4
A4
  6

 40
4.18041658
 41
13.49374962
 42
4.18040466
 43
3.92642212
 44
209.97332764
 45
296.92599487
 46
-4.19
 47
-8.75
 48
0.0
 49
0.0
140
0.0
141
0.0
142
1.0
143
1.0
 70
  1716
 72
     1
 73
     1
 74
     2
  7
big.ctb
 75
    16
147
1.0
148
0.0
149
0.0
  0
PLOTSETTINGS
  5
708
102
{ACAD_REACTORS
330
566
102
}
330
566
100
AcDbPlotSettings
  1
A4(1倍)(2000)
  2
SII LS-1300 (D-SCAN)
  4
User259
  6

 40
3.17499995
 41
3.17499995
 42
3.17498779
 43
3.17500305
 44
296.98950195
 45
209.99449158
 46
-3.18
 47
-3.18
 48
0.0
 49
0.0
140
0.0
141
0.0
142
1.0
143
1.0
 70
  1716
 72
     1
 73
     0
 74
     2
  7
big.ctb
 75
    16
147
1.0
148
0.0
149
0.0
  0
PLOTSETTINGS
  5
756
102
{ACAD_REACTORS
330
566
102
}
330
566
100
AcDbPlotSettings
  1
A4(2倍)
  2
\\AWTECPC05\HP DeskJet 1120C
  4
A4
  6

 40
4.18041658
 41
13.49374962
 42
4.18040466
 43
3.92642212
 44
209.97332764
 45
296.92599487
 46
-109.19
 47
-157.25
 48
0.0
 49
0.0
140
0.0
141
0.0
142
1.0
143
0.5
 70
  1716
 72
     1
 73
     1
 74
     2
  7
big.ctb
 75
    27
147
2.0
148
0.0
149
0.0
  0
ACDBPLACEHOLDER
  5
564
102
{ACAD_REACTORS
330
563
102
}
330
563
100
AcDbPlaceHolder
280
     0
  0
XRECORD
  5
FCA
102
{ACAD_REACTORS
330
FC0
102
}
330
FC0
100
AcDbXrecord
 90
        0
  0
XRECORD
  5
FCE
102
{ACAD_REACTORS
330
FC0
102
}
330
FC0
100
AcDbXrecord
1000
DSTYLE
1002
{
1070
   341
340
594
1070
   343
340
594
1070
   344
340
594
1002
}
  0
XRECORD
  5
FCB
102
{ACAD_REACTORS
330
FC0
102
}
330
FC0
100
AcDbXrecord
  1
{51294030-9CB4-11D3-8E18-00A0C925D94D}
  0
XRECORD
  5
FC3
102
{ACAD_REACTORS
330
FC0
102
}
330
FC0
100
AcDbXrecord
  1

  0
XRECORD
  5
FC9
102
{ACAD_REACTORS
330
FC0
102
}
330
FC0
100
AcDbXrecord
 90
        0
  0
XRECORD
  5
FC5
102
{ACAD_REACTORS
330
FC0
102
}
330
FC0
100
AcDbXrecord
340
565
  0
XRECORD
  5
FC8
102
{ACAD_REACTORS
330
FC0
102
}
330
FC0
100
AcDbXrecord
 90
    10781
  0
XRECORD
  5
FC6
102
{ACAD_REACTORS
330
FC0
102
}
330
FC0
100
AcDbXrecord
340
566
  0
XRECORD
  5
FC7
102
{ACAD_REACTORS
330
FC0
102
}
330
FC0
100
AcDbXrecord
340
563
  0
XRECORD
  5
FCD
102
{ACAD_REACTORS
330
FC0
102
}
330
FC0
100
AcDbXrecord
 40
0.0
  0
XRECORD
  5
FD1
102
{ACAD_REACTORS
330
FC0
102
}
330
FC0
100
AcDbXrecord
340
0
  0
XRECORD
  5
FD7
102
{ACAD_REACTORS
330
FC0
102
}
330
FC0
100
AcDbXrecord
 10
0.0
 20
0.0
 30
0.0
  0
XRECORD
  5
FD3
102
{ACAD_REACTORS
330
FC0
102
}
330
FC0
100
AcDbXrecord
 10
0.0
 20
0.0
 30
0.0
  0
XRECORD
  5
FD6
102
{ACAD_REACTORS
330
FC0
102
}
330
FC0
100
AcDbXrecord
 10
0.0
 20
0.0
 30
0.0
  0
XRECORD
  5
FD4
102
{ACAD_REACTORS
330
FC0
102
}
330
FC0
100
AcDbXrecord
 10
0.0
 20
0.0
 30
0.0
  0
XRECORD
  5
FD5
102
{ACAD_REACTORS
330
FC0
102
}
330
FC0
100
AcDbXrecord
 10
0.0
 20
0.0
 30
0.0
  0
XRECORD
  5
FD2
102
{ACAD_REACTORS
330
FC0
102
}
330
FC0
100
AcDbXrecord
 10
0.0
 20
0.0
 30
0.0
  0
XRECORD
  5
FCF
102
{ACAD_REACTORS
330
FC0
102
}
330
FC0
100
AcDbXrecord
340
0
  0
XRECORD
  5
FD0
102
{ACAD_REACTORS
330
FC0
102
}
330
FC0
100
AcDbXrecord
 70
     0
  0
XRECORD
  5
FC4
102
{ACAD_REACTORS
330
FC0
102
}
330
FC0
100
AcDbXrecord
  1
big.ctb
  0
XRECORD
  5
FC1
102
{ACAD_REACTORS
330
FC0
102
}
330
FC0
100
AcDbXrecord
 90
        1
  0
XRECORD
  5
FC2
102
{ACAD_REACTORS
330
FC0
102
}
330
FC0
100
AcDbXrecord
 90
       70
  0
XRECORD
  5
FDA
102
{ACAD_REACTORS
330
FC0
102
}
330
FC0
100
AcDbXrecord
340
0
  0
XRECORD
  5
FE0
102
{ACAD_REACTORS
330
FC0
102
}
330
FC0
100
AcDbXrecord
 10
0.0
 20
0.0
 30
0.0
  0
XRECORD
  5
FDC
102
{ACAD_REACTORS
330
FC0
102
}
330
FC0
100
AcDbXrecord
 10
0.0
 20
0.0
 30
0.0
  0
XRECORD
  5
FDF
102
{ACAD_REACTORS
330
FC0
102
}
330
FC0
100
AcDbXrecord
 10
0.0
 20
0.0
 30
0.0
  0
XRECORD
  5
FDD
102
{ACAD_REACTORS
330
FC0
102
}
330
FC0
100
AcDbXrecord
 10
0.0
 20
0.0
 30
0.0
  0
XRECORD
  5
FDE
102
{ACAD_REACTORS
330
FC0
102
}
330
FC0
100
AcDbXrecord
 10
0.0
 20
0.0
 30
0.0
  0
XRECORD
  5
FDB
102
{ACAD_REACTORS
330
FC0
102
}
330
FC0
100
AcDbXrecord
 10
0.0
 20
0.0
 30
0.0
  0
XRECORD
  5
FD8
102
{ACAD_REACTORS
330
FC0
102
}
330
FC0
100
AcDbXrecord
340
0
  0
XRECORD
  5
FD9
102
{ACAD_REACTORS
330
FC0
102
}
330
FC0
100
AcDbXrecord
 70
     0
  0
XRECORD
  5
FCC
102
{ACAD_REACTORS
330
FC0
102
}
330
FC0
100
AcDbXrecord
  1
{96599935-80E8-402A-9676-39B15EA98E79}
  0
XRECORD
  5
560
102
{ACAD_REACTORS
330
540
102
}
330
540
100
AcDbXrecord
  1
2.0.0
  0
ENDSEC
  0
EOF
