  0
SECTION
  2
HEADER
  9
$ACADVER
  1
AC1015
  9
$ACADMAINTVER
 70
    20
  9
$DWGCODEPAGE
  3
ANSI_932
  9
$INSBASE
 10
0.0
 20
0.0
 30
0.0
  9
$EXTMIN
 10
-67.38895229956978
 20
-31.70710678118655
 30
0.0
  9
$EXTMAX
 10
168.0
 20
68.00000000000001
 30
0.0
  9
$LIMMIN
 10
0.0
 20
0.0
  9
$LIMMAX
 10
297.0
 20
210.0
  9
$ORTHOMODE
 70
     1
  9
$REGENMODE
 70
     1
  9
$FILLMODE
 70
     1
  9
$QTEXTMODE
 70
     0
  9
$MIRRTEXT
 70
     1
  9
$LTSCALE
 40
10.0
  9
$ATTMODE
 70
     1
  9
$TEXTSIZE
 40
3.0
  9
$TRACEWID
 40
1.0
  9
$TEXTSTYLE
  7
YOKO
  9
$CLAYER
  8
240
  9
$CELTYPE
  6
BYLAYER
  9
$CECOLOR
 62
   256
  9
$CELTSCALE
 40
1.0
  9
$DISPSILH
 70
     0
  9
$DIMSCALE
 40
1.0
  9
$DIMASZ
 40
2.229999999999999
  9
$DIMEXO
 40
0.5
  9
$DIMDLI
 40
7.0
  9
$DIMRND
 40
0.0
  9
$DIMDLE
 40
0.0
  9
$DIMEXE
 40
1.0
  9
$DIMTP
 40
0.0
  9
$DIMTM
 40
0.01
  9
$DIMTXT
 40
2.799999999999999
  9
$DIMCEN
 40
0.0
  9
$DIMTSZ
 40
0.0
  9
$DIMTOL
 70
     0
  9
$DIMLIM
 70
     0
  9
$DIMTIH
 70
     0
  9
$DIMTOH
 70
     0
  9
$DIMSE1
 70
     0
  9
$DIMSE2
 70
     0
  9
$DIMTAD
 70
     3
  9
$DIMZIN
 70
     9
  9
$DIMBLK
  1
Open
  9
$DIMASO
 70
     1
  9
$DIMSHO
 70
     1
  9
$DIMPOST
  1

  9
$DIMAPOST
  1

  9
$DIMALT
 70
     0
  9
$DIMALTD
 70
     2
  9
$DIMALTF
 40
25.4
  9
$DIMLFAC
 40
1.0
  9
$DIMTOFL
 70
     1
  9
$DIMTVP
 40
0.0
  9
$DIMTIX
 70
     1
  9
$DIMSOXD
 70
     0
  9
$DIMSAH
 70
     0
  9
$DIMBLK1
  1

  9
$DIMBLK2
  1

  9
$DIMSTYLE
  2
BIGT
  9
$DIMCLRD
 70
   256
  9
$DIMCLRE
 70
   256
  9
$DIMCLRT
 70
    40
  9
$DIMTFAC
 40
1.0
  9
$DIMGAP
 40
1.0
  9
$DIMJUST
 70
     0
  9
$DIMSD1
 70
     0
  9
$DIMSD2
 70
     0
  9
$DIMTOLJ
 70
     1
  9
$DIMTZIN
 70
     8
  9
$DIMALTZ
 70
     0
  9
$DIMALTTZ
 70
     0
  9
$DIMUPT
 70
     0
  9
$DIMDEC
 70
     3
  9
$DIMTDEC
 70
     3
  9
$DIMALTU
 70
     2
  9
$DIMALTTD
 70
     2
  9
$DIMTXSTY
  7
STANDARD
  9
$DIMAUNIT
 70
     0
  9
$DIMADEC
 70
     3
  9
$DIMALTRND
 40
0.0
  9
$DIMAZIN
 70
     2
  9
$DIMDSEP
 70
    46
  9
$DIMATFIT
 70
     2
  9
$DIMFRAC
 70
     0
  9
$DIMLDRBLK
  1
Open
  9
$DIMLUNIT
 70
     2
  9
$DIMLWD
 70
    -1
  9
$DIMLWE
 70
    -1
  9
$DIMTMOVE
 70
     0
  9
$LUNITS
 70
     2
  9
$LUPREC
 70
     3
  9
$SKETCHINC
 40
1.0
  9
$FILLETRAD
 40
6.0
  9
$AUNITS
 70
     0
  9
$AUPREC
 70
     3
  9
$MENU
  1
.
  9
$ELEVATION
 40
0.0
  9
$PELEVATION
 40
0.0
  9
$THICKNESS
 40
0.0
  9
$LIMCHECK
 70
     0
  9
$CHAMFERA
 40
0.25
  9
$CHAMFERB
 40
0.25
  9
$CHAMFERC
 40
0.2500000000000284
  9
$CHAMFERD
 40
0.7853981633974767
  9
$SKPOLY
 70
     0
  9
$TDCREATE
 40
2456505.358603044
  9
$TDUCREATE
 40
2456504.983603044
  9
$TDUPDATE
 40
2456505.722461273
  9
$TDUUPDATE
 40
2456505.347461273
  9
$TDINDWG
 40
0.1947558102
  9
$TDUSRTIMER
 40
0.1947558102
  9
$USRTIMER
 70
     1
  9
$ANGBASE
 50
0.0
  9
$ANGDIR
 70
     0
  9
$PDMODE
 70
     1
  9
$PDSIZE
 40
0.0
  9
$PLINEWID
 40
0.0
  9
$SPLFRAME
 70
     0
  9
$SPLINETYPE
 70
     6
  9
$SPLINESEGS
 70
     4
  9
$HANDSEED
  5
1786
  9
$SURFTAB1
 70
     6
  9
$SURFTAB2
 70
     6
  9
$SURFTYPE
 70
     6
  9
$SURFU
 70
     6
  9
$SURFV
 70
     6
  9
$UCSBASE
  2

  9
$UCSNAME
  2

  9
$UCSORG
 10
0.0
 20
0.0
 30
0.0
  9
$UCSXDIR
 10
1.0
 20
0.0
 30
0.0
  9
$UCSYDIR
 10
0.0
 20
1.0
 30
0.0
  9
$UCSORTHOREF
  2

  9
$UCSORTHOVIEW
 70
     0
  9
$UCSORGTOP
 10
0.0
 20
0.0
 30
0.0
  9
$UCSORGBOTTOM
 10
0.0
 20
0.0
 30
0.0
  9
$UCSORGLEFT
 10
0.0
 20
0.0
 30
0.0
  9
$UCSORGRIGHT
 10
0.0
 20
0.0
 30
0.0
  9
$UCSORGFRONT
 10
0.0
 20
0.0
 30
0.0
  9
$UCSORGBACK
 10
0.0
 20
0.0
 30
0.0
  9
$PUCSBASE
  2

  9
$PUCSNAME
  2

  9
$PUCSORG
 10
0.0
 20
0.0
 30
0.0
  9
$PUCSXDIR
 10
1.0
 20
0.0
 30
0.0
  9
$PUCSYDIR
 10
0.0
 20
1.0
 30
0.0
  9
$PUCSORTHOREF
  2

  9
$PUCSORTHOVIEW
 70
     0
  9
$PUCSORGTOP
 10
0.0
 20
0.0
 30
0.0
  9
$PUCSORGBOTTOM
 10
0.0
 20
0.0
 30
0.0
  9
$PUCSORGLEFT
 10
0.0
 20
0.0
 30
0.0
  9
$PUCSORGRIGHT
 10
0.0
 20
0.0
 30
0.0
  9
$PUCSORGFRONT
 10
0.0
 20
0.0
 30
0.0
  9
$PUCSORGBACK
 10
0.0
 20
0.0
 30
0.0
  9
$USERI1
 70
     1
  9
$USERI2
 70
     0
  9
$USERI3
 70
     0
  9
$USERI4
 70
     0
  9
$USERI5
 70
     0
  9
$USERR1
 40
0.0
  9
$USERR2
 40
0.0
  9
$USERR3
 40
0.0
  9
$USERR4
 40
0.0
  9
$USERR5
 40
0.0
  9
$WORLDVIEW
 70
     1
  9
$SHADEDGE
 70
     3
  9
$SHADEDIF
 70
    70
  9
$TILEMODE
 70
     1
  9
$MAXACTVP
 70
    16
  9
$PINSBASE
 10
0.0
 20
0.0
 30
0.0
  9
$PLIMCHECK
 70
     0
  9
$PEXTMIN
 10
1.000000000000000E+20
 20
1.000000000000000E+20
 30
1.000000000000000E+20
  9
$PEXTMAX
 10
-1.000000000000000E+20
 20
-1.000000000000000E+20
 30
-1.000000000000000E+20
  9
$PLIMMIN
 10
0.0
 20
0.0
  9
$PLIMMAX
 10
420.0
 20
297.0
  9
$UNITMODE
 70
     0
  9
$VISRETAIN
 70
     1
  9
$PLINEGEN
 70
     0
  9
$PSLTSCALE
 70
     1
  9
$TREEDEPTH
 70
  3020
  9
$CMLSTYLE
  2
STANDARD
  9
$CMLJUST
 70
     0
  9
$CMLSCALE
 40
1.0
  9
$PROXYGRAPHICS
 70
     1
  9
$MEASUREMENT
 70
     1
  9
$CELWEIGHT
370
    -1
  9
$ENDCAPS
280
     0
  9
$JOINSTYLE
280
     0
  9
$LWDISPLAY
290
     0
  9
$INSUNITS
 70
     0
  9
$HYPERLINKBASE
  1

  9
$STYLESHEET
  1
technical_osaka.ctb
  9
$XEDIT
290
     1
  9
$CEPSNTYPE
380
     0
  9
$PSTYLEMODE
290
     1
  9
$FINGERPRINTGUID
  2
{9536CA39-A6D1-411B-94ED-EB86070DB78D}
  9
$VERSIONGUID
  2
{C9C61838-D33A-439E-90CC-2762263D1228}
  9
$EXTNAMES
290
     1
  9
$PSVPSCALE
 40
0.0
  9
$OLESTARTUP
290
     0
  0
ENDSEC
  0
SECTION
  2
CLASSES
  0
CLASS
  1
ACDBDICTIONARYWDFLT
  2
AcDbDictionaryWithDefault
  3
ObjectDBX Classes
 90
        0
280
     0
281
     0
  0
CLASS
  1
ACDBPLACEHOLDER
  2
AcDbPlaceHolder
  3
ObjectDBX Classes
 90
        0
280
     0
281
     0
  0
CLASS
  1
LAYOUT
  2
AcDbLayout
  3
ObjectDBX Classes
 90
        0
280
     0
281
     0
  0
CLASS
  1
DICTIONARYVAR
  2
AcDbDictionaryVar
  3
ObjectDBX Classes
 90
        0
280
     0
281
     0
  0
CLASS
  1
ACME_DOCUMENT
  2
AcMeDbDoc
  3
AcMeServices
 90
        0
280
     0
281
     0
  0
CLASS
  1
AMGSETTINGSOBJ
  2
AmgSettingsObj
  3
"AcadM|Product Description: AutoCAD Mechanical 2000|Company: Autodesk"
 90
        0
280
     0
281
     0
  0
CLASS
  1
ACMESCOPE
  2
AcMeScope
  3
AcMeServices
 90
        0
280
     0
281
     0
  0
CLASS
  1
ACMECOMMANDHISTORY
  2
AcMeCommandHistory
  3
AcMeServices
 90
        0
280
     0
281
     0
  0
CLASS
  1
ACIMSYSVARMAN
  2
AcImSysVarManager
  3
AcMeServices
 90
        0
280
     0
281
     0
  0
CLASS
  1
ACIMREALSYSVAR
  2
AcImRealSysVar
  3
AcMeServices
 90
        0
280
     0
281
     0
  0
CLASS
  1
ACIMINTSYSVAR
  2
AcImIntSysVar
  3
AcMeServices
 90
        0
280
     0
281
     0
  0
CLASS
  1
ACMEDRAWINGMAN
  2
AcMeDrawingMan
  3
AcMeServices
 90
        0
280
     0
281
     0
  0
CLASS
  1
ACMEVIEW
  2
AcMeView
  3
AcMeServices
 90
        0
280
     0
281
     0
  0
CLASS
  1
ACDBENTITYCACHE
  2
AcMeEntityCache
  3
AcMeServices
 90
        0
280
     0
281
     0
  0
CLASS
  1
GSMANAGER
  2
AcMeGSManager
  3
AcMeServices
 90
        0
280
     0
281
     0
  0
CLASS
  1
AMDTINTERNALREACTOR
  2
AmdtInternalReactor
  3
AcMeServices
 90
        0
280
     0
281
     0
  0
CLASS
  1
ACMESTATEMGR
  2
AcMeStateMgr
  3
AcMeServices
 90
        0
280
     0
281
     0
  0
CLASS
  1
ACGREFMASTER
  2
AcGrefMaster
  3
AcAttribServices
 90
        0
280
     0
281
     0
  0
CLASS
  1
ACME_DATABASE
  2
AcMeDbDatabase
  3
AcMeServices
 90
        0
280
     0
281
     0
  0
CLASS
  1
ACRFINSADJUSTERMGR
  2
AcRfInsAdjusterMgr
  3
AcMeServices
 90
        0
280
     0
281
     0
  0
CLASS
  1
ACGREFACADMASTER
  2
AcGrefacadMaster
  3
AcGrefServices
 90
        0
280
     0
281
     0
  0
CLASS
  1
AMIMASTER
  2
AmiMaster
  3
AmiServices
 90
        0
280
     0
281
     0
  0
CLASS
  1
ACMDATADICTIONARY
  2
AcmDataDictionary
  3
"AcmSymBB|Product Description: AutoCAD Mechanical 2004 DX|Company: Autodesk"
 90
        0
280
     0
281
     0
  0
CLASS
  1
ACMDATAENTRYBLOCK
  2
AcmDataEntryBlock
  3
"AcmSymBB|Product Description: AutoCAD Mechanical 2004 DX|Company: Autodesk"
 90
    32768
280
     0
281
     0
  0
CLASS
  1
ACIMSTRSYSVAR
  2
AcImStrSysVar
  3
AcMeServices
 90
        0
280
     0
281
     0
  0
CLASS
  1
ACMSTANDARDISO
  2
AcmStandardISO
  3
"Amdt_StdImp|Product Description: AutoCAD Mechanical 2004 DX|Company: Autodesk"
 90
        0
280
     0
281
     0
  0
CLASS
  1
AMGOBJPROPCFG
  2
AmgObjPropCfg
  3
"AmgLay|Product Description: AutoCAD Mechanical 2000|Company: Autodesk"
 90
        1
280
     0
281
     0
  0
CLASS
  1
AMDTEDGESTANDARDISO
  2
AmdtEdgeStdISO
  3
"Amdt_StdImp|Product Description: AutoCAD Mechanical 2004 DX|Company: Autodesk"
 90
        0
280
     0
281
     0
  0
CLASS
  1
ACMSURFSTANDARDISO
  2
AcmSurfTextStdISO
  3
"Amdt_StdImp|Product Description: AutoCAD Mechanical 2004 DX|Company: Autodesk"
 90
        0
280
     0
281
     0
  0
CLASS
  1
ACMFCFSTANDARDISO
  2
AcmFCFStdISO
  3
"Amdt_StdImp|Product Description: AutoCAD Mechanical 2004 DX|Company: Autodesk"
 90
        0
280
     0
281
     0
  0
CLASS
  1
ACMWELDSTANDARDISO
  2
AcmWeldingStdISO
  3
"Amdt_StdImp|Product Description: AutoCAD Mechanical 2004 DX|Company: Autodesk"
 90
        0
280
     0
281
     0
  0
CLASS
  1
ACMIDSTANDARDISO
  2
AcmIdStdISO
  3
"Amdt_StdImp|Product Description: AutoCAD Mechanical 2004 DX|Company: Autodesk"
 90
        0
280
     0
281
     0
  0
CLASS
  1
ACMDATUMSTANDARDISO
  2
AcmDatumStdISO
  3
"Amdt_StdImp|Product Description: AutoCAD Mechanical 2004 DX|Company: Autodesk"
 90
        0
280
     0
281
     0
  0
CLASS
  1
ACMBOMSTANDARDISO
  2
AcmBOMStdISO
  3
"Amdt_StdImp|Product Description: AutoCAD Mechanical 2004 DX|Company: Autodesk"
 90
        0
280
     0
281
     0
  0
CLASS
  1
ACMDETAILSTANDARDISO
  2
AmdtDetailSymStdISO
  3
"Amdt_StdImp|Product Description: AutoCAD Mechanical 2004 DX|Company: Autodesk"
 90
        0
280
     0
281
     0
  0
CLASS
  1
ACMSECTIONSTANDARDISO
  2
AmdtSectionSymStdISO
  3
"Amdt_StdImp|Product Description: AutoCAD Mechanical 2004 DX|Company: Autodesk"
 90
        0
280
     0
281
     0
  0
CLASS
  1
ACMCENTERLINESTANDARDISO
  2
AmdtCenterLineStdISO
  3
"Amdt_StdImp|Product Description: AutoCAD Mechanical 2004 DX|Company: Autodesk"
 90
        0
280
     0
281
     0
  0
CLASS
  1
ACMNOTESTANDARDISO
  2
AmdtNoteStdISO
  3
"Amdt_StdImp|Product Description: AutoCAD Mechanical 2004 DX|Company: Autodesk"
 90
        0
280
     0
281
     0
  0
CLASS
  1
ACAMGLAYSTD
  2
AcAmgLayStd
  3
"AcAmgLayStd|Product Description: AutoCAD Mechanical 2000|Company: Autodesk"
 90
        0
280
     0
281
     0
  0
CLASS
  1
ACAMGDIMSTD
  2
AcAmgDimStd
  3
"AcAmgDimStd|Product Description: AutoCAD Mechanical 2000|Company: Autodesk"
 90
        0
280
     0
281
     0
  0
CLASS
  1
ACAMGHOLECHARTSTDISO
  2
AcAmgHoleChartStdISO
  3
ACMSYMBB_MODULE_NAME
 90
        0
280
     0
281
     0
  0
CLASS
  1
ACAMGTITLESTD
  2
AcAmgTitleStd
  3
"TITLEAPP"
 90
        0
280
     0
281
     0
  0
CLASS
  1
ACMSTANDARDJIS
  2
AcmStandardJIS
  3
"Amdt_StdImp|Product Description: AutoCAD Mechanical 2004 DX|Company: Autodesk"
 90
        0
280
     0
281
     0
  0
CLASS
  1
ACMSURFSTANDARDJIS
  2
AcmSurfTextStdJIS
  3
"Amdt_StdImp|Product Description: AutoCAD Mechanical 2004 DX|Company: Autodesk"
 90
        0
280
     0
281
     0
  0
CLASS
  1
ACMFCFSTANDARDJIS98
  2
AcmFCFStdJIS98
  3
"Amdt_StdImp|Product Description: AutoCAD Mechanical 2004 DX|Company: Autodesk"
 90
        0
280
     0
281
     0
  0
CLASS
  1
ACMWELDSTANDARDJIS
  2
AcmWeldingStdJIS
  3
"Amdt_StdImp|Product Description: AutoCAD Mechanical 2004 DX|Company: Autodesk"
 90
        0
280
     0
281
     0
  0
CLASS
  1
ACMIDSTANDARDJIS
  2
AcmIdStdJIS
  3
"Amdt_StdImp|Product Description: AutoCAD Mechanical 2004 DX|Company: Autodesk"
 90
        0
280
     0
281
     0
  0
CLASS
  1
ACMDATUMSTANDARDJIS
  2
AcmDatumStdJIS
  3
"Amdt_StdImp|Product Description: AutoCAD Mechanical 2004 DX|Company: Autodesk"
 90
        0
280
     0
281
     0
  0
CLASS
  1
ACMBOMSTANDARDJIS
  2
AcmBOMStdJIS
  3
"Amdt_StdImp|Product Description: AutoCAD Mechanical 2004 DX|Company: Autodesk"
 90
        0
280
     0
281
     0
  0
CLASS
  1
ACMDETAILSTANDARDJIS
  2
AmdtDetailSymStdJIS
  3
"Amdt_StdImp|Product Description: AutoCAD Mechanical 2004 DX|Company: Autodesk"
 90
        0
280
     0
281
     0
  0
CLASS
  1
ACMSECTIONSTANDARDJIS
  2
AmdtSectionSymStdJIS
  3
"Amdt_StdImp|Product Description: AutoCAD Mechanical 2004 DX|Company: Autodesk"
 90
        0
280
     0
281
     0
  0
CLASS
  1
ACMCENTERLINESTANDARDJIS
  2
AmdtCenterLineStdJIS
  3
"Amdt_StdImp|Product Description: AutoCAD Mechanical 2004 DX|Company: Autodesk"
 90
        0
280
     0
281
     0
  0
CLASS
  1
ACMNOTESTANDARDJIS
  2
AmdtNoteStdJIS
  3
"Amdt_StdImp|Product Description: AutoCAD Mechanical 2004 DX|Company: Autodesk"
 90
        0
280
     0
281
     0
  0
CLASS
  1
ACAMGHOLECHARTSTDJIS
  2
AcAmgHoleChartStdJIS
  3
ACMSYMBB_MODULE_NAME
 90
        0
280
     0
281
     0
  0
CLASS
  1
ACAMGFILTERDAT
  2
AcAmgFilterDat
  3
"AcadM|Product Description: AutoCAD Mechanical 2000|Company: Autodesk"
 90
    32768
280
     0
281
     0
  0
CLASS
  1
LAYER_INDEX
  2
AcDbLayerIndex
  3
ObjectDBX Classes
 90
    32768
280
     0
281
     0
  0
CLASS
  1
IDBUFFER
  2
AcDbIdBuffer
  3
ObjectDBX Classes
 90
    32768
280
     0
281
     0
  0
CLASS
  1
ACMFCFRAME
  2
AcmFCF
  3
"AcmSymBB|Product Description: AutoCAD Mechanical 2004 DX|Company: Autodesk"
 90
    33791
280
     0
281
     1
  0
CLASS
  1
AMDTFORMULAUPDATEDISPATCHER
  2
AmdtFormulaUpdateDispatcher
  3
AcMeServices
 90
    32768
280
     0
281
     0
  0
CLASS
  1
AMDTNOTE
  2
AmdtNote
  3
"AcmSymBB|Product Description: AutoCAD Mechanical 2004 DX|Company: Autodesk"
 90
    33791
280
     0
281
     1
  0
CLASS
  1
ACDBOPPOLYLINERES
  2
AcDbOpPolylineRes
  3
AcGrefServices
 90
    32768
280
     0
281
     0
  0
CLASS
  1
ACMDATUMID
  2
AcmDatumId
  3
"AcmSymBB|Product Description: AutoCAD Mechanical 2004 DX|Company: Autodesk"
 90
    33791
280
     0
281
     1
  0
CLASS
  1
AM_DRAWING_MGR
  2
AcDmDwgMgr
  3
AcMechDwgViewMgmt
 90
        0
280
     0
281
     0
  0
CLASS
  1
AM_DWG_DOCUMENT
  2
AcDmDwgDocument
  3
AcMechDwgViewMgmt
 90
        0
280
     0
281
     0
  0
CLASS
  1
AM_DWG_SHEET
  2
AcDmSheet
  3
AcMechDwgViewMgmt
 90
        0
280
     0
281
     0
  0
CLASS
  1
AM_VIEWDIMPARMAP
  2
AcDmViewDimParMap
  3
AcMechDwgViewMgmt
 90
        0
280
     0
281
     0
  0
CLASS
  1
AM_DWGMGR_NAME
  2
AcDmDwgMgrName
  3
AcMechDwgViewMgmt
 90
        0
280
     0
281
     0
  0
CLASS
  1
AMDTMENUSTATEMGR
  2
AmdtMenuStateMgr
  3
McadcomServices
 90
        0
280
     0
281
     0
  0
CLASS
  1
AMDTMCOMMENUSTATE
  2
AmdtMcomMenuState
  3
McadcomServices
 90
        0
280
     0
281
     0
  0
CLASS
  1
MAPIAMMOUDLE
  2
MApiAmModule
  3
MApiAmServices
 90
        0
280
     0
281
     0
  0
CLASS
  1
AMDTADMENUSTATE
  2
AmdtAdMenuState
  3
DesignerServices
 90
        0
280
     0
281
     0
  0
CLASS
  1
ADAPPL
  2
AcAdAppl
  3
DesignerServices
 90
        0
280
     0
281
     0
  0
CLASS
  1
DEPMGR
  2
AcAdDepMgr
  3
DesignerServices
 90
        0
280
     0
281
     0
  0
CLASS
  1
PARAMMGR
  2
AcAdParamMgr
  3
DesignerServices
 90
        0
280
     0
281
     0
  0
CLASS
  1
PARAMSCOPE
  2
AcAdParamScope
  3
DesignerServices
 90
        0
280
     0
281
     0
  0
CLASS
  1
NAMEDAPPL
  2
AcAdNamedAppl
  3
DesignerServices
 90
        0
280
     0
281
     0
  0
CLASS
  1
AMDTDMMENUSTATE
  2
AmdtDmMenuState
  3
AcMechDwgViewMgmt
 90
        0
280
     0
281
     0
  0
CLASS
  1
AMDTAMMENUSTATE
  2
AmdtAmMenuState
  3
DesignerAssemblies
 90
        0
280
     0
281
     0
  0
CLASS
  1
ACAMPROJECT
  2
AcAmProject
  3
DesignerAssemblies
 90
        0
280
     0
281
     0
  0
CLASS
  1
ACAMGRCOMPDEF
  2
AcAmGrCompDef
  3
DesignerAssemblies
 90
        0
280
     0
281
     0
  0
CLASS
  1
ACCMCONTEXT
  2
AcCmContext
  3
DesignerAssemblies
 90
        0
280
     0
281
     0
  0
CLASS
  1
ACAMCOMPDEF
  2
AcAmCompDef
  3
DesignerAssemblies
 90
        0
280
     0
281
     0
  0
CLASS
  1
ACAMCOMPDEFMGR
  2
AcAmCompDefMgr
  3
DesignerAssemblies
 90
        0
280
     0
281
     0
  0
CLASS
  1
AMCONTEXTMGR
  2
AcAmContextMgr
  3
DesignerAssemblies
 90
        0
280
     0
281
     0
  0
CLASS
  1
ACAMCONTEXTMODELER
  2
AcAmContextModeler
  3
DesignerAssemblies
 90
        0
280
     0
281
     0
  0
CLASS
  1
ACMTHREADLINESTANDARDISO
  2
AmdtThreadLineStdISO
  3
"Amdt_StdImp|Product Description: AutoCAD Mechanical 2004 DX|Company: Autodesk"
 90
        0
280
     0
281
     0
  0
CLASS
  1
ACMTHREADLINESTANDARDJIS
  2
AmdtThreadLineStdJIS
  3
"Amdt_StdImp|Product Description: AutoCAD Mechanical 2004 DX|Company: Autodesk"
 90
        0
280
     0
281
     0
  0
CLASS
  1
CATALOGSTATE
  2
AcAmCatalogState
  3
DesignerAssemblies
 90
        0
280
     0
281
     0
  0
CLASS
  1
ACAMGRCOMPDEFSET
  2
AcAmGrCompDefSet
  3
DesignerAssemblies
 90
        0
280
     0
281
     0
  0
CLASS
  1
AMDTBROWSERDBTAB
  2
AmdtBrowserDbTab
  3
McadcomServices
 90
        0
280
     0
281
     0
  0
CLASS
  1
CBROWSERAPPOBJECT
  2
CBrowserAppObject
  3
McadcomServices
 90
        0
280
     0
281
     0
  0
CLASS
  1
DM_PLACEHOLDER
  2
AcDmSelsetPlaceholder
  3
AcMechDwgViewMgmt
 90
        0
280
     0
281
     0
  0
CLASS
  1
TABLESTYLE
  2
AcDbTableStyle
  3
ObjectDBX Classes
 90
     2047
280
     0
281
     0
  0
CLASS
  1
MATERIAL
  2
AcDbMaterial
  3
ObjectDBX Classes
 90
        0
280
     0
281
     0
  0
CLASS
  1
SORTENTSTABLE
  2
AcDbSortentsTable
  3
ObjectDBX Classes
 90
        0
280
     0
281
     0
  0
CLASS
  1
ACRFATTGENMGR
  2
AcRfAttGeneralMgr
  3
AcAttribServices
 90
    32768
280
     0
281
     0
  0
ENDSEC
  0
SECTION
  2
TABLES
  0
TABLE
  2
VPORT
  5
8
330
0
100
AcDbSymbolTable
 70
     3
  0
VPORT
  5
177D
330
8
100
AcDbSymbolTableRecord
100
AcDbViewportTableRecord
  2
*Active
 70
     0
 10
0.0
 20
0.0
 11
1.0
 21
1.0
 12
50.30591640971355
 22
18.14621010463015
 13
0.0
 23
0.0
 14
7.0
 24
7.0
 15
7.0
 25
7.0
 16
0.0
 26
0.0
 36
1.0
 17
0.0
 27
0.0
 37
0.0
 40
153.0019755894904
 41
1.545560747663551
 42
50.0
 43
0.0
 44
0.0
 50
0.0
 51
0.0
 71
     0
 72
  2000
 73
     1
 74
     0
 75
     0
 76
     0
 77
     0
 78
     0
281
     0
 65
     1
110
0.0
120
0.0
130
0.0
111
1.0
121
0.0
131
0.0
112
0.0
122
1.0
132
0.0
 79
     0
146
0.0
  0
ENDTAB
  0
TABLE
  2
LTYPE
  5
5
330
0
100
AcDbSymbolTable
 70
    14
  0
LTYPE
  5
14
330
5
100
AcDbSymbolTableRecord
100
AcDbLinetypeTableRecord
  2
BYBLOCK
 70
     0
  3

 72
    65
 73
     0
 40
0.0
  0
LTYPE
  5
15
330
5
100
AcDbSymbolTableRecord
100
AcDbLinetypeTableRecord
  2
BYLAYER
 70
     0
  3

 72
    65
 73
     0
 40
0.0
  0
LTYPE
  5
16
330
5
100
AcDbSymbolTableRecord
100
AcDbLinetypeTableRecord
  2
CONTINUOUS
 70
     0
  3
Solid line
 72
    65
 73
     0
 40
0.0
  0
LTYPE
  5
258
330
5
100
AcDbSymbolTableRecord
100
AcDbLinetypeTableRecord
  2
CENTER2
 70
     0
  3
___ _ ___ _ ___ _ ___ _ ___ _ ___ _ ___ _ ___ _
 72
    65
 73
     4
 40
1.125
 49
0.75
 74
     0
 49
-0.125
 74
     0
 49
0.125
 74
     0
 49
-0.125
 74
     0
  0
LTYPE
  5
25C
330
5
100
AcDbSymbolTableRecord
100
AcDbLinetypeTableRecord
  2
HIDDEN2
 70
     0
  3
_ _ _ _ _ _ _ _ _ _ _ _ _ _ _ _ _ _ _ _ _ _ _ _
 72
    65
 73
     2
 40
0.1875
 49
0.125
 74
     0
 49
-0.0625
 74
     0
  0
LTYPE
  5
25D
330
5
100
AcDbSymbolTableRecord
100
AcDbLinetypeTableRecord
  2
PHANTOM2
 70
     0
  3
___ _ _ ___ _ _ ___ _ _ ___ _ _ ___ _ _ ___ _ _
 72
    65
 73
     6
 40
1.25
 49
0.625
 74
     0
 49
-0.125
 74
     0
 49
0.125
 74
     0
 49
-0.125
 74
     0
 49
0.125
 74
     0
 49
-0.125
 74
     0
  0
LTYPE
  5
37C
330
5
100
AcDbSymbolTableRecord
100
AcDbLinetypeTableRecord
  2
CENTER
 70
     0
  3
____ _ ____ _ ____ _ ____ _ ____ _ ____ _ ____ 
 72
    65
 73
     4
 40
2.0
 49
1.25
 74
     0
 49
-0.25
 74
     0
 49
0.25
 74
     0
 49
-0.25
 74
     0
  0
LTYPE
  5
6C5
330
5
100
AcDbSymbolTableRecord
100
AcDbLinetypeTableRecord
  2
AM_ISO02W050
 70
     0
  3
__ __ __ __ __ __ __ __ __ __ __ __ __ __ __
 72
    65
 73
     2
 40
7.5
 49
6.0
 74
     0
 49
-1.5
 74
     0
  0
LTYPE
  5
6C8
330
5
100
AcDbSymbolTableRecord
100
AcDbLinetypeTableRecord
  2
Amconstr
 70
     0
  3
_______________________
 72
    65
 73
     2
 40
9999.0
 49
9999.0
 74
     0
 49
0.0
 74
     0
  0
LTYPE
  5
6DB
330
5
100
AcDbSymbolTableRecord
100
AcDbLinetypeTableRecord
  2
ACISOWELD
 70
     0
  3
_ _ _ _ _
 72
    65
 73
     2
 40
2.0
 49
2.0
 74
     0
 49
-1.0
 74
     0
  0
LTYPE
  5
6DC
330
5
100
AcDbSymbolTableRecord
100
AcDbLinetypeTableRecord
  2
ACISOTGB
 70
     0
  3
__ . . __ . .
 72
    65
 73
     6
 40
9.0
 49
4.0
 74
     0
 49
-1.0
 74
     0
 49
1.0
 74
     0
 49
-1.0
 74
     0
 49
1.0
 74
     0
 49
-1.0
 74
     0
  0
LTYPE
  5
6DD
330
5
100
AcDbSymbolTableRecord
100
AcDbLinetypeTableRecord
  2
ACISOTGL
 70
     0
  3
_ _ _ _ _
 72
    65
 73
     2
 40
3.0
 49
2.0
 74
     0
 49
-1.0
 74
     0
  0
LTYPE
  5
7CD
330
5
100
AcDbSymbolTableRecord
100
AcDbLinetypeTableRecord
  2
ACJISTGB
 70
     0
  3
__ . . __ . .
 72
    65
 73
     6
 40
9.0
 49
4.0
 74
     0
 49
-1.0
 74
     0
 49
1.0
 74
     0
 49
-1.0
 74
     0
 49
1.0
 74
     0
 49
-1.0
 74
     0
  0
LTYPE
  5
7CE
330
5
100
AcDbSymbolTableRecord
100
AcDbLinetypeTableRecord
  2
ACJISTGL
 70
     0
  3
_ _ _ _ _
 72
    65
 73
     2
 40
3.0
 49
2.0
 74
     0
 49
-1.0
 74
     0
  0
LTYPE
  5
110E
330
5
100
AcDbSymbolTableRecord
100
AcDbLinetypeTableRecord
  2
HIDDEN
 70
     0
  3
Hidden __ __ __ __ __ __ __ __ __ __ __ __ __ _
 72
    65
 73
     2
 40
9.524999999999998
 49
6.349999999999999
 74
     0
 49
-3.174999999999999
 74
     0
  0
ENDTAB
  0
TABLE
  2
LAYER
  5
2
330
0
100
AcDbSymbolTable
 70
    15
  0
LAYER
  5
F
330
2
100
AcDbSymbolTableRecord
100
AcDbLayerTableRecord
  2
0
 70
     0
 62
     7
  6
CONTINUOUS
370
    -3
390
564
  0
LAYER
  5
5C4
330
2
100
AcDbSymbolTableRecord
100
AcDbLayerTableRecord
  2
Defpoints
 70
     0
 62
     7
  6
CONTINUOUS
290
     0
370
    -3
390
564
  0
LAYER
  5
DCC
330
2
100
AcDbSymbolTableRecord
100
AcDbLayerTableRecord
  2
245
 70
     0
 62
     2
  6
CENTER2
370
    -3
390
564
  0
LAYER
  5
DD9
330
2
100
AcDbSymbolTableRecord
100
AcDbLayerTableRecord
  2
240
 70
     0
 62
     4
  6
CONTINUOUS
370
    -3
390
564
  0
LAYER
  5
DDA
330
2
100
AcDbSymbolTableRecord
100
AcDbLayerTableRecord
  2
241
 70
     0
 62
   211
  6
CONTINUOUS
370
    -3
390
564
  0
LAYER
  5
DDC
330
2
100
AcDbSymbolTableRecord
100
AcDbLayerTableRecord
  2
243
 70
     0
 62
   211
  6
HIDDEN2
370
    -3
390
564
  0
LAYER
  5
DE1
330
2
100
AcDbSymbolTableRecord
100
AcDbLayerTableRecord
  2
250
 70
     0
 62
     3
  6
CONTINUOUS
370
    -3
390
564
  0
ENDTAB
  0
TABLE
  2
STYLE
  5
3
330
0
100
AcDbSymbolTable
 70
     6
  0
STYLE
  5
10
330
3
100
AcDbSymbolTableRecord
100
AcDbTextStyleTableRecord
  2
STANDARD
 70
     0
 40
0.0
 41
1.0
 50
0.0
 71
     0
 42
3.0
  3
romans.shx
  4
extfont.shx
  0
STYLE
  5
6CE
330
3
100
AcDbSymbolTableRecord
100
AcDbTextStyleTableRecord
  2
ACISOTS
 70
     0
 40
1.0
 41
1.0
 50
0.0
 71
     0
 42
3.0
  3
amgdt.shx
  4
extfont.shx
  0
STYLE
  5
6DA
330
3
100
AcDbSymbolTableRecord
100
AcDbTextStyleTableRecord
  2
ACISOGDT
 70
     0
 40
0.0
 41
1.0
 50
0.0
 71
     0
 42
3.0
  3
amgdt.shx
  4
extfont.shx
  0
STYLE
  5
7C1
330
3
100
AcDbSymbolTableRecord
100
AcDbTextStyleTableRecord
  2
ACJISTS
 70
     0
 40
1.0
 41
1.0
 50
0.0
 71
     0
 42
3.0
  3
amgdt.shx
  4
extfont.shx
  0
STYLE
  5
7CC
330
3
100
AcDbSymbolTableRecord
100
AcDbTextStyleTableRecord
  2
ACJISGDT
 70
     0
 40
0.0
 41
1.0
 50
0.0
 71
     0
 42
3.0
  3
amgdt.shx
  4
extfont.shx
  0
STYLE
  5
E2A
330
3
100
AcDbSymbolTableRecord
100
AcDbTextStyleTableRecord
  2
YOKO
 70
     0
 40
0.0
 41
1.0
 50
0.0
 71
     0
 42
3.0
  3
romans.shx
  4
extfont.shx
  0
ENDTAB
  0
TABLE
  2
VIEW
  5
6
330
0
100
AcDbSymbolTable
 70
     0
  0
ENDTAB
  0
TABLE
  2
UCS
  5
7
330
0
100
AcDbSymbolTable
 70
     0
  0
ENDTAB
  0
TABLE
  2
APPID
  5
9
330
0
100
AcDbSymbolTable
 70
    31
  0
APPID
  5
11
330
9
100
AcDbSymbolTableRecord
100
AcDbRegAppTableRecord
  2
ACAD
 70
     0
  0
APPID
  5
1B1
330
9
100
AcDbSymbolTableRecord
100
AcDbRegAppTableRecord
  2
GLOBAL
 70
     0
  0
APPID
  5
2A4
330
9
100
AcDbSymbolTableRecord
100
AcDbRegAppTableRecord
  2
DETAIL
 70
     0
  0
APPID
  5
5FD
330
9
100
AcDbSymbolTableRecord
100
AcDbRegAppTableRecord
  2
GRPNAME
 70
     0
  0
APPID
  5
5FE
330
9
100
AcDbSymbolTableRecord
100
AcDbRegAppTableRecord
  2
GPARA
 70
     0
  0
APPID
  5
6A7
330
9
100
AcDbSymbolTableRecord
100
AcDbRegAppTableRecord
  2
MCAD_NO_VIS
 70
     0
  0
APPID
  5
6A8
330
9
100
AcDbSymbolTableRecord
100
AcDbRegAppTableRecord
  2
ACAD_TEMP_GRAPHIC
 70
     0
  0
APPID
  5
6B9
330
9
100
AcDbSymbolTableRecord
100
AcDbRegAppTableRecord
  2
ACATTRIBSERVICES
 70
     0
  0
APPID
  5
6EE
330
9
100
AcDbSymbolTableRecord
100
AcDbRegAppTableRecord
  2
GENIUS_GENSCREG_15
 70
     0
  0
APPID
  5
6EF
330
9
100
AcDbSymbolTableRecord
100
AcDbRegAppTableRecord
  2
GENIUS_GENODEF_13
 70
     0
  0
APPID
  5
6F0
330
9
100
AcDbSymbolTableRecord
100
AcDbRegAppTableRecord
  2
GENIUS_GENOBJ-N-SDF_13
 70
     0
  0
APPID
  5
876
330
9
100
AcDbSymbolTableRecord
100
AcDbRegAppTableRecord
  2
GENIUS_GENREC_14
 70
     0
  0
APPID
  5
877
330
9
100
AcDbSymbolTableRecord
100
AcDbRegAppTableRecord
  2
GENIUS_GENOBJ-N-REC_13
 70
     0
  0
APPID
  5
8AA
330
9
100
AcDbSymbolTableRecord
100
AcDbRegAppTableRecord
  2
GENIUS_GENDIMSH_14
 70
     0
  0
APPID
  5
A72
330
9
100
AcDbSymbolTableRecord
100
AcDbRegAppTableRecord
  2
GENIUS_GENOBJ-N-DIM_13
 70
     0
  0
APPID
  5
A7C
330
9
100
AcDbSymbolTableRecord
100
AcDbRegAppTableRecord
  2
GENIUS_GENDIM_13
 70
     0
  0
APPID
  5
C14
330
9
100
AcDbSymbolTableRecord
100
AcDbRegAppTableRecord
  2
GENIUS_GENDTOL_13
 70
     0
  0
APPID
  5
D66
330
9
100
AcDbSymbolTableRecord
100
AcDbRegAppTableRecord
  2
GENIUS_GENOLIS_13
 70
     0
  0
APPID
  5
D67
330
9
100
AcDbSymbolTableRecord
100
AcDbRegAppTableRecord
  2
GENIUS_GENOENT_13
 70
     0
  0
APPID
  5
D68
330
9
100
AcDbSymbolTableRecord
100
AcDbRegAppTableRecord
  2
GENIUS_GENOBJ-F-FEM_13
 70
     0
  0
APPID
  5
D69
330
9
100
AcDbSymbolTableRecord
100
AcDbRegAppTableRecord
  2
GENIUS_GENOREF_13
 70
     0
  0
APPID
  5
D6A
330
9
100
AcDbSymbolTableRecord
100
AcDbRegAppTableRecord
  2
GENIUS_GEFFEM_13
 70
     0
  0
APPID
  5
D6B
330
9
100
AcDbSymbolTableRecord
100
AcDbRegAppTableRecord
  2
GENIUS_GEFFEMP_13
 70
     0
  0
APPID
  5
1123
330
9
100
AcDbSymbolTableRecord
100
AcDbRegAppTableRecord
  2
AD_DRAW
 70
     0
  0
APPID
  5
1141
330
9
100
AcDbSymbolTableRecord
100
AcDbRegAppTableRecord
  2
DESIGNERASSEMBLIES
 70
     0
  0
APPID
  5
1149
330
9
100
AcDbSymbolTableRecord
100
AcDbRegAppTableRecord
  2
ACADM_DIM_EDIT
 70
     0
  0
APPID
  5
114A
330
9
100
AcDbSymbolTableRecord
100
AcDbRegAppTableRecord
  2
AMDT_DM_ADJ
 70
     0
  0
APPID
  5
136E
330
9
100
AcDbSymbolTableRecord
100
AcDbRegAppTableRecord
  2
ACAD_PSEXT
 70
     0
  0
APPID
  5
136F
330
9
100
AcDbSymbolTableRecord
100
AcDbRegAppTableRecord
  2
ASK_MEN_XD
 70
     0
  0
APPID
  5
14F6
330
9
100
AcDbSymbolTableRecord
100
AcDbRegAppTableRecord
  2
GENIUS_GENOBJ-N-FIL_13
 70
     0
  0
APPID
  5
1577
330
9
100
AcDbSymbolTableRecord
100
AcDbRegAppTableRecord
  2
ITEMNAME
 70
     0
  0
ENDTAB
  0
TABLE
  2
DIMSTYLE
  5
A
330
0
100
AcDbSymbolTable
 70
    26
100
AcDbDimStyleTable
 71
     5
340
59A
340
E8D
340
7E8
340
7E9
340
6EB
  0
DIMSTYLE
105
59A
102
{ACAD_REACTORS
330
158B
330
158C
330
158E
330
158F
330
1590
330
1591
102
}
330
A
100
AcDbSymbolTableRecord
100
AcDbDimStyleTableRecord
  2
BIGT
 70
     0
 41
2.229999999999999
 42
0.5
 43
7.0
 44
1.0
 48
0.01
 73
     0
 74
     0
 77
     3
 78
     9
 79
     2
140
2.799999999999999
141
0.0
147
1.0
172
     1
174
     1
176
   256
177
   256
178
    40
179
     3
271
     3
272
     3
284
     8
289
     2
340
10
341
594
342
594
371
    -1
372
    -1
  0
DIMSTYLE
105
6E1
330
A
100
AcDbSymbolTableRecord
100
AcDbDimStyleTableRecord
  2
AM_ISO
 70
     0
  4
"
 41
2.5
 42
1.0
 43
10.0
 44
1.0
 47
0.1
 48
0.1
 73
     0
 74
     0
 77
     1
 78
     8
 79
     2
140
3.5
141
0.0
143
0.0393701
146
0.71
147
1.5
172
     1
176
   256
177
   256
178
     2
271
     2
272
     3
274
     4
283
     0
284
     8
340
10
371
    -1
372
    -1
  0
DIMSTYLE
105
6E2
330
A
100
AcDbSymbolTableRecord
100
AcDbDimStyleTableRecord
  2
AM_ISO$3
 70
     0
  4
"
 41
2.5
 42
1.0
 43
10.0
 44
1.0
 47
0.1
 48
0.1
 73
     0
 77
     1
 78
     8
 79
     2
140
3.5
141
0.0
143
0.0393701
146
0.71
147
1.5
176
   256
177
   256
178
     2
271
     2
272
     3
274
     4
283
     0
284
     8
288
     1
289
     0
340
10
371
    -1
372
    -1
  0
DIMSTYLE
105
6E3
330
A
100
AcDbSymbolTableRecord
100
AcDbDimStyleTableRecord
  2
AM_ISO$4
 70
     0
  4
"
 41
2.5
 42
1.0
 43
10.0
 44
1.0
 47
0.1
 48
0.1
 73
     0
 77
     1
 78
     8
 79
     2
140
3.5
141
0.0
143
0.0393701
146
0.71
147
1.5
176
   256
177
   256
178
     2
271
     2
272
     3
274
     4
283
     0
284
     8
288
     1
289
     0
340
10
371
    -1
372
    -1
  0
DIMSTYLE
105
6E4
330
A
100
AcDbSymbolTableRecord
100
AcDbDimStyleTableRecord
  2
AM_ISO$6
 70
     0
  4
"
 41
2.5
 42
1.0
 43
10.0
 44
1.0
 47
0.1
 48
0.1
 73
     0
 74
     0
 78
     8
 79
     2
140
3.5
141
0.0
143
0.0393701
146
0.71
147
1.5
172
     1
176
   256
177
   256
178
     2
271
     2
272
     3
274
     4
283
     0
284
     8
340
10
371
    -1
372
    -1
  0
DIMSTYLE
105
6E5
330
A
100
AcDbSymbolTableRecord
100
AcDbDimStyleTableRecord
  2
AM_ISO$7
 70
     0
  4
"
 41
2.5
 42
1.0
 43
10.0
 44
1.0
 47
0.1
 48
0.1
 73
     0
 74
     0
 77
     1
 78
     8
 79
     2
140
5.0
141
0.0
143
0.0393701
146
0.71
147
1.5
172
     1
176
   256
177
   256
178
     2
271
     2
272
     3
274
     4
283
     0
284
     8
340
10
371
    -1
372
    -1
  0
DIMSTYLE
105
6E6
330
A
100
AcDbSymbolTableRecord
100
AcDbDimStyleTableRecord
  2
AM_ISO$SF
 70
     0
  4
"
 41
2.5
 42
1.0
 43
10.0
 44
1.0
 47
0.1
 48
0.1
 73
     0
 74
     0
 75
     1
 76
     1
 77
     1
 78
     8
 79
     2
140
3.5
141
0.0
143
0.0393701
146
0.71
147
1.5
172
     1
176
   256
177
   256
178
     2
271
     2
272
     3
274
     4
283
     0
284
     8
340
10
371
    -1
372
    -1
  0
DIMSTYLE
105
6EB
330
A
100
AcDbSymbolTableRecord
100
AcDbDimStyleTableRecord
  2
AM_ISO$SH
 70
     0
  4
"
 41
2.5
 42
1.0
 43
10.0
 44
1.0
 47
0.1
 48
0.1
 73
     0
 74
     0
 75
     1
 76
     1
 77
     1
 78
     8
 79
     2
140
3.5
141
0.0
143
0.0393701
144
2.0
146
0.71
147
1.5
172
     1
173
     1
176
   256
177
   256
178
     2
271
     2
272
     3
274
     4
283
     0
284
     8
340
10
343
6E7
371
    -1
372
    -1
  0
DIMSTYLE
105
7E2
330
A
100
AcDbSymbolTableRecord
100
AcDbDimStyleTableRecord
  2
BIGT$2
 70
     0
 41
2.229999999999999
 42
0.5
 43
7.0
 44
1.0
 48
0.01
 73
     0
 74
     0
 77
     3
 78
     9
 79
     2
140
2.799999999999999
141
0.0
147
1.0
172
     1
176
   256
177
   256
178
    40
179
     3
271
     3
272
     3
284
     8
289
     2
340
10
341
594
342
594
371
    -1
372
    -1
  0
DIMSTYLE
105
7E3
330
A
100
AcDbSymbolTableRecord
100
AcDbDimStyleTableRecord
  2
BIGT$3
 70
     0
 41
2.229999999999999
 42
0.5
 43
2.5
 44
1.0
 48
0.01
 73
     0
 74
     0
 77
     3
 78
     9
 79
     2
140
2.799999999999999
141
0.0
147
1.0
172
     1
176
   256
177
   256
178
    40
179
     3
271
     3
272
     3
284
     8
289
     2
340
10
341
594
342
594
371
    -1
372
    -1
  0
DIMSTYLE
105
7E4
330
A
100
AcDbSymbolTableRecord
100
AcDbDimStyleTableRecord
  2
BIGT$7
 70
     0
 40
0.0
 41
2.229999999999999
 42
0.5
 43
7.0
 44
1.0
 48
0.01
 73
     0
 74
     0
 77
     3
 78
     9
 79
     2
140
2.799999999999999
141
0.0
147
1.0
176
   256
177
   256
178
    40
179
     3
271
     3
272
     3
284
     8
288
     1
289
     2
340
10
341
594
342
594
371
    -1
372
    -1
  0
DIMSTYLE
105
7E5
330
A
100
AcDbSymbolTableRecord
100
AcDbDimStyleTableRecord
  2
BIGT$6
 70
     0
 41
2.229999999999999
 42
0.5
 43
2.5
 44
1.0
 48
0.01
 73
     0
 74
     0
 77
     3
 78
     9
 79
     2
140
2.799999999999999
141
0.0
147
1.0
172
     1
176
   256
177
   256
178
    40
179
     3
271
     3
272
     3
284
     8
289
     2
340
10
341
594
342
594
371
    -1
372
    -1
  0
DIMSTYLE
105
7E6
330
A
100
AcDbSymbolTableRecord
100
AcDbDimStyleTableRecord
  2
BIGT$0
 70
     0
 41
2.229999999999999
 42
0.5
 43
7.0
 44
1.0
 48
0.01
 73
     0
 74
     0
 77
     3
 78
     9
 79
     2
140
2.799999999999999
141
0.0
147
1.0
172
     1
176
   256
177
   256
178
    40
179
     3
271
     3
272
     3
284
     8
289
     2
340
10
341
594
342
594
371
    -1
372
    -1
  0
DIMSTYLE
105
7E7
330
A
100
AcDbSymbolTableRecord
100
AcDbDimStyleTableRecord
  2
BIGT$4
 70
     0
 41
2.229999999999999
 42
0.5
 43
2.5
 44
1.0
 48
0.01
 73
     0
 74
     0
 77
     3
 78
     9
 79
     2
140
2.799999999999999
141
0.0
147
1.0
172
     1
176
   256
177
   256
178
    40
179
     3
271
     3
272
     3
284
     8
289
     2
340
10
341
594
342
594
371
    -1
372
    -1
  0
DIMSTYLE
105
7E8
330
A
100
AcDbSymbolTableRecord
100
AcDbDimStyleTableRecord
  2
BIGT$SH
 70
     0
 41
2.229999999999999
 42
0.5
 43
7.0
 44
1.0
 73
     0
 74
     0
 77
     3
 78
     9
 79
     2
140
2.799999999999999
141
0.0
147
1.0
172
     1
176
   256
177
   256
178
    40
179
     3
271
     3
272
     3
284
     8
289
     2
340
10
341
594
342
594
371
    -1
372
    -1
  0
DIMSTYLE
105
7E9
330
A
100
AcDbSymbolTableRecord
100
AcDbDimStyleTableRecord
  2
BIGT$SF
 70
     0
 41
2.229999999999999
 42
0.5
 43
7.0
 44
1.0
 73
     0
 74
     0
 77
     3
 78
     9
 79
     2
140
2.799999999999999
141
0.0
147
1.0
172
     1
176
   256
177
   256
178
    40
179
     3
271
     3
272
     3
284
     8
289
     2
340
10
341
594
342
594
371
    -1
372
    -1
  0
DIMSTYLE
105
E8D
330
A
100
AcDbSymbolTableRecord
100
AcDbDimStyleTableRecord
  2
TECHNICAL_OSAKA
 70
     0
  4
"
 41
2.5
 42
1.0
 43
10.0
 44
1.0
 47
0.1
 48
0.1
 73
     0
 74
     0
 77
     3
 78
     8
 79
     2
140
2.799999999999999
141
0.0
143
0.0393701
146
0.71
147
1.5
172
     1
176
   256
177
   256
178
    40
271
     2
272
     2
283
     0
284
     8
340
10
341
E8E
342
E8E
371
    -1
372
    -1
  0
DIMSTYLE
105
E94
330
A
100
AcDbSymbolTableRecord
100
AcDbDimStyleTableRecord
  2
TECHNICAL_OSAKA$3
 70
     0
  4
"
 41
2.5
 42
1.0
 43
10.0
 44
1.0
 47
0.1
 48
0.1
 73
     0
 77
     3
 78
     8
 79
     2
140
2.799999999999999
141
0.0
143
0.0393701
146
0.71
147
1.5
176
   256
177
   256
178
    40
271
     2
272
     2
283
     0
284
     8
288
     1
289
     0
340
10
341
E8E
342
E8E
371
    -1
372
    -1
  0
DIMSTYLE
105
E95
330
A
100
AcDbSymbolTableRecord
100
AcDbDimStyleTableRecord
  2
TECHNICAL_OSAKA$4
 70
     0
  4
"
 41
2.5
 42
1.0
 43
10.0
 44
1.0
 47
0.1
 48
0.1
 73
     0
 77
     3
 78
     8
 79
     2
140
2.799999999999999
141
0.0
143
0.0393701
146
0.71
147
1.5
176
   256
177
   256
178
    40
271
     2
272
     2
283
     0
284
     8
288
     1
289
     0
340
10
341
E8E
342
E8E
371
    -1
372
    -1
  0
DIMSTYLE
105
E96
330
A
100
AcDbSymbolTableRecord
100
AcDbDimStyleTableRecord
  2
TECHNICAL_OSAKA$6
 70
     0
  4
"
 41
2.5
 42
1.0
 43
10.0
 44
1.0
 47
0.1
 48
0.1
 73
     0
 74
     0
 78
     8
 79
     2
140
2.799999999999999
141
0.0
143
0.0393701
146
0.71
147
1.5
172
     1
176
   256
177
   256
178
    40
271
     2
272
     2
283
     0
284
     8
340
10
341
E8E
342
E8E
371
    -1
372
    -1
  0
DIMSTYLE
105
E97
330
A
100
AcDbSymbolTableRecord
100
AcDbDimStyleTableRecord
  2
TECHNICAL_OSAKA$7
 70
     0
  4
"
 41
2.5
 42
1.0
 43
10.0
 44
1.0
 47
0.1
 48
0.1
 73
     0
 74
     0
 77
     3
 78
     8
 79
     2
140
2.799999999999999
141
0.0
143
0.0393701
146
0.71
147
1.5
172
     1
176
   256
177
   256
178
    40
271
     2
272
     2
283
     0
284
     8
340
10
341
E8E
342
E8E
371
    -1
372
    -1
  0
DIMSTYLE
105
E98
330
A
100
AcDbSymbolTableRecord
100
AcDbDimStyleTableRecord
  2
TECHNICAL_OSAKA$SF
 70
     0
  4
"
 41
2.5
 42
1.0
 43
10.0
 44
1.0
 47
0.1
 48
0.1
 73
     0
 74
     0
 75
     1
 76
     1
 77
     3
 78
     8
 79
     2
140
3.5
141
0.0
143
0.0393701
146
0.71
147
1.5
172
     1
176
   256
177
   256
178
    40
271
     2
272
     3
274
     4
283
     0
284
     8
340
10
341
E8E
342
E8E
343
E8E
344
E8E
371
    -1
372
    -1
  0
DIMSTYLE
105
E99
330
A
100
AcDbSymbolTableRecord
100
AcDbDimStyleTableRecord
  2
TECHNICAL_OSAKA$SH
 70
     0
  4
"
 41
2.5
 42
1.0
 43
10.0
 44
1.0
 47
0.1
 48
0.1
 73
     0
 74
     0
 75
     1
 76
     1
 77
     3
 78
     8
 79
     2
140
3.5
141
0.0
143
0.0393701
144
2.0
146
0.71
147
1.5
172
     1
173
     1
176
   256
177
   256
178
    40
271
     2
272
     3
274
     4
283
     0
284
     8
340
10
341
E8E
342
E8E
343
6E7
344
E8E
371
    -1
372
    -1
  0
ENDTAB
  0
TABLE
  2
BLOCK_RECORD
  5
1
330
0
100
AcDbSymbolTable
 70
    21
  0
BLOCK_RECORD
  5
1A
102
{ACAD_XDICTIONARY
360
71B
102
}
330
1
100
AcDbSymbolTableRecord
100
AcDbBlockTableRecord
  2
*MODEL_SPACE
340
567
  0
BLOCK_RECORD
  5
17
330
1
100
AcDbSymbolTableRecord
100
AcDbBlockTableRecord
  2
*PAPER_SPACE
340
568
  0
BLOCK_RECORD
  5
594
330
1
100
AcDbSymbolTableRecord
100
AcDbBlockTableRecord
  2
_Open
340
0
  0
BLOCK_RECORD
  5
6E7
330
1
100
AcDbSymbolTableRecord
100
AcDbBlockTableRecord
  2
GENAXEH
340
0
  0
BLOCK_RECORD
  5
E8E
330
1
100
AcDbSymbolTableRecord
100
AcDbBlockTableRecord
  2
_Open30
340
0
  0
BLOCK_RECORD
  5
152D
330
1
100
AcDbSymbolTableRecord
100
AcDbBlockTableRecord
  2
矢印なし
340
0
102
{BLKREFS
331
1564
102
}
  0
BLOCK_RECORD
  5
1592
330
1
100
AcDbSymbolTableRecord
100
AcDbBlockTableRecord
  2
*D14
340
0
  0
BLOCK_RECORD
  5
159C
330
1
100
AcDbSymbolTableRecord
100
AcDbBlockTableRecord
  2
*D15
340
0
  0
BLOCK_RECORD
  5
15A6
330
1
100
AcDbSymbolTableRecord
100
AcDbBlockTableRecord
  2
*D16
340
0
  0
BLOCK_RECORD
  5
15B0
330
1
100
AcDbSymbolTableRecord
100
AcDbBlockTableRecord
  2
*D17
340
0
  0
BLOCK_RECORD
  5
15BA
330
1
100
AcDbSymbolTableRecord
100
AcDbBlockTableRecord
  2
*D18
340
0
  0
BLOCK_RECORD
  5
15C3
330
1
100
AcDbSymbolTableRecord
100
AcDbBlockTableRecord
  2
*D19
340
0
  0
ENDTAB
  0
ENDSEC
  0
SECTION
  2
BLOCKS
  0
BLOCK
  5
1B
330
1A
100
AcDbEntity
  8
0
100
AcDbBlockBegin
  2
*MODEL_SPACE
 70
     0
 10
0.0
 20
0.0
 30
0.0
  3
*MODEL_SPACE
  1

  0
ENDBLK
  5
1C
330
1A
100
AcDbEntity
  8
0
100
AcDbBlockEnd
  0
BLOCK
  5
18
330
17
100
AcDbEntity
 67
     1
  8
0
100
AcDbBlockBegin
  2
*PAPER_SPACE
 70
     0
 10
0.0
 20
0.0
 30
0.0
  3
*PAPER_SPACE
  1

  0
ENDBLK
  5
19
330
17
100
AcDbEntity
 67
     1
  8
0
100
AcDbBlockEnd
  0
BLOCK
  5
171D
330
594
100
AcDbEntity
  8
0
100
AcDbBlockBegin
  2
_Open
 70
     0
 10
0.0
 20
0.0
 30
0.0
  3
_Open
  1

  0
LINE
  5
171E
330
594
100
AcDbEntity
  8
0
  6
ByBlock
 62
     0
370
    -2
100
AcDbLine
 10
-1.0
 20
0.1666666666666666
 30
0.0
 11
0.0
 21
0.0
 31
0.0
  0
LINE
  5
171F
330
594
100
AcDbEntity
  8
0
  6
ByBlock
 62
     0
370
    -2
100
AcDbLine
 10
-1.0
 20
-0.1666666666666666
 30
0.0
 11
0.0
 21
0.0
 31
0.0
  0
LINE
  5
1720
330
594
100
AcDbEntity
  8
0
  6
ByBlock
 62
     0
370
    -2
100
AcDbLine
 10
0.0
 20
0.0
 30
0.0
 11
-1.0
 21
0.0
 31
0.0
  0
ENDBLK
  5
1721
330
594
100
AcDbEntity
  8
0
100
AcDbBlockEnd
  0
BLOCK
  5
1748
330
6E7
100
AcDbEntity
  8
0
100
AcDbBlockBegin
  2
GENAXEH
 70
     0
 10
0.0
 20
0.0
 30
0.0
  3
GENAXEH
  1

  0
LINE
  5
1749
330
6E7
100
AcDbEntity
  8
0
100
AcDbLine
 10
-1.0
 20
0.0
 30
0.0
 11
1.0
 21
0.0
 31
0.0
  0
ENDBLK
  5
174A
330
6E7
100
AcDbEntity
  8
0
100
AcDbBlockEnd
  0
BLOCK
  5
176D
330
E8E
100
AcDbEntity
  8
0
100
AcDbBlockBegin
  2
_Open30
 70
     0
 10
0.0
 20
0.0
 30
0.0
  3
_Open30
  1

  0
LINE
  5
176E
330
E8E
100
AcDbEntity
  8
0
  6
ByBlock
 62
     0
370
    -2
100
AcDbLine
 10
-1.0
 20
0.26794919
 30
0.0
 11
0.0
 21
0.0
 31
0.0
  0
LINE
  5
176F
330
E8E
100
AcDbEntity
  8
0
  6
ByBlock
 62
     0
370
    -2
100
AcDbLine
 10
0.0
 20
0.0
 30
0.0
 11
-1.0
 21
-0.26794919
 31
0.0
  0
LINE
  5
1770
330
E8E
100
AcDbEntity
  8
0
  6
ByBlock
 62
     0
370
    -2
100
AcDbLine
 10
0.0
 20
0.0
 30
0.0
 11
-1.0
 21
0.0
 31
0.0
  0
ENDBLK
  5
1771
330
E8E
100
AcDbEntity
  8
0
100
AcDbBlockEnd
  0
BLOCK
  5
152E
330
152D
100
AcDbEntity
  8
0
100
AcDbBlockBegin
  2
矢印なし
 70
     0
 10
0.0
 20
0.0
 30
0.0
  3
矢印なし
  1

  0
ENDBLK
  5
152F
330
152D
100
AcDbEntity
  8
0
100
AcDbBlockEnd
  0
BLOCK
  5
1602
330
1592
100
AcDbEntity
  8
0
100
AcDbBlockBegin
  2
*D14
 70
     1
 10
0.0
 20
0.0
 30
0.0
  3
*D14
  1

  0
LINE
  5
160E
330
1592
100
AcDbEntity
  8
250
  6
Continuous
100
AcDbLine
 10
-35.0
 20
6.500000000000014
 30
0.0
 11
-35.0
 21
50.00000000000001
 31
0.0
  0
LINE
  5
160F
330
1592
100
AcDbEntity
  8
250
  6
Continuous
100
AcDbLine
 10
150.0
 20
10.55103543328508
 30
0.0
 11
150.0
 21
50.00000000000001
 31
0.0
  0
LINE
  5
1610
330
1592
100
AcDbEntity
  8
250
  6
Continuous
100
AcDbLine
 10
-32.77000000000001
 20
49.00000000000002
 30
0.0
 11
147.77
 21
49.00000000000002
 31
0.0
  0
INSERT
  5
1611
330
1592
100
AcDbEntity
  8
250
  6
Continuous
100
AcDbBlockReference
  2
_Open
 10
-35.0
 20
49.00000000000002
 30
0.0
 41
2.229999999999999
 42
2.229999999999999
 43
2.229999999999999
 50
180.0
  0
INSERT
  5
1612
330
1592
100
AcDbEntity
  8
250
  6
Continuous
100
AcDbBlockReference
  2
_Open
 10
150.0
 20
49.00000000000002
 30
0.0
 41
2.229999999999999
 42
2.229999999999999
 43
2.229999999999999
  0
MTEXT
  5
1613
330
1592
100
AcDbEntity
  8
250
  6
Continuous
 62
    40
100
AcDbMText
 10
57.5
 20
51.40000000000001
 30
0.0
 40
2.799999999999999
 41
0.0
 71
     5
 72
     1
  1
\A1;（max.185）
 73
     1
 44
1.0
1001
ACAD
1000
MTEXTBEGIN
1070
    73
1070
     1
1070
    44
1040
1.0
1070
    74
1070
     0
1000
MTEXTEND
  0
POINT
  5
1614
330
1592
100
AcDbEntity
  8
Defpoints
  6
Continuous
 62
     0
100
AcDbPoint
 10
-35.0
 20
6.000000000000014
 30
0.0
  0
POINT
  5
1615
330
1592
100
AcDbEntity
  8
Defpoints
  6
Continuous
 62
     0
100
AcDbPoint
 10
150.0
 20
10.05103543328508
 30
0.0
  0
POINT
  5
1616
330
1592
100
AcDbEntity
  8
Defpoints
  6
Continuous
 62
     0
100
AcDbPoint
 10
150.0
 20
49.00000000000002
 30
0.0
  0
ENDBLK
  5
1603
330
1592
100
AcDbEntity
  8
0
100
AcDbBlockEnd
  0
BLOCK
  5
1604
330
159C
100
AcDbEntity
  8
0
100
AcDbBlockBegin
  2
*D15
 70
     1
 10
0.0
 20
0.0
 30
0.0
  3
*D15
  1

  0
LINE
  5
1617
330
159C
100
AcDbEntity
  8
250
  6
Continuous
100
AcDbLine
 10
0.0
 20
22.72500000000002
 30
0.0
 11
0.0000000000000013
 21
43.00000000000001
 31
0.0
  0
LINE
  5
1618
330
159C
100
AcDbEntity
  8
250
  6
Continuous
100
AcDbLine
 10
150.0
 20
10.55103543328508
 30
0.0
 11
150.0
 21
43.00000000000001
 31
0.0
  0
LINE
  5
1619
330
159C
100
AcDbEntity
  8
250
  6
Continuous
100
AcDbLine
 10
2.230000000000001
 20
42.00000000000001
 30
0.0
 11
147.77
 21
42.00000000000001
 31
0.0
  0
INSERT
  5
161A
330
159C
100
AcDbEntity
  8
250
  6
Continuous
100
AcDbBlockReference
  2
_Open
 10
0.0000000000000012
 20
42.00000000000001
 30
0.0
 41
2.229999999999999
 42
2.229999999999999
 43
2.229999999999999
 50
180.0
  0
INSERT
  5
161B
330
159C
100
AcDbEntity
  8
250
  6
Continuous
100
AcDbBlockReference
  2
_Open
 10
150.0
 20
42.00000000000001
 30
0.0
 41
2.229999999999999
 42
2.229999999999999
 43
2.229999999999999
  0
MTEXT
  5
161C
330
159C
100
AcDbEntity
  8
250
  6
Continuous
 62
    40
100
AcDbMText
 10
75.0
 20
44.40000000000001
 30
0.0
 40
2.799999999999999
 41
0.0
 71
     5
 72
     1
  1
\A1;150
 73
     1
 44
1.0
1001
ACAD
1000
MTEXTBEGIN
1070
    73
1070
     1
1070
    44
1040
1.0
1070
    74
1070
     0
1000
MTEXTEND
  0
POINT
  5
161D
330
159C
100
AcDbEntity
  8
Defpoints
  6
Continuous
 62
     0
100
AcDbPoint
 10
0.0
 20
22.22500000000001
 30
0.0
  0
POINT
  5
161E
330
159C
100
AcDbEntity
  8
Defpoints
  6
Continuous
 62
     0
100
AcDbPoint
 10
150.0
 20
10.05103543328508
 30
0.0
  0
POINT
  5
161F
330
159C
100
AcDbEntity
  8
Defpoints
  6
Continuous
 62
     0
100
AcDbPoint
 10
150.0
 20
42.00000000000001
 30
0.0
  0
ENDBLK
  5
1605
330
159C
100
AcDbEntity
  8
0
100
AcDbBlockEnd
  0
BLOCK
  5
1606
330
15A6
100
AcDbEntity
  8
0
100
AcDbBlockBegin
  2
*D16
 70
     1
 10
0.0
 20
0.0
 30
0.0
  3
*D16
  1

  0
LINE
  5
1629
330
15A6
100
AcDbEntity
  8
250
  6
Continuous
100
AcDbLine
 10
118.0000000000013
 20
5.499999999999914
 30
0.0
 11
118.0000000000013
 21
36.00000000000001
 31
0.0
  0
LINE
  5
162A
330
15A6
100
AcDbEntity
  8
250
  6
Continuous
100
AcDbLine
 10
150.0
 20
10.55103543328508
 30
0.0
 11
150.0
 21
36.00000000000001
 31
0.0
  0
LINE
  5
162B
330
15A6
100
AcDbEntity
  8
250
  6
Continuous
100
AcDbLine
 10
120.2300000000013
 20
35.00000000000002
 30
0.0
 11
147.77
 21
35.00000000000002
 31
0.0
  0
INSERT
  5
162C
330
15A6
100
AcDbEntity
  8
250
  6
Continuous
100
AcDbBlockReference
  2
_Open
 10
118.0000000000013
 20
35.00000000000002
 30
0.0
 41
2.229999999999999
 42
2.229999999999999
 43
2.229999999999999
 50
180.0
  0
INSERT
  5
162D
330
15A6
100
AcDbEntity
  8
250
  6
Continuous
100
AcDbBlockReference
  2
_Open
 10
150.0
 20
35.00000000000002
 30
0.0
 41
2.229999999999999
 42
2.229999999999999
 43
2.229999999999999
  0
MTEXT
  5
162E
330
15A6
100
AcDbEntity
  8
250
  6
Continuous
 62
    40
100
AcDbMText
 10
134.0000000000006
 20
37.40000000000001
 30
0.0
 40
2.799999999999999
 41
0.0
 71
     5
 72
     1
  1
\A1;32
 73
     1
 44
1.0
1001
ACAD
1000
MTEXTBEGIN
1070
    73
1070
     1
1070
    44
1040
1.0
1070
    74
1070
     0
1000
MTEXTEND
  0
POINT
  5
162F
330
15A6
100
AcDbEntity
  8
Defpoints
  6
Continuous
 62
     0
100
AcDbPoint
 10
118.0000000000013
 20
4.999999999999914
 30
0.0
  0
POINT
  5
1630
330
15A6
100
AcDbEntity
  8
Defpoints
  6
Continuous
 62
     0
100
AcDbPoint
 10
150.0
 20
10.05103543328508
 30
0.0
  0
POINT
  5
1631
330
15A6
100
AcDbEntity
  8
Defpoints
  6
Continuous
 62
     0
100
AcDbPoint
 10
150.0
 20
35.00000000000002
 30
0.0
  0
ENDBLK
  5
1607
330
15A6
100
AcDbEntity
  8
0
100
AcDbBlockEnd
  0
BLOCK
  5
1608
330
15B0
100
AcDbEntity
  8
0
100
AcDbBlockBegin
  2
*D17
 70
     1
 10
0.0
 20
0.0
 30
0.0
  3
*D17
  1

  0
LINE
  5
1658
330
15B0
100
AcDbEntity
  8
250
  6
Continuous
100
AcDbLine
 10
150.5
 20
-10.99999999999998
 30
0.0
 11
168.0
 21
-10.99999999999999
 31
0.0
  0
LINE
  5
1659
330
15B0
100
AcDbEntity
  8
250
  6
Continuous
100
AcDbLine
 10
150.5
 20
11.00000000000001
 30
0.0
 11
168.0
 21
11.00000000000001
 31
0.0
  0
LINE
  5
165A
330
15B0
100
AcDbEntity
  8
250
  6
Continuous
100
AcDbLine
 10
167.0
 20
-8.76999999999999
 30
0.0
 11
167.0
 21
8.770000000000008
 31
0.0
  0
INSERT
  5
165B
330
15B0
100
AcDbEntity
  8
250
  6
Continuous
100
AcDbBlockReference
  2
_Open
 10
167.0
 20
-10.99999999999999
 30
0.0
 41
2.229999999999999
 42
2.229999999999999
 43
2.229999999999999
 50
270.0
  0
INSERT
  5
165C
330
15B0
100
AcDbEntity
  8
250
  6
Continuous
100
AcDbBlockReference
  2
_Open
 10
167.0
 20
11.00000000000001
 30
0.0
 41
2.229999999999999
 42
2.229999999999999
 43
2.229999999999999
 50
90.0
  0
MTEXT
  5
165D
330
15B0
100
AcDbEntity
  8
250
  6
Continuous
 62
    40
100
AcDbMText
 10
164.6
 20
0.0000000000000363
 30
0.0
 40
2.799999999999999
 41
0.0
 71
     5
 72
     1
  1
\A1;{\H2.8;\U+2205}22
 11
0.0000000000000001
 21
1.0
 31
0.0
 73
     1
 44
1.0
1001
ACAD
1000
MTEXTBEGIN
1070
    73
1070
     1
1070
    44
1040
1.0
1070
    74
1070
     0
1000
MTEXTEND
  0
POINT
  5
165E
330
15B0
100
AcDbEntity
  8
Defpoints
  6
Continuous
 62
     0
100
AcDbPoint
 10
150.0
 20
-10.99999999999998
 30
0.0
  0
POINT
  5
165F
330
15B0
100
AcDbEntity
  8
Defpoints
  6
Continuous
 62
     0
100
AcDbPoint
 10
150.0
 20
11.00000000000001
 30
0.0
  0
POINT
  5
1660
330
15B0
100
AcDbEntity
  8
Defpoints
  6
Continuous
 62
     0
100
AcDbPoint
 10
167.0
 20
11.00000000000001
 30
0.0
  0
ENDBLK
  5
1609
330
15B0
100
AcDbEntity
  8
0
100
AcDbBlockEnd
  0
BLOCK
  5
160A
330
15BA
100
AcDbEntity
  8
0
100
AcDbBlockBegin
  2
*D18
 70
     1
 10
0.0
 20
0.0
 30
0.0
  3
*D18
  1

  0
LINE
  5
1661
330
15BA
100
AcDbEntity
  8
250
  6
Continuous
100
AcDbLine
 10
150.5
 20
5.000000000000014
 30
0.0
 11
161.0
 21
5.000000000000011
 31
0.0
  0
LINE
  5
1662
330
15BA
100
AcDbEntity
  8
250
  6
Continuous
100
AcDbLine
 10
160.0
 20
-2.769999999999988
 30
0.0
 11
160.0
 21
2.770000000000011
 31
0.0
  0
INSERT
  5
1663
330
15BA
100
AcDbEntity
  8
250
  6
Continuous
100
AcDbBlockReference
  2
_Open
 10
160.0
 20
-4.999999999999988
 30
0.0
 41
2.229999999999999
 42
2.229999999999999
 43
2.229999999999999
 50
270.0
  0
INSERT
  5
1664
330
15BA
100
AcDbEntity
  8
250
  6
Continuous
100
AcDbBlockReference
  2
_Open
 10
160.0
 20
5.000000000000011
 30
0.0
 41
2.229999999999999
 42
2.229999999999999
 43
2.229999999999999
 50
90.0
  0
MTEXT
  5
1665
330
15BA
100
AcDbEntity
  8
250
  6
Continuous
 62
    40
100
AcDbMText
 10
157.6
 20
0.0000000000000376
 30
0.0
 40
2.799999999999999
 41
0.0
 71
     5
 72
     1
  1
\A1;{\H2.8;\U+2205}10
 11
0.0000000000000001
 21
1.0
 31
0.0
 73
     1
 44
1.0
1001
ACAD
1000
MTEXTBEGIN
1070
    73
1070
     1
1070
    44
1040
1.0
1070
    74
1070
     0
1000
MTEXTEND
  0
POINT
  5
1666
330
15BA
100
AcDbEntity
  8
Defpoints
  6
Continuous
 62
     0
100
AcDbPoint
 10
150.0
 20
-4.999999999999985
 30
0.0
  0
POINT
  5
1667
330
15BA
100
AcDbEntity
  8
Defpoints
  6
Continuous
 62
     0
100
AcDbPoint
 10
150.0
 20
5.000000000000014
 30
0.0
  0
POINT
  5
1668
330
15BA
100
AcDbEntity
  8
Defpoints
  6
Continuous
 62
     0
100
AcDbPoint
 10
160.0
 20
5.000000000000011
 30
0.0
  0
ENDBLK
  5
160B
330
15BA
100
AcDbEntity
  8
0
100
AcDbBlockEnd
  0
BLOCK
  5
160C
330
15C3
100
AcDbEntity
  8
0
100
AcDbBlockBegin
  2
*D19
 70
     1
 10
0.0
 20
0.0
 30
0.0
  3
*D19
  1

  0
ARC
  5
1669
330
15C3
100
AcDbEntity
  8
250
  6
Continuous
100
AcDbCircle
 10
359.8925040783407
 20
0.0000000000000071
 30
0.0
 40
226.0773509765729
100
AcDbArc
 50
177.565161026802
 51
182.4348389731979
  0
INSERT
  5
166A
330
15C3
100
AcDbEntity
  8
250
  6
Continuous
100
AcDbBlockReference
  2
_Open
 10
134.1249842526742
 20
11.83197432180604
 30
0.0
 41
2.229999999999999
 42
2.229999999999999
 43
2.229999999999999
 50
87.28258051675403
  0
INSERT
  5
166B
330
15C3
100
AcDbEntity
  8
250
  6
Continuous
100
AcDbBlockReference
  2
_Open
 10
134.1249842526742
 20
-11.83197432180566
 30
0.0
 41
2.229999999999999
 42
2.229999999999999
 43
2.229999999999999
 50
272.7174194832459
  0
MTEXT
  5
166C
330
15C3
100
AcDbEntity
  8
250
  6
Continuous
 62
    40
100
AcDbMText
 10
131.4495824065543
 20
3.966288861169248
 30
0.0
 40
2.799999999999999
 41
0.0
 71
     5
 72
     1
  1
\A1;6°
 11
0.0173596588205189
 21
0.9998493097690447
 31
0.0
 73
     1
 44
1.0
1001
ACAD
1000
MTEXTBEGIN
1070
    73
1070
     1
1070
    44
1040
1.0
1070
    74
1070
     0
1000
MTEXTEND
  0
POINT
  5
166D
330
15C3
100
AcDbEntity
  8
Defpoints
  6
Continuous
 62
     0
100
AcDbPoint
 10
133.8495857771977
 20
-3.945593806688369
 30
0.0
  0
POINT
  5
166E
330
15C3
100
AcDbEntity
  8
Defpoints
  6
Continuous
 62
     0
100
AcDbPoint
 10
149.05233596
 20
11.04966497000001
 30
0.0
  0
POINT
  5
166F
330
15C3
100
AcDbEntity
  8
Defpoints
  6
Continuous
 62
     0
100
AcDbPoint
 10
149.05233596
 20
-11.04966496999999
 30
0.0
  0
POINT
  5
1670
330
15C3
100
AcDbEntity
  8
Defpoints
  6
Continuous
 62
     0
100
AcDbPoint
 10
91.73832022
 20
-14.05336524999999
 30
0.0
  0
POINT
  5
1671
330
15C3
100
AcDbEntity
  8
Defpoints
  6
Continuous
 62
     0
100
AcDbPoint
 10
91.73832022
 20
14.05336525000002
 30
0.0
  0
ENDBLK
  5
160D
330
15C3
100
AcDbEntity
  8
0
100
AcDbBlockEnd
  0
ENDSEC
  0
SECTION
  2
ENTITIES
  0
LINE
  5
1428
330
1A
100
AcDbEntity
  8
240
  6
Continuous
100
AcDbLine
 10
-65.40000000000006
 20
11.30390895524868
 30
0.0
 11
-65.40000000000009
 21
-11.30390895524868
 31
0.0
  0
LINE
  5
1429
330
1A
100
AcDbEntity
  8
240
  6
Continuous
100
AcDbLine
 10
0.9999999999998863
 20
-30.5
 30
0.0
 11
0.9999999999998863
 21
-22.225
 31
0.0
  0
LINE
  5
142B
330
1A
100
AcDbEntity
  8
241
  6
Continuous
100
AcDbLine
 10
11.59999999999991
 20
-31.32679491924313
 30
0.0
 11
11.59999999999991
 21
31.32679491924316
 31
0.0
  0
LINE
  5
142C
330
1A
100
AcDbEntity
  8
241
  6
Continuous
100
AcDbLine
 10
14.48675134594802
 20
-26.50000000000002
 30
0.0
 11
14.48675134594802
 21
26.50000000000004
 31
0.0
  0
LINE
  5
142D
330
1A
100
AcDbEntity
  8
241
  6
Continuous
100
AcDbLine
 10
18.71324865405177
 20
-26.50000000000002
 30
0.0
 11
18.71324865405177
 21
26.50000000000004
 31
0.0
  0
LINE
  5
142E
330
1A
100
AcDbEntity
  8
241
  6
Continuous
100
AcDbLine
 10
21.59999999999991
 20
-31.32679491924313
 30
0.0
 11
21.59999999999991
 21
31.32679491924316
 31
0.0
  0
LINE
  5
142F
330
1A
100
AcDbEntity
  8
245
  6
CENTER2
100
AcDbLine
 10
16.59999999999991
 20
-31.55886347742762
 30
0.0
 11
16.59999999999991
 21
31.55886347742765
 31
0.0
  0
LINE
  5
1430
330
1A
100
AcDbEntity
  8
240
  6
Continuous
100
AcDbLine
 10
-0.0000000000001137
 20
-22.225
 30
0.0
 11
-64.19314786958598
 21
-12.86349926901877
 31
0.0
  0
LINE
  5
1431
330
1A
100
AcDbEntity
  8
240
100
AcDbLine
 10
-64.34723222932106
 20
-12.80741714850612
 30
0.0
 11
-64.19314786958598
 21
-12.86349926901877
 31
0.0
  0
ARC
  5
1432
330
1A
100
AcDbEntity
  8
240
  6
Continuous
100
AcDbCircle
 10
-63.80000000000001
 20
-11.30390895524868
 30
0.0
 40
1.6
100
AcDbArc
 50
180.0
 51
249.9999999999999
  0
LINE
  5
1433
330
1A
100
AcDbEntity
  8
240
  6
Continuous
100
AcDbLine
 10
21.59999999999987
 20
-31.49999999999999
 30
0.0
 11
26.13165249758728
 21
-31.49999999999999
 31
0.0
  0
LINE
  5
1434
330
1A
100
AcDbEntity
  8
240
  6
Continuous
100
AcDbLine
 10
14.486751345948
 20
-26.50000000000002
 30
0.0
 11
11.59999999999988
 21
-31.50000000000003
 31
0.0
  0
LINE
  5
1435
330
1A
100
AcDbEntity
  8
240
  6
Continuous
100
AcDbLine
 10
18.71324865405176
 20
-26.50000000000002
 30
0.0
 11
21.59999999999987
 21
-31.49999999999999
 31
0.0
  0
LINE
  5
1436
330
1A
100
AcDbEntity
  8
241
  6
HIDDEN2
100
AcDbLine
 10
22.99999999999989
 20
-22.5
 30
0.0
 11
22.99999999999989
 21
-31.49999999999999
 31
0.0
  0
LINE
  5
1437
330
1A
100
AcDbEntity
  8
240
  6
Continuous
100
AcDbLine
 10
1.999999999999886
 20
-31.5
 30
0.0
 11
11.59999999999988
 21
-31.50000000000003
 31
0.0
  0
ARC
  5
1438
330
1A
100
AcDbEntity
  8
240
  6
Continuous
100
AcDbCircle
 10
1.999999999999886
 20
-30.5
 30
0.0
 40
1.0
100
AcDbArc
 50
180.0
 51
270.0
  0
LINE
  5
143B
330
1A
100
AcDbEntity
  8
241
  6
HIDDEN2
100
AcDbLine
 10
22.99999999999989
 20
-22.5
 30
0.0
 11
0.9999999999998863
 21
-22.5
 31
0.0
  0
LINE
  5
1440
330
1A
100
AcDbEntity
  8
240
  6
Continuous
100
AcDbLine
 10
18.71324865405176
 20
-26.50000000000002
 30
0.0
 11
14.486751345948
 21
-26.50000000000002
 31
0.0
  0
ARC
  5
1443
330
1A
100
AcDbEntity
  8
240
  6
Continuous
100
AcDbCircle
 10
25.99999999999989
 20
-30.49999999999999
 30
0.0
 40
1.000000000000009
100
AcDbArc
 50
284.9999999999996
 51
0.0
  0
LINE
  5
1444
330
1A
100
AcDbEntity
  8
240
  6
Continuous
100
AcDbLine
 10
26.13165249758728
 20
-31.49999999999999
 30
0.0
 11
26.2588190451024
 21
-31.46592582628907
 31
0.0
  0
LINE
  5
1446
330
1A
100
AcDbEntity
  8
240
  6
Continuous
100
AcDbLine
 10
-0.0000000000001137
 20
22.225
 30
0.0
 11
-64.19314786955396
 21
12.86349926902335
 31
0.0
  0
LINE
  5
1447
330
1A
100
AcDbEntity
  8
245
  6
CENTER2
100
AcDbLine
 10
-67.38895229956978
 20
0.0
 30
0.0
 11
152.23956156991
 21
0.0000000000000284
 31
0.0
  0
ARC
  5
144C
330
1A
100
AcDbEntity
  8
240
  6
Continuous
100
AcDbCircle
 10
-63.79999999999999
 20
11.30390895524868
 30
0.0
 40
1.6
100
AcDbArc
 50
110.0000000000001
 51
180.0
  0
LINE
  5
144F
330
1A
100
AcDbEntity
  8
240
100
AcDbLine
 10
-64.34723222932106
 20
12.80741714850615
 30
0.0
 11
-64.19314786955396
 21
12.86349926902335
 31
0.0
  0
LINE
  5
1458
330
1A
100
AcDbEntity
  8
240
  6
Continuous
100
AcDbLine
 10
21.59999999999989
 20
31.5
 30
0.0
 11
26.13165249758746
 21
31.5
 31
0.0
  0
LINE
  5
1459
330
1A
100
AcDbEntity
  8
240
  6
Continuous
100
AcDbLine
 10
1.999999999999886
 20
31.50000000000003
 30
0.0
 11
11.59999999999987
 21
31.50000000000003
 31
0.0
  0
LINE
  5
145A
330
1A
100
AcDbEntity
  8
243
100
AcDbLine
 10
22.99999999999989
 20
22.5
 30
0.0
 11
0.9999999999998861
 21
22.5
 31
0.0
  0
LINE
  5
145B
330
1A
100
AcDbEntity
  8
240
  6
Continuous
100
AcDbLine
 10
0.9999999999998863
 20
22.225
 30
0.0
 11
0.9999999999998863
 21
30.50000000000003
 31
0.0
  0
ARC
  5
1461
330
1A
100
AcDbEntity
  8
240
  6
Continuous
100
AcDbCircle
 10
1.999999999999886
 20
30.50000000000003
 30
0.0
 40
1.0
100
AcDbArc
 50
90.0
 51
180.0
  0
LINE
  5
1463
330
1A
100
AcDbEntity
  8
240
  6
Continuous
100
AcDbLine
 10
11.59999999999987
 20
31.50000000000003
 30
0.0
 11
14.48675134594799
 21
26.50000000000003
 31
0.0
  0
LINE
  5
1464
330
1A
100
AcDbEntity
  8
240
  6
Continuous
100
AcDbLine
 10
21.59999999999989
 20
31.5
 30
0.0
 11
18.71324865405176
 21
26.5
 31
0.0
  0
LINE
  5
1465
330
1A
100
AcDbEntity
  8
243
100
AcDbLine
 10
22.99999999999989
 20
22.5
 30
0.0
 11
22.99999999999989
 21
31.5
 31
0.0
  0
LINE
  5
1466
330
1A
100
AcDbEntity
  8
240
  6
Continuous
100
AcDbLine
 10
18.71324865405176
 20
26.5
 30
0.0
 11
14.48675134594799
 21
26.50000000000003
 31
0.0
  0
ARC
  5
146B
330
1A
100
AcDbEntity
  8
240
  6
Continuous
100
AcDbCircle
 10
25.99999999999989
 20
30.5
 30
0.0
 40
1.0
100
AcDbArc
 50
0.0
 51
75.00000000000041
  0
LINE
  5
146C
330
1A
100
AcDbEntity
  8
240
  6
Continuous
100
AcDbLine
 10
26.2588190451024
 20
31.46592582628912
 30
0.0
 11
26.13165249758742
 21
31.5
 31
0.0
  0
LINE
  5
146D
330
1A
100
AcDbEntity
  8
240
  6
Continuous
100
AcDbLine
 10
26.99999999999989
 20
-30.49999999999999
 30
0.0
 11
26.99999999999984
 21
-23.13994425210314
 31
0.0
  0
LINE
  5
146F
330
1A
100
AcDbEntity
  8
240
  6
Continuous
100
AcDbLine
 10
26.99999999999989
 20
30.5
 30
0.0
 11
26.99999999999989
 21
23.13994425210279
 31
0.0
  0
LINE
  5
1470
330
1A
100
AcDbEntity
  8
240
100
AcDbLine
 10
150.0
 20
10.05103543328508
 30
0.0
 11
150.0
 21
-10.05103543328502
 31
0.0
  0
ARC
  5
1472
330
1A
100
AcDbEntity
  8
240
100
AcDbCircle
 10
149.0
 20
-10.05103543328502
 30
0.0
 40
1.0
100
AcDbArc
 50
272.9999999999991
 51
0.0
  0
LINE
  5
1473
330
1A
100
AcDbEntity
  8
243
100
AcDbLine
 10
150.0
 20
5.000000000000006
 30
0.0
 11
118.0000000000003
 21
4.999999999999914
 31
0.0
  0
LINE
  5
1474
330
1A
100
AcDbEntity
  8
243
100
AcDbLine
 10
118.0000000000013
 20
4.999999999999346
 30
0.0
 11
117.5160254037751
 21
5.279422863407972
 31
0.0
  0
LINE
  5
1475
330
1A
100
AcDbEntity
  8
243
100
AcDbLine
 10
118.0
 20
0.0000000000000284
 30
0.0
 11
118.0000000000013
 21
4.999999999999346
 31
0.0
  0
ARC
  5
1476
330
1A
100
AcDbEntity
  8
240
100
AcDbCircle
 10
149.0
 20
10.05103543328508
 30
0.0
 40
1.0
100
AcDbArc
 50
0.0
 51
87.00000000000091
  0
LINE
  5
1484
330
1A
100
AcDbEntity
  8
240
100
AcDbLine
 10
32.68598426254218
 20
-17.14816704357565
 30
0.0
 11
54.99999999999483
 21
-15.97873903188895
 31
0.0
  0
LINE
  5
1485
330
1A
100
AcDbEntity
  8
240
100
AcDbLine
 10
32.6859842625423
 20
17.14816704357534
 30
0.0
 11
54.9999999999938
 21
15.97873903188895
 31
0.0
  0
LINE
  5
149C
330
1A
100
AcDbEntity
  8
243
100
AcDbLine
 10
117.0999999999998
 20
0.0
 30
0.0
 11
117.0999999999997
 21
6.000000000005684
 31
0.0
  0
LINE
  5
149D
330
1A
100
AcDbEntity
  8
243
100
AcDbLine
 10
20.17735026918936
 20
6.0
 30
0.0
 11
117.0999999999988
 21
6.000000000000142
 31
0.0
  0
LINE
  5
14A0
330
1A
100
AcDbEntity
  8
243
100
AcDbLine
 10
117.5160254037751
 20
5.279422863407972
 30
0.0
 11
117.0999999999998
 21
6.000000000000085
 31
0.0
  0
LINE
  5
14AC
330
1A
100
AcDbEntity
  8
241
100
AcDbLine
 10
70.00000000000006
 20
-15.19262234264309
 30
0.0
 11
70.00000000000659
 21
15.19262234264311
 31
0.0
  0
LINE
  5
14AE
330
1A
100
AcDbEntity
  8
240
100
AcDbLine
 10
70.00000000000025
 20
-15.19262234264312
 30
0.0
 11
149.0523359562429
 21
-11.04966496803965
 31
0.0
  0
LINE
  5
14AF
330
1A
100
AcDbEntity
  8
240
100
AcDbLine
 10
69.99999999997377
 20
15.19262234264431
 30
0.0
 11
149.0523359562429
 21
11.0496649680397
 31
0.0
  0
LINE
  5
14B0
330
1A
100
AcDbEntity
  8
241
100
AcDbLine
 10
60.99999999998686
 20
15.66429235619051
 30
0.0
 11
60.9999999999971
 21
-15.66429235619049
 31
0.0
  0
LINE
  5
14B2
330
1A
100
AcDbEntity
  8
241
100
AcDbLine
 10
54.99999999999468
 20
-15.97873903188883
 30
0.0
 11
54.99999999998365
 21
15.97873903188886
 31
0.0
  0
LINE
  5
14B5
330
1A
100
AcDbEntity
  8
240
100
AcDbLine
 10
60.99999999999707
 20
15.66429235619054
 30
0.0
 11
63.99999999999588
 21
15.50706901834118
 31
0.0
  0
LINE
  5
14B6
330
1A
100
AcDbEntity
  8
240
100
AcDbLine
 10
69.88234186893243
 20
15.13267253052424
 30
0.0
 11
69.99999999999989
 21
15.19262234264317
 31
0.0
  0
LINE
  5
14B7
330
1A
100
AcDbEntity
  8
240
100
AcDbLine
 10
64.11074712577826
 20
15.43514899393486
 30
0.0
 11
63.99999999999909
 21
15.50706901834087
 31
0.0
  0
ARC
  5
14B8
330
1A
100
AcDbEntity
  8
240
100
AcDbCircle
 10
64.65538616079427
 20
16.27381956187963
 30
0.0
 40
1.0
100
AcDbArc
 50
236.9999999999321
 51
266.9999999999993
1001
ASK_MEN_XD
1005
14C1
1070
     1
1005
14B7
1070
     1
  0
LINE
  5
14B9
330
1A
100
AcDbEntity
  8
240
100
AcDbLine
 10
60.88234186892984
 20
15.60434254407172
 30
0.0
 11
60.99999999999707
 21
15.66429235619054
 31
0.0
  0
LINE
  5
14BA
330
1A
100
AcDbEntity
  8
240
100
AcDbLine
 10
55.11074712577531
 20
15.90681900748234
 30
0.0
 11
54.99999999999627
 21
15.97873903188824
 31
0.0
  0
ARC
  5
14BB
330
1A
100
AcDbEntity
  8
240
100
AcDbCircle
 10
55.65538616079132
 20
16.74548957542711
 30
0.0
 40
1.0
100
AcDbArc
 50
236.9999999999321
 51
266.9999999999993
1001
ASK_MEN_XD
1005
14BF
1070
     1
1005
14BA
1070
     1
  0
LINE
  5
14BF
330
1A
100
AcDbEntity
  8
240
100
AcDbLine
 10
55.60305020454837
 20
15.74686004067254
 30
0.0
 11
60.37601541294662
 21
15.49671953350517
 31
0.0
  0
ARC
  5
14C0
330
1A
100
AcDbEntity
  8
240
100
AcDbCircle
 10
60.42835136918959
 20
16.49534906825974
 30
0.0
 40
1.0
100
AcDbArc
 50
266.9999999999993
 51
297.0000000000454
1001
ASK_MEN_XD
1005
14B9
1070
     1
1005
14BF
1070
     1
  0
LINE
  5
14C1
330
1A
100
AcDbEntity
  8
240
100
AcDbLine
 10
64.60305020455132
 20
15.27519002712506
 30
0.0
 11
69.37601541294921
 21
15.02504951995769
 31
0.0
  0
ARC
  5
14C2
330
1A
100
AcDbEntity
  8
240
100
AcDbCircle
 10
69.42835136919217
 20
16.02367905471226
 30
0.0
 40
1.0
100
AcDbArc
 50
266.9999999999993
 51
297.0000000000454
1001
ASK_MEN_XD
1005
14B6
1070
     1
1005
14C1
1070
     1
  0
LINE
  5
14C5
330
1A
100
AcDbEntity
  8
240
100
AcDbLine
 10
60.99999999999707
 20
-15.66429235619051
 30
0.0
 11
63.99999999999588
 21
-15.50706901834115
 31
0.0
  0
LINE
  5
14C6
330
1A
100
AcDbEntity
  8
240
100
AcDbLine
 10
69.88234186893243
 20
-15.13267253052422
 30
0.0
 11
69.99999999999989
 21
-15.19262234264315
 31
0.0
  0
LINE
  5
14C7
330
1A
100
AcDbEntity
  8
240
100
AcDbLine
 10
64.11074712577826
 20
-15.43514899393483
 30
0.0
 11
63.99999999999909
 21
-15.50706901834084
 31
0.0
  0
ARC
  5
14C8
330
1A
100
AcDbEntity
  8
240
100
AcDbCircle
 10
64.65538616079427
 20
-16.2738195618796
 30
0.0
 40
1.0
100
AcDbArc
 50
93.00000000000069
 51
123.0000000000693
1001
ASK_MEN_XD
1005
14C1
1070
     1
1005
14B7
1070
     1
  0
LINE
  5
14C9
330
1A
100
AcDbEntity
  8
240
100
AcDbLine
 10
60.88234186892984
 20
-15.6043425440717
 30
0.0
 11
60.99999999999707
 21
-15.66429235619051
 31
0.0
  0
LINE
  5
14CA
330
1A
100
AcDbEntity
  8
240
100
AcDbLine
 10
55.11074712577531
 20
-15.90681900748231
 30
0.0
 11
54.99999999999627
 21
-15.97873903188821
 31
0.0
  0
ARC
  5
14CB
330
1A
100
AcDbEntity
  8
240
100
AcDbCircle
 10
55.65538616079132
 20
-16.74548957542709
 30
0.0
 40
1.0
100
AcDbArc
 50
93.00000000000069
 51
123.0000000000693
1001
ASK_MEN_XD
1005
14BF
1070
     1
1005
14BA
1070
     1
  0
LINE
  5
14CC
330
1A
100
AcDbEntity
  8
240
100
AcDbLine
 10
55.60305020454837
 20
-15.74686004067251
 30
0.0
 11
60.37601541294662
 21
-15.49671953350514
 31
0.0
  0
ARC
  5
14CD
330
1A
100
AcDbEntity
  8
240
100
AcDbCircle
 10
60.42835136918959
 20
-16.49534906825971
 30
0.0
 40
1.0
100
AcDbArc
 50
62.99999999995455
 51
93.00000000000069
1001
ASK_MEN_XD
1005
14B9
1070
     1
1005
14BF
1070
     1
  0
LINE
  5
14CE
330
1A
100
AcDbEntity
  8
240
100
AcDbLine
 10
64.60305020455132
 20
-15.27519002712503
 30
0.0
 11
69.37601541294921
 21
-15.02504951995766
 31
0.0
  0
ARC
  5
14CF
330
1A
100
AcDbEntity
  8
240
100
AcDbCircle
 10
69.42835136919217
 20
-16.02367905471223
 30
0.0
 40
1.0
100
AcDbArc
 50
62.99999999995455
 51
93.00000000000069
1001
ASK_MEN_XD
1005
14B6
1070
     1
1005
14C1
1070
     1
  0
ARC
  5
14F4
330
1A
100
AcDbEntity
  8
240
100
AcDbCircle
 10
32.99999999999989
 20
23.13994425210279
 30
0.0
 40
6.0
100
AcDbArc
 50
180.0
 51
267.0000000000007
1001
GENIUS_GENODEF_13
1002
{
1000
HIER
1070
     0
1002
}
1002
{
1000
MANEDIT
1070
     0
1002
}
1002
{
1000
NOSEL
1070
     0
1002
}
1002
{
1000
BEHIND
1070
     0
1002
}
1002
{
1000
OTHER
1070
     0
1002
}
1002
{
1000
REACTOR
1002
}
1001
GENIUS_GENOBJ-N-FIL_13
1002
{
1000
OWNER
1000
GEN
1002
}
  0
ARC
  5
14F8
330
1A
100
AcDbEntity
  8
240
100
AcDbCircle
 10
32.99999999999984
 20
-23.13994425210309
 30
0.0
 40
6.0
100
AcDbArc
 50
92.99999999999993
 51
180.0000000000004
1001
GENIUS_GENOBJ-N-FIL_13
1002
{
1000
OWNER
1000
GEN
1002
}
1001
GENIUS_GENODEF_13
1002
{
1000
HIER
1070
     0
1002
}
1002
{
1000
MANEDIT
1070
     0
1002
}
1002
{
1000
NOSEL
1070
     0
1002
}
1002
{
1000
BEHIND
1070
     0
1002
}
1002
{
1000
OTHER
1070
     0
1002
}
1002
{
1000
REACTOR
1002
}
  0
LINE
  5
14FF
330
1A
100
AcDbEntity
  8
240
100
AcDbLine
 10
-0.0000000000000284
 20
22.225
 30
0.0
 11
0.9999999999998863
 21
22.225
 31
0.0
  0
LINE
  5
150F
330
1A
100
AcDbEntity
  8
240
100
AcDbLine
 10
-0.0000000000001137
 20
-22.225
 30
0.0
 11
0.9999999999998863
 21
-22.225
 31
0.0
  0
LINE
  5
1511
330
1A
100
AcDbEntity
  8
241
100
AcDbLine
 10
0.9999999999998863
 20
-22.225
 30
0.0
 11
0.9999999999998864
 21
22.22500000000002
 31
0.0
  0
LINE
  5
1512
330
1A
100
AcDbEntity
  8
241
100
AcDbLine
 10
26.99999999999984
 20
-23.13994425210313
 30
0.0
 11
26.99999999999985
 21
23.13994425210316
 31
0.0
  0
LINE
  5
1513
330
1A
100
AcDbEntity
  8
241
  6
Continuous
100
AcDbLine
 10
-0.0000000000001137
 20
22.22500000000002
 30
0.0
 11
0.0000000000001137
 21
-22.225
 31
0.0
  0
LINE
  5
151A
330
1A
100
AcDbEntity
  8
241
100
AcDbLine
 10
63.99999999999749
 20
15.50706901834149
 30
0.0
 11
63.99999999998652
 21
-15.50706901834147
 31
0.0
  0
LEADER
  5
1588
330
1A
100
AcDbEntity
  8
250
  6
Continuous
100
AcDbLeader
  3
BIGT
 76
     2
 10
-26.64442081
 20
-18.33935529999999
 30
0.0
 10
-32.4583971
 20
-28.40945761999999
 30
0.0
1001
ACAD
1000
DSTYLE
1002
{
1070
     6
1000
OPEN
1070
   343
1005
594
1002
}
  0
MTEXT
  5
1589
330
1A
100
AcDbEntity
  8
250
  6
Continuous
 62
    40
100
AcDbMText
 10
-47.39173044
 20
-27.40945761999999
 30
0.0
 40
2.799999999999999
 41
0.0
 71
     7
 72
     1
  1
BBT40
  7
YOKO
 73
     1
 44
1.0
1001
ITEMNAME
1000
LNSP3
1001
ACAD
1000
MTEXTBEGIN
1070
    73
1070
     1
1070
    44
1040
1.0
1070
    74
1070
     0
1000
MTEXTEND
  0
LINE
  5
158A
330
1A
100
AcDbEntity
  8
250
  6
Continuous
100
AcDbLine
 10
-32.4583971
 20
-28.40945761999999
 30
0.0
 11
-50.19173044
 21
-28.40945761999999
 31
0.0
1001
ITEMNAME
1000
LNSP2
  0
DIMENSION
  5
158B
330
1A
100
AcDbEntity
  8
250
  6
Continuous
100
AcDbDimension
  2
*D14
 10
150.0
 20
49.00000000000002
 30
0.0
 11
57.5
 21
51.40000000000001
 31
0.0
 70
    32
  1
（max.<>）
 71
     5
 42
185.0
  3
BIGT
100
AcDbAlignedDimension
 13
-35.0
 23
6.000000000000014
 33
0.0
 14
150.0
 24
10.05103543328508
 34
0.0
100
AcDbRotatedDimension
  0
DIMENSION
  5
158C
330
1A
100
AcDbEntity
  8
250
  6
Continuous
100
AcDbDimension
  2
*D15
 10
150.0
 20
42.00000000000001
 30
0.0
 11
75.0
 21
44.40000000000001
 31
0.0
 70
    32
 71
     5
 42
150.0
  3
BIGT
100
AcDbAlignedDimension
 13
0.0
 23
22.22500000000001
 33
0.0
 14
150.0
 24
10.05103543328508
 34
0.0
100
AcDbRotatedDimension
  0
TEXT
  5
158D
330
1A
100
AcDbEntity
  8
241
100
AcDbText
 10
-65.4
 20
63.00000000000001
 30
0.0
 40
5.0
  1
BBT40-SRC10-150
  7
YOKO
 11
-65.4
 21
63.00000000000001
 31
0.0
100
AcDbText
 73
     1
  0
DIMENSION
  5
158E
330
1A
100
AcDbEntity
  8
250
  6
Continuous
100
AcDbDimension
  2
*D16
 10
150.0
 20
35.00000000000002
 30
0.0
 11
134.0000000000006
 21
37.40000000000001
 31
0.0
 70
    32
 71
     5
 42
31.99999999999864
  3
BIGT
100
AcDbAlignedDimension
 13
118.0000000000013
 23
4.999999999999914
 33
0.0
 14
150.0
 24
10.05103543328508
 34
0.0
100
AcDbRotatedDimension
1001
ACAD
1000
DSTYLE
1002
{
1070
    79
1070
     2
1070
   179
1070
     3
1070
   371
1070
    -1
1070
   372
1070
    -1
1002
}
  0
DIMENSION
  5
158F
330
1A
100
AcDbEntity
  8
250
  6
Continuous
100
AcDbDimension
  2
*D17
 10
167.0
 20
11.00000000000001
 30
0.0
 11
164.6
 21
0.0000000000000363
 31
0.0
 70
    32
  1
{\H2.8;\U+2205}<>
 71
     5
 42
22.0
  3
BIGT
100
AcDbAlignedDimension
 13
150.0
 23
-10.99999999999998
 33
0.0
 14
150.0
 24
11.00000000000001
 34
0.0
 50
90.0
100
AcDbRotatedDimension
1001
ACAD
1000
DSTYLE
1002
{
1070
    79
1070
     2
1070
   179
1070
     3
1070
   371
1070
    -1
1070
   372
1070
    -1
1002
}
  0
DIMENSION
  5
1590
330
1A
100
AcDbEntity
  8
250
  6
Continuous
100
AcDbDimension
  2
*D18
 10
160.0
 20
5.000000000000011
 30
0.0
 11
157.6
 21
0.0000000000000376
 31
0.0
 70
    32
  1
{\H2.8;\U+2205}<>
 71
     5
 42
10.0
  3
BIGT
100
AcDbAlignedDimension
 13
150.0
 23
-4.999999999999985
 33
0.0
 14
150.0
 24
5.000000000000014
 34
0.0
 50
90.0
100
AcDbRotatedDimension
1001
ACAD
1000
DSTYLE
1002
{
1070
    75
1070
     1
1070
    79
1070
     2
1070
   179
1070
     3
1070
     6
1000
矢印なし
1070
   371
1070
    -1
1070
   372
1070
    -1
1002
}
  0
DIMENSION
  5
1591
330
1A
100
AcDbEntity
  8
250
  6
Continuous
100
AcDbDimension
  2
*D19
 10
91.73832021999999
 20
14.05336525000001
 30
0.0
 11
133.8492207500001
 21
3.924625680000015
 31
0.0
 70
   162
 71
     5
 42
0.1047197548855719
  3
BIGT
100
AcDb2LineAngularDimension
 13
149.05233596
 23
-11.04966496999998
 33
0.0
 14
91.73832021999999
 24
-14.05336524999998
 34
0.0
 15
149.05233596
 25
11.04966497000001
 35
0.0
 16
133.8495857771977
 26
-3.945593806688369
 36
0.0
1001
ACAD
1000
DSTYLE
1002
{
1070
    79
1070
     2
1070
   179
1070
     3
1070
   288
1070
     1
1070
   371
1070
    -1
1070
   372
1070
    -1
1002
}
  0
VIEWPORT
  5
22
102
{ACAD_XDICTIONARY
360
1780
102
}
330
17
100
AcDbEntity
 67
     1
  8
0
100
AcDbViewport
 10
261.5176991150442
 20
148.5
 30
0.0
 40
523.0353982300885
 41
297.0
 68
     1
 69
     1
 12
261.5176991150442
 22
148.5
 13
0.0
 23
0.0
 14
1.0
 24
1.0
 15
10.0
 25
10.0
 16
0.0
 26
0.0
 36
1.0
 17
0.0
 27
0.0
 37
0.0
 42
50.0
 43
0.0
 44
0.0
 45
297.0
 50
0.0
 51
0.0
 72
   100
 90
    32800
  1

281
     0
 71
     1
 74
     0
110
0.0
120
0.0
130
0.0
111
1.0
121
0.0
131
0.0
112
0.0
122
1.0
132
0.0
 79
     0
146
0.0
1001
GENIUS_GENODEF_13
1002
{
1000
HIER
1070
     0
1002
}
1002
{
1000
MANEDIT
1070
     0
1002
}
1002
{
1000
NOSEL
1070
     0
1002
}
1002
{
1000
BEHIND
1070
     0
1002
}
1002
{
1000
OTHER
1070
     0
1002
}
1002
{
1000
REACTOR
1002
}
1001
GENIUS_GENOBJ-N-SDF_13
1002
{
1000
OWNER
1000
GEN
1002
}
1001
GENIUS_GENSCREG_15
1000
PF
1040
1.0
1000
DF
1040
1.0
1000
MIN
1011
0.0
1021
0.0
1031
0.0
1000
MAX
1011
523.0353982300885
1021
297.0
1031
0.0
1000
FLAGS
1070
     2
  0
ENDSEC
  0
SECTION
  2
OBJECTS
  0
DICTIONARY
  5
C
330
0
100
AcDbDictionary
281
     1
  3
ACAD_COLOR
350
10F7
  3
ACAD_GROUP
350
D
  3
ACAD_LAYOUT
350
565
  3
ACAD_MATERIAL
350
10F6
  3
ACAD_MLINESTYLE
350
E
  3
ACAD_PLOTSETTINGS
350
566
  3
ACAD_PLOTSTYLENAME
350
563
  3
ACAD_TABLESTYLE
350
12D0
  3
ACDBHEADERROUNDTRIPXREC
350
177F
  3
AcDbVariableDictionary
350
68E
  3
AcmDictionary
350
6BC
  3
AMG
350
6A2
  3
AMGSNAPSETTINGS
350
714
  3
DWGPROPS
350
177E
  3
GRADE_DWG
350
540
  0
DICTIONARY
  5
71B
330
1A
100
AcDbDictionary
280
     1
281
     1
  3
ACAD_SORTENTS
360
14F5
  0
DICTIONARY
  5
1780
330
22
100
AcDbDictionary
280
     1
281
     1
  3
ACAD_XREC_ROUNDTRIP
360
1781
  0
DICTIONARY
  5
10F7
102
{ACAD_REACTORS
330
C
102
}
330
C
100
AcDbDictionary
281
     1
  0
DICTIONARY
  5
D
102
{ACAD_REACTORS
330
C
102
}
330
C
100
AcDbDictionary
281
     1
  3
DREC-1
350
5FC
  3
DREC-2
350
654
  3
DREC-3
350
673
  0
DICTIONARY
  5
565
102
{ACAD_REACTORS
330
C
102
}
330
C
100
AcDbDictionary
281
     1
  3
Model
350
567
  3
ﾚｲｱｳﾄ1
350
568
  0
DICTIONARY
  5
10F6
102
{ACAD_REACTORS
330
C
102
}
330
C
100
AcDbDictionary
281
     1
  3
Global
350
1370
  0
DICTIONARY
  5
E
102
{ACAD_REACTORS
330
C
102
}
330
C
100
AcDbDictionary
281
     1
  3
STANDARD
350
13
  0
DICTIONARY
  5
566
102
{ACAD_REACTORS
330
C
102
}
330
C
100
AcDbDictionary
281
     1
  0
ACDBDICTIONARYWDFLT
  5
563
102
{ACAD_REACTORS
330
C
102
}
330
C
100
AcDbDictionary
281
     1
  3
Normal
350
564
100
AcDbDictionaryWithDefault
340
564
  0
DICTIONARY
  5
12D0
102
{ACAD_REACTORS
330
C
102
}
330
C
100
AcDbDictionary
281
     1
  3
Standard
350
12D1
  0
DICTIONARY
  5
177F
102
{ACAD_REACTORS
330
C
102
}
330
C
100
AcDbDictionary
281
     1
  0
DICTIONARY
  5
68E
102
{ACAD_REACTORS
330
C
102
}
330
C
100
AcDbDictionary
281
     1
  3
CTABLESTYLE
350
12EF
  3
DIMASSOC
350
68F
  3
INDEXCTL
350
736
  3
PROJECTNAME
350
16A1
  3
SORTENTS
350
DB3
  0
DICTIONARY
  5
6BC
102
{ACAD_REACTORS
330
C
102
}
330
C
100
AcDbDictionary
281
     1
  3
AcmStdDictionary
350
6C2
  3
AMDTSECTSYM_ARROWCOLOR
350
12E6
  0
DICTIONARY
  5
6A2
102
{ACAD_REACTORS
330
C
102
}
330
C
100
AcDbDictionary
281
     1
  0
DICTIONARY
  5
714
102
{ACAD_REACTORS
330
C
102
}
330
C
100
AcDbDictionary
281
     1
  0
XRECORD
  5
177E
102
{ACAD_REACTORS
330
C
102
}
330
C
100
AcDbXrecord
280
     1
  1
DWGPROPS COOKIE
  2

  3

  4

  6

  7

  8
ymat
  9

300
AmdtFileType=84
301
=
302
=
303
=
304
=
305
=
306
=
307
=
308
=
309
=
 40
0.1947556365740741
 41
2456505.358603044
 42
2456505.722461273
  1

 90
        1
  0
DICTIONARY
  5
540
102
{ACAD_REACTORS
330
C
102
}
330
C
100
AcDbDictionary
281
     1
  3
VERSION
350
560
  0
SORTENTSTABLE
  5
14F5
102
{ACAD_REACTORS
330
71B
102
}
330
71B
100
AcDbSortentsTable
330
1A
331
146B
  5
146B
331
14B7
  5
14B9
331
1476
  5
1485
331
14CD
  5
14CF
331
142F
  5
142F
331
14C2
  5
14C6
331
149D
  5
14A7
331
1447
  5
1447
331
1474
  5
1476
331
145A
  5
145A
331
14CB
  5
14CD
331
142D
  5
142D
331
14C0
  5
14C2
331
14B5
  5
14B7
331
1458
  5
1458
331
1436
  5
1436
331
14C9
  5
14CB
331
142B
  5
142B
331
14AF
  5
14B2
331
1472
  5
1474
331
1443
  5
1443
331
1465
  5
1465
331
1438
  5
1438
331
1434
  5
1434
331
14C7
  5
14C9
331
1429
  5
1429
331
1470
  5
1473
331
1463
  5
1463
331
1485
  5
149D
331
14BA
  5
14BF
331
14A0
  5
14A8
331
1432
  5
1432
331
14C5
  5
14C7
331
144C
  5
144C
331
14B8
  5
14BA
331
1430
  5
1430
331
14F8
  5
146F
331
146C
  5
146C
331
14CE
  5
14F4
331
1461
  5
1461
331
14B6
  5
14B8
331
14C1
  5
14C5
331
149C
  5
14A0
331
1475
  5
1484
331
145B
  5
145B
331
14CC
  5
14CE
331
142E
  5
142E
331
1446
  5
1446
331
143B
  5
143B
331
1473
  5
1475
331
14F4
  5
1472
331
1459
  5
1459
331
1437
  5
1437
331
14CA
  5
14CC
331
142C
  5
142C
331
14BF
  5
14C1
331
14B2
  5
14B6
331
144F
  5
144F
331
1444
  5
1444
331
1466
  5
1466
331
1435
  5
1435
331
14C8
  5
14CA
331
14AE
  5
14B0
331
14B0
  5
14B5
331
1464
  5
1464
331
146F
  5
1470
331
1433
  5
1433
331
14C6
  5
14C8
331
1428
  5
1428
331
14BB
  5
14C0
331
14AC
  5
14AE
331
1440
  5
1440
331
1484
  5
149C
331
146D
  5
146D
331
14CF
  5
14F8
331
1431
  5
1431
331
14B9
  5
14BB
  0
XRECORD
  5
1781
102
{ACAD_REACTORS
330
1780
102
}
330
1780
100
AcDbXrecord
280
     1
102
SHADEPLOT
 70
     0
  0
GROUP
  5
5FC
102
{ACAD_REACTORS
330
D
102
}
330
D
100
AcDbGroup
300

 70
     0
 71
     1
1001
GRPNAME
1000
DREC-
1001
GPARA
1000
xsiz
1000
44.182
1000
ysiz
1000
40.677
1000
angl
1000
0
1000
ctyp
1000
0
1000
csiz
1000
5
1000
lfnt
1000
cont
1000
hcnt
1000
hoff
1000
vcnt
1000
voff
1000
opnt
1000
4
1000
dxpt
1000
0
1000
dypt
1000
0
  0
GROUP
  5
654
102
{ACAD_REACTORS
330
D
102
}
330
D
100
AcDbGroup
300

 70
     0
 71
     1
1001
GRPNAME
1000
DREC-
1001
GPARA
1000
xsiz
1000
54.592
1000
ysiz
1000
53.036
1000
angl
1000
0
1000
ctyp
1000
0
1000
csiz
1000
5
1000
lfnt
1000
cont
1000
hcnt
1000
hoff
1000
vcnt
1000
voff
1000
opnt
1000
4
1000
dxpt
1000
0
1000
dypt
1000
0
  0
GROUP
  5
673
102
{ACAD_REACTORS
330
D
102
}
330
D
100
AcDbGroup
300

 70
     0
 71
     1
1001
GRPNAME
1000
DREC-
1001
GPARA
1000
xsiz
1000
30.363
1000
ysiz
1000
36.175
1000
angl
1000
0
1000
ctyp
1000
0
1000
csiz
1000
5
1000
lfnt
1000
cont
1000
hcnt
1000
hoff
1000
vcnt
1000
voff
1000
opnt
1000
4
1000
dxpt
1000
0
1000
dypt
1000
0
  0
LAYOUT
  5
567
102
{ACAD_XDICTIONARY
360
1782
102
}
102
{ACAD_REACTORS
330
565
102
}
330
565
100
AcDbPlotSettings
  1

  2
Canon LASER SHOT LBP-1710
  4
A3
  6

 40
5.873749732971191
 41
5.873747825622558
 42
5.873748779296875
 43
5.873748779296875
 44
296.9259948730469
 45
419.9466552734374
 46
118.71
 47
134.38
 48
0.0
 49
0.0
140
0.0
141
0.0
142
1.0
143
1.0
 70
 11956
 72
     1
 73
     1
 74
     1
  7
technical_osaka.ctb
 75
    16
147
1.0
148
-79.13987810297385
149
-88.36944639260122
100
AcDbLayout
  1
Model
 70
     1
 71
     0
 10
0.0
 20
0.0
 11
12.0
 21
9.0
 12
0.0
 22
0.0
 32
0.0
 14
0.0
 24
0.0
 34
0.0
 15
0.0
 25
0.0
 35
0.0
146
0.0
 13
0.0
 23
0.0
 33
0.0
 16
1.0
 26
0.0
 36
0.0
 17
0.0
 27
1.0
 37
0.0
 76
     0
330
1A
  0
LAYOUT
  5
568
102
{ACAD_XDICTIONARY
360
1784
102
}
102
{ACAD_REACTORS
330
565
102
}
330
565
100
AcDbPlotSettings
  1

  2
\\ICHIRO\FX Able Model-PRII ART4-ADV
  4

  6

 40
0.0
 41
0.0
 42
0.0
 43
0.0
 44
0.0
 45
0.0
 46
0.0
 47
0.0
 48
0.0
 49
0.0
140
0.0
141
0.0
142
1.0
143
1.0
 70
   688
 72
     0
 73
     0
 74
     5
  7
technical_osaka.ctb
 75
    16
147
1.0
148
0.0
149
0.0
100
AcDbLayout
  1
ﾚｲｱｳﾄ1
 70
     1
 71
     1
 10
0.0
 20
0.0
 11
420.0
 21
297.0
 12
0.0
 22
0.0
 32
0.0
 14
1.000000000000000E+20
 24
1.000000000000000E+20
 34
1.000000000000000E+20
 15
-1.000000000000000E+20
 25
-1.000000000000000E+20
 35
-1.000000000000000E+20
146
0.0
 13
0.0
 23
0.0
 33
0.0
 16
1.0
 26
0.0
 36
0.0
 17
0.0
 27
1.0
 37
0.0
 76
     0
330
17
331
22
  0
MATERIAL
  5
1370
102
{ACAD_XDICTIONARY
360
1371
102
}
102
{ACAD_REACTORS
330
10F6
102
}
330
10F6
100
AcDbMaterial
  1
Global
 72
     0
 73
     2
 43
0.0208333333333333
 43
0.0
 43
0.0
 43
0.0
 43
0.0
 43
0.0208333333333333
 43
0.0
 43
0.0
 43
0.0
 43
0.0
 43
1.0
 43
0.0
 43
0.0
 43
0.0
 43
0.0
 43
1.0
 77
     0
 78
     2
 47
0.0208333333333333
 47
0.0
 47
0.0
 47
0.0
 47
0.0
 47
0.0208333333333333
 47
0.0
 47
0.0
 47
0.0
 47
0.0
 47
1.0
 47
0.0
 47
0.0
 47
0.0
 47
0.0
 47
1.0
171
     0
172
     2
 49
0.0208333333333333
 49
0.0
 49
0.0
 49
0.0
 49
0.0
 49
0.0208333333333333
 49
0.0
 49
0.0
 49
0.0
 49
0.0
 49
1.0
 49
0.0
 49
0.0
 49
0.0
 49
0.0
 49
1.0
175
     0
176
     2
142
0.0208333333333333
142
0.0
142
0.0
142
0.0
142
0.0
142
0.0208333333333333
142
0.0
142
0.0
142
0.0
142
0.0
142
1.0
142
0.0
142
0.0
142
0.0
142
0.0
142
1.0
179
     0
270
     2
144
0.0208333333333333
144
0.0
144
0.0
144
0.0
144
0.0
144
0.0208333333333333
144
0.0
144
0.0
144
0.0
144
0.0
144
1.0
144
0.0
144
0.0
144
0.0
144
0.0
144
1.0
274
     2
147
0.0208333333333333
147
0.0
147
0.0
147
0.0
147
0.0
147
0.0208333333333333
147
0.0
147
0.0
147
0.0
147
0.0
147
1.0
147
0.0
147
0.0
147
0.0
147
0.0
147
1.0
  0
MLINESTYLE
  5
13
102
{ACAD_REACTORS
330
E
102
}
330
E
100
AcDbMlineStyle
  2
STANDARD
 70
     0
  3

 62
     0
 51
90.0
 52
90.0
 71
     2
 49
0.5
 62
   256
  6
BYLAYER
 49
-0.5
 62
   256
  6
BYLAYER
  0
ACDBPLACEHOLDER
  5
564
102
{ACAD_REACTORS
330
563
102
}
330
563
  0
TABLESTYLE
  5
12D1
102
{ACAD_REACTORS
330
12D0
102
}
330
12D0
100
AcDbTableStyle
  3
Standard
 70
     0
 71
     0
 40
1.5
 41
1.5
280
     0
281
     0
  7
STANDARD
140
4.5
170
     2
 62
     0
 63
     7
283
     0
274
    -2
284
     1
 64
     0
275
    -2
285
     1
 65
     0
276
    -2
286
     1
 66
     0
277
    -2
287
     1
 67
     0
278
    -2
288
     1
 68
     0
279
    -2
289
     1
 69
     0
  7
STANDARD
140
6.0
170
     5
 62
     0
 63
     7
283
     0
274
    -2
284
     1
 64
     0
275
    -2
285
     1
 65
     0
276
    -2
286
     1
 66
     0
277
    -2
287
     1
 67
     0
278
    -2
288
     1
 68
     0
279
    -2
289
     1
 69
     0
  7
STANDARD
140
4.5
170
     5
 62
     0
 63
     7
283
     0
274
    -2
284
     1
 64
     0
275
    -2
285
     1
 65
     0
276
    -2
286
     1
 66
     0
277
    -2
287
     1
 67
     0
278
    -2
288
     1
 68
     0
279
    -2
289
     1
 69
     0
  0
DICTIONARYVAR
  5
12EF
102
{ACAD_REACTORS
330
68E
102
}
330
68E
100
DictionaryVariables
280
     0
  1
STANDARD
  0
DICTIONARYVAR
  5
68F
102
{ACAD_REACTORS
330
68E
102
}
330
68E
100
DictionaryVariables
280
     0
  1
1
  0
DICTIONARYVAR
  5
736
102
{ACAD_REACTORS
330
68E
102
}
330
68E
100
DictionaryVariables
280
     0
  1
0
  0
DICTIONARYVAR
  5
16A1
102
{ACAD_REACTORS
330
68E
102
}
330
68E
100
DictionaryVariables
280
     0
  1

  0
DICTIONARYVAR
  5
DB3
102
{ACAD_REACTORS
330
68E
102
}
330
68E
100
DictionaryVariables
280
     0
  1
3
  0
DICTIONARY
  5
6C2
102
{ACAD_REACTORS
330
6BC
102
}
330
6BC
100
AcDbDictionary
281
     1
  0
XRECORD
  5
12E6
102
{ACAD_REACTORS
330
6BC
102
}
330
6BC
100
AcDbXrecord
280
     1
 90
-1023410169
  0
XRECORD
  5
560
102
{ACAD_REACTORS
330
540
102
}
330
540
100
AcDbXrecord
280
     1
  1
2.0.0
  0
DICTIONARY
  5
1782
330
567
100
AcDbDictionary
280
     1
281
     1
  3
ACAD_XREC_ROUNDTRIP
360
1783
  0
DICTIONARY
  5
1784
330
568
100
AcDbDictionary
280
     1
281
     1
  3
ACAD_XREC_ROUNDTRIP
360
1785
  0
DICTIONARY
  5
1371
330
1370
100
AcDbDictionary
280
     1
281
     1
  3
ACAD_XREC_ROUNDTRIP
360
1372
  3
BUMPTILE
360
1373
  3
DIFFUSETILE
360
1374
  3
OPACITYTILE
360
1375
  3
REFLECTIONTILE
360
1376
  3
REFRACTIONTILE
360
1377
  3
SPECULARTILE
360
1378
  0
XRECORD
  5
1783
102
{ACAD_REACTORS
330
1782
102
}
330
1782
100
AcDbXrecord
280
     1
102
SHADEPLOT
 70
     0
102
SHADEPLOTRESLEVEL
 70
     2
102
SHADEPLOTCUSTOMDPI
 70
   300
  0
XRECORD
  5
1785
102
{ACAD_REACTORS
330
1784
102
}
330
1784
100
AcDbXrecord
280
     1
102
SHADEPLOT
 70
     0
102
SHADEPLOTRESLEVEL
 70
     2
102
SHADEPLOTCUSTOMDPI
 70
   300
  0
XRECORD
  5
1372
102
{ACAD_REACTORS
330
1371
102
}
330
1371
100
AcDbXrecord
280
     1
102
MATERIAL
148
0.0
149
0.0
149
0.0
 93
        0
 94
      127
282
     0
 72
     0
 77
     0
171
     0
175
     0
179
     0
273
     0
  0
XRECORD
  5
1373
102
{ACAD_REACTORS
330
1371
102
}
330
1371
100
AcDbXrecord
280
     1
270
     1
271
     1
  0
XRECORD
  5
1374
102
{ACAD_REACTORS
330
1371
102
}
330
1371
100
AcDbXrecord
280
     1
270
     1
271
     1
  0
XRECORD
  5
1375
102
{ACAD_REACTORS
330
1371
102
}
330
1371
100
AcDbXrecord
280
     1
270
     1
271
     1
  0
XRECORD
  5
1376
102
{ACAD_REACTORS
330
1371
102
}
330
1371
100
AcDbXrecord
280
     1
270
     1
271
     1
  0
XRECORD
  5
1377
102
{ACAD_REACTORS
330
1371
102
}
330
1371
100
AcDbXrecord
280
     1
270
     1
271
     1
  0
XRECORD
  5
1378
102
{ACAD_REACTORS
330
1371
102
}
330
1371
100
AcDbXrecord
280
     1
270
     1
271
     1
  0
ENDSEC
  0
EOF
