  0
SECTION
  2
HEADER
  9
$ACADVER
  1
AC1015
  9
$ACADMAINTVER
 70
    20
  9
$DWGCODEPAGE
  3
ANSI_932
  9
$INSBASE
 10
0.0
 20
0.0
 30
0.0
  9
$EXTMIN
 10
-66.57916285336842
 20
-31.50736943284022
 30
-0.0015258207003583
  9
$EXTMAX
 10
115.0218000968481
 20
61.00449410221108
 30
0.0000000349246037
  9
$LIMMIN
 10
0.0
 20
0.0
  9
$LIMMAX
 10
297.0
 20
210.0
  9
$ORTHOMODE
 70
     0
  9
$REGENMODE
 70
     1
  9
$FILLMODE
 70
     1
  9
$QTEXTMODE
 70
     0
  9
$MIRRTEXT
 70
     1
  9
$LTSCALE
 40
10.0
  9
$ATTMODE
 70
     1
  9
$TEXTSIZE
 40
3.0
  9
$TRACEWID
 40
1.0
  9
$TEXTSTYLE
  7
YOKO
  9
$CLAYER
  8
245
  9
$CELTYPE
  6
BYLAYER
  9
$CECOLOR
 62
   256
  9
$CELTSCALE
 40
1.0
  9
$DISPSILH
 70
     0
  9
$DIMSCALE
 40
1.0
  9
$DIMASZ
 40
2.0
  9
$DIMEXO
 40
0.5
  9
$DIMDLI
 40
2.5
  9
$DIMRND
 40
0.0
  9
$DIMDLE
 40
0.0
  9
$DIMEXE
 40
1.0
  9
$DIMTP
 40
0.0
  9
$DIMTM
 40
0.0
  9
$DIMTXT
 40
2.799999999999999
  9
$DIMCEN
 40
0.0
  9
$DIMTSZ
 40
0.0
  9
$DIMTOL
 70
     0
  9
$DIMLIM
 70
     0
  9
$DIMTIH
 70
     0
  9
$DIMTOH
 70
     0
  9
$DIMSE1
 70
     0
  9
$DIMSE2
 70
     0
  9
$DIMTAD
 70
     3
  9
$DIMZIN
 70
     8
  9
$DIMBLK
  1

  9
$DIMASO
 70
     1
  9
$DIMSHO
 70
     1
  9
$DIMPOST
  1

  9
$DIMAPOST
  1

  9
$DIMALT
 70
     0
  9
$DIMALTD
 70
     2
  9
$DIMALTF
 40
25.4
  9
$DIMLFAC
 40
1.0
  9
$DIMTOFL
 70
     1
  9
$DIMTVP
 40
0.0
  9
$DIMTIX
 70
     1
  9
$DIMSOXD
 70
     0
  9
$DIMSAH
 70
     1
  9
$DIMBLK1
  1
Open
  9
$DIMBLK2
  1
Open
  9
$DIMSTYLE
  2
BIGT
  9
$DIMCLRD
 70
   256
  9
$DIMCLRE
 70
   256
  9
$DIMCLRT
 70
    40
  9
$DIMTFAC
 40
1.0
  9
$DIMGAP
 40
1.0
  9
$DIMJUST
 70
     0
  9
$DIMSD1
 70
     0
  9
$DIMSD2
 70
     0
  9
$DIMTOLJ
 70
     1
  9
$DIMTZIN
 70
     8
  9
$DIMALTZ
 70
     0
  9
$DIMALTTZ
 70
     0
  9
$DIMUPT
 70
     0
  9
$DIMDEC
 70
     3
  9
$DIMTDEC
 70
     3
  9
$DIMALTU
 70
     2
  9
$DIMALTTD
 70
     2
  9
$DIMTXSTY
  7
STANDARD
  9
$DIMAUNIT
 70
     0
  9
$DIMADEC
 70
     3
  9
$DIMALTRND
 40
0.0
  9
$DIMAZIN
 70
     2
  9
$DIMDSEP
 70
    46
  9
$DIMATFIT
 70
     2
  9
$DIMFRAC
 70
     0
  9
$DIMLDRBLK
  1
Open
  9
$DIMLUNIT
 70
     2
  9
$DIMLWD
 70
    -1
  9
$DIMLWE
 70
    -1
  9
$DIMTMOVE
 70
     0
  9
$LUNITS
 70
     2
  9
$LUPREC
 70
     3
  9
$SKETCHINC
 40
1.0
  9
$FILLETRAD
 40
0.0
  9
$AUNITS
 70
     0
  9
$AUPREC
 70
     3
  9
$MENU
  1
.
  9
$ELEVATION
 40
0.0
  9
$PELEVATION
 40
0.0
  9
$THICKNESS
 40
0.0
  9
$LIMCHECK
 70
     0
  9
$CHAMFERA
 40
10.0
  9
$CHAMFERB
 40
10.0
  9
$CHAMFERC
 40
0.0
  9
$CHAMFERD
 40
0.0
  9
$SKPOLY
 70
     0
  9
$TDCREATE
 40
2456454.400577072
  9
$TDUCREATE
 40
2456454.025577072
  9
$TDUPDATE
 40
2457014.662155486
  9
$TDUUPDATE
 40
2457014.287155486
  9
$TDINDWG
 40
0.0269415509
  9
$TDUSRTIMER
 40
0.0269330556
  9
$USRTIMER
 70
     1
  9
$ANGBASE
 50
0.0
  9
$ANGDIR
 70
     0
  9
$PDMODE
 70
     0
  9
$PDSIZE
 40
-5.0
  9
$PLINEWID
 40
0.0
  9
$SPLFRAME
 70
     0
  9
$SPLINETYPE
 70
     6
  9
$SPLINESEGS
 70
     8
  9
$HANDSEED
  5
CE7
  9
$SURFTAB1
 70
     6
  9
$SURFTAB2
 70
     6
  9
$SURFTYPE
 70
     6
  9
$SURFU
 70
     6
  9
$SURFV
 70
     6
  9
$UCSBASE
  2

  9
$UCSNAME
  2

  9
$UCSORG
 10
0.0
 20
0.0
 30
0.0
  9
$UCSXDIR
 10
1.0
 20
0.0
 30
0.0
  9
$UCSYDIR
 10
0.0
 20
1.0
 30
0.0
  9
$UCSORTHOREF
  2

  9
$UCSORTHOVIEW
 70
     0
  9
$UCSORGTOP
 10
0.0
 20
0.0
 30
0.0
  9
$UCSORGBOTTOM
 10
0.0
 20
0.0
 30
0.0
  9
$UCSORGLEFT
 10
0.0
 20
0.0
 30
0.0
  9
$UCSORGRIGHT
 10
0.0
 20
0.0
 30
0.0
  9
$UCSORGFRONT
 10
0.0
 20
0.0
 30
0.0
  9
$UCSORGBACK
 10
0.0
 20
0.0
 30
0.0
  9
$PUCSBASE
  2

  9
$PUCSNAME
  2

  9
$PUCSORG
 10
0.0
 20
0.0
 30
0.0
  9
$PUCSXDIR
 10
1.0
 20
0.0
 30
0.0
  9
$PUCSYDIR
 10
0.0
 20
1.0
 30
0.0
  9
$PUCSORTHOREF
  2

  9
$PUCSORTHOVIEW
 70
     0
  9
$PUCSORGTOP
 10
0.0
 20
0.0
 30
0.0
  9
$PUCSORGBOTTOM
 10
0.0
 20
0.0
 30
0.0
  9
$PUCSORGLEFT
 10
0.0
 20
0.0
 30
0.0
  9
$PUCSORGRIGHT
 10
0.0
 20
0.0
 30
0.0
  9
$PUCSORGFRONT
 10
0.0
 20
0.0
 30
0.0
  9
$PUCSORGBACK
 10
0.0
 20
0.0
 30
0.0
  9
$USERI1
 70
     1
  9
$USERI2
 70
     0
  9
$USERI3
 70
     0
  9
$USERI4
 70
     0
  9
$USERI5
 70
     0
  9
$USERR1
 40
0.0
  9
$USERR2
 40
0.0
  9
$USERR3
 40
0.0
  9
$USERR4
 40
0.0
  9
$USERR5
 40
0.0
  9
$WORLDVIEW
 70
     1
  9
$SHADEDGE
 70
     3
  9
$SHADEDIF
 70
    70
  9
$TILEMODE
 70
     1
  9
$MAXACTVP
 70
    16
  9
$PINSBASE
 10
0.0
 20
0.0
 30
0.0
  9
$PLIMCHECK
 70
     0
  9
$PEXTMIN
 10
1.000000000000000E+20
 20
1.000000000000000E+20
 30
1.000000000000000E+20
  9
$PEXTMAX
 10
-1.000000000000000E+20
 20
-1.000000000000000E+20
 30
-1.000000000000000E+20
  9
$PLIMMIN
 10
0.0
 20
0.0
  9
$PLIMMAX
 10
420.0
 20
297.0
  9
$UNITMODE
 70
     0
  9
$VISRETAIN
 70
     0
  9
$PLINEGEN
 70
     0
  9
$PSLTSCALE
 70
     1
  9
$TREEDEPTH
 70
  3020
  9
$CMLSTYLE
  2
STANDARD
  9
$CMLJUST
 70
     0
  9
$CMLSCALE
 40
1.0
  9
$PROXYGRAPHICS
 70
     1
  9
$MEASUREMENT
 70
     1
  9
$CELWEIGHT
370
    -1
  9
$ENDCAPS
280
     0
  9
$JOINSTYLE
280
     0
  9
$LWDISPLAY
290
     0
  9
$INSUNITS
 70
     0
  9
$HYPERLINKBASE
  1

  9
$STYLESHEET
  1
big.ctb
  9
$XEDIT
290
     1
  9
$CEPSNTYPE
380
     0
  9
$PSTYLEMODE
290
     1
  9
$FINGERPRINTGUID
  2
{9D3B9122-5C8B-4C4E-B73F-7EB75910814D}
  9
$VERSIONGUID
  2
{5163AD99-DE0A-4C0F-A847-9E9D74FD2C7D}
  9
$EXTNAMES
290
     1
  9
$PSVPSCALE
 40
0.0
  9
$OLESTARTUP
290
     0
  0
ENDSEC
  0
SECTION
  2
CLASSES
  0
CLASS
  1
ACDBDICTIONARYWDFLT
  2
AcDbDictionaryWithDefault
  3
ObjectDBX Classes
 90
        0
280
     0
281
     0
  0
CLASS
  1
ACDBPLACEHOLDER
  2
AcDbPlaceHolder
  3
ObjectDBX Classes
 90
        0
280
     0
281
     0
  0
CLASS
  1
LAYOUT
  2
AcDbLayout
  3
ObjectDBX Classes
 90
        0
280
     0
281
     0
  0
CLASS
  1
PLOTSETTINGS
  2
AcDbPlotSettings
  3
ObjectDBX Classes
 90
        0
280
     0
281
     0
  0
CLASS
  1
MATERIAL
  2
AcDbMaterial
  3
ObjectDBX Classes
 90
     1024
280
     0
281
     0
  0
CLASS
  1
VISUALSTYLE
  2
AcDbVisualStyle
  3
ObjectDBX Classes
 90
     4095
280
     0
281
     0
  0
CLASS
  1
TABLESTYLE
  2
AcDbTableStyle
  3
ObjectDBX Classes
 90
     4095
280
     0
281
     0
  0
CLASS
  1
SORTENTSTABLE
  2
AcDbSortentsTable
  3
ObjectDBX Classes
 90
        0
280
     0
281
     0
  0
CLASS
  1
DICTIONARYVAR
  2
AcDbDictionaryVar
  3
ObjectDBX Classes
 90
        0
280
     0
281
     0
  0
ENDSEC
  0
SECTION
  2
TABLES
  0
TABLE
  2
VPORT
  5
8
330
0
100
AcDbSymbolTable
 70
     1
  0
VPORT
  5
77A
330
8
100
AcDbSymbolTableRecord
100
AcDbViewportTableRecord
  2
*Active
 70
     0
 10
0.0
 20
0.0
 11
1.0
 21
1.0
 12
44.49733302378244
 22
14.74856233468543
 13
0.0
 23
0.0
 14
7.0
 24
7.0
 15
7.0
 25
7.0
 16
0.0
 26
0.0
 36
1.0
 17
0.0
 27
0.0
 37
0.0
 40
126.9889818938622
 41
1.755489021956087
 42
50.0
 43
0.0
 44
0.0
 50
0.0
 51
0.0
 71
     0
 72
 20000
 73
     1
 74
     0
 75
     0
 76
     0
 77
     0
 78
     0
281
     0
 65
     1
110
0.0
120
0.0
130
0.0
111
1.0
121
0.0
131
0.0
112
0.0
122
1.0
132
0.0
 79
     0
146
0.0
  0
ENDTAB
  0
TABLE
  2
LTYPE
  5
5
330
0
100
AcDbSymbolTable
 70
     3
  0
LTYPE
  5
14
330
5
100
AcDbSymbolTableRecord
100
AcDbLinetypeTableRecord
  2
BYBLOCK
 70
     0
  3

 72
    65
 73
     0
 40
0.0
  0
LTYPE
  5
15
330
5
100
AcDbSymbolTableRecord
100
AcDbLinetypeTableRecord
  2
BYLAYER
 70
     0
  3

 72
    65
 73
     0
 40
0.0
  0
LTYPE
  5
16
330
5
100
AcDbSymbolTableRecord
100
AcDbLinetypeTableRecord
  2
CONTINUOUS
 70
     0
  3
Solid line
 72
    65
 73
     0
 40
0.0
  0
LTYPE
  5
258
330
5
100
AcDbSymbolTableRecord
100
AcDbLinetypeTableRecord
  2
CENTER2
 70
     0
  3
___ _ ___ _ ___ _ ___ _ ___ _ ___ _ ___ _ ___ _
 72
    65
 73
     4
 40
1.125
 49
0.75
 74
     0
 49
-0.125
 74
     0
 49
0.125
 74
     0
 49
-0.125
 74
     0
  0
LTYPE
  5
25C
330
5
100
AcDbSymbolTableRecord
100
AcDbLinetypeTableRecord
  2
HIDDEN2
 70
     0
  3
_ _ _ _ _ _ _ _ _ _ _ _ _ _ _ _ _ _ _ _ _ _ _ _
 72
    65
 73
     2
 40
0.1875
 49
0.125
 74
     0
 49
-0.0625
 74
     0
  0
ENDTAB
  0
TABLE
  2
LAYER
  5
2
102
{ACAD_XDICTIONARY
360
79D
102
}
330
0
100
AcDbSymbolTable
 70
     7
  0
LAYER
  5
F
330
2
100
AcDbSymbolTableRecord
100
AcDbLayerTableRecord
  2
0
 70
     0
 62
     7
  6
CONTINUOUS
370
    -3
390
564
  0
LAYER
  5
1AA
330
2
100
AcDbSymbolTableRecord
100
AcDbLayerTableRecord
  2
240
 70
     0
 62
     4
  6
CONTINUOUS
370
    -3
390
564
  0
LAYER
  5
1AB
330
2
100
AcDbSymbolTableRecord
100
AcDbLayerTableRecord
  2
241
 70
     0
 62
   211
  6
CONTINUOUS
370
    -3
390
564
  0
LAYER
  5
1AF
330
2
100
AcDbSymbolTableRecord
100
AcDbLayerTableRecord
  2
245
 70
     0
 62
     2
  6
CENTER2
370
    -3
390
564
  0
LAYER
  5
21E
330
2
100
AcDbSymbolTableRecord
100
AcDbLayerTableRecord
  2
250
 70
     0
 62
     3
  6
CONTINUOUS
370
    -3
390
564
  0
LAYER
  5
5C4
330
2
100
AcDbSymbolTableRecord
100
AcDbLayerTableRecord
  2
Defpoints
 70
     0
 62
     7
  6
CONTINUOUS
290
     0
370
    -3
390
564
  0
LAYER
  5
A28
330
2
100
AcDbSymbolTableRecord
100
AcDbLayerTableRecord
  2
242
 70
     0
 62
     3
  6
CONTINUOUS
370
    -3
390
564
  0
ENDTAB
  0
TABLE
  2
STYLE
  5
3
330
0
100
AcDbSymbolTable
 70
     3
  0
STYLE
  5
10
330
3
100
AcDbSymbolTableRecord
100
AcDbTextStyleTableRecord
  2
STANDARD
 70
     0
 40
0.0
 41
1.0
 50
0.0
 71
     0
 42
3.0
  3
romans.shx
  4
BIGFONT.SHX
  0
STYLE
  5
339
330
3
100
AcDbSymbolTableRecord
100
AcDbTextStyleTableRecord
  2
YOKO
 70
     0
 40
0.0
 41
1.0
 50
0.0
 71
     0
 42
3.0
  3
romans.shx
  4
extfont.shx
  0
ENDTAB
  0
TABLE
  2
VIEW
  5
6
330
0
100
AcDbSymbolTable
 70
     0
  0
ENDTAB
  0
TABLE
  2
UCS
  5
7
330
0
100
AcDbSymbolTable
 70
     0
  0
ENDTAB
  0
TABLE
  2
APPID
  5
9
330
0
100
AcDbSymbolTable
 70
    11
  0
APPID
  5
11
330
9
100
AcDbSymbolTableRecord
100
AcDbRegAppTableRecord
  2
ACAD
 70
     0
  0
APPID
  5
1B1
330
9
100
AcDbSymbolTableRecord
100
AcDbRegAppTableRecord
  2
GLOBAL
 70
     0
  0
APPID
  5
2A4
330
9
100
AcDbSymbolTableRecord
100
AcDbRegAppTableRecord
  2
DETAIL
 70
     0
  0
APPID
  5
5FD
330
9
100
AcDbSymbolTableRecord
100
AcDbRegAppTableRecord
  2
GRPNAME
 70
     0
  0
APPID
  5
5FE
330
9
100
AcDbSymbolTableRecord
100
AcDbRegAppTableRecord
  2
GPARA
 70
     0
  0
APPID
  5
6C4
330
9
100
AcDbSymbolTableRecord
100
AcDbRegAppTableRecord
  2
DCO15
 70
     0
  0
APPID
  5
6C5
330
9
100
AcDbSymbolTableRecord
100
AcDbRegAppTableRecord
  2
ITEMNAME
 70
     0
  0
APPID
  5
6C6
330
9
100
AcDbSymbolTableRecord
100
AcDbRegAppTableRecord
  2
GRADE_0
 70
     0
  0
APPID
  5
79A
330
9
100
AcDbSymbolTableRecord
100
AcDbRegAppTableRecord
  2
GENIUS_GENODEF_13
 70
     0
  0
APPID
  5
79B
330
9
100
AcDbSymbolTableRecord
100
AcDbRegAppTableRecord
  2
GENIUS_GENOBJ-N-FIL_13
 70
     0
  0
APPID
  5
79C
330
9
100
AcDbSymbolTableRecord
100
AcDbRegAppTableRecord
  2
ACAD_PSEXT
 70
     0
  0
ENDTAB
  0
TABLE
  2
DIMSTYLE
  5
A
330
0
100
AcDbSymbolTable
 70
     3
100
AcDbDimStyleTable
 71
     1
340
725
  0
DIMSTYLE
105
725
102
{ACAD_REACTORS
330
8A5
330
B19
330
B1A
102
}
330
A
100
AcDbSymbolTableRecord
100
AcDbDimStyleTableRecord
  2
BIGT
 70
     0
 41
2.229999999999999
 42
0.5
 43
2.5
 44
1.0
 73
     0
 74
     0
 77
     3
 78
     8
 79
     2
140
2.799999999999998
141
0.0
147
1.0
172
     1
173
     1
174
     1
176
   256
177
   256
178
    40
179
     3
271
     3
272
     3
284
     8
289
     2
340
10
341
594
343
594
344
594
371
    -1
372
    -1
  0
DIMSTYLE
105
A29
102
{ACAD_REACTORS
330
B1F
102
}
330
A
100
AcDbSymbolTableRecord
100
AcDbDimStyleTableRecord
  2
BIGT$0
 70
     0
  4
"
 41
2.229999999999999
 42
0.5
 43
7.0
 44
1.0
 47
0.1
 48
0.1
 73
     0
 74
     0
 77
     3
 78
     8
140
3.0
141
0.0
143
0.0393701
146
0.71
147
1.0
172
     1
176
     3
177
     3
178
    40
271
     3
272
     3
284
     8
340
10
341
594
342
594
  0
ENDTAB
  0
TABLE
  2
BLOCK_RECORD
  5
1
330
0
100
AcDbSymbolTable
 70
     8
  0
BLOCK_RECORD
  5
1A
102
{ACAD_XDICTIONARY
360
A02
102
}
330
1
100
AcDbSymbolTableRecord
100
AcDbBlockTableRecord
  2
*MODEL_SPACE
340
567
  0
BLOCK_RECORD
  5
17
330
1
100
AcDbSymbolTableRecord
100
AcDbBlockTableRecord
  2
*PAPER_SPACE
340
568
  0
BLOCK_RECORD
  5
594
330
1
100
AcDbSymbolTableRecord
100
AcDbBlockTableRecord
  2
_Open
340
0
102
{BLKREFS
331
B1C
331
BD1
331
BD2
331
BDA
331
BDB
331
BE3
331
BE4
331
BEC
331
BED
102
}
  0
BLOCK_RECORD
  5
6E3
330
1
100
AcDbSymbolTableRecord
100
AcDbBlockTableRecord
  2
矢印なし
340
0
102
{BLKREFS
331
6E6
102
}
  0
BLOCK_RECORD
  5
8A6
330
1
100
AcDbSymbolTableRecord
100
AcDbBlockTableRecord
  2
*D2
340
0
  0
BLOCK_RECORD
  5
91A
330
1
100
AcDbSymbolTableRecord
100
AcDbBlockTableRecord
  2
1
340
0
310
2800000020000000200000000100080000000000000400000000000000000000000000000000000000000000000080000080000000808000800000008000800080800000C0C0C000C0DCC000F0CAA6000020400000206000002080000020A0000020C0000020E00000400000004020000040400000406000004080000040A0
310
000040C0000040E00000600000006020000060400000606000006080000060A0000060C0000060E00000800000008020000080400000806000008080000080A0000080C0000080E00000A0000000A0200000A0400000A0600000A0800000A0A00000A0C00000A0E00000C0000000C0200000C0400000C0600000C0800000C0
310
A00000C0C00000C0E00000E0000000E0200000E0400000E0600000E0800000E0A00000E0C00000E0E00040000000400020004000400040006000400080004000A0004000C0004000E00040200000402020004020400040206000402080004020A0004020C0004020E000404000004040200040404000404060004040800040
310
40A0004040C0004040E00040600000406020004060400040606000406080004060A0004060C0004060E00040800000408020004080400040806000408080004080A0004080C0004080E00040A0000040A0200040A0400040A0600040A0800040A0A00040A0C00040A0E00040C0000040C0200040C0400040C0600040C08000
310
40C0A00040C0C00040C0E00040E0000040E0200040E0400040E0600040E0800040E0A00040E0C00040E0E00080000000800020008000400080006000800080008000A0008000C0008000E00080200000802020008020400080206000802080008020A0008020C0008020E00080400000804020008040400080406000804080
310
008040A0008040C0008040E00080600000806020008060400080606000806080008060A0008060C0008060E00080800000808020008080400080806000808080008080A0008080C0008080E00080A0000080A0200080A0400080A0600080A0800080A0A00080A0C00080A0E00080C0000080C0200080C0400080C0600080C0
310
800080C0A00080C0C00080C0E00080E0000080E0200080E0400080E0600080E0800080E0A00080E0C00080E0E000C0000000C0002000C0004000C0006000C0008000C000A000C000C000C000E000C0200000C0202000C0204000C0206000C0208000C020A000C020C000C020E000C0400000C0402000C0404000C0406000C0
310
408000C040A000C040C000C040E000C0600000C0602000C0604000C0606000C0608000C060A000C060C000C060E000C0800000C0802000C0804000C0806000C0808000C080A000C080C000C080E000C0A00000C0A02000C0A04000C0A06000C0A08000C0A0A000C0A0C000C0A0E000C0C00000C0C02000C0C04000C0C06000
310
C0C08000C0C0A000F0FBFF00A4A0A000808080000000FF0000FF000000FFFF00FF000000FF00FF00FFFF0000FFFFFF0000000000000000000000000000000000000000000000000000000000000000000000000000000000000000000000000000000000000000000000000000000000000000000000000000000000000000
310
00000000000000000000000000000000000000000000000000000000000000000000000000000000000000000000000000000000000000000000000000000000000000000000000000000000000000000000000000000000000000000000000000000000000000000000000000000000000000000000000000000000000000
310
00000000000000000000000000000000000000000000000000000000000000000000000000000000000000000000000000000000000000000000000000000000000000000000000000000000000000000000000000000000000000000000000000000000000000000000000000000000000000000000000000000000000000
310
FEFEE7FBE7FE0000000000000000000000000000000000000000000000000000E7E7E7E7E7FE000000000000000000000000000000000000000000FEFEFEFEFEE700E7E7E7FE000000000000000000000000000000FEFEFEFEFEFE0000000000E700E7E7E7E7000000000000000000000000000000FE000000000000000000
310
00E700E7E7E7E7FEFEFEFEFEFEE7FEFEFEFE00000000FE00000000000000000000E700E7E7E7E7FBFBFBFBE7FBE7E7E7FBFEFB0000FBFBFBFBFBFBFBFBFBFBFBFBE7FBE7E7E7E700000000E700E7E7E7FAFE00000000FE00000000000000000000E700E7E7E7E7FEFEFEFBE7FEE7FEE7FEFE00000000FEFEFEFEFEFE000000
310
0000E700E7E7E7E7000000FB0000000000000000000000000000000000FEFEFEFEFEFE00E7E7E7FE0000000000000000000000000000000000000000000000000000FEE7E7E7E7FE0000000000000000000000000000000000000000000000000000FEFEE7FBE7FE0000000000000000000000000000000000000000000000
310
00000000000000000000000000000000000000000000000000000000000000000000000000000000000000000000000000000000000000000000000000000000000000000000000000000000000000000000000000000000000000000000000000000000000000000000000000000000000000000000000000000000000000
310
00000000000000000000000000000000000000000000000000000000000000000000000000000000000000000000000000000000000000000000000000000000000000000000000000000000000000000000000000000000000000000000000000000000000000000000000000000000000000000000000000000000000000
310
0000000000000000000000000000000000000000000000000000000000000000000000000000000000000000000000000000000000000000
102
{BLKREFS
331
C81
102
}
  0
BLOCK_RECORD
  5
B74
330
1
100
AcDbSymbolTableRecord
100
AcDbBlockTableRecord
  2
*D4
340
0
  0
BLOCK_RECORD
  5
B80
330
1
100
AcDbSymbolTableRecord
100
AcDbBlockTableRecord
  2
*D5
340
0
  0
BLOCK_RECORD
  5
B8C
330
1
100
AcDbSymbolTableRecord
100
AcDbBlockTableRecord
  2
*D6
340
0
  0
ENDTAB
  0
ENDSEC
  0
SECTION
  2
BLOCKS
  0
BLOCK
  5
1B
330
1A
100
AcDbEntity
  8
0
100
AcDbBlockBegin
  2
*MODEL_SPACE
 70
     0
 10
0.0
 20
0.0
 30
0.0
  3
*MODEL_SPACE
  1

  0
ENDBLK
  5
1C
330
1A
100
AcDbEntity
  8
0
100
AcDbBlockEnd
  0
BLOCK
  5
18
330
17
100
AcDbEntity
 67
     1
  8
0
100
AcDbBlockBegin
  2
*PAPER_SPACE
 70
     0
 10
0.0
 20
0.0
 30
0.0
  3
*PAPER_SPACE
  1

  0
ENDBLK
  5
19
330
17
100
AcDbEntity
 67
     1
  8
0
100
AcDbBlockEnd
  0
BLOCK
  5
598
330
594
100
AcDbEntity
  8
0
100
AcDbBlockBegin
  2
_Open
 70
     0
 10
0.0
 20
0.0
 30
0.0
  3
_Open
  1

  0
LINE
  5
595
330
594
100
AcDbEntity
  8
0
  6
ByBlock
 62
     0
370
    -2
100
AcDbLine
 10
-1.0
 20
0.1666666666666666
 30
0.0
 11
0.0
 21
0.0
 31
0.0
  0
LINE
  5
596
330
594
100
AcDbEntity
  8
0
  6
ByBlock
 62
     0
370
    -2
100
AcDbLine
 10
-1.0
 20
-0.1666666666666666
 30
0.0
 11
0.0
 21
0.0
 31
0.0
  0
LINE
  5
597
330
594
100
AcDbEntity
  8
0
  6
ByBlock
 62
     0
370
    -2
100
AcDbLine
 10
0.0
 20
0.0
 30
0.0
 11
-1.0
 21
0.0
 31
0.0
  0
ENDBLK
  5
599
330
594
100
AcDbEntity
  8
0
100
AcDbBlockEnd
  0
BLOCK
  5
6E4
330
6E3
100
AcDbEntity
  8
0
100
AcDbBlockBegin
  2
矢印なし
 70
     0
 10
0.0
 20
0.0
 30
0.0
  3
矢印なし
  1

  0
ENDBLK
  5
6E5
330
6E3
100
AcDbEntity
  8
0
100
AcDbBlockEnd
  0
BLOCK
  5
8B0
330
8A6
100
AcDbEntity
  8
0
370
    -3
100
AcDbBlockBegin
  2
*D2
 70
     1
 10
0.0
 20
0.0
 30
0.0
  3
*D2
  1

  0
LINE
  5
BCE
330
8A6
100
AcDbEntity
  8
250
  6
Continuous
100
AcDbLine
 10
-0.0000000000001137
 20
22.725
 30
0.0
 11
-0.0000000000001124
 21
43.0
 31
0.0
  0
LINE
  5
BCF
330
8A6
100
AcDbEntity
  8
250
  6
Continuous
100
AcDbLine
 10
89.99999999999381
 20
5.500000711691802
 30
0.0
 11
89.99999999999381
 21
43.0
 31
0.0
  0
LINE
  5
BD0
330
8A6
100
AcDbEntity
  8
250
  6
Continuous
100
AcDbLine
 10
1.999999999999887
 20
42.0
 30
0.0
 11
87.99999999999382
 21
42.0
 31
0.0
  0
INSERT
  5
BD1
330
8A6
100
AcDbEntity
  8
250
  6
Continuous
100
AcDbBlockReference
  2
_Open
 10
-0.0000000000001125
 20
42.0
 30
0.0
 41
2.0
 42
2.0
 43
2.0
 50
180.0
  0
INSERT
  5
BD2
330
8A6
100
AcDbEntity
  8
250
  6
Continuous
100
AcDbBlockReference
  2
_Open
 10
89.99999999999381
 20
42.0
 30
0.0
 41
2.0
 42
2.0
 43
2.0
  0
MTEXT
  5
BD3
330
8A6
100
AcDbEntity
  8
250
  6
Continuous
 62
    40
370
    -3
100
AcDbMText
 10
44.99999999999685
 20
44.4
 30
0.0
 40
2.799999999999998
 41
0.0
 71
     5
 72
     1
  1
\A1;90
 73
     1
 44
1.0
1001
ACAD
1000
MTEXTBEGIN
1070
    73
1070
     1
1070
    44
1040
1.0
1070
    74
1070
     0
1000
MTEXTEND
  0
POINT
  5
BD4
330
8A6
100
AcDbEntity
  8
Defpoints
  6
Continuous
 62
     0
100
AcDbPoint
 10
-0.0000000000001137
 20
22.225
 30
0.0
  0
POINT
  5
BD5
330
8A6
100
AcDbEntity
  8
Defpoints
  6
Continuous
 62
     0
100
AcDbPoint
 10
89.99999999999381
 20
5.000000711691802
 30
0.0
  0
POINT
  5
BD6
330
8A6
100
AcDbEntity
  8
Defpoints
  6
Continuous
 62
     0
100
AcDbPoint
 10
89.99999999999381
 20
42.0
 30
0.0
  0
ENDBLK
  5
8B1
330
8A6
100
AcDbEntity
  8
0
370
    -3
100
AcDbBlockEnd
  0
BLOCK
  5
91B
330
91A
100
AcDbEntity
  8
0
100
AcDbBlockBegin
  2
1
 70
     0
 10
0.0
 20
0.0
 30
0.0
  3
1
  1

  0
LINE
  5
BF7
330
91A
100
AcDbEntity
  8
245
  6
CENTER2
100
AcDbLine
 10
16.59999999999991
 20
31.49999999999989
 30
0.0
 11
16.59999999999991
 21
-31.5000000000005
 31
0.0
  0
LINE
  5
BF8
330
91A
100
AcDbEntity
  8
240
  6
Continuous
100
AcDbLine
 10
-65.40000000000009
 20
11.30390895524857
 30
0.0
 11
-65.40000000000009
 21
-11.30390895524877
 31
0.0
  0
ARC
  5
BF9
330
91A
100
AcDbEntity
  8
240
  6
Continuous
100
AcDbCircle
 10
-63.80000000000009
 20
-11.30390895524877
 30
0.0
 40
1.6
100
AcDbArc
 50
180.0
 51
261.702855030163
  0
LINE
  5
BFA
330
91A
100
AcDbEntity
  8
240
  6
Continuous
100
AcDbLine
 10
0.9999999999998864
 20
-30.50000000000006
 30
0.0
 11
0.9999999999998864
 21
-22.22500000000005
 31
0.0
  0
ARC
  5
BFB
330
91A
100
AcDbEntity
  8
240
  6
Continuous
100
AcDbCircle
 10
1.999999999999884
 20
-30.50000000000006
 30
0.0
 40
1.0
100
AcDbArc
 50
180.0
 51
269.9999999999984
  0
LINE
  5
BFC
330
91A
100
AcDbEntity
  8
241
  6
Continuous
100
AcDbLine
 10
-0.0000000000001137
 20
-22.22500000000005
 30
0.0
 11
0.0
 21
-0.0000000000000568
 31
0.0
  0
LINE
  5
BFD
330
91A
100
AcDbEntity
  8
240
  6
Continuous
100
AcDbLine
 10
-0.0000000000001705
 20
-22.22500000000005
 30
0.0
 11
-64.03089102891486
 21
-12.88716172495002
 31
0.0
  0
LINE
  5
BFE
330
91A
100
AcDbEntity
  8
240
  6
Continuous
100
AcDbLine
 10
26.13165249758728
 20
-31.50000000000006
 30
0.0
 11
21.63449434733335
 21
-31.49999999999995
 31
0.0
  0
LINE
  5
BFF
330
91A
100
AcDbEntity
  8
241
  6
HIDDEN2
100
AcDbLine
 10
22.99999999999989
 20
-22.50000000000006
 30
0.0
 11
22.99999999999989
 21
-31.50000000000006
 31
0.0
  0
LINE
  5
C00
330
91A
100
AcDbEntity
  8
240
  6
Continuous
100
AcDbLine
 10
1.999999999999857
 20
-31.50000000000006
 30
0.0
 11
11.56550565266619
 21
-31.50000000000034
 31
0.0
  0
LINE
  5
C01
330
91A
100
AcDbEntity
  8
241
  6
HIDDEN2
100
AcDbLine
 10
22.99999999999989
 20
-22.50000000000006
 30
0.0
 11
0.9999999999998864
 21
-22.50000000000006
 31
0.0
  0
ARC
  5
C02
330
91A
100
AcDbEntity
  8
240
  6
Continuous
100
AcDbCircle
 10
25.99999999999989
 20
-30.50000000000006
 30
0.0
 40
1.000000000000009
100
AcDbArc
 50
284.9999999999962
 51
0.0
  0
LINE
  5
C03
330
91A
100
AcDbEntity
  8
240
  6
Continuous
100
AcDbLine
 10
26.13165249758728
 20
-31.50000000000006
 30
0.0
 11
26.2588190451024
 21
-31.46592582628912
 31
0.0
  0
LINE
  5
C04
330
91A
100
AcDbEntity
  8
240
  6
Continuous
100
AcDbLine
 10
-0.0000000000001137
 20
22.22499999999994
 30
0.0
 11
-64.03089102891486
 21
12.88716172494983
 31
0.0
  0
ARC
  5
C05
330
91A
100
AcDbEntity
  8
240
  6
Continuous
100
AcDbCircle
 10
-63.80000000000009
 20
11.30390895524857
 30
0.0
 40
1.6
100
AcDbArc
 50
98.29714496983692
 51
180.0
  0
LINE
  5
C06
330
91A
100
AcDbEntity
  8
245
  6
CENTER2
100
AcDbLine
 10
-66.40000000000009
 20
-0.0000000000000142
 30
0.0
 11
90.99999999999381
 21
-0.0000000000000528
 31
0.0
  0
LINE
  5
C07
330
91A
100
AcDbEntity
  8
240
  6
Continuous
100
AcDbLine
 10
21.63449434733371
 20
31.50000000000051
 30
0.0
 11
26.13165249758746
 21
31.49999999999995
 31
0.0
  0
LINE
  5
C08
330
91A
100
AcDbEntity
  8
240
  6
Continuous
100
AcDbLine
 10
1.999999999999884
 20
31.49999999999997
 30
0.0
 11
11.56550565266636
 21
31.49999999999991
 31
0.0
  0
ARC
  5
C09
330
91A
100
AcDbEntity
  8
240
  6
Continuous
100
AcDbCircle
 10
1.999999999999884
 20
30.49999999999997
 30
0.0
 40
1.0
100
AcDbArc
 50
90.0
 51
180.0
  0
LINE
  5
C0A
330
91A
100
AcDbEntity
  8
241
  6
HIDDEN2
100
AcDbLine
 10
22.99999999999989
 20
22.49999999999994
 30
0.0
 11
1.299999999999897
 21
22.49999999999994
 31
0.0
  0
LINE
  5
C0B
330
91A
100
AcDbEntity
  8
240
  6
Continuous
100
AcDbLine
 10
0.9999999999998864
 20
22.225
 30
0.0
 11
0.9999999999998864
 21
30.49999999999997
 31
0.0
  0
LINE
  5
C0C
330
91A
100
AcDbEntity
  8
241
  6
HIDDEN2
100
AcDbLine
 10
22.99999999999989
 20
22.49999999999994
 30
0.0
 11
22.99999999999989
 21
31.49999999999995
 31
0.0
  0
ARC
  5
C0D
330
91A
100
AcDbEntity
  8
240
  6
Continuous
100
AcDbCircle
 10
25.99999999999989
 20
30.49999999999994
 30
0.0
 40
1.0
100
AcDbArc
 50
0.0
 51
75.00000000000376
  0
LINE
  5
C0E
330
91A
100
AcDbEntity
  8
240
  6
Continuous
100
AcDbLine
 10
26.2588190451024
 20
31.46592582628907
 30
0.0
 11
26.13165249758742
 21
31.49999999999995
 31
0.0
  0
LINE
  5
C0F
330
91A
100
AcDbEntity
  8
240
100
AcDbLine
 10
14.45225699861447
 20
-26.50000000000009
 30
0.0
 11
11.56550565266619
 21
-31.50000000000034
 31
0.0
  0
LINE
  5
C10
330
91A
100
AcDbEntity
  8
240
100
AcDbLine
 10
18.74774300138531
 20
-26.50000000000009
 30
0.0
 11
21.63449434733335
 21
-31.49999999999995
 31
0.0
  0
LINE
  5
C11
330
91A
100
AcDbEntity
  8
240
100
AcDbLine
 10
14.45225699861447
 20
-26.50000000000009
 30
0.0
 11
18.74774300138531
 21
-26.50000000000009
 31
0.0
  0
LINE
  5
C12
330
91A
100
AcDbEntity
  8
241
100
AcDbLine
 10
11.56550565266619
 20
-0.0000000000000568
 30
0.0
 11
11.56550565266619
 21
-31.50000000000033
 31
0.0
  0
LINE
  5
C13
330
91A
100
AcDbEntity
  8
241
100
AcDbLine
 10
14.45225699861447
 20
-26.50000000000009
 30
0.0
 11
14.45225699861447
 21
-0.0000000000000568
 31
0.0
  0
LINE
  5
C14
330
91A
100
AcDbEntity
  8
241
100
AcDbLine
 10
18.74774300138531
 20
-26.50000000000009
 30
0.0
 11
18.74774300138531
 21
-0.0000000000000568
 31
0.0
  0
LINE
  5
C15
330
91A
100
AcDbEntity
  8
241
100
AcDbLine
 10
21.63449434733335
 20
-31.49999999999995
 30
0.0
 11
21.63449434733335
 21
-0.0000000000000568
 31
0.0
  0
LINE
  5
C16
330
91A
100
AcDbEntity
  8
240
100
AcDbLine
 10
14.45225699861444
 20
26.49999999999997
 30
0.0
 11
11.56550565266636
 21
31.49999999999991
 31
0.0
  0
LINE
  5
C17
330
91A
100
AcDbEntity
  8
240
100
AcDbLine
 10
18.74774300138529
 20
26.49999999999997
 30
0.0
 11
21.63449434733371
 21
31.50000000000051
 31
0.0
  0
LINE
  5
C18
330
91A
100
AcDbEntity
  8
240
100
AcDbLine
 10
14.45225699861444
 20
26.49999999999997
 30
0.0
 11
18.74774300138529
 21
26.49999999999997
 31
0.0
  0
LINE
  5
C19
330
91A
100
AcDbEntity
  8
241
100
AcDbLine
 10
56.19999999999031
 20
-9.999999999999914
 30
0.0
 11
56.19999999999031
 21
-0.0000000000000284
 31
0.0
  0
LINE
  5
C1A
330
91A
100
AcDbEntity
  8
241
100
AcDbLine
 10
54.99999999999025
 20
-10.00000000000003
 30
0.0
 11
54.99999999999025
 21
-0.0000000000000284
 31
0.0
  0
LINE
  5
C1B
330
91A
100
AcDbEntity
  8
241
100
AcDbLine
 10
53.99999999999025
 20
-10.00000000000003
 30
0.0
 11
53.99999999999014
 21
-0.0000000000000284
 31
0.0
  0
LINE
  5
C1C
330
91A
100
AcDbEntity
  8
241
100
AcDbLine
 10
52.79999999999042
 20
-10.00000000000003
 30
0.0
 11
52.79999999999042
 21
-0.0000000000000284
 31
0.0
  0
ARC
  5
C1D
330
91A
100
AcDbEntity
  8
240
100
AcDbCircle
 10
29.99999999999986
 20
-13.00000000000051
 30
0.0
 40
3.0
100
AcDbArc
 50
90.00000000000161
 51
180.0
  0
LINE
  5
C1E
330
91A
100
AcDbEntity
  8
240
  6
Continuous
100
AcDbLine
 10
26.99999999999989
 20
30.49999999999994
 30
0.0
 11
26.99999999999989
 21
13.00000000000037
 31
0.0
  0
ARC
  5
C1F
330
91A
100
AcDbEntity
  8
240
100
AcDbCircle
 10
29.99999999999989
 20
13.00000000000037
 30
0.0
 40
3.0
100
AcDbArc
 50
180.0
 51
269.9999999999984
  0
LINE
  5
C20
330
91A
100
AcDbEntity
  8
240
100
AcDbLine
 10
-0.0000000000001705
 20
-22.22500000000005
 30
0.0
 11
0.9999999999998864
 21
-22.22500000000005
 31
0.0
  0
LINE
  5
C21
330
91A
100
AcDbEntity
  8
241
100
AcDbLine
 10
0.9999999999998864
 20
-22.22500000000005
 30
0.0
 11
0.9999999999998864
 21
-0.0000000000000568
 31
0.0
  0
LINE
  5
C22
330
91A
100
AcDbEntity
  8
241
  6
Continuous
100
AcDbLine
 10
-0.0000000000001137
 20
22.225
 30
0.0
 11
0.0
 21
0.0
 31
0.0
  0
LINE
  5
C23
330
91A
100
AcDbEntity
  8
241
100
AcDbLine
 10
0.9999999999998864
 20
22.225
 30
0.0
 11
0.9999999999998864
 21
0.0
 31
0.0
  0
LINE
  5
C24
330
91A
100
AcDbEntity
  8
240
100
AcDbLine
 10
-0.0000000000001705
 20
22.225
 30
0.0
 11
0.9999999999998864
 21
22.225
 31
0.0
  0
LINE
  5
C25
330
91A
100
AcDbEntity
  8
241
100
AcDbLine
 10
18.74774300138531
 20
26.5
 30
0.0
 11
18.74774300138531
 21
-0.0000000000000284
 31
0.0
  0
LINE
  5
C26
330
91A
100
AcDbEntity
  8
241
100
AcDbLine
 10
21.63449434733335
 20
31.49999999999986
 30
0.0
 11
21.63449434733335
 21
-0.0000000000000284
 31
0.0
  0
LINE
  5
C27
330
91A
100
AcDbEntity
  8
241
100
AcDbLine
 10
11.56550565266619
 20
0.0
 30
0.0
 11
11.56550565266619
 21
31.50000000000027
 31
0.0
  0
LINE
  5
C28
330
91A
100
AcDbEntity
  8
241
100
AcDbLine
 10
14.45225699861447
 20
26.50000000000003
 30
0.0
 11
14.45225699861447
 21
0.0
 31
0.0
  0
LINE
  5
C29
330
91A
100
AcDbEntity
  8
241
100
AcDbLine
 10
56.19999999999031
 20
9.999999999999873
 30
0.0
 11
56.19999999999031
 21
-0.0000000000000142
 31
0.0
  0
LINE
  5
C2A
330
91A
100
AcDbEntity
  8
241
100
AcDbLine
 10
54.99999999999025
 20
9.999999999999984
 30
0.0
 11
54.99999999999025
 21
-0.0000000000000142
 31
0.0
  0
LINE
  5
C2B
330
91A
100
AcDbEntity
  8
241
100
AcDbLine
 10
53.99999999999025
 20
9.999999999999984
 30
0.0
 11
53.99999999999014
 21
-0.0000000000000142
 31
0.0
  0
LINE
  5
C2C
330
91A
100
AcDbEntity
  8
241
100
AcDbLine
 10
52.79999999999042
 20
9.999999999999984
 30
0.0
 11
52.79999999999042
 21
-0.0000000000000142
 31
0.0
  0
LINE
  5
C2D
330
91A
100
AcDbEntity
  8
240
  6
Continuous
100
AcDbLine
 10
26.99999999999989
 20
-30.50000000000006
 30
0.0
 11
26.99999999999987
 21
-13.00000000000051
 31
0.0
  0
LINE
  5
C2E
330
91A
100
AcDbEntity
  8
241
  6
Continuous
100
AcDbLine
 10
26.99999999999986
 20
-0.0000000000000284
 30
0.0
 11
26.99999999999986
 21
-13.00000000000051
 31
0.0
  0
LINE
  5
C2F
330
91A
100
AcDbEntity
  8
241
  6
Continuous
100
AcDbLine
 10
26.99999999999986
 20
-0.0000000000000196
 30
0.0
 11
26.99999999999987
 21
13.00000000000037
 31
0.0
  0
LINE
  5
C30
330
91A
100
AcDbEntity
  8
241
100
AcDbLine
 10
56.19999999998417
 20
-9.999999999999914
 30
0.0
 11
56.19999999998417
 21
-0.0000000000000284
 31
0.0
  0
LINE
  5
C31
330
91A
100
AcDbEntity
  8
241
100
AcDbLine
 10
54.99999999998411
 20
-10.00000000000003
 30
0.0
 11
54.99999999998411
 21
-0.0000000000000284
 31
0.0
  0
LINE
  5
C32
330
91A
100
AcDbEntity
  8
241
100
AcDbLine
 10
53.99999999998411
 20
-10.00000000000003
 30
0.0
 11
53.99999999998398
 21
-0.0000000000000284
 31
0.0
  0
LINE
  5
C33
330
91A
100
AcDbEntity
  8
241
100
AcDbLine
 10
52.79999999998429
 20
-10.00000000000003
 30
0.0
 11
52.79999999998429
 21
-0.0000000000000284
 31
0.0
  0
ARC
  5
C34
330
91A
100
AcDbEntity
  8
240
100
AcDbCircle
 10
66.99999999998775
 20
-8.999999999999801
 30
0.0
 40
1.0
100
AcDbArc
 50
270.0
 51
359.9999999999608
1001
GENIUS_GENOBJ-N-FIL_13
1002
{
1000
OWNER
1000
GEN
1002
}
1001
GENIUS_GENODEF_13
1002
{
1000
HIER
1070
     0
1002
}
1002
{
1000
MANEDIT
1070
     0
1002
}
1002
{
1000
NOSEL
1070
     0
1002
}
1002
{
1000
BEHIND
1070
     0
1002
}
1002
{
1000
OTHER
1070
     0
1002
}
1002
{
1000
REACTOR
1002
}
  0
LINE
  5
C35
330
91A
100
AcDbEntity
  8
240
100
AcDbLine
 10
66.99999999998778
 20
-9.999999999999726
 30
0.0
 11
29.9999999999998
 21
-10.0000000000005
 31
0.0
  0
LINE
  5
C36
330
91A
100
AcDbEntity
  8
240
100
AcDbLine
 10
66.99999999998778
 20
9.999999999999532
 30
0.0
 11
29.99999999999982
 21
10.00000000000036
 31
0.0
  0
ARC
  5
C37
330
91A
100
AcDbEntity
  8
240
100
AcDbCircle
 10
66.99999999998775
 20
8.999999999999744
 30
0.0
 40
1.0
100
AcDbArc
 50
0.0000000000390827
 51
90.0
1001
GENIUS_GENOBJ-N-FIL_13
1002
{
1000
OWNER
1000
GEN
1002
}
1001
GENIUS_GENODEF_13
1002
{
1000
HIER
1070
     0
1002
}
1002
{
1000
MANEDIT
1070
     0
1002
}
1002
{
1000
NOSEL
1070
     0
1002
}
1002
{
1000
BEHIND
1070
     0
1002
}
1002
{
1000
OTHER
1070
     0
1002
}
1002
{
1000
REACTOR
1002
}
  0
LINE
  5
C38
330
91A
100
AcDbEntity
  8
245
  6
CENTER2
100
AcDbLine
 10
47.99999999998681
 20
7.499999999999957
 30
0.0
 11
47.99999999998681
 21
12.49999999999996
 31
0.0
  0
LINE
  5
C39
330
91A
100
AcDbEntity
  8
241
100
AcDbLine
 10
56.19999999998417
 20
9.999999999999873
 30
0.0
 11
56.19999999998417
 21
-0.0000000000000142
 31
0.0
  0
LINE
  5
C3A
330
91A
100
AcDbEntity
  8
241
100
AcDbLine
 10
54.99999999998411
 20
9.99999999999998
 30
0.0
 11
54.99999999998411
 21
-0.0000000000000142
 31
0.0
  0
LINE
  5
C3B
330
91A
100
AcDbEntity
  8
241
100
AcDbLine
 10
53.99999999998411
 20
9.99999999999998
 30
0.0
 11
53.99999999998398
 21
-0.0000000000000142
 31
0.0
  0
LINE
  5
C3C
330
91A
100
AcDbEntity
  8
241
100
AcDbLine
 10
52.79999999998429
 20
9.99999999999998
 30
0.0
 11
52.79999999998429
 21
-0.0000000000000142
 31
0.0
  0
LINE
  5
C3D
330
91A
100
AcDbEntity
  8
241
  6
HIDDEN2
100
AcDbLine
 10
78.77004648036557
 20
5.250000096962337
 30
0.0
 11
75.49999847411489
 21
5.250000096962309
 31
0.0
1001
GRPNAME
1000
PASTMD0E
  0
LINE
  5
C3E
330
91A
100
AcDbEntity
  8
241
  6
HIDDEN2
100
AcDbLine
 10
76.87600351161563
 20
2.70000467459897
 30
0.0
 11
66.02004600352838
 21
2.700004674599056
 31
0.0
1001
GRPNAME
1000
PASTMD0E
  0
LINE
  5
C3F
330
91A
100
AcDbEntity
  8
241
  6
HIDDEN2
100
AcDbLine
 10
78.46226688145979
 20
2.100000267502906
 30
0.0
 11
66.0200013709007
 21
2.100000267502907
 31
0.0
1001
GRPNAME
1000
PASTMD0K
  0
LINE
  5
C40
330
91A
100
AcDbEntity
  8
240
  6
Continuous
100
AcDbLine
 10
75.79999847411492
 20
6.150000711691857
 30
0.0
 11
77.49999847411493
 21
6.150000711691857
 31
0.0
1001
GRPNAME
1000
PASTMD0J
  0
LINE
  5
C41
330
91A
100
AcDbEntity
  8
240
  6
Continuous
100
AcDbLine
 10
75.79999847411492
 20
-6.150000711691914
 30
0.0
 11
77.49999847411493
 21
-6.150000711691907
 31
0.0
1001
GRPNAME
1000
PASTMD0J
  0
ARC
  5
C42
330
91A
100
AcDbEntity
  8
240
  6
Continuous
100
AcDbCircle
 10
75.05098670725068
 20
5.649999999999976
 30
0.0
 40
0.3999999999999821
100
AcDbArc
 50
209.9999999922866
 51
269.9999999922812
1001
GRPNAME
1000
PASTMD04
  0
LINE
  5
C43
330
91A
100
AcDbEntity
  8
241
  6
HIDDEN2
100
AcDbLine
 10
63.52004600352838
 20
3.000000096962338
 30
0.0
 11
66.02004600352838
 21
3.000000096962338
 31
0.0
1001
GRPNAME
1000
PASTMD0E
  0
LINE
  5
C44
330
91A
100
AcDbEntity
  8
241
  6
HIDDEN2
100
AcDbLine
 10
63.52004600352838
 20
3.000000096962338
 30
0.0
 11
63.52004600352838
 21
-0.0000000000000284
 31
0.0
1001
GRPNAME
1000
PASTMD0E
  0
LINE
  5
C45
330
91A
100
AcDbEntity
  8
241
  6
HIDDEN2
100
AcDbLine
 10
66.0200013709007
 20
3.000000096962338
 30
0.0
 11
66.0200013709007
 21
-0.0000000000000284
 31
0.0
1001
GRPNAME
1000
PASTMD0K
  0
ARC
  5
C46
330
91A
100
AcDbEntity
  8
240
  6
Continuous
100
AcDbCircle
 10
75.05098670725068
 20
-5.650000000000032
 30
0.0
 40
0.4000000000000057
100
AcDbArc
 50
90.00000006427468
 51
150.0000000642708
1001
GRPNAME
1000
PASTMD04
  0
LINE
  5
C47
330
91A
100
AcDbEntity
  8
240
  6
Continuous
100
AcDbLine
 10
75.05098670725068
 20
-5.249999903037944
 30
0.0
 11
75.49999847411495
 21
-5.249999903038893
 31
0.0
1001
GRPNAME
1000
PASTMD0E
  0
ARC
  5
C48
330
91A
100
AcDbEntity
  8
240
  6
Continuous
100
AcDbCircle
 10
75.79999847411492
 20
-5.849999948752467
 30
0.0
 40
0.3000000000000114
100
AcDbArc
 50
179.9999999845639
 51
270.0000006678135
1001
GRPNAME
1000
PASTMD0F
  0
LINE
  5
C49
330
91A
100
AcDbEntity
  8
240
  6
Continuous
100
AcDbLine
 10
74.70457654573684
 20
5.449999999999987
 30
0.0
 11
74.5171756603205
 21
5.774587854924502
 31
0.0
1001
GRPNAME
1000
PASTMD04
  0
ARC
  5
C4A
330
91A
100
AcDbEntity
  8
240
  6
Continuous
100
AcDbCircle
 10
75.79999847411492
 20
5.849999948752411
 30
0.0
 40
0.3000000000000114
100
AcDbArc
 50
89.99999930646685
 51
179.999999994854
1001
GRPNAME
1000
PASTMD0J
  0
LINE
  5
C4B
330
91A
100
AcDbEntity
  8
240
  6
Continuous
100
AcDbLine
 10
75.05098670725068
 20
5.250000096962422
 30
0.0
 11
75.4999984741149
 21
5.250000096963168
 31
0.0
1001
GRPNAME
1000
PASTMD0E
  0
LINE
  5
C4C
330
91A
100
AcDbEntity
  8
241
  6
Continuous
100
AcDbLine
 10
78.69999847411491
 20
-6.000000711691909
 30
0.0
 11
78.69999847411491
 21
-0.0000000000000497
 31
0.0
1001
GRPNAME
1000
PASTMD0I
  0
LINE
  5
C4D
330
91A
100
AcDbEntity
  8
241
  6
Continuous
100
AcDbLine
 10
77.49999847411493
 20
-6.150000711691914
 30
0.0
 11
77.49999847411493
 21
-0.0000000000000494
 31
0.0
1001
GRPNAME
1000
PASTMD0J
  0
LINE
  5
C4E
330
91A
100
AcDbEntity
  8
241
  6
HIDDEN2
100
AcDbLine
 10
79.02004648036556
 20
5.000000096962337
 30
0.0
 11
78.77004648036557
 21
5.250000096962337
 31
0.0
1001
GRPNAME
1000
PASTMD0E
  0
LINE
  5
C4F
330
91A
100
AcDbEntity
  8
242
  6
HIDDEN2
100
AcDbLine
 10
79.52004648036553
 20
4.500000096962337
 30
0.0
 11
86.02004659957485
 21
4.500000096962337
 31
0.0
1001
GRPNAME
1000
PASTMD0E
  0
LINE
  5
C50
330
91A
100
AcDbEntity
  8
241
  6
HIDDEN2
100
AcDbLine
 10
85.5200465995748
 20
5.000000096962337
 30
0.0
 11
79.02004648036556
 21
5.000000096962337
 31
0.0
1001
GRPNAME
1000
PASTMD0E
  0
LINE
  5
C51
330
91A
100
AcDbEntity
  8
241
  6
HIDDEN2
100
AcDbLine
 10
76.87600351161563
 20
2.70000467459897
 30
0.0
 11
86.55738672914615
 21
3.547016052520745
 31
0.0
1001
GRPNAME
1000
PASTMD0E
  0
LINE
  5
C52
330
91A
100
AcDbEntity
  8
241
  6
HIDDEN2
100
AcDbLine
 10
78.52000041722637
 20
2.000000005242468
 30
0.0
 11
88.49999999999386
 21
2.000000005242468
 31
0.0
1001
GRPNAME
1000
PASTMD0K
  0
LINE
  5
C53
330
91A
100
AcDbEntity
  8
240
  6
Continuous
100
AcDbLine
 10
77.75980609525031
 20
-6.000000711691909
 30
0.0
 11
88.99999999999383
 21
-6.000000711691909
 31
0.0
1001
GRPNAME
1000
PASTMD0F
  0
ARC
  5
C54
330
91A
100
AcDbEntity
  8
240
  6
Continuous
100
AcDbCircle
 10
88.99999999999383
 20
-5.000000711691909
 30
0.0
 40
1.0
100
AcDbArc
 50
270.0
 51
0.0000000000000891
1001
GRPNAME
1000
PASTMD0F
  0
LINE
  5
C55
330
91A
100
AcDbEntity
  8
242
  6
HIDDEN2
100
AcDbLine
 10
79.52004648036553
 20
4.500000096962337
 30
0.0
 11
79.02004648036556
 21
5.000000096962337
 31
0.0
1001
GRPNAME
1000
PASTMD0E
  0
LINE
  5
C56
330
91A
100
AcDbEntity
  8
241
  6
Continuous
100
AcDbLine
 10
78.52000041722637
 20
2.000000005242468
 30
0.0
 11
78.46226688145979
 21
2.100000267502906
 31
0.0
1001
GRPNAME
1000
PASTMD0K
  0
LINE
  5
C57
330
91A
100
AcDbEntity
  8
240
  6
Continuous
100
AcDbLine
 10
89.99999999999381
 20
-5.000000711691908
 30
0.0
 11
89.99999999999381
 21
-0.0000000000000525
 31
0.0
1001
GRPNAME
1000
PASTMD0F
  0
LINE
  5
C58
330
91A
100
AcDbEntity
  8
241
  6
HIDDEN2
100
AcDbLine
 10
88.1000022590099
 20
3.700000648972631
 30
0.0
 11
88.49999999999386
 21
3.299999123093726
 31
0.0
1001
GRPNAME
1000
PASTMD0K
  0
LINE
  5
C59
330
91A
100
AcDbEntity
  8
241
  6
HIDDEN2
100
AcDbLine
 10
85.5200465995748
 20
5.000000096962337
 30
0.0
 11
86.02004659957485
 21
4.500000096962337
 31
0.0
1001
GRPNAME
1000
PASTMD0E
  0
LINE
  5
C5A
330
91A
100
AcDbEntity
  8
241
  6
HIDDEN2
100
AcDbLine
 10
86.02004659957485
 20
3.500004794980041
 30
0.0
 11
86.02004659957485
 21
4.500000096962337
 31
0.0
1001
GRPNAME
1000
PASTMD0E
  0
LINE
  5
C5B
330
91A
100
AcDbEntity
  8
241
  6
HIDDEN2
100
AcDbLine
 10
86.55738672914615
 20
3.547016052520745
 30
0.0
 11
86.70000070332868
 21
3.299999123093726
 31
0.0
1001
GRPNAME
1000
PASTMD0K
  0
LINE
  5
C5C
330
91A
100
AcDbEntity
  8
241
  6
HIDDEN2
100
AcDbLine
 10
86.70000070332868
 20
3.299999123093726
 30
0.0
 11
87.29999920725211
 21
3.299999123093726
 31
0.0
1001
GRPNAME
1000
PASTMD0K
  0
LINE
  5
C5D
330
91A
100
AcDbEntity
  8
241
  6
HIDDEN2
100
AcDbLine
 10
87.70000074803212
 20
3.700000648972631
 30
0.0
 11
87.29999920725211
 21
3.299999123093726
 31
0.0
1001
GRPNAME
1000
PASTMD0K
  0
LINE
  5
C5E
330
91A
100
AcDbEntity
  8
241
  6
HIDDEN2
100
AcDbLine
 10
87.70000074803212
 20
3.700000648972631
 30
0.0
 11
88.1000022590099
 21
3.700000648972631
 31
0.0
1001
GRPNAME
1000
PASTMD0K
  0
LINE
  5
C5F
330
91A
100
AcDbEntity
  8
241
  6
HIDDEN2
100
AcDbLine
 10
88.49999999999386
 20
3.299999123093726
 30
0.0
 11
88.49999999999386
 21
-0.0000000000000284
 31
0.0
1001
GRPNAME
1000
PASTMD0K
  0
LINE
  5
C60
330
91A
100
AcDbEntity
  8
241
  6
HIDDEN2
100
AcDbLine
 10
89.49999999999386
 20
2.050000051247535
 30
0.0
 11
88.49999999999386
 21
2.050000051247541
 31
0.0
1001
GRPNAME
1000
PASTMD0F
  0
LINE
  5
C61
330
91A
100
AcDbEntity
  8
241
  6
HIDDEN2
100
AcDbLine
 10
89.49999999999386
 20
2.050000051247535
 30
0.0
 11
89.99999999999381
 21
2.550000051247536
 31
0.0
1001
GRPNAME
1000
PASTMD0F
  0
LINE
  5
C62
330
91A
100
AcDbEntity
  8
240
  6
Continuous
100
AcDbLine
 10
77.75980723917331
 20
6.000000051247549
 30
0.0
 11
88.99999999999383
 21
6.000000051247552
 31
0.0
1001
GRPNAME
1000
PASTMD0F
  0
ARC
  5
C63
330
91A
100
AcDbEntity
  8
240
  6
Continuous
100
AcDbCircle
 10
88.99999999999383
 20
5.000000051247552
 30
0.0
 40
1.0
100
AcDbArc
 50
0.0
 51
90.0
1001
GRPNAME
1000
PASTMD0F
  0
LINE
  5
C64
330
91A
100
AcDbEntity
  8
240
100
AcDbLine
 10
67.99999999998928
 20
6.749999999999954
 30
0.0
 11
73.66534546514927
 21
6.749999999999971
 31
0.0
  0
ARC
  5
C65
330
91A
100
AcDbEntity
  8
240
100
AcDbCircle
 10
73.66534546514927
 20
6.249999999999971
 30
0.0
 40
0.5
100
AcDbArc
 50
30.0000000000037
 51
90.0
1001
GENIUS_GENODEF_13
1002
{
1000
HIER
1070
     0
1002
}
1002
{
1000
MANEDIT
1070
     0
1002
}
1002
{
1000
NOSEL
1070
     0
1002
}
1002
{
1000
BEHIND
1070
     0
1002
}
1002
{
1000
OTHER
1070
     0
1002
}
1002
{
1000
REACTOR
1002
}
1001
GENIUS_GENOBJ-N-FIL_13
1002
{
1000
OWNER
1000
GEN
1002
}
  0
LINE
  5
C66
330
91A
100
AcDbEntity
  8
240
100
AcDbLine
 10
74.09835816704156
 20
6.499999999999971
 30
0.0
 11
74.70457594969085
 21
5.44999999999979
 31
0.0
  0
LINE
  5
C67
330
91A
100
AcDbEntity
  8
240
100
AcDbLine
 10
74.09835816704156
 20
-6.500000000000139
 30
0.0
 11
74.70457594969085
 21
-5.450000000000073
 31
0.0
  0
ARC
  5
C68
330
91A
100
AcDbEntity
  8
240
100
AcDbCircle
 10
73.66534546514927
 20
-6.250000000000027
 30
0.0
 40
0.5
100
AcDbArc
 50
270.0
 51
329.9999999999946
1001
GENIUS_GENODEF_13
1002
{
1000
HIER
1070
     0
1002
}
1002
{
1000
MANEDIT
1070
     0
1002
}
1002
{
1000
NOSEL
1070
     0
1002
}
1002
{
1000
BEHIND
1070
     0
1002
}
1002
{
1000
OTHER
1070
     0
1002
}
1002
{
1000
REACTOR
1002
}
1001
GENIUS_GENOBJ-N-FIL_13
1002
{
1000
OWNER
1000
GEN
1002
}
  0
LINE
  5
C69
330
91A
100
AcDbEntity
  8
240
100
AcDbLine
 10
67.99999999998928
 20
-6.750000000000014
 30
0.0
 11
73.66534546514927
 21
-6.750000000000027
 31
0.0
  0
LINE
  5
C6A
330
91A
100
AcDbEntity
  8
241
100
AcDbLine
 10
73.95402059974404
 20
-3.649987813100123
 30
0.0
 11
73.95402059974404
 21
-3.092329219213098
 31
0.0
  0
ARC
  5
C6B
330
91A
100
AcDbEntity
  8
241
100
AcDbCircle
 10
63.1287030524419
 20
-0.0000000000000284
 30
0.0
 40
11.2583302491945
100
AcDbArc
 50
344.0576313943702
 51
0.0
  0
ARC
  5
C6C
330
91A
100
AcDbEntity
  8
241
100
AcDbCircle
 10
71.56016370187662
 20
-5.154118051782146
 30
0.0
 40
2.827182099261596
100
AcDbArc
 50
327.857653244545
 51
32.14234675545815
  0
LINE
  5
C6D
330
91A
100
AcDbEntity
  8
241
100
AcDbLine
 10
73.95402059974404
 20
-3.649987813100238
 30
0.0
 11
67.99999999999139
 21
-3.649987813100233
 31
0.0
  0
LINE
  5
C6E
330
91A
100
AcDbEntity
  8
241
100
AcDbLine
 10
73.95402059974379
 20
-3.092329219213665
 30
0.0
 11
67.99999999999177
 21
-3.092329219213667
 31
0.0
  0
LINE
  5
C6F
330
91A
100
AcDbEntity
  8
241
100
AcDbLine
 10
73.95402059974404
 20
3.649987813100066
 30
0.0
 11
73.95402059974404
 21
3.09232921921304
 31
0.0
  0
ARC
  5
C70
330
91A
100
AcDbEntity
  8
241
100
AcDbCircle
 10
63.1287030524419
 20
-0.0000000000000284
 30
0.0
 40
11.2583302491945
100
AcDbArc
 50
0.0
 51
15.9423686056297
  0
ARC
  5
C71
330
91A
100
AcDbEntity
  8
241
100
AcDbCircle
 10
71.56016370187662
 20
5.154118051782091
 30
0.0
 40
2.827182099261596
100
AcDbArc
 50
327.8576532445419
 51
32.14234675545498
  0
LINE
  5
C72
330
91A
100
AcDbEntity
  8
241
100
AcDbLine
 10
73.95402059974404
 20
3.649987813100181
 30
0.0
 11
67.99999999999636
 21
3.649987813100176
 31
0.0
  0
LINE
  5
C73
330
91A
100
AcDbEntity
  8
241
100
AcDbLine
 10
73.95402059974379
 20
3.092329219213608
 30
0.0
 11
67.99999999999598
 21
3.092329219213611
 31
0.0
  0
LINE
  5
C74
330
91A
100
AcDbEntity
  8
240
100
AcDbLine
 10
67.99999999998775
 20
9.000000000000424
 30
0.0
 11
67.99999999998928
 21
6.749999999999954
 31
0.0
  0
LINE
  5
C75
330
91A
100
AcDbEntity
  8
241
100
AcDbLine
 10
67.9999999999893
 20
6.749999999999971
 30
0.0
 11
67.99999999999389
 21
-0.0000000000000284
 31
0.0
  0
LINE
  5
C76
330
91A
100
AcDbEntity
  8
240
100
AcDbLine
 10
67.99999999998775
 20
-9.000000000000479
 30
0.0
 11
67.99999999998928
 21
-6.750000000000014
 31
0.0
  0
LINE
  5
C77
330
91A
100
AcDbEntity
  8
241
100
AcDbLine
 10
67.99999999998928
 20
-6.750000000000027
 30
0.0
 11
67.99999999999389
 21
-0.0000000000000284
 31
0.0
  0
LINE
  5
C78
330
91A
100
AcDbEntity
  8
240
  6
Continuous
100
AcDbLine
 10
75.49999847411493
 20
-5.849999948752467
 30
0.0
 11
75.49999847411495
 21
-5.249999903038855
 31
0.0
1001
GRPNAME
1000
PASTMD0F
  0
LINE
  5
C79
330
91A
100
AcDbEntity
  8
241
  6
Continuous
100
AcDbLine
 10
75.49999847411495
 20
-5.249999903038893
 30
0.0
 11
75.49999847411495
 21
-0.000000000000049
 31
0.0
1001
GRPNAME
1000
PASTMD0F
  0
LINE
  5
C7A
330
91A
100
AcDbEntity
  8
240
  6
Continuous
100
AcDbLine
 10
75.4999984741149
 20
5.250000096963168
 30
0.0
 11
75.49999847411493
 21
5.849999948752411
 31
0.0
1001
GRPNAME
1000
PASTMD0F
  0
LINE
  5
C7B
330
91A
100
AcDbEntity
  8
241
  6
Continuous
100
AcDbLine
 10
75.49999847411495
 20
5.249999903038794
 30
0.0
 11
75.49999847411495
 21
-0.000000000000049
 31
0.0
1001
GRPNAME
1000
PASTMD0F
  0
LINE
  5
C7C
330
91A
100
AcDbEntity
  8
240
100
AcDbLine
 10
77.75980609525031
 20
-6.000000711691909
 30
0.0
 11
77.49999847411493
 21
-6.150000711691907
 31
0.0
  0
LINE
  5
C7D
330
91A
100
AcDbEntity
  8
240
100
AcDbLine
 10
77.75980723917331
 20
6.000000051247549
 30
0.0
 11
77.49999847411493
 21
6.150000711691807
 31
0.0
  0
LINE
  5
C7E
330
91A
100
AcDbEntity
  8
240
  6
Continuous
100
AcDbLine
 10
89.99999999999381
 20
5.000000711691802
 30
0.0
 11
89.99999999999381
 21
-0.0000000000000525
 31
0.0
1001
GRPNAME
1000
PASTMD0F
  0
LINE
  5
C7F
330
91A
100
AcDbEntity
  8
241
  6
Continuous
100
AcDbLine
 10
78.69999847411491
 20
6.000000711691809
 30
0.0
 11
78.69999847411491
 21
-0.0000000000000497
 31
0.0
1001
GRPNAME
1000
PASTMD0I
  0
LINE
  5
C80
330
91A
100
AcDbEntity
  8
241
  6
Continuous
100
AcDbLine
 10
77.49999847411493
 20
6.150000711691816
 30
0.0
 11
77.49999847411493
 21
-0.0000000000000494
 31
0.0
1001
GRPNAME
1000
PASTMD0J
  0
ENDBLK
  5
91C
330
91A
100
AcDbEntity
  8
0
100
AcDbBlockEnd
  0
BLOCK
  5
B7E
330
B74
100
AcDbEntity
  8
0
100
AcDbBlockBegin
  2
*D4
 70
     1
 10
0.0
 20
0.0
 30
0.0
  3
*D4
  1

  0
LINE
  5
BD7
330
B74
100
AcDbEntity
  8
250
  6
Continuous
100
AcDbLine
 10
66.49999999998775
 20
-9.999999999999801
 30
0.0
 11
60.67809037107726
 21
-9.999999999999801
 31
0.0
  0
LINE
  5
BD8
330
B74
100
AcDbEntity
  8
250
  6
Continuous
100
AcDbLine
 10
66.49999999998775
 20
9.999999999999744
 30
0.0
 11
60.67809037107726
 21
9.999999999999744
 31
0.0
  0
LINE
  5
BD9
330
B74
100
AcDbEntity
  8
250
  6
Continuous
100
AcDbLine
 10
61.67809037107726
 20
-7.9999999999998
 30
0.0
 11
61.67809037107726
 21
7.999999999999745
 31
0.0
  0
INSERT
  5
BDA
330
B74
100
AcDbEntity
  8
250
  6
Continuous
100
AcDbBlockReference
  2
_Open
 10
61.67809037107726
 20
-9.999999999999801
 30
0.0
 41
2.0
 42
2.0
 43
2.0
 50
270.0
  0
INSERT
  5
BDB
330
B74
100
AcDbEntity
  8
250
  6
Continuous
100
AcDbBlockReference
  2
_Open
 10
61.67809037107726
 20
9.999999999999744
 30
0.0
 41
2.0
 42
2.0
 43
2.0
 50
90.0
  0
MTEXT
  5
BDC
330
B74
100
AcDbEntity
  8
250
  6
Continuous
 62
    40
370
    -3
100
AcDbMText
 10
59.27809037107726
 20
-1.132658164737307
 30
0.0
 40
2.799999999999998
 41
0.0
 71
     5
 72
     1
  1
\A1;{\H2.8;%%C}20
 11
0.0000000000000001
 21
1.0
 31
0.0
 73
     1
 44
1.0
1001
ACAD
1000
MTEXTBEGIN
1070
    73
1070
     1
1070
    44
1040
1.0
1070
    74
1070
     0
1000
MTEXTEND
  0
POINT
  5
BDD
330
B74
100
AcDbEntity
  8
Defpoints
  6
Continuous
 62
     0
100
AcDbPoint
 10
66.99999999998775
 20
-9.999999999999801
 30
0.0
  0
POINT
  5
BDE
330
B74
100
AcDbEntity
  8
Defpoints
  6
Continuous
 62
     0
100
AcDbPoint
 10
66.99999999998775
 20
9.999999999999744
 30
0.0
  0
POINT
  5
BDF
330
B74
100
AcDbEntity
  8
Defpoints
  6
Continuous
 62
     0
100
AcDbPoint
 10
61.67809037107726
 20
9.999999999999744
 30
0.0
  0
ENDBLK
  5
B7F
330
B74
100
AcDbEntity
  8
0
100
AcDbBlockEnd
  0
BLOCK
  5
B8A
330
B80
100
AcDbEntity
  8
0
100
AcDbBlockBegin
  2
*D5
 70
     1
 10
0.0
 20
0.0
 30
0.0
  3
*D5
  1

  0
LINE
  5
BE0
330
B80
100
AcDbEntity
  8
250
  6
Continuous
100
AcDbLine
 10
67.99999999998775
 20
9.500000000000424
 30
0.0
 11
67.99999999998775
 21
36.00000000000001
 31
0.0
  0
LINE
  5
BE1
330
B80
100
AcDbEntity
  8
250
  6
Continuous
100
AcDbLine
 10
89.99999999999381
 20
5.500000051247553
 30
0.0
 11
89.99999999999381
 21
36.00000000000001
 31
0.0
  0
LINE
  5
BE2
330
B80
100
AcDbEntity
  8
250
  6
Continuous
100
AcDbLine
 10
69.99999999998775
 20
35.00000000000001
 30
0.0
 11
87.99999999999382
 21
35.00000000000001
 31
0.0
  0
INSERT
  5
BE3
330
B80
100
AcDbEntity
  8
250
  6
Continuous
100
AcDbBlockReference
  2
_Open
 10
67.99999999998775
 20
35.00000000000001
 30
0.0
 41
2.0
 42
2.0
 43
2.0
 50
180.0
  0
INSERT
  5
BE4
330
B80
100
AcDbEntity
  8
250
  6
Continuous
100
AcDbBlockReference
  2
_Open
 10
89.99999999999381
 20
35.00000000000001
 30
0.0
 41
2.0
 42
2.0
 43
2.0
  0
MTEXT
  5
BE5
330
B80
100
AcDbEntity
  8
250
  6
Continuous
 62
    40
370
    -3
100
AcDbMText
 10
78.99999999999079
 20
37.40000000000001
 30
0.0
 40
2.799999999999998
 41
0.0
 71
     5
 72
     1
  1
\A1;22
 73
     1
 44
1.0
1001
ACAD
1000
MTEXTBEGIN
1070
    73
1070
     1
1070
    44
1040
1.0
1070
    74
1070
     0
1000
MTEXTEND
  0
POINT
  5
BE6
330
B80
100
AcDbEntity
  8
Defpoints
  6
Continuous
 62
     0
100
AcDbPoint
 10
67.99999999998775
 20
9.000000000000424
 30
0.0
  0
POINT
  5
BE7
330
B80
100
AcDbEntity
  8
Defpoints
  6
Continuous
 62
     0
100
AcDbPoint
 10
89.99999999999381
 20
5.000000051247553
 30
0.0
  0
POINT
  5
BE8
330
B80
100
AcDbEntity
  8
Defpoints
  6
Continuous
 62
     0
100
AcDbPoint
 10
89.99999999999381
 20
35.00000000000001
 30
0.0
  0
ENDBLK
  5
B8B
330
B80
100
AcDbEntity
  8
0
100
AcDbBlockEnd
  0
BLOCK
  5
B96
330
B8C
100
AcDbEntity
  8
0
100
AcDbBlockBegin
  2
*D6
 70
     1
 10
0.0
 20
0.0
 30
0.0
  3
*D6
  1

  0
LINE
  5
BE9
330
B8C
100
AcDbEntity
  8
250
  6
Continuous
 62
     3
370
    -2
100
AcDbLine
 10
89.49999999999386
 20
-6.000000710000052
 30
0.0
 11
109.4999999999938
 21
-6.000000710000056
 31
0.0
  0
LINE
  5
BEA
330
B8C
100
AcDbEntity
  8
250
  6
Continuous
 62
     3
370
    -2
100
AcDbLine
 10
89.49999999999386
 20
6.000000049999946
 30
0.0
 11
109.4999999999938
 21
6.000000049999941
 31
0.0
  0
LINE
  5
BEB
330
B8C
100
AcDbEntity
  8
250
  6
Continuous
 62
     3
370
    -2
100
AcDbLine
 10
108.4999999999938
 20
-3.770000710000057
 30
0.0
 11
108.4999999999938
 21
3.770000049999941
 31
0.0
  0
INSERT
  5
BEC
330
B8C
100
AcDbEntity
  8
250
  6
Continuous
 62
     3
370
    -2
100
AcDbBlockReference
  2
_Open
 10
108.4999999999938
 20
-6.000000710000056
 30
0.0
 41
2.229999999999999
 42
2.229999999999999
 43
2.229999999999999
 50
270.0
  0
INSERT
  5
BED
330
B8C
100
AcDbEntity
  8
250
  6
Continuous
 62
     3
370
    -2
100
AcDbBlockReference
  2
_Open
 10
108.4999999999938
 20
6.000000049999941
 30
0.0
 41
2.229999999999999
 42
2.229999999999999
 43
2.229999999999999
 50
90.0
  0
MTEXT
  5
BEE
330
B8C
100
AcDbEntity
  8
250
  6
Continuous
 62
    40
100
AcDbMText
 10
105.9999999999938
 20
-0.0000003300000521
 30
0.0
 40
2.799999999999998
 41
0.0
 71
     5
 72
     1
  1
\A1;{\H3;\U+2205}12
 11
0.0000000000000001
 21
1.0
 31
0.0
 73
     1
 44
1.0
1001
ACAD
1000
MTEXTBEGIN
1070
    73
1070
     1
1070
    44
1040
1.0
1070
    74
1070
     0
1000
MTEXTEND
  0
POINT
  5
BEF
330
B8C
100
AcDbEntity
  8
Defpoints
  6
Continuous
 62
     0
100
AcDbPoint
 10
88.99999999999383
 20
-6.000000710000052
 30
0.0
  0
POINT
  5
BF0
330
B8C
100
AcDbEntity
  8
Defpoints
  6
Continuous
 62
     0
100
AcDbPoint
 10
88.99999999999383
 20
6.000000049999946
 30
0.0
  0
POINT
  5
BF1
330
B8C
100
AcDbEntity
  8
Defpoints
  6
Continuous
 62
     0
100
AcDbPoint
 10
108.4999999999938
 20
6.000000049999941
 30
0.0
  0
ENDBLK
  5
B97
330
B8C
100
AcDbEntity
  8
0
100
AcDbBlockEnd
  0
ENDSEC
  0
SECTION
  2
ENTITIES
  0
INSERT
  5
6E6
330
1A
100
AcDbEntity
  8
245
100
AcDbBlockReference
  2
矢印なし
 10
175.6238269664377
 20
90.55123571690598
 30
0.0
  0
DIMENSION
  5
8A5
330
1A
100
AcDbEntity
  8
250
  6
Continuous
370
    -3
100
AcDbDimension
  2
*D2
 10
89.99999999999381
 20
42.0
 30
0.0
 11
44.99999999999685
 21
44.4
 31
0.0
 70
    32
 71
     5
 42
89.99999999999394
  3
BIGT
100
AcDbAlignedDimension
 13
-0.0000000000001137
 23
22.225
 33
0.0
 14
89.99999999999381
 24
5.000000711691802
 34
0.0
100
AcDbRotatedDimension
1001
ACAD
1000
DSTYLE
1002
{
1070
    41
1040
2.0
1002
}
  0
LEADER
  5
8B8
102
{ACAD_REACTORS
330
8BB
102
}
330
1A
100
AcDbEntity
  8
250
  6
Continuous
370
    -3
100
AcDbLeader
  3
BIGT
 76
     2
 10
-41.91020458607697
 20
-16.11309516453053
 30
0.0
 10
-48.83473514958629
 20
-28.10673391909225
 30
0.0
1001
ACAD
1000
DSTYLE
1002
{
1070
    41
1040
2.0
1002
}
  0
MTEXT
  5
8B9
102
{ACAD_REACTORS
330
8BB
102
}
330
1A
100
AcDbEntity
  8
250
  6
Continuous
 62
    40
370
    -3
100
AcDbMText
 10
-63.76806848291964
 20
-27.10673391909225
 30
0.0
 40
2.799999999999998
 41
0.0
 71
     7
 72
     1
  1
BBT40
  7
YOKO
 73
     1
 44
1.0
1001
ITEMNAME
1000
LNSP3
1001
ACAD
1000
MTEXTBEGIN
1070
    73
1070
     1
1070
    44
1040
1.0
1070
    74
1070
     0
1000
MTEXTEND
  0
LINE
  5
8BA
102
{ACAD_REACTORS
330
8BB
102
}
330
1A
100
AcDbEntity
  8
250
  6
Continuous
370
    -3
100
AcDbLine
 10
-48.83473514958629
 20
-28.10673391909225
 30
0.0
 11
-66.56806848291964
 21
-28.10673391909225
 31
0.0
1001
ITEMNAME
1000
LNSP2
  0
TEXT
  5
8BF
330
1A
100
AcDbEntity
  8
241
  6
Continuous
100
AcDbText
 10
-65.40000000000009
 20
56.0
 30
0.0
 40
5.0
  1
BBT40-MGT3-90
  7
YOKO
 11
-65.40000000000009
 21
56.0
 31
0.0
100
AcDbText
 73
     1
  0
LEADER
  5
B16
330
1A
100
AcDbEntity
  8
250
  6
Continuous
370
    -3
100
AcDbLeader
  3
BIGT
 76
     2
 10
63.8472798339961
 20
9.999999999999698
 30
0.0
 10
70.27478405792101
 20
21.13276388170133
 30
0.0
1001
ACAD
1000
DSTYLE
1002
{
1070
    41
1040
2.0
1002
}
  0
MTEXT
  5
B17
330
1A
100
AcDbEntity
  8
250
  6
Continuous
 62
    40
370
    -3
100
AcDbMText
 10
73.07478405792102
 20
22.13276388170132
 30
0.0
 40
2.799999999999998
 41
0.0
 71
     7
 72
     1
  1
MGT3
  7
YOKO
 73
     1
 44
1.0
1001
ITEMNAME
1000
LNSP3
1001
ACAD
1000
MTEXTBEGIN
1070
    73
1070
     1
1070
    44
1040
1.0
1070
    74
1070
     0
1000
MTEXTEND
  0
LINE
  5
B18
330
1A
100
AcDbEntity
  8
250
  6
Continuous
370
    -3
100
AcDbLine
 10
70.27478405792101
 20
21.13276388170133
 30
0.0
 11
85.74145072458769
 21
21.13276388170133
 31
0.0
1001
ITEMNAME
1000
LNSP2
  0
DIMENSION
  5
B19
330
1A
100
AcDbEntity
  8
250
  6
Continuous
370
    -3
100
AcDbDimension
  2
*D4
 10
61.67809037107726
 20
9.999999999999744
 30
0.0
 11
61.67809037107726
 21
-1.132658164737307
 31
0.0
 70
   160
  1
{\H2.8;%%C}<>
 71
     5
 42
19.99999999999953
  3
BIGT
100
AcDbAlignedDimension
 13
66.99999999998775
 23
-9.999999999999801
 33
0.0
 14
66.99999999998775
 24
9.999999999999744
 34
0.0
 50
90.0
100
AcDbRotatedDimension
1001
ACAD
1000
DSTYLE
1002
{
1070
    41
1040
2.0
1002
}
  0
DIMENSION
  5
B1A
330
1A
100
AcDbEntity
  8
250
  6
Continuous
370
    -3
100
AcDbDimension
  2
*D5
 10
89.99999999999381
 20
35.00000000000001
 30
0.0
 11
78.99999999999079
 21
37.40000000000001
 31
0.0
 70
    32
 71
     5
 42
22.00000000000607
  3
BIGT
100
AcDbAlignedDimension
 13
67.99999999998775
 23
9.000000000000424
 33
0.0
 14
89.99999999999381
 24
5.000000051247553
 34
0.0
100
AcDbRotatedDimension
1001
ACAD
1000
DSTYLE
1002
{
1070
    41
1040
2.0
1070
   140
1040
2.799999999999998
1002
}
  0
MTEXT
  5
B1B
330
1A
100
AcDbEntity
  8
250
  6
Continuous
 62
    40
100
AcDbMText
 10
98.99999999999382
 20
-0.0000000000000524
 30
0.0
 40
3.0
 41
0.0
 71
     5
 72
     1
  1
max.φ4
 11
0.0
 21
1.0
 31
0.0
 73
     1
 44
1.0
1001
ITEMNAME
1000
DI010
1001
ACAD
1000
MTEXTBEGIN
1070
    73
1070
     1
1070
    44
1040
1.0
1070
    74
1070
     0
1000
MTEXTEND
  0
INSERT
  5
B1C
330
1A
100
AcDbEntity
  8
250
  6
Continuous
 62
     3
100
AcDbBlockReference
  2
_Open
 10
101.4999999999938
 20
2.000000009999946
 30
0.0
 41
2.229999999999999
 42
2.229999999999999
 43
2.229999999999999
 50
90.0
  0
LINE
  5
B1D
330
1A
100
AcDbEntity
  8
250
  6
Continuous
 62
     3
100
AcDbLine
 10
101.4999999999938
 20
2.000000009999946
 30
0.0
 11
101.4999999999938
 21
-4.73630231000005
 31
0.0
  0
LINE
  5
B1E
330
1A
100
AcDbEntity
  8
250
  6
Continuous
 62
     3
100
AcDbLine
 10
88.70000072999387
 20
2.000000009999946
 30
0.0
 11
102.4999999999938
 21
2.000000009999946
 31
0.0
  0
DIMENSION
  5
B1F
330
1A
100
AcDbEntity
  8
250
  6
Continuous
100
AcDbDimension
  2
*D6
 10
108.4999999999938
 20
6.000000049999941
 30
0.0
 11
108.4999999999938
 21
-0.0000003300000524
 31
0.0
 70
   160
  1
{\H3;\U+2205}<>
 71
     5
 42
12.00000076
  3
BIGT$0
100
AcDbAlignedDimension
 13
88.99999999999383
 23
-6.000000710000052
 33
0.0
 14
88.99999999999383
 24
6.000000049999946
 34
0.0
 50
90.0
100
AcDbRotatedDimension
1001
ACAD
1000
DSTYLE
1002
{
1070
   140
1040
2.799999999999998
1002
}
  0
LEADER
  5
BF3
102
{ACAD_REACTORS
330
BF6
102
}
330
1A
100
AcDbEntity
  8
250
  6
Continuous
370
    -3
100
AcDbLeader
  3
BIGT
 76
     2
 10
87.80986264098844
 20
6.000000051247552
 30
0.0
 10
96.47056527711077
 20
21.0007770462571
 30
0.0
1001
ACAD
1000
DSTYLE
1002
{
1070
    41
1040
2.0
1070
   140
1040
2.799999999999998
1002
}
  0
MTEXT
  5
BF4
102
{ACAD_REACTORS
330
BF6
102
}
330
1A
100
AcDbEntity
  8
250
  6
Continuous
 62
    40
370
    -3
100
AcDbMText
 10
99.27056527711076
 20
22.0007770462571
 30
0.0
 40
2.799999999999998
 41
0.0
 71
     7
 72
     1
  1
NBC4S
  7
YOKO
 73
     1
 44
1.0
1001
ITEMNAME
1000
LNSP3
1001
ACAD
1000
MTEXTBEGIN
1070
    73
1070
     1
1070
    44
1040
1.0
1070
    74
1070
     0
1000
MTEXTEND
  0
LINE
  5
BF5
102
{ACAD_REACTORS
330
BF6
102
}
330
1A
100
AcDbEntity
  8
250
  6
Continuous
370
    -3
100
AcDbLine
 10
96.47056527711077
 20
21.0007770462571
 30
0.0
 11
115.0038986104441
 21
21.0007770462571
 31
0.0
1001
ITEMNAME
1000
LNSP2
  0
INSERT
  5
C81
330
1A
100
AcDbEntity
  8
245
100
AcDbBlockReference
  2
1
 10
0.0
 20
0.0
 30
0.0
  0
VIEWPORT
  5
22
102
{ACAD_XDICTIONARY
360
CCF
102
}
330
17
100
AcDbEntity
 67
     1
  8
0
100
AcDbViewport
 10
261.5176991150442
 20
148.5
 30
0.0
 40
523.0353982300885
 41
297.0
 68
     1
 69
     1
 12
261.5176991150442
 22
148.5
 13
0.0
 23
0.0
 14
1.0
 24
1.0
 15
10.0
 25
10.0
 16
0.0
 26
0.0
 36
1.0
 17
0.0
 27
0.0
 37
0.0
 42
50.0
 43
0.0
 44
0.0
 45
297.0
 50
0.0
 51
0.0
 72
   100
 90
    32800
  1

281
     0
 71
     1
 74
     0
110
0.0
120
0.0
130
0.0
111
1.0
121
0.0
131
0.0
112
0.0
122
1.0
132
0.0
 79
     0
146
0.0
  0
ENDSEC
  0
SECTION
  2
OBJECTS
  0
DICTIONARY
  5
C
330
0
100
AcDbDictionary
281
     1
  3
ACAD_COLOR
350
791
  3
ACAD_GROUP
350
D
  3
ACAD_LAYOUT
350
565
  3
ACAD_MATERIAL
350
77C
  3
ACAD_MLINESTYLE
350
E
  3
ACAD_PLOTSETTINGS
350
566
  3
ACAD_PLOTSTYLENAME
350
563
  3
ACAD_TABLESTYLE
350
792
  3
ACAD_VISUALSTYLE
350
780
  3
AcDbVariableDictionary
350
966
  3
DWGPROPS
350
CCE
  3
GRADE_DWG
350
540
  0
DICTIONARY
  5
79D
330
2
100
AcDbDictionary
280
     1
281
     1
  3
ACAD_LAYERSTATES
360
79E
  0
DICTIONARY
  5
A02
330
1A
100
AcDbDictionary
280
     1
281
     1
  3
ACAD_SORTENTS
360
A03
  0
DICTIONARY
  5
CCF
330
22
100
AcDbDictionary
280
     1
281
     1
  3
ACAD_XREC_ROUNDTRIP
360
CD0
  0
DICTIONARY
  5
791
102
{ACAD_REACTORS
330
C
102
}
330
C
100
AcDbDictionary
281
     1
  0
DICTIONARY
  5
D
102
{ACAD_REACTORS
330
C
102
}
330
C
100
AcDbDictionary
281
     1
  3
*A1
350
6C7
  3
*A2
350
6C8
  3
*A3
350
6D4
  3
*A4
350
6D5
  3
DREC-1
350
5FC
  3
DREC-2
350
654
  3
DREC-3
350
673
  3
LNSP-1
350
8B6
  3
LNSP-2
350
8BB
  3
LNSP-3
350
BF6
  0
DICTIONARY
  5
565
102
{ACAD_REACTORS
330
C
102
}
330
C
100
AcDbDictionary
281
     1
  3
Model
350
567
  3
ﾚｲｱｳﾄ1
350
568
  0
DICTIONARY
  5
77C
102
{ACAD_REACTORS
330
C
102
}
330
C
100
AcDbDictionary
281
     1
  3
ByBlock
350
77E
  3
ByLayer
350
77D
  3
Global
350
77F
  0
DICTIONARY
  5
E
102
{ACAD_REACTORS
330
C
102
}
330
C
100
AcDbDictionary
281
     1
  3
STANDARD
350
13
  0
DICTIONARY
  5
566
102
{ACAD_REACTORS
330
C
102
}
330
C
100
AcDbDictionary
281
     1
  3
A3(0.5倍)
350
772
  3
A3(1倍)
350
773
  3
A3(1倍)(2000)
350
774
  3
A3(2倍)
350
775
  3
A4(0.5倍)
350
776
  3
A4(1倍)
350
777
  3
A4(1倍)(2000)
350
778
  3
A4(2倍)
350
779
  0
ACDBDICTIONARYWDFLT
  5
563
102
{ACAD_REACTORS
330
C
102
}
330
C
100
AcDbDictionary
281
     1
  3
Normal
350
564
100
AcDbDictionaryWithDefault
340
564
  0
DICTIONARY
  5
792
102
{ACAD_REACTORS
330
C
102
}
330
C
100
AcDbDictionary
281
     1
  3
Standard
350
793
  0
DICTIONARY
  5
780
102
{ACAD_REACTORS
330
C
102
}
330
C
100
AcDbDictionary
281
     1
  3
2dWireframe
350
786
  3
3D Hidden
350
788
  3
3dWireframe
350
787
  3
Basic
350
785
  3
Brighten
350
78C
  3
ColorChange
350
790
  3
Conceptual
350
789
  3
Dim
350
78B
  3
Facepattern
350
78F
  3
Flat
350
781
  3
FlatWithEdges
350
782
  3
Gouraud
350
783
  3
GouraudWithEdges
350
784
  3
Linepattern
350
78E
  3
Realistic
350
78A
  3
Thicken
350
78D
  0
DICTIONARY
  5
966
102
{ACAD_REACTORS
330
C
102
}
330
C
100
AcDbDictionary
281
     1
  3
CTABLESTYLE
350
967
  3
DIMASSOC
350
96A
  3
INDEXCTL
350
969
  3
SORTENTS
350
968
  0
XRECORD
  5
CCE
102
{ACAD_REACTORS
330
C
102
}
330
C
100
AcDbXrecord
280
     1
  1
DWGPROPS COOKIE
  2

  3

  4

  6

  7

  8
AWTEC
  9

300
=
301
=
302
=
303
=
304
=
305
=
306
=
307
=
308
=
309
=
 40
0.0269411921296296
 41
2456454.400577072
 42
2457014.662155486
  1

 90
        0
  0
DICTIONARY
  5
540
102
{ACAD_REACTORS
330
C
102
}
330
C
100
AcDbDictionary
281
     1
  3
VERSION
350
560
  0
DICTIONARY
  5
79E
102
{ACAD_REACTORS
330
79D
102
}
330
79D
100
AcDbDictionary
281
     1
  0
SORTENTSTABLE
  5
A03
102
{ACAD_REACTORS
330
A02
102
}
330
A02
100
AcDbSortentsTable
330
1A
331
8B9
  5
8B9
331
8BA
  5
8BA
331
8B8
  5
8B8
331
8A5
  5
8A5
331
6E6
  5
6E6
331
8BF
  5
8BF
  0
XRECORD
  5
CD0
102
{ACAD_REACTORS
330
CCF
102
}
330
CCF
100
AcDbXrecord
280
     1
102
SHADEPLOT
 70
     0
  0
GROUP
  5
6C7
102
{ACAD_REACTORS
330
D
102
}
330
D
100
AcDbGroup
300

 70
     0
 71
     1
1001
GRPNAME
1000
DMA00
  0
GROUP
  5
6C8
102
{ACAD_REACTORS
330
D
102
}
330
D
100
AcDbGroup
300

 70
     0
 71
     1
1001
GRPNAME
1000
DMA00
  0
GROUP
  5
6D4
102
{ACAD_REACTORS
330
D
102
}
330
D
100
AcDbGroup
300

 70
     0
 71
     1
1001
GRPNAME
1000
DMA00
  0
GROUP
  5
6D5
102
{ACAD_REACTORS
330
D
102
}
330
D
100
AcDbGroup
300

 70
     0
 71
     1
1001
GRPNAME
1000
DMA00
  0
GROUP
  5
5FC
102
{ACAD_REACTORS
330
D
102
}
330
D
100
AcDbGroup
300

 70
     0
 71
     1
1001
GRPNAME
1000
DREC-
1001
GPARA
1000
xsiz
1000
44.182
1000
ysiz
1000
40.677
1000
angl
1000
0
1000
ctyp
1000
0
1000
csiz
1000
5
1000
lfnt
1000
cont
1000
hcnt
1000
hoff
1000
vcnt
1000
voff
1000
opnt
1000
4
1000
dxpt
1000
0
1000
dypt
1000
0
  0
GROUP
  5
654
102
{ACAD_REACTORS
330
D
102
}
330
D
100
AcDbGroup
300

 70
     0
 71
     1
1001
GRPNAME
1000
DREC-
1001
GPARA
1000
xsiz
1000
54.592
1000
ysiz
1000
53.036
1000
angl
1000
0
1000
ctyp
1000
0
1000
csiz
1000
5
1000
lfnt
1000
cont
1000
hcnt
1000
hoff
1000
vcnt
1000
voff
1000
opnt
1000
4
1000
dxpt
1000
0
1000
dypt
1000
0
  0
GROUP
  5
673
102
{ACAD_REACTORS
330
D
102
}
330
D
100
AcDbGroup
300

 70
     0
 71
     1
1001
GRPNAME
1000
DREC-
1001
GPARA
1000
xsiz
1000
30.363
1000
ysiz
1000
36.175
1000
angl
1000
0
1000
ctyp
1000
0
1000
csiz
1000
5
1000
lfnt
1000
cont
1000
hcnt
1000
hoff
1000
vcnt
1000
voff
1000
opnt
1000
4
1000
dxpt
1000
0
1000
dypt
1000
0
  0
GROUP
  5
8B6
102
{ACAD_REACTORS
330
D
102
}
330
D
100
AcDbGroup
300

 70
     0
 71
     1
1001
GRPNAME
1000
LNSP
  0
GROUP
  5
8BB
102
{ACAD_REACTORS
330
D
102
}
330
D
100
AcDbGroup
300

 70
     0
 71
     1
340
8B8
340
8B9
340
8BA
1001
GRPNAME
1000
LNSP
  0
GROUP
  5
BF6
102
{ACAD_REACTORS
330
D
102
}
330
D
100
AcDbGroup
300

 70
     0
 71
     1
340
BF3
340
BF4
340
BF5
1001
GRPNAME
1000
LNSP
  0
LAYOUT
  5
567
102
{ACAD_XDICTIONARY
360
CD1
102
}
102
{ACAD_REACTORS
330
565
102
}
330
565
100
AcDbPlotSettings
  1

  2
Canon LBP5610
  4
A4
  6

 40
5.789083003997802
 41
5.789072513580322
 42
5.789077758789062
 43
5.789093017578125
 44
209.9733276367186
 45
296.9259948730469
 46
52.94285328074504
 47
66.14212306771452
 48
0.0
 49
0.0
140
0.0
141
0.0
142
1.0
143
1.0
 70
 11956
 72
     1
 73
     1
 74
     1
  7
big.ctb
 75
    16
147
1.0
148
66.58209167116099
149
31.50512650085742
100
AcDbLayout
  1
Model
 70
     1
 71
     0
 10
0.0
 20
0.0
 11
12.0
 21
9.0
 12
0.0
 22
0.0
 32
0.0
 14
0.0
 24
0.0
 34
0.0
 15
0.0
 25
0.0
 35
0.0
146
0.0
 13
0.0
 23
0.0
 33
0.0
 16
1.0
 26
0.0
 36
0.0
 17
0.0
 27
1.0
 37
0.0
 76
     0
330
1A
331
77A
1001
ACAD_PSEXT
1000
Canon LBP5610
1000
Canon LBP5610
1000
IP_192.168.120.151
1000

1070
     0
  0
LAYOUT
  5
568
102
{ACAD_XDICTIONARY
360
CD3
102
}
102
{ACAD_REACTORS
330
565
102
}
330
565
100
AcDbPlotSettings
  1

  2
\\ICHIRO\FX Able Model-PRII ART4-ADV
  4

  6

 40
0.0
 41
0.0
 42
0.0
 43
0.0
 44
0.0
 45
0.0
 46
0.0
 47
0.0
 48
0.0
 49
0.0
140
0.0
141
0.0
142
1.0
143
1.0
 70
   688
 72
     0
 73
     0
 74
     5
  7
big.ctb
 75
    16
147
1.0
148
0.0
149
0.0
100
AcDbLayout
  1
ﾚｲｱｳﾄ1
 70
     1
 71
     1
 10
0.0
 20
0.0
 11
420.0
 21
297.0
 12
0.0
 22
0.0
 32
0.0
 14
1.000000000000000E+20
 24
1.000000000000000E+20
 34
1.000000000000000E+20
 15
-1.000000000000000E+20
 25
-1.000000000000000E+20
 35
-1.000000000000000E+20
146
0.0
 13
0.0
 23
0.0
 33
0.0
 16
1.0
 26
0.0
 36
0.0
 17
0.0
 27
1.0
 37
0.0
 76
     0
330
17
331
22
  0
MATERIAL
  5
77E
102
{ACAD_XDICTIONARY
360
9AC
102
}
102
{ACAD_REACTORS
330
77C
102
}
330
77C
100
AcDbMaterial
  1
ByBlock
  0
MATERIAL
  5
77D
102
{ACAD_XDICTIONARY
360
9AA
102
}
102
{ACAD_REACTORS
330
77C
102
}
330
77C
100
AcDbMaterial
  1
ByLayer
  0
MATERIAL
  5
77F
102
{ACAD_XDICTIONARY
360
9AE
102
}
102
{ACAD_REACTORS
330
77C
102
}
330
77C
100
AcDbMaterial
  1
Global
  0
MLINESTYLE
  5
13
102
{ACAD_REACTORS
330
E
102
}
330
E
100
AcDbMlineStyle
  2
STANDARD
 70
     0
  3

 62
     0
 51
90.0
 52
90.0
 71
     2
 49
0.5
 62
   256
  6
BYLAYER
 49
-0.5
 62
   256
  6
BYLAYER
  0
PLOTSETTINGS
  5
772
102
{ACAD_XDICTIONARY
360
CD5
102
}
102
{ACAD_REACTORS
330
566
102
}
330
566
100
AcDbPlotSettings
  1
A3(0.5倍)
  2
Canon LBP5600.pc3
  4
A3
  6

 40
5.873749732971191
 41
5.873747825622557
 42
5.873748779296875
 43
5.873748779296875
 44
296.9259948730469
 45
419.9466552734373
 46
90.09
 47
129.85
 48
0.0
 49
0.0
140
0.0
141
0.0
142
1.0
143
2.0
 70
  1716
 72
     1
 73
     1
 74
     2
  7
big.ctb
 75
    17
147
0.5
148
0.0
149
0.0
  0
PLOTSETTINGS
  5
773
102
{ACAD_XDICTIONARY
360
CD7
102
}
102
{ACAD_REACTORS
330
566
102
}
330
566
100
AcDbPlotSettings
  1
A3(1倍)
  2
Canon LBP5600.pc3
  4
A3
  6

 40
5.873749732971191
 41
5.873747825622557
 42
5.873748779296875
 43
5.873748779296875
 44
296.9259948730469
 45
419.9466552734373
 46
37.59
 47
55.6
 48
0.0
 49
0.0
140
0.0
141
0.0
142
1.0
143
1.0
 70
  1716
 72
     1
 73
     1
 74
     2
  7
big.ctb
 75
    16
147
1.0
148
0.0
149
0.0
  0
PLOTSETTINGS
  5
774
102
{ACAD_XDICTIONARY
360
CD9
102
}
102
{ACAD_REACTORS
330
566
102
}
330
566
100
AcDbPlotSettings
  1
A3(1倍)(2000)
  2
Canon LBP5600.pc3
  4
A3
  6

 40
5.873749732971191
 41
5.873747825622557
 42
5.873748779296875
 43
5.873748779296875
 44
296.9259948730469
 45
419.9466552734373
 46
37.59
 47
55.6
 48
0.0
 49
0.0
140
0.0
141
0.0
142
1.0
143
1.0
 70
  1716
 72
     1
 73
     1
 74
     2
  7
big.ctb
 75
    16
147
1.0
148
0.0
149
0.0
  0
PLOTSETTINGS
  5
775
102
{ACAD_XDICTIONARY
360
CDB
102
}
102
{ACAD_REACTORS
330
566
102
}
330
566
100
AcDbPlotSettings
  1
A3(2倍)
  2
Canon LBP5600.pc3
  4
A3
  6

 40
5.873749732971191
 41
5.873747825622557
 42
5.873748779296875
 43
5.873748779296875
 44
296.9259948730469
 45
419.9466552734373
 46
-67.40999999999999
 47
-92.9
 48
0.0
 49
0.0
140
0.0
141
0.0
142
1.0
143
0.5
 70
  1716
 72
     1
 73
     1
 74
     2
  7
big.ctb
 75
    27
147
2.0
148
0.0
149
0.0
  0
PLOTSETTINGS
  5
776
102
{ACAD_XDICTIONARY
360
CDD
102
}
102
{ACAD_REACTORS
330
566
102
}
330
566
100
AcDbPlotSettings
  1
A4(0.5倍)
  2
Canon LBP5600.pc3
  4
A3
  6

 40
5.873749732971191
 41
5.873747825622557
 42
5.873748779296875
 43
5.873748779296875
 44
296.9259948730469
 45
419.9466552734373
 46
90.09
 47
129.85
 48
0.0
 49
0.0
140
0.0
141
0.0
142
1.0
143
2.0
 70
  1716
 72
     1
 73
     1
 74
     2
  7
big.ctb
 75
    17
147
0.5
148
0.0
149
0.0
  0
PLOTSETTINGS
  5
777
102
{ACAD_XDICTIONARY
360
CDF
102
}
102
{ACAD_REACTORS
330
566
102
}
330
566
100
AcDbPlotSettings
  1
A4(1倍)
  2
Canon LBP5600.pc3
  4
A3
  6

 40
5.873749732971191
 41
5.873747825622557
 42
5.873748779296875
 43
5.873748779296875
 44
296.9259948730469
 45
419.9466552734373
 46
37.59
 47
55.6
 48
0.0
 49
0.0
140
0.0
141
0.0
142
1.0
143
1.0
 70
  1716
 72
     1
 73
     1
 74
     2
  7
big.ctb
 75
    16
147
1.0
148
0.0
149
0.0
  0
PLOTSETTINGS
  5
778
102
{ACAD_XDICTIONARY
360
CE1
102
}
102
{ACAD_REACTORS
330
566
102
}
330
566
100
AcDbPlotSettings
  1
A4(1倍)(2000)
  2
Canon LBP5600.pc3
  4
A3
  6

 40
5.873749732971191
 41
5.873747825622557
 42
5.873748779296875
 43
5.873748779296875
 44
296.9259948730469
 45
419.9466552734373
 46
37.59
 47
55.6
 48
0.0
 49
0.0
140
0.0
141
0.0
142
1.0
143
1.0
 70
  1716
 72
     1
 73
     1
 74
     2
  7
big.ctb
 75
    16
147
1.0
148
0.0
149
0.0
  0
PLOTSETTINGS
  5
779
102
{ACAD_XDICTIONARY
360
CE3
102
}
102
{ACAD_REACTORS
330
566
102
}
330
566
100
AcDbPlotSettings
  1
A4(2倍)
  2
Canon LBP5600.pc3
  4
A3
  6

 40
5.873749732971191
 41
5.873747825622557
 42
5.873748779296875
 43
5.873748779296875
 44
296.9259948730469
 45
419.9466552734373
 46
-67.40999999999999
 47
-92.9
 48
0.0
 49
0.0
140
0.0
141
0.0
142
1.0
143
0.5
 70
  1716
 72
     1
 73
     1
 74
     2
  7
big.ctb
 75
    27
147
2.0
148
0.0
149
0.0
  0
ACDBPLACEHOLDER
  5
564
102
{ACAD_REACTORS
330
563
102
}
330
563
  0
TABLESTYLE
  5
793
102
{ACAD_XDICTIONARY
360
CE5
102
}
102
{ACAD_REACTORS
330
792
102
}
330
792
100
AcDbTableStyle
  3
Standard
 70
     0
 71
     0
 40
1.5
 41
1.5
280
     0
281
     0
  7
STANDARD
140
4.5
170
     2
 62
     0
 63
     7
283
     0
274
    -2
284
     1
 64
     0
275
    -2
285
     1
 65
     0
276
    -2
286
     1
 66
     0
277
    -2
287
     1
 67
     0
278
    -2
288
     1
 68
     0
279
    -2
289
     1
 69
     0
  7
STANDARD
140
6.0
170
     5
 62
     0
 63
     7
283
     0
274
    -2
284
     1
 64
     0
275
    -2
285
     1
 65
     0
276
    -2
286
     1
 66
     0
277
    -2
287
     1
 67
     0
278
    -2
288
     1
 68
     0
279
    -2
289
     1
 69
     0
  7
STANDARD
140
4.5
170
     5
 62
     0
 63
     7
283
     0
274
    -2
284
     1
 64
     0
275
    -2
285
     1
 65
     0
276
    -2
286
     1
 66
     0
277
    -2
287
     1
 67
     0
278
    -2
288
     1
 68
     0
279
    -2
289
     1
 69
     0
  0
VISUALSTYLE
  5
786
102
{ACAD_REACTORS
330
780
102
}
330
780
100
AcDbVisualStyle
  2
2dWireframe
 70
     4
 71
     0
 72
     2
 73
     0
 90
        0
 40
-0.6
 41
-30.0
 62
     5
 63
     7
 74
     1
 91
        4
 64
     7
 65
   257
 75
     1
175
     1
 42
1.0
 92
        0
 66
   257
 43
1.0
 76
     1
 77
     6
 78
     2
 67
     7
 79
     5
170
     0
171
     0
290
     0
174
     0
 93
        1
 44
0.0
173
     0
291
     0
 45
0.0
1001
ACAD
1000
AcDbSavedByObjectVersion
1070
     0
1000
AcDbSavedByObjectVersion
1070
     0
1000
AcDbSavedByObjectVersion
1070
     0
  0
VISUALSTYLE
  5
788
102
{ACAD_REACTORS
330
780
102
}
330
780
100
AcDbVisualStyle
  2
3D Hidden
 70
     6
 71
     1
 72
     2
 73
     2
 90
        0
 40
-0.6
 41
-30.0
 62
     5
 63
     7
 74
     2
 91
        2
 64
     7
 65
   257
 75
     2
175
     1
 42
40.0
 92
        0
 66
   257
 43
1.0
 76
     1
 77
     6
 78
     2
 67
     7
 79
     3
170
     0
171
     0
290
     0
174
     0
 93
        1
 44
0.0
173
     0
291
     0
 45
0.0
1001
ACAD
1000
AcDbSavedByObjectVersion
1070
     0
1000
AcDbSavedByObjectVersion
1070
     0
1000
AcDbSavedByObjectVersion
1070
     0
  0
VISUALSTYLE
  5
787
102
{ACAD_REACTORS
330
780
102
}
330
780
100
AcDbVisualStyle
  2
3dWireframe
 70
     5
 71
     0
 72
     2
 73
     0
 90
        0
 40
-0.6
 41
-30.0
 62
     5
 63
     7
 74
     1
 91
        4
 64
     7
 65
   257
 75
     1
175
     1
 42
1.0
 92
        0
 66
   257
 43
1.0
 76
     1
 77
     6
 78
     2
 67
     7
 79
     5
170
     0
171
     0
290
     0
174
     0
 93
        1
 44
0.0
173
     0
291
     0
 45
0.0
1001
ACAD
1000
AcDbSavedByObjectVersion
1070
     0
1000
AcDbSavedByObjectVersion
1070
     0
1000
AcDbSavedByObjectVersion
1070
     0
  0
VISUALSTYLE
  5
785
102
{ACAD_REACTORS
330
780
102
}
330
780
100
AcDbVisualStyle
  2
Basic
 70
     7
 71
     1
 72
     0
 73
     1
 90
        0
 40
-0.6
 41
-30.0
 62
     5
 63
     7
 74
     0
 91
        4
 64
     7
 65
   257
 75
     1
175
     1
 42
1.0
 92
        8
 66
     7
 43
1.0
 76
     1
 77
     6
 78
     2
 67
     7
 79
     5
170
     0
171
     0
290
     0
174
     0
 93
        1
 44
0.0
173
     0
291
     1
 45
0.0
1001
ACAD
1000
AcDbSavedByObjectVersion
1070
     0
1000
AcDbSavedByObjectVersion
1070
     0
1000
AcDbSavedByObjectVersion
1070
     0
  0
VISUALSTYLE
  5
78C
102
{ACAD_REACTORS
330
780
102
}
330
780
100
AcDbVisualStyle
  2
Brighten
 70
    12
 71
     2
 72
     2
 73
     0
 90
        0
 40
-0.6
 41
-30.0
 62
     5
 63
     7
 74
     1
 91
        4
 64
     7
 65
   257
 75
     1
175
     1
 42
1.0
 92
        8
 66
     7
 43
1.0
 76
     1
 77
     6
 78
     2
 67
     7
 79
     5
170
     0
171
     0
290
     0
174
     0
 93
        1
 44
50.0
173
     0
291
     1
 45
0.0
1001
ACAD
1000
AcDbSavedByObjectVersion
1070
     0
1000
AcDbSavedByObjectVersion
1070
     0
1000
AcDbSavedByObjectVersion
1070
     0
  0
VISUALSTYLE
  5
790
102
{ACAD_REACTORS
330
780
102
}
330
780
100
AcDbVisualStyle
  2
ColorChange
 70
    16
 71
     2
 72
     2
 73
     3
 90
        0
 40
-0.6
 41
-30.0
 62
     5
 63
     8
 74
     1
 91
        4
 64
     7
 65
   257
 75
     1
175
     1
 42
1.0
 92
        8
 66
     8
 43
1.0
 76
     1
 77
     6
 78
     2
 67
     7
 79
     5
170
     0
171
     0
290
     0
174
     0
 93
        1
 44
0.0
173
     0
291
     1
 45
0.0
1001
ACAD
1000
AcDbSavedByObjectVersion
1070
     0
1000
AcDbSavedByObjectVersion
1070
     0
1000
AcDbSavedByObjectVersion
1070
     0
  0
VISUALSTYLE
  5
789
102
{ACAD_REACTORS
330
780
102
}
330
780
100
AcDbVisualStyle
  2
Conceptual
 70
     9
 71
     3
 72
     2
 73
     0
 90
        0
 40
-0.6
 41
-30.0
 62
     5
 63
     7
 74
     2
 91
        2
 64
     7
 65
   257
 75
     1
175
     1
 42
40.0
 92
        8
 66
     7
 43
1.0
 76
     1
 77
     6
 78
     2
 67
     7
 79
     3
170
     0
171
     0
290
     0
174
     0
 93
        1
 44
0.0
173
     0
291
     0
 45
0.0
1001
ACAD
1000
AcDbSavedByObjectVersion
1070
     0
1000
AcDbSavedByObjectVersion
1070
     0
1000
AcDbSavedByObjectVersion
1070
     0
  0
VISUALSTYLE
  5
78B
102
{ACAD_REACTORS
330
780
102
}
330
780
100
AcDbVisualStyle
  2
Dim
 70
    11
 71
     2
 72
     2
 73
     0
 90
        0
 40
-0.6
 41
-30.0
 62
     5
 63
     7
 74
     1
 91
        4
 64
     7
 65
   257
 75
     1
175
     1
 42
1.0
 92
        8
 66
     7
 43
1.0
 76
     1
 77
     6
 78
     2
 67
     7
 79
     5
170
     0
171
     0
290
     0
174
     0
 93
        1
 44
-50.0
173
     0
291
     1
 45
0.0
1001
ACAD
1000
AcDbSavedByObjectVersion
1070
     0
1000
AcDbSavedByObjectVersion
1070
     0
1000
AcDbSavedByObjectVersion
1070
     0
  0
VISUALSTYLE
  5
78F
102
{ACAD_REACTORS
330
780
102
}
330
780
100
AcDbVisualStyle
  2
Facepattern
 70
    15
 71
     2
 72
     2
 73
     0
 90
        0
 40
-0.6
 41
-30.0
 62
     5
 63
     7
 74
     1
 91
        4
 64
     7
 65
   257
 75
     1
175
     1
 42
1.0
 92
        8
 66
     7
 43
1.0
 76
     1
 77
     6
 78
     2
 67
     7
 79
     5
170
     0
171
     0
290
     0
174
     0
 93
        1
 44
0.0
173
     0
291
     1
 45
0.0
1001
ACAD
1000
AcDbSavedByObjectVersion
1070
     0
1000
AcDbSavedByObjectVersion
1070
     0
1000
AcDbSavedByObjectVersion
1070
     0
  0
VISUALSTYLE
  5
781
102
{ACAD_REACTORS
330
780
102
}
330
780
100
AcDbVisualStyle
  2
Flat
 70
     0
 71
     2
 72
     1
 73
     1
 90
        2
 40
-0.6
 41
30.0
 62
     5
 63
     7
 74
     0
 91
        4
 64
     7
 65
   257
 75
     1
175
     1
 42
1.0
 92
        8
 66
     7
 43
1.0
 76
     1
 77
     6
 78
     2
 67
     7
 79
     5
170
     0
171
     0
290
     0
174
     0
 93
       13
 44
0.0
173
     0
291
     1
 45
0.0
1001
ACAD
1000
AcDbSavedByObjectVersion
1070
     0
1000
AcDbSavedByObjectVersion
1070
     0
1000
AcDbSavedByObjectVersion
1070
     0
  0
VISUALSTYLE
  5
782
102
{ACAD_REACTORS
330
780
102
}
330
780
100
AcDbVisualStyle
  2
FlatWithEdges
 70
     1
 71
     2
 72
     1
 73
     1
 90
        2
 40
-0.6
 41
30.0
 62
     5
 63
     7
 74
     1
 91
        4
 64
     7
 65
   257
 75
     1
175
     1
 42
1.0
 92
        0
 66
   257
 43
1.0
 76
     1
 77
     6
 78
     2
 67
     7
 79
     5
170
     0
171
     0
290
     0
174
     0
 93
       13
 44
0.0
173
     0
291
     1
 45
0.0
1001
ACAD
1000
AcDbSavedByObjectVersion
1070
     0
1000
AcDbSavedByObjectVersion
1070
     0
1000
AcDbSavedByObjectVersion
1070
     0
  0
VISUALSTYLE
  5
783
102
{ACAD_REACTORS
330
780
102
}
330
780
100
AcDbVisualStyle
  2
Gouraud
 70
     2
 71
     2
 72
     2
 73
     1
 90
        2
 40
-0.6
 41
30.0
 62
     5
 63
     7
 74
     0
 91
        4
 64
     7
 65
   257
 75
     1
175
     1
 42
1.0
 92
        0
 66
     7
 43
1.0
 76
     1
 77
     6
 78
     2
 67
     7
 79
     5
170
     0
171
     0
290
     0
174
     0
 93
       13
 44
0.0
173
     0
291
     1
 45
0.0
1001
ACAD
1000
AcDbSavedByObjectVersion
1070
     0
1000
AcDbSavedByObjectVersion
1070
     0
1000
AcDbSavedByObjectVersion
1070
     0
  0
VISUALSTYLE
  5
784
102
{ACAD_REACTORS
330
780
102
}
330
780
100
AcDbVisualStyle
  2
GouraudWithEdges
 70
     3
 71
     2
 72
     2
 73
     1
 90
        2
 40
-0.6
 41
30.0
 62
     5
 63
     7
 74
     1
 91
        4
 64
     7
 65
   257
 75
     1
175
     1
 42
1.0
 92
        0
 66
   257
 43
1.0
 76
     1
 77
     6
 78
     2
 67
     7
 79
     5
170
     0
171
     0
290
     0
174
     0
 93
       13
 44
0.0
173
     0
291
     1
 45
0.0
1001
ACAD
1000
AcDbSavedByObjectVersion
1070
     0
1000
AcDbSavedByObjectVersion
1070
     0
1000
AcDbSavedByObjectVersion
1070
     0
  0
VISUALSTYLE
  5
78E
102
{ACAD_REACTORS
330
780
102
}
330
780
100
AcDbVisualStyle
  2
Linepattern
 70
    14
 71
     2
 72
     2
 73
     0
 90
        0
 40
-0.6
 41
-30.0
 62
     5
 63
     7
 74
     1
 91
        4
 64
     7
 65
   257
 75
     7
175
     7
 42
1.0
 92
        8
 66
     7
 43
1.0
 76
     1
 77
     6
 78
     2
 67
     7
 79
     5
170
     0
171
     0
290
     0
174
     0
 93
        1
 44
0.0
173
     0
291
     1
 45
0.0
1001
ACAD
1000
AcDbSavedByObjectVersion
1070
     0
1000
AcDbSavedByObjectVersion
1070
     0
1000
AcDbSavedByObjectVersion
1070
     0
  0
VISUALSTYLE
  5
78A
102
{ACAD_REACTORS
330
780
102
}
330
780
100
AcDbVisualStyle
  2
Realistic
 70
     8
 71
     2
 72
     2
 73
     0
 90
        0
 40
-0.6
 41
-30.0
 62
     5
 63
     7
 74
     1
 91
        0
 64
     7
 65
   257
 75
     1
175
     1
 42
1.0
 92
        8
 66
     8
 43
1.0
 76
     1
 77
     6
 78
     2
 67
     7
 79
     5
170
     0
171
     0
290
     0
174
     0
 93
       13
 44
0.0
173
     0
291
     0
 45
0.0
1001
ACAD
1000
AcDbSavedByObjectVersion
1070
     0
1000
AcDbSavedByObjectVersion
1070
     0
1000
AcDbSavedByObjectVersion
1070
     0
  0
VISUALSTYLE
  5
78D
102
{ACAD_REACTORS
330
780
102
}
330
780
100
AcDbVisualStyle
  2
Thicken
 70
    13
 71
     2
 72
     2
 73
     0
 90
        0
 40
-0.6
 41
-30.0
 62
     5
 63
     7
 74
     1
 91
        4
 64
     7
 65
   257
 75
     1
175
     1
 42
1.0
 92
       12
 66
     7
 43
1.0
 76
     1
 77
     6
 78
     2
 67
     7
 79
     5
170
     0
171
     0
290
     0
174
     0
 93
        1
 44
0.0
173
     0
291
     1
 45
0.0
1001
ACAD
1000
AcDbSavedByObjectVersion
1070
     0
1000
AcDbSavedByObjectVersion
1070
     0
1000
AcDbSavedByObjectVersion
1070
     0
  0
DICTIONARYVAR
  5
967
102
{ACAD_REACTORS
330
966
102
}
330
966
100
DictionaryVariables
280
     0
  1
STANDARD
  0
DICTIONARYVAR
  5
96A
102
{ACAD_REACTORS
330
966
102
}
330
966
100
DictionaryVariables
280
     0
  1
1
  0
DICTIONARYVAR
  5
969
102
{ACAD_REACTORS
330
966
102
}
330
966
100
DictionaryVariables
280
     0
  1
0
  0
DICTIONARYVAR
  5
968
102
{ACAD_REACTORS
330
966
102
}
330
966
100
DictionaryVariables
280
     0
  1
127
  0
XRECORD
  5
560
102
{ACAD_REACTORS
330
540
102
}
330
540
100
AcDbXrecord
280
     1
  1
2.0.0
  0
DICTIONARY
  5
CD1
330
567
100
AcDbDictionary
280
     1
281
     1
  3
ACAD_XREC_ROUNDTRIP
360
CD2
  0
DICTIONARY
  5
CD3
330
568
100
AcDbDictionary
280
     1
281
     1
  3
ACAD_XREC_ROUNDTRIP
360
CD4
  0
DICTIONARY
  5
9AC
330
77E
100
AcDbDictionary
280
     1
281
     1
  3
ACAD_XREC_ROUNDTRIP
360
9AD
  0
DICTIONARY
  5
9AA
330
77D
100
AcDbDictionary
280
     1
281
     1
  3
ACAD_XREC_ROUNDTRIP
360
9AB
  0
DICTIONARY
  5
9AE
330
77F
100
AcDbDictionary
280
     1
281
     1
  3
ACAD_XREC_ROUNDTRIP
360
9AF
  0
DICTIONARY
  5
CD5
330
772
100
AcDbDictionary
280
     1
281
     1
  3
ACAD_XREC_ROUNDTRIP
360
CD6
  0
DICTIONARY
  5
CD7
330
773
100
AcDbDictionary
280
     1
281
     1
  3
ACAD_XREC_ROUNDTRIP
360
CD8
  0
DICTIONARY
  5
CD9
330
774
100
AcDbDictionary
280
     1
281
     1
  3
ACAD_XREC_ROUNDTRIP
360
CDA
  0
DICTIONARY
  5
CDB
330
775
100
AcDbDictionary
280
     1
281
     1
  3
ACAD_XREC_ROUNDTRIP
360
CDC
  0
DICTIONARY
  5
CDD
330
776
100
AcDbDictionary
280
     1
281
     1
  3
ACAD_XREC_ROUNDTRIP
360
CDE
  0
DICTIONARY
  5
CDF
330
777
100
AcDbDictionary
280
     1
281
     1
  3
ACAD_XREC_ROUNDTRIP
360
CE0
  0
DICTIONARY
  5
CE1
330
778
100
AcDbDictionary
280
     1
281
     1
  3
ACAD_XREC_ROUNDTRIP
360
CE2
  0
DICTIONARY
  5
CE3
330
779
100
AcDbDictionary
280
     1
281
     1
  3
ACAD_XREC_ROUNDTRIP
360
CE4
  0
DICTIONARY
  5
CE5
330
793
100
AcDbDictionary
280
     1
281
     1
  3
ACAD_XREC_ROUNDTRIP
360
CE6
  0
XRECORD
  5
CD2
102
{ACAD_REACTORS
330
CD1
102
}
330
CD1
100
AcDbXrecord
280
     1
102
SHADEPLOT
 70
     0
102
SHADEPLOTRESLEVEL
 70
     2
102
SHADEPLOTCUSTOMDPI
 70
   300
  0
XRECORD
  5
CD4
102
{ACAD_REACTORS
330
CD3
102
}
330
CD3
100
AcDbXrecord
280
     1
102
SHADEPLOT
 70
     0
102
SHADEPLOTRESLEVEL
 70
     2
102
SHADEPLOTCUSTOMDPI
 70
   300
  0
XRECORD
  5
9AD
102
{ACAD_REACTORS
330
9AC
102
}
330
9AC
100
AcDbXrecord
280
     1
102
MATERIAL
148
0.0
149
0.0
149
0.0
 93
        0
 94
       63
282
     0
 72
     1
 77
     1
171
     1
175
     1
179
     1
273
     0
  0
XRECORD
  5
9AB
102
{ACAD_REACTORS
330
9AA
102
}
330
9AA
100
AcDbXrecord
280
     1
102
MATERIAL
148
0.0
149
0.0
149
0.0
 93
        0
 94
       63
282
     0
 72
     1
 77
     1
171
     1
175
     1
179
     1
273
     0
  0
XRECORD
  5
9AF
102
{ACAD_REACTORS
330
9AE
102
}
330
9AE
100
AcDbXrecord
280
     1
102
MATERIAL
148
0.0
149
0.0
149
0.0
 93
        0
 94
       63
282
     0
 72
     1
 77
     1
171
     1
175
     1
179
     1
273
     0
  0
XRECORD
  5
CD6
102
{ACAD_REACTORS
330
CD5
102
}
330
CD5
100
AcDbXrecord
280
     1
102
SHADEPLOT
 70
     0
102
SHADEPLOTRESLEVEL
 70
     2
102
SHADEPLOTCUSTOMDPI
 70
   300
  0
XRECORD
  5
CD8
102
{ACAD_REACTORS
330
CD7
102
}
330
CD7
100
AcDbXrecord
280
     1
102
SHADEPLOT
 70
     0
102
SHADEPLOTRESLEVEL
 70
     2
102
SHADEPLOTCUSTOMDPI
 70
   300
  0
XRECORD
  5
CDA
102
{ACAD_REACTORS
330
CD9
102
}
330
CD9
100
AcDbXrecord
280
     1
102
SHADEPLOT
 70
     0
102
SHADEPLOTRESLEVEL
 70
     2
102
SHADEPLOTCUSTOMDPI
 70
   300
  0
XRECORD
  5
CDC
102
{ACAD_REACTORS
330
CDB
102
}
330
CDB
100
AcDbXrecord
280
     1
102
SHADEPLOT
 70
     0
102
SHADEPLOTRESLEVEL
 70
     2
102
SHADEPLOTCUSTOMDPI
 70
   300
  0
XRECORD
  5
CDE
102
{ACAD_REACTORS
330
CDD
102
}
330
CDD
100
AcDbXrecord
280
     1
102
SHADEPLOT
 70
     0
102
SHADEPLOTRESLEVEL
 70
     2
102
SHADEPLOTCUSTOMDPI
 70
   300
  0
XRECORD
  5
CE0
102
{ACAD_REACTORS
330
CDF
102
}
330
CDF
100
AcDbXrecord
280
     1
102
SHADEPLOT
 70
     0
102
SHADEPLOTRESLEVEL
 70
     2
102
SHADEPLOTCUSTOMDPI
 70
   300
  0
XRECORD
  5
CE2
102
{ACAD_REACTORS
330
CE1
102
}
330
CE1
100
AcDbXrecord
280
     1
102
SHADEPLOT
 70
     0
102
SHADEPLOTRESLEVEL
 70
     2
102
SHADEPLOTCUSTOMDPI
 70
   300
  0
XRECORD
  5
CE4
102
{ACAD_REACTORS
330
CE3
102
}
330
CE3
100
AcDbXrecord
280
     1
102
SHADEPLOT
 70
     0
102
SHADEPLOTRESLEVEL
 70
     2
102
SHADEPLOTCUSTOMDPI
 70
   300
  0
XRECORD
  5
CE6
102
{ACAD_REACTORS
330
CE5
102
}
330
CE5
100
AcDbXrecord
280
     1
102
ACAD_ROUNDTRIP_PRE2007_TABLESTYLE
 90
      512
 91
        0
  1

 92
      512
 93
        0
  2

 94
      512
 95
        0
  3

  0
ENDSEC
  0
EOF
