  0
SECTION
  2
HEADER
  9
$ACADVER
  1
AC1014
  9
$ACADMAINTVER
 70
     9
  9
$DWGCODEPAGE
  3
ANSI_932
  9
$INSBASE
 10
0.0
 20
0.0
 30
0.0
  9
$EXTMIN
 10
-66.43231072
 20
-31.71458728
 30
-0.00152582
  9
$EXTMAX
 10
217.0153836
 20
68.01048633
 30
0.00000003
  9
$LIMMIN
 10
0.0
 20
0.0
  9
$LIMMAX
 10
420.0
 20
297.0
  9
$ORTHOMODE
 70
     0
  9
$REGENMODE
 70
     1
  9
$FILLMODE
 70
     1
  9
$QTEXTMODE
 70
     0
  9
$MIRRTEXT
 70
     1
  9
$DRAGMODE
 70
     2
  9
$LTSCALE
 40
10.0
  9
$OSMODE
 70
   549
  9
$ATTMODE
 70
     1
  9
$TEXTSIZE
 40
3.0
  9
$TRACEWID
 40
1.0
  9
$TEXTSTYLE
  7
YOKO
  9
$CLAYER
  8
245
  9
$CELTYPE
  6
BYLAYER
  9
$CECOLOR
 62
   256
  9
$CELTSCALE
 40
1.0
  9
$DELOBJ
 70
     1
  9
$DISPSILH
 70
     0
  9
$DIMSCALE
 40
1.0
  9
$DIMASZ
 40
2.23
  9
$DIMEXO
 40
0.5
  9
$DIMDLI
 40
2.5
  9
$DIMRND
 40
0.0
  9
$DIMDLE
 40
0.0
  9
$DIMEXE
 40
1.0
  9
$DIMTP
 40
0.0
  9
$DIMTM
 40
0.0
  9
$DIMTXT
 40
2.8
  9
$DIMCEN
 40
0.0
  9
$DIMTSZ
 40
0.0
  9
$DIMTOL
 70
     0
  9
$DIMLIM
 70
     0
  9
$DIMTIH
 70
     0
  9
$DIMTOH
 70
     0
  9
$DIMSE1
 70
     0
  9
$DIMSE2
 70
     0
  9
$DIMTAD
 70
     3
  9
$DIMZIN
 70
     8
  9
$DIMBLK
  1

  9
$DIMASO
 70
     1
  9
$DIMSHO
 70
     1
  9
$DIMPOST
  1

  9
$DIMAPOST
  1

  9
$DIMALT
 70
     0
  9
$DIMALTD
 70
     2
  9
$DIMALTF
 40
25.4
  9
$DIMLFAC
 40
1.0
  9
$DIMTOFL
 70
     1
  9
$DIMTVP
 40
0.0
  9
$DIMTIX
 70
     1
  9
$DIMSOXD
 70
     0
  9
$DIMSAH
 70
     1
  9
$DIMBLK1
  1
OPEN
  9
$DIMBLK2
  1
OPEN
  9
$DIMSTYLE
  2
BIGT
  9
$DIMCLRD
 70
   256
  9
$DIMCLRE
 70
   256
  9
$DIMCLRT
 70
    40
  9
$DIMTFAC
 40
1.0
  9
$DIMGAP
 40
1.0
  9
$DIMJUST
 70
     0
  9
$DIMSD1
 70
     0
  9
$DIMSD2
 70
     0
  9
$DIMTOLJ
 70
     1
  9
$DIMTZIN
 70
     8
  9
$DIMALTZ
 70
     0
  9
$DIMALTTZ
 70
     0
  9
$DIMFIT
 70
     3
  9
$DIMUPT
 70
     0
  9
$DIMUNIT
 70
     2
  9
$DIMDEC
 70
     3
  9
$DIMTDEC
 70
     3
  9
$DIMALTU
 70
     2
  9
$DIMALTTD
 70
     2
  9
$DIMTXSTY
  7
STANDARD
  9
$DIMAUNIT
 70
     0
  9
$LUNITS
 70
     2
  9
$LUPREC
 70
     3
  9
$SKETCHINC
 40
1.0
  9
$FILLETRAD
 40
4.0
  9
$AUNITS
 70
     0
  9
$AUPREC
 70
     3
  9
$MENU
  1
.
  9
$ELEVATION
 40
0.0
  9
$PELEVATION
 40
0.0
  9
$THICKNESS
 40
0.0
  9
$LIMCHECK
 70
     0
  9
$BLIPMODE
 70
     0
  9
$CHAMFERA
 40
10.0
  9
$CHAMFERB
 40
10.0
  9
$CHAMFERC
 40
0.0
  9
$CHAMFERD
 40
0.0
  9
$SKPOLY
 70
     0
  9
$TDCREATE
 40
2455028.635306528
  9
$TDUPDATE
 40
2455222.593288842
  9
$TDINDWG
 40
0.0414219907
  9
$TDUSRTIMER
 40
0.0414219907
  9
$USRTIMER
 70
     1
  9
$ANGBASE
 50
0.0
  9
$ANGDIR
 70
     0
  9
$PDMODE
 70
     1
  9
$PDSIZE
 40
-5.0
  9
$PLINEWID
 40
0.0
  9
$COORDS
 70
     2
  9
$SPLFRAME
 70
     0
  9
$SPLINETYPE
 70
     6
  9
$SPLINESEGS
 70
     8
  9
$ATTDIA
 70
     0
  9
$ATTREQ
 70
     1
  9
$HANDLING
 70
-16383
  9
$HANDSEED
  5
ED1
  9
$SURFTAB1
 70
     6
  9
$SURFTAB2
 70
     6
  9
$SURFTYPE
 70
     6
  9
$SURFU
 70
     6
  9
$SURFV
 70
     6
  9
$UCSNAME
  2

  9
$UCSORG
 10
0.0
 20
0.0
 30
0.0
  9
$UCSXDIR
 10
1.0
 20
0.0
 30
0.0
  9
$UCSYDIR
 10
0.0
 20
1.0
 30
0.0
  9
$PUCSNAME
  2

  9
$PUCSORG
 10
0.0
 20
0.0
 30
0.0
  9
$PUCSXDIR
 10
1.0
 20
0.0
 30
0.0
  9
$PUCSYDIR
 10
0.0
 20
1.0
 30
0.0
  9
$USERI1
 70
     1
  9
$USERI2
 70
     0
  9
$USERI3
 70
     0
  9
$USERI4
 70
     0
  9
$USERI5
 70
     0
  9
$USERR1
 40
0.0
  9
$USERR2
 40
0.0
  9
$USERR3
 40
0.0
  9
$USERR4
 40
0.0
  9
$USERR5
 40
0.0
  9
$WORLDVIEW
 70
     1
  9
$SHADEDGE
 70
     3
  9
$SHADEDIF
 70
    70
  9
$TILEMODE
 70
     1
  9
$MAXACTVP
 70
    16
  9
$PINSBASE
 10
0.0
 20
0.0
 30
0.0
  9
$PLIMCHECK
 70
     0
  9
$PEXTMIN
 10
1.00000000E+20
 20
1.00000000E+20
 30
1.00000000E+20
  9
$PEXTMAX
 10
-1.00000000E+20
 20
-1.00000000E+20
 30
-1.00000000E+20
  9
$PLIMMIN
 10
0.0
 20
0.0
  9
$PLIMMAX
 10
420.0
 20
297.0
  9
$UNITMODE
 70
     0
  9
$VISRETAIN
 70
     0
  9
$PLINEGEN
 70
     0
  9
$PSLTSCALE
 70
     1
  9
$TREEDEPTH
 70
  3020
  9
$PICKSTYLE
 70
     0
  9
$CMLSTYLE
  2
STANDARD
  9
$CMLJUST
 70
     0
  9
$CMLSCALE
 40
1.0
  9
$PROXYGRAPHICS
 70
     1
  9
$MEASUREMENT
 70
     1
  0
ENDSEC
  0
SECTION
  2
CLASSES
  0
CLASS
  1
XRECORD
  2
AcDbXrecord
  3
AutoCAD 2000
 90
        0
280
     0
281
     0
  0
CLASS
  1
ACDBDICTIONARYWDFLT
  2
AcDbDictionaryWithDefault
  3
AutoCAD 2000
 90
        0
280
     0
281
     0
  0
CLASS
  1
ACDBPLACEHOLDER
  2
AcDbPlaceHolder
  3
AutoCAD 2000
 90
        0
280
     0
281
     0
  0
CLASS
  1
LAYOUT
  2
AcDbLayout
  3
AutoCAD 2000
 90
        0
280
     0
281
     0
  0
CLASS
  1
PLOTSETTINGS
  2
AcDbPlotSettings
  3
AutoCAD 2000
 90
        0
280
     0
281
     0
  0
CLASS
  1
LONG_TRANSACTION
  2
AcDbLongTransaction
  3
AutoCAD 2000
 90
        0
280
     0
281
     0
  0
CLASS
  1
LWPOLYLINE
  2
AcDbPolyline
  3
AutoCAD 2000
 90
        0
280
     0
281
     1
  0
CLASS
  1
HATCH
  2
AcDbHatch
  3
AutoCAD 2000
 90
        0
280
     0
281
     1
  0
CLASS
  1
XRECORD
  2
AcDbXrecord
  3
AutoCAD 2000
 90
        0
280
     0
281
     0
  0
CLASS
  1
LONG_TRANSACTION
  2
AcDbLongTransaction
  3
AutoCAD 2000
 90
        0
280
     0
281
     0
  0
CLASS
  1
LWPOLYLINE
  2
AcDbPolyline
  3
AutoCAD 2000
 90
        0
280
     0
281
     1
  0
CLASS
  1
HATCH
  2
AcDbHatch
  3
AutoCAD 2000
 90
        0
280
     0
281
     1
  0
CLASS
  1
XRECORD
  2
AcDbXrecord
  3
AutoCAD 2000
 90
        0
280
     0
281
     0
  0
CLASS
  1
LONG_TRANSACTION
  2
AcDbLongTransaction
  3
AutoCAD 2000
 90
        0
280
     0
281
     0
  0
CLASS
  1
LWPOLYLINE
  2
AcDbPolyline
  3
AutoCAD 2000
 90
        0
280
     0
281
     1
  0
CLASS
  1
HATCH
  2
AcDbHatch
  3
AutoCAD 2000
 90
        0
280
     0
281
     1
  0
CLASS
  1
XRECORD
  2
AcDbXrecord
  3
AutoCAD 2000
 90
        0
280
     0
281
     0
  0
CLASS
  1
LONG_TRANSACTION
  2
AcDbLongTransaction
  3
AutoCAD 2000
 90
        0
280
     0
281
     0
  0
CLASS
  1
LWPOLYLINE
  2
AcDbPolyline
  3
AutoCAD 2000
 90
        0
280
     0
281
     1
  0
CLASS
  1
HATCH
  2
AcDbHatch
  3
AutoCAD 2000
 90
        0
280
     0
281
     1
  0
CLASS
  1
XRECORD
  2
AcDbXrecord
  3
AutoCAD 2000
 90
        0
280
     0
281
     0
  0
ENDSEC
  0
SECTION
  2
TABLES
  0
TABLE
  2
VPORT
  5
8
330
0
100
AcDbSymbolTable
 70
     2
  0
VPORT
  5
EAC
330
8
100
AcDbSymbolTableRecord
100
AcDbViewportTableRecord
  2
*ACTIVE
 70
     0
 10
0.0
 20
0.0
 11
1.0
 21
1.0
 12
75.29153644
 22
18.14794952
 13
0.0
 23
0.0
 14
7.0
 24
7.0
 15
7.0
 25
7.0
 16
0.0
 26
0.0
 36
1.0
 17
0.0
 27
0.0
 37
0.0
 40
199.01484493
 41
1.43184713
 42
50.0
 43
0.0
 44
0.0
 50
0.0
 51
0.0
 71
     0
 72
  2000
 73
     1
 74
     0
 75
     0
 76
     0
 77
     0
 78
     0
  0
ENDTAB
  0
TABLE
  2
LTYPE
  5
5
330
0
100
AcDbSymbolTable
 70
     3
  0
LTYPE
  5
14
330
5
100
AcDbSymbolTableRecord
100
AcDbLinetypeTableRecord
  2
BYBLOCK
 70
     0
  3

 72
    65
 73
     0
 40
0.0
  0
LTYPE
  5
15
330
5
100
AcDbSymbolTableRecord
100
AcDbLinetypeTableRecord
  2
BYLAYER
 70
     0
  3

 72
    65
 73
     0
 40
0.0
  0
LTYPE
  5
16
330
5
100
AcDbSymbolTableRecord
100
AcDbLinetypeTableRecord
  2
CONTINUOUS
 70
     0
  3
Solid line
 72
    65
 73
     0
 40
0.0
  0
LTYPE
  5
258
330
5
100
AcDbSymbolTableRecord
100
AcDbLinetypeTableRecord
  2
CENTER2
 70
     0
  3
___ _ ___ _ ___ _ ___ _ ___ _ ___ _ ___ _ ___ _
 72
    65
 73
     4
 40
1.125
 49
0.75
 74
     0
 49
-0.125
 74
     0
 49
0.125
 74
     0
 49
-0.125
 74
     0
  0
LTYPE
  5
25C
330
5
100
AcDbSymbolTableRecord
100
AcDbLinetypeTableRecord
  2
HIDDEN2
 70
     0
  3
_ _ _ _ _ _ _ _ _ _ _ _ _ _ _ _ _ _ _ _ _ _ _ _
 72
    65
 73
     2
 40
0.1875
 49
0.125
 74
     0
 49
-0.0625
 74
     0
  0
ENDTAB
  0
TABLE
  2
LAYER
  5
2
330
0
100
AcDbSymbolTable
 70
    10
  0
LAYER
  5
F
330
2
100
AcDbSymbolTableRecord
100
AcDbLayerTableRecord
  2
0
 70
     0
 62
     7
  6
CONTINUOUS
  0
LAYER
  5
1AA
330
2
100
AcDbSymbolTableRecord
100
AcDbLayerTableRecord
  2
240
 70
     0
 62
     4
  6
CONTINUOUS
  0
LAYER
  5
1AB
330
2
100
AcDbSymbolTableRecord
100
AcDbLayerTableRecord
  2
241
 70
     0
 62
   211
  6
CONTINUOUS
  0
LAYER
  5
1AF
330
2
100
AcDbSymbolTableRecord
100
AcDbLayerTableRecord
  2
245
 70
     0
 62
     2
  6
CENTER2
  0
LAYER
  5
21E
330
2
100
AcDbSymbolTableRecord
100
AcDbLayerTableRecord
  2
250
 70
     0
 62
     3
  6
CONTINUOUS
  0
LAYER
  5
5C4
330
2
100
AcDbSymbolTableRecord
100
AcDbLayerTableRecord
  2
DEFPOINTS
 70
     0
 62
     7
  6
CONTINUOUS
  0
LAYER
  5
A7E
330
2
100
AcDbSymbolTableRecord
100
AcDbLayerTableRecord
  2
242
 70
     0
 62
     3
  6
CONTINUOUS
  0
ENDTAB
  0
TABLE
  2
STYLE
  5
3
330
0
100
AcDbSymbolTable
 70
     2
  0
STYLE
  5
10
330
3
100
AcDbSymbolTableRecord
100
AcDbTextStyleTableRecord
  2
STANDARD
 70
     0
 40
0.0
 41
1.0
 50
0.0
 71
     0
 42
3.0
  3
romans.shx
  4
BIGFONT.SHX
  0
STYLE
  5
339
330
3
100
AcDbSymbolTableRecord
100
AcDbTextStyleTableRecord
  2
YOKO
 70
     0
 40
0.0
 41
1.0
 50
0.0
 71
     0
 42
3.0
  3
romans.shx
  4
extfont.shx
  0
ENDTAB
  0
TABLE
  2
VIEW
  5
6
330
0
100
AcDbSymbolTable
 70
     0
  0
ENDTAB
  0
TABLE
  2
UCS
  5
7
330
0
100
AcDbSymbolTable
 70
     0
  0
ENDTAB
  0
TABLE
  2
APPID
  5
9
330
0
100
AcDbSymbolTable
 70
     9
  0
APPID
  5
11
330
9
100
AcDbSymbolTableRecord
100
AcDbRegAppTableRecord
  2
ACAD
 70
     0
  0
APPID
  5
1B1
330
9
100
AcDbSymbolTableRecord
100
AcDbRegAppTableRecord
  2
GLOBAL
 70
     0
  0
APPID
  5
2A4
330
9
100
AcDbSymbolTableRecord
100
AcDbRegAppTableRecord
  2
DETAIL
 70
     0
  0
APPID
  5
5FD
330
9
100
AcDbSymbolTableRecord
100
AcDbRegAppTableRecord
  2
GRPNAME
 70
     0
  0
APPID
  5
5FE
330
9
100
AcDbSymbolTableRecord
100
AcDbRegAppTableRecord
  2
GPARA
 70
     0
  0
APPID
  5
6C4
330
9
100
AcDbSymbolTableRecord
100
AcDbRegAppTableRecord
  2
DCO15
 70
     0
  0
APPID
  5
6C5
330
9
100
AcDbSymbolTableRecord
100
AcDbRegAppTableRecord
  2
ITEMNAME
 70
     0
  0
APPID
  5
6C6
330
9
100
AcDbSymbolTableRecord
100
AcDbRegAppTableRecord
  2
GRADE_0
 70
     0
  0
APPID
  5
997
330
9
100
AcDbSymbolTableRecord
100
AcDbRegAppTableRecord
  2
CONTENTBLOCKICON
 70
     0
  0
ENDTAB
  0
TABLE
  2
DIMSTYLE
  5
A
330
0
100
AcDbSymbolTable
 70
     5
  0
DIMSTYLE
105
725
330
A
100
AcDbSymbolTableRecord
100
AcDbDimStyleTableRecord
  2
BIGT
 70
     0
  3

  4

  5

  6
OPEN
  7
OPEN
 40
1.0
 41
2.23
 42
0.5
 43
2.5
 44
1.0
 45
0.0
 46
0.0
 47
0.0
 48
0.0
140
2.8
141
0.0
142
0.0
143
25.4
144
1.0
145
0.0
146
1.0
147
1.0
 71
     0
 72
     0
 73
     0
 74
     0
 75
     0
 76
     0
 77
     3
 78
     8
170
     0
171
     2
172
     1
173
     1
174
     1
175
     0
176
   256
177
   256
178
    40
270
     2
271
     3
272
     3
273
     2
274
     2
340
10
275
     0
280
     0
281
     0
282
     0
283
     1
284
     8
285
     0
286
     0
287
     3
288
     0
  0
DIMSTYLE
105
80F
102
{ACAD_REACTORS
330
8B8
330
9B7
330
D98
330
D99
330
E32
102
}
330
A
100
AcDbSymbolTableRecord
100
AcDbDimStyleTableRecord
  2
BIGT$0
 70
     0
  3

  4
"
  5
OPEN
  6

  7

 40
1.0
 41
2.23
 42
0.5
 43
7.0
 44
1.0
 45
0.0
 46
0.0
 47
0.1
 48
0.1
140
3.0
141
0.0
142
0.0
143
0.0393701
144
1.0
145
0.0
146
0.71
147
1.0
 71
     0
 72
     0
 73
     0
 74
     0
 75
     0
 76
     0
 77
     3
 78
     8
170
     0
171
     2
172
     1
173
     0
174
     0
175
     0
176
     3
177
     3
178
    40
270
     2
271
     3
272
     3
273
     2
274
     2
340
10
275
     0
280
     0
281
     0
282
     0
283
     1
284
     8
285
     0
286
     0
287
     3
288
     0
  0
ENDTAB
  0
TABLE
  2
BLOCK_RECORD
  5
1
330
0
100
AcDbSymbolTable
 70
    17
  0
BLOCK_RECORD
  5
1A
102
{ACAD_XDICTIONARY
360
995
102
}
330
1
100
AcDbSymbolTableRecord
100
AcDbBlockTableRecord
  2
*MODEL_SPACE
  0
BLOCK_RECORD
  5
17
102
{ACAD_XDICTIONARY
360
993
102
}
330
1
100
AcDbSymbolTableRecord
100
AcDbBlockTableRecord
  2
*PAPER_SPACE
  0
BLOCK_RECORD
  5
594
330
1
100
AcDbSymbolTableRecord
100
AcDbBlockTableRecord
  2
_OPEN
  0
BLOCK_RECORD
  5
6E3
330
1
100
AcDbSymbolTableRecord
100
AcDbBlockTableRecord
  2
矢印なし
  0
BLOCK_RECORD
  5
7EA
330
1
100
AcDbSymbolTableRecord
100
AcDbBlockTableRecord
  2
_NONE
  0
BLOCK_RECORD
  5
8B9
330
1
100
AcDbSymbolTableRecord
100
AcDbBlockTableRecord
  2
*D3
  0
BLOCK_RECORD
  5
8E8
330
1
100
AcDbSymbolTableRecord
100
AcDbBlockTableRecord
  2
1
1001
CONTENTBLOCKICON
1071
        0
1004
2800000020000000200000000100080000000000000400000000000000000000000000000000000000000000000080000080000000808000800000008000800080800000C0C0C000C0DCC000F0CAA6000020400000206000002080000020A0000020C0000020E00000400000004020000040400000406000004080000040A0
1004
000040C0000040E00000600000006020000060400000606000006080000060A0000060C0000060E00000800000008020000080400000806000008080000080A0000080C0000080E00000A0000000A0200000A0400000A0600000A0800000A0A00000A0C00000A0E00000C0000000C0200000C0400000C0600000C0800000C0
1004
A00000C0C00000C0E00000E0000000E0200000E0400000E0600000E0800000E0A00000E0C00000E0E00040000000400020004000400040006000400080004000A0004000C0004000E00040200000402020004020400040206000402080004020A0004020C0004020E000404000004040200040404000404060004040800040
1004
40A0004040C0004040E00040600000406020004060400040606000406080004060A0004060C0004060E00040800000408020004080400040806000408080004080A0004080C0004080E00040A0000040A0200040A0400040A0600040A0800040A0A00040A0C00040A0E00040C0000040C0200040C0400040C0600040C08000
1004
40C0A00040C0C00040C0E00040E0000040E0200040E0400040E0600040E0800040E0A00040E0C00040E0E00080000000800020008000400080006000800080008000A0008000C0008000E00080200000802020008020400080206000802080008020A0008020C0008020E00080400000804020008040400080406000804080
1004
008040A0008040C0008040E00080600000806020008060400080606000806080008060A0008060C0008060E00080800000808020008080400080806000808080008080A0008080C0008080E00080A0000080A0200080A0400080A0600080A0800080A0A00080A0C00080A0E00080C0000080C0200080C0400080C0600080C0
1004
800080C0A00080C0C00080C0E00080E0000080E0200080E0400080E0600080E0800080E0A00080E0C00080E0E000C0000000C0002000C0004000C0006000C0008000C000A000C000C000C000E000C0200000C0202000C0204000C0206000C0208000C020A000C020C000C020E000C0400000C0402000C0404000C0406000C0
1004
408000C040A000C040C000C040E000C0600000C0602000C0604000C0606000C0608000C060A000C060C000C060E000C0800000C0802000C0804000C0806000C0808000C080A000C080C000C080E000C0A00000C0A02000C0A04000C0A06000C0A08000C0A0A000C0A0C000C0A0E000C0C00000C0C02000C0C04000C0C06000
1004
C0C08000C0C0A000F0FBFF00A4A0A000808080000000FF0000FF000000FFFF00FF000000FF00FF00FFFF0000FFFFFF0000000000000000000000000000000000000000000000000000000000000000000000000000000000000000000000000000000000000000000000000000000000000000000000000000000000000000
1004
00000000000000000000000000000000000000000000000000000000000000000000000000000000000000000000000000000000000000000000000000000000000000000000000000000000000000000000000000000000000000000000000000000000000000000000000000000000000000000000000000000000000000
1004
00000000000000000000000000000000000000000000000000000000000000000000000000000000000000000000000000000000000000000000000000000000000000000000000000000000000000000000000000000000000000000000000000000000000000000000000000000000000000000000000000000000000000
1004
000000000000000000000000000000000000000000000000000000000000000000000000000000000000000000000000000000000000000000000000FEFEFE0000000000000000000000000000000000000000000000000000FEFEFEFEFEE7FEFEFEFEFEFEFEFE0000000000000000000000000000FEFEFEFE0000E7E7E7E7
1004
0000000000000000FEFEFEFEFEFEFEFEFEFE00000000FE0000000000E7E7E7E7000000000000000000000000000000FEE7FE000000FBFEFBFBFBFBFBE7E7E7E7FBFBFBFBFBFBFBFBFBFBE7E7FAFAE7FEFAE7FB000000FEFEFE000000E7E7FBE70000000000000000FEFEFEFEFEFEFEFEFEFE00000000000000FEFEFEFEFEFE
1004
FEFEFEFEFEFEFEFEFE000000000000000000000000000000000000000000FEFEFE00000000000000000000000000000000000000000000000000000000000000000000000000000000000000000000000000000000000000000000000000000000000000000000000000000000000000000000000000000000000000000000
1004
00000000000000000000000000000000000000000000000000000000000000000000000000000000000000000000000000000000000000000000000000000000000000000000000000000000000000000000000000000000000000000000000000000000000000000000000000000000000000000000000000000000000000
1004
00000000000000000000000000000000000000000000000000000000000000000000000000000000000000000000000000000000000000000000000000000000000000000000000000000000000000000000000000000000000000000000000000000000000000000000000000000000000000000000000000000000000000
1004
0000000000000000000000000000000000000000000000000000000000000000000000000000000000000000000000000000000000000000
  0
BLOCK_RECORD
  5
9B8
330
1
100
AcDbSymbolTableRecord
100
AcDbBlockTableRecord
  2
*D5
  0
BLOCK_RECORD
  5
DCA
330
1
100
AcDbSymbolTableRecord
100
AcDbBlockTableRecord
  2
*D12
  0
BLOCK_RECORD
  5
DD6
330
1
100
AcDbSymbolTableRecord
100
AcDbBlockTableRecord
  2
*D13
  0
BLOCK_RECORD
  5
E33
330
1
100
AcDbSymbolTableRecord
100
AcDbBlockTableRecord
  2
*D16
  0
ENDTAB
  0
ENDSEC
  0
SECTION
  2
BLOCKS
  0
BLOCK
  5
1B
330
1A
100
AcDbEntity
  8
0
100
AcDbBlockBegin
  2
*MODEL_SPACE
 70
     0
 10
0.0
 20
0.0
 30
0.0
  3
*MODEL_SPACE
  1

  0
ENDBLK
  5
1C
330
1A
100
AcDbEntity
  8
0
100
AcDbBlockEnd
  0
BLOCK
  5
18
330
17
100
AcDbEntity
 67
     1
  8
0
100
AcDbBlockBegin
  2
*PAPER_SPACE
 70
     0
 10
0.0
 20
0.0
 30
0.0
  3
*PAPER_SPACE
  1

  0
ENDBLK
  5
19
330
17
100
AcDbEntity
 67
     1
  8
0
100
AcDbBlockEnd
  0
BLOCK
  5
598
330
594
100
AcDbEntity
  8
0
100
AcDbBlockBegin
  2
_OPEN
 70
     0
 10
0.0
 20
0.0
 30
0.0
  3
_OPEN
  1

  0
LINE
  5
595
330
594
100
AcDbEntity
  8
0
  6
BYBLOCK
 62
     0
100
AcDbLine
 10
-1.0
 20
0.16666667
 30
0.0
 11
0.0
 21
0.0
 31
0.0
  0
LINE
  5
596
330
594
100
AcDbEntity
  8
0
  6
BYBLOCK
 62
     0
100
AcDbLine
 10
-1.0
 20
-0.16666667
 30
0.0
 11
0.0
 21
0.0
 31
0.0
  0
LINE
  5
597
330
594
100
AcDbEntity
  8
0
  6
BYBLOCK
 62
     0
100
AcDbLine
 10
0.0
 20
0.0
 30
0.0
 11
-1.0
 21
0.0
 31
0.0
  0
ENDBLK
  5
599
330
594
100
AcDbEntity
  8
0
100
AcDbBlockEnd
  0
BLOCK
  5
6E4
330
6E3
100
AcDbEntity
  8
0
100
AcDbBlockBegin
  2
矢印なし
 70
     0
 10
0.0
 20
0.0
 30
0.0
  3
矢印なし
  1

  0
ENDBLK
  5
6E5
330
6E3
100
AcDbEntity
  8
0
100
AcDbBlockEnd
  0
BLOCK
  5
7EB
330
7EA
100
AcDbEntity
  8
0
100
AcDbBlockBegin
  2
_NONE
 70
     0
 10
0.0
 20
0.0
 30
0.0
  3
_NONE
  1

  0
ENDBLK
  5
7EC
330
7EA
100
AcDbEntity
  8
0
100
AcDbBlockEnd
  0
BLOCK
  5
8C3
330
8B9
100
AcDbEntity
  8
0
100
AcDbBlockBegin
  2
*D3
 70
     1
 10
0.0
 20
0.0
 30
0.0
  3
*D3
  1

  0
LINE
  5
E1E
330
8B9
100
AcDbEntity
  8
250
  6
CONTINUOUS
 62
     3
100
AcDbLine
 10
-35.0
 20
3.70000082
 30
0.0
 11
-35.0
 21
50.0
 31
0.0
  0
LINE
  5
E1F
330
8B9
100
AcDbEntity
  8
250
  6
CONTINUOUS
 62
     3
100
AcDbLine
 10
200.0
 20
12.3
 30
0.0
 11
200.0
 21
50.0
 31
0.0
  0
LINE
  5
E20
330
8B9
100
AcDbEntity
  8
250
  6
CONTINUOUS
 62
     3
100
AcDbLine
 10
-32.77
 20
49.0
 30
0.0
 11
197.77
 21
49.0
 31
0.0
  0
INSERT
  5
E21
330
8B9
100
AcDbEntity
  8
250
  6
CONTINUOUS
 62
     3
100
AcDbBlockReference
  2
_OPEN
 10
-35.0
 20
49.0
 30
0.0
 41
2.23
 42
2.23
 43
2.23
 50
180.0
  0
INSERT
  5
E22
330
8B9
100
AcDbEntity
  8
250
  6
CONTINUOUS
 62
     3
100
AcDbBlockReference
  2
_OPEN
 10
200.0
 20
49.0
 30
0.0
 41
2.23
 42
2.23
 43
2.23
  0
MTEXT
  5
E23
330
8B9
100
AcDbEntity
  8
250
  6
CONTINUOUS
 62
    40
100
AcDbMText
 10
86.62793154
 20
51.5
 30
0.0
 40
3.0
 41
0.0
 71
     5
 72
     1
  1
\A1;（max.235）
1001
ACAD
1000
MTEXTBEGIN
1070
    73
1070
     1
1070
    44
1040
1.0
1070
    74
1070
     0
1000
MTEXTEND
  0
POINT
  5
E24
330
8B9
100
AcDbEntity
  8
DEFPOINTS
  6
CONTINUOUS
 62
     0
100
AcDbPoint
 10
-35.0
 20
3.20000082
 30
0.0
  0
POINT
  5
E25
330
8B9
100
AcDbEntity
  8
DEFPOINTS
  6
CONTINUOUS
 62
     0
100
AcDbPoint
 10
200.0
 20
11.8
 30
0.0
  0
POINT
  5
E26
330
8B9
100
AcDbEntity
  8
DEFPOINTS
  6
CONTINUOUS
 62
     0
100
AcDbPoint
 10
200.0
 20
49.0
 30
0.0
  0
ENDBLK
  5
8C4
330
8B9
100
AcDbEntity
  8
0
100
AcDbBlockEnd
  0
BLOCK
  5
8E9
330
8E8
100
AcDbEntity
  8
0
100
AcDbBlockBegin
  2
1
 70
     0
 10
0.0
 20
0.0
 30
0.0
  3
1
  1

  0
LINE
  5
E41
330
8E8
100
AcDbEntity
  8
245
  6
CENTER2
100
AcDbLine
 10
201.0
 20
0.0
 30
0.0
 11
-66.4
 21
0.0
 31
0.0
  0
LINE
  5
E42
330
8E8
100
AcDbEntity
  8
241
  6
HIDDEN2
100
AcDbLine
 10
162.80012912
 20
4.79990013
 30
0.0
 11
166.50012912
 21
4.79990013
 31
0.0
1001
GRPNAME
1000
PASTMD0T
  0
LINE
  5
E43
330
8E8
100
AcDbEntity
  8
240
  6
CONTINUOUS
100
AcDbLine
 10
30.64203639
 20
-25.45340439
 30
0.0
 11
178.24370395
 21
-12.53993176
 31
0.0
  0
LINE
  5
E44
330
8E8
100
AcDbEntity
  8
240
  6
CONTINUOUS
100
AcDbLine
 10
178.24370395
 20
12.53993176
 30
0.0
 11
30.64203639
 21
25.45340439
 31
0.0
  0
LINE
  5
E45
330
8E8
100
AcDbEntity
  8
240
  6
CONTINUOUS
100
AcDbLine
 10
2.0
 20
31.5
 30
0.0
 11
11.6
 21
31.5
 31
0.0
  0
LINE
  5
E46
330
8E8
100
AcDbEntity
  8
241
  6
HIDDEN2
100
AcDbLine
 10
23.0
 20
22.5
 30
0.0
 11
1.0
 21
22.5
 31
0.0
  0
LINE
  5
E47
330
8E8
100
AcDbEntity
  8
241
  6
HIDDEN2
100
AcDbLine
 10
23.0
 20
-22.5
 30
0.0
 11
1.0
 21
-22.5
 31
0.0
  0
LINE
  5
E48
330
8E8
100
AcDbEntity
  8
240
  6
CONTINUOUS
100
AcDbLine
 10
2.0
 20
-31.5
 30
0.0
 11
11.6
 21
-31.5
 31
0.0
  0
LINE
  5
E49
330
8E8
100
AcDbEntity
  8
241
  6
CONTINUOUS
100
AcDbLine
 10
0.0
 20
22.225
 30
0.0
 11
0.0
 21
0.0
 31
0.0
  0
LINE
  5
E4A
330
8E8
100
AcDbEntity
  8
241
100
AcDbLine
 10
1.0
 20
0.0
 30
0.0
 11
1.0
 21
22.225
 31
0.0
  0
LINE
  5
E4B
330
8E8
100
AcDbEntity
  8
240
  6
CONTINUOUS
100
AcDbLine
 10
-65.4
 20
11.30390896
 30
0.0
 11
-65.4
 21
0.0
 31
0.0
  0
LINE
  5
E4C
330
8E8
100
AcDbEntity
  8
240
  6
CONTINUOUS
100
AcDbLine
 10
0.0
 20
-22.225
 30
0.0
 11
-64.03089103
 21
-12.88716173
 31
0.0
  0
LINE
  5
E4D
330
8E8
100
AcDbEntity
  8
240
  6
CONTINUOUS
100
AcDbLine
 10
-65.4
 20
-11.30390896
 30
0.0
 11
-65.4
 21
0.0
 31
0.0
  0
ARC
  5
E4E
330
8E8
100
AcDbEntity
  8
240
  6
CONTINUOUS
100
AcDbCircle
 10
-63.8
 20
-11.30390896
 30
0.0
 40
1.6
100
AcDbArc
 50
180.0
 51
261.70285503
  0
LINE
  5
E4F
330
8E8
100
AcDbEntity
  8
241
  6
CONTINUOUS
100
AcDbLine
 10
0.0
 20
-22.225
 30
0.0
 11
0.0
 21
0.0
 31
0.0
  0
LINE
  5
E50
330
8E8
100
AcDbEntity
  8
241
100
AcDbLine
 10
1.0
 20
0.0
 30
0.0
 11
1.0
 21
-22.225
 31
0.0
  0
LINE
  5
E51
330
8E8
100
AcDbEntity
  8
240
  6
CONTINUOUS
100
AcDbLine
 10
1.0
 20
-22.225
 30
0.0
 11
1.0
 21
-30.5
 31
0.0
  0
ARC
  5
E52
330
8E8
100
AcDbEntity
  8
240
  6
CONTINUOUS
100
AcDbCircle
 10
2.0
 20
-30.5
 30
0.0
 40
1.0
100
AcDbArc
 50
180.0
 51
270.0
  0
LINE
  5
E53
330
8E8
100
AcDbEntity
  8
240
100
AcDbLine
 10
0.0
 20
-22.225
 30
0.0
 11
1.0
 21
-22.225
 31
0.0
  0
LINE
  5
E54
330
8E8
100
AcDbEntity
  8
240
  6
CONTINUOUS
100
AcDbLine
 10
0.0
 20
22.225
 30
0.0
 11
-64.03089103
 21
12.88716173
 31
0.0
  0
ARC
  5
E55
330
8E8
100
AcDbEntity
  8
240
  6
CONTINUOUS
100
AcDbCircle
 10
-63.8
 20
11.30390896
 30
0.0
 40
1.6
100
AcDbArc
 50
98.29714497
 51
180.0
  0
LINE
  5
E56
330
8E8
100
AcDbEntity
  8
240
  6
CONTINUOUS
100
AcDbLine
 10
1.0
 20
22.225
 30
0.0
 11
1.0
 21
30.5
 31
0.0
  0
LINE
  5
E57
330
8E8
100
AcDbEntity
  8
240
100
AcDbLine
 10
0.0
 20
22.225
 30
0.0
 11
1.0
 21
22.225
 31
0.0
  0
ARC
  5
E58
330
8E8
100
AcDbEntity
  8
240
  6
CONTINUOUS
100
AcDbCircle
 10
2.0
 20
30.5
 30
0.0
 40
1.0
100
AcDbArc
 50
90.0
 51
180.0
  0
LINE
  5
E59
330
8E8
100
AcDbEntity
  8
241
  6
CONTINUOUS
100
AcDbLine
 10
27.0
 20
29.43735495
 30
0.0
 11
27.0
 21
0.0
 31
0.0
  0
LINE
  5
E5A
330
8E8
100
AcDbEntity
  8
241
  6
CONTINUOUS
100
AcDbLine
 10
14.48675135
 20
26.5
 30
0.0
 11
14.48675135
 21
0.0
 31
0.0
  0
LINE
  5
E5B
330
8E8
100
AcDbEntity
  8
241
  6
CONTINUOUS
100
AcDbLine
 10
18.71324865
 20
26.5
 30
0.0
 11
18.71324865
 21
0.0
 31
0.0
  0
LINE
  5
E5C
330
8E8
100
AcDbEntity
  8
241
  6
CONTINUOUS
100
AcDbLine
 10
11.6
 20
31.5
 30
0.0
 11
11.6
 21
0.0
 31
0.0
  0
LINE
  5
E5D
330
8E8
100
AcDbEntity
  8
241
  6
CONTINUOUS
100
AcDbLine
 10
21.6
 20
0.0
 30
0.0
 11
21.6
 21
31.5
 31
0.0
  0
LINE
  5
E5E
330
8E8
100
AcDbEntity
  8
245
  6
CENTER2
100
AcDbLine
 10
16.6
 20
-31.5
 30
0.0
 11
16.6
 21
31.5
 31
0.0
  0
LINE
  5
E5F
330
8E8
100
AcDbEntity
  8
241
  6
CONTINUOUS
100
AcDbLine
 10
27.0
 20
-29.43735495
 30
0.0
 11
27.0
 21
0.0
 31
0.0
  0
LINE
  5
E60
330
8E8
100
AcDbEntity
  8
241
  6
CONTINUOUS
100
AcDbLine
 10
11.6
 20
-31.5
 30
0.0
 11
11.6
 21
0.0
 31
0.0
  0
LINE
  5
E61
330
8E8
100
AcDbEntity
  8
241
  6
CONTINUOUS
100
AcDbLine
 10
21.6
 20
0.0
 30
0.0
 11
21.6
 21
-31.5
 31
0.0
  0
LINE
  5
E62
330
8E8
100
AcDbEntity
  8
241
  6
CONTINUOUS
100
AcDbLine
 10
18.71324865
 20
-26.5
 30
0.0
 11
18.71324865
 21
0.0
 31
0.0
  0
LINE
  5
E63
330
8E8
100
AcDbEntity
  8
241
  6
CONTINUOUS
100
AcDbLine
 10
14.48675135
 20
-26.5
 30
0.0
 11
14.48675135
 21
0.0
 31
0.0
  0
LINE
  5
E64
330
8E8
100
AcDbEntity
  8
240
  6
CONTINUOUS
100
AcDbLine
 10
21.6
 20
-31.5
 30
0.0
 11
26.0
 21
-31.5
 31
0.0
  0
LINE
  5
E65
330
8E8
100
AcDbEntity
  8
240
  6
CONTINUOUS
100
AcDbLine
 10
14.48675135
 20
-26.5
 30
0.0
 11
11.6
 21
-31.5
 31
0.0
  0
LINE
  5
E66
330
8E8
100
AcDbEntity
  8
240
  6
CONTINUOUS
100
AcDbLine
 10
18.71324865
 20
-26.5
 30
0.0
 11
14.48675135
 21
-26.5
 31
0.0
  0
LINE
  5
E67
330
8E8
100
AcDbEntity
  8
240
  6
CONTINUOUS
100
AcDbLine
 10
18.71324865
 20
-26.5
 30
0.0
 11
21.6
 21
-31.5
 31
0.0
  0
ARC
  5
E68
330
8E8
100
AcDbEntity
  8
240
  6
CONTINUOUS
100
AcDbCircle
 10
31.0
 20
-29.43735495
 30
0.0
 40
4.0
100
AcDbArc
 50
95.13431975
 51
180.0
  0
LINE
  5
E69
330
8E8
100
AcDbEntity
  8
241
  6
HIDDEN2
100
AcDbLine
 10
23.0
 20
-22.5
 30
0.0
 11
23.0
 21
-31.5
 31
0.0
  0
LINE
  5
E6A
330
8E8
100
AcDbEntity
  8
240
  6
CONTINUOUS
100
AcDbLine
 10
27.0
 20
-30.5
 30
0.0
 11
27.0
 21
-29.43735495
 31
0.0
  0
ARC
  5
E6B
330
8E8
100
AcDbEntity
  8
240
  6
CONTINUOUS
100
AcDbCircle
 10
26.0
 20
-30.5
 30
0.0
 40
1.0
100
AcDbArc
 50
270.0
 51
0.0
  0
LINE
  5
E6C
330
8E8
100
AcDbEntity
  8
241
  6
HIDDEN2
100
AcDbLine
 10
131.06200582
 20
3.20000082
 30
0.0
 11
162.80012912
 21
3.20000082
 31
0.0
1001
GRPNAME
1000
PASTMD0T
  0
LINE
  5
E6D
330
8E8
100
AcDbEntity
  8
242
  6
HIDDEN2
100
AcDbLine
 10
144.80012912
 20
3.50000388
 30
0.0
 11
162.80012912
 21
3.50000388
 31
0.0
1001
GRPNAME
1000
PASTMD0T
  0
LINE
  5
E6E
330
8E8
100
AcDbEntity
  8
242
  6
HIDDEN2
100
AcDbLine
 10
144.80012912
 20
0.0
 30
0.0
 11
144.80012912
 21
3.50000388
 31
0.0
1001
GRPNAME
1000
PASTMD0T
  0
LINE
  5
E6F
330
8E8
100
AcDbEntity
  8
241
  6
HIDDEN2
100
AcDbLine
 10
162.80012912
 20
0.0
 30
0.0
 11
162.80012912
 21
4.79990013
 31
0.0
1001
GRPNAME
1000
PASTMD0T
  0
LINE
  5
E70
330
8E8
100
AcDbEntity
  8
240
  6
CONTINUOUS
100
AcDbLine
 10
21.6
 20
31.5
 30
0.0
 11
26.0
 21
31.5
 31
0.0
  0
LINE
  5
E71
330
8E8
100
AcDbEntity
  8
240
  6
CONTINUOUS
100
AcDbLine
 10
11.6
 20
31.5
 30
0.0
 11
14.48675135
 21
26.5
 31
0.0
  0
LINE
  5
E72
330
8E8
100
AcDbEntity
  8
240
  6
CONTINUOUS
100
AcDbLine
 10
21.6
 20
31.5
 30
0.0
 11
18.71324865
 21
26.5
 31
0.0
  0
LINE
  5
E73
330
8E8
100
AcDbEntity
  8
240
  6
CONTINUOUS
100
AcDbLine
 10
18.71324865
 20
26.5
 30
0.0
 11
14.48675135
 21
26.5
 31
0.0
  0
LINE
  5
E74
330
8E8
100
AcDbEntity
  8
241
  6
HIDDEN2
100
AcDbLine
 10
23.0
 20
22.5
 30
0.0
 11
23.0
 21
31.5
 31
0.0
  0
LINE
  5
E75
330
8E8
100
AcDbEntity
  8
240
  6
CONTINUOUS
100
AcDbLine
 10
27.0
 20
30.5
 30
0.0
 11
27.0
 21
29.43735495
 31
0.0
  0
ARC
  5
E76
330
8E8
100
AcDbEntity
  8
240
  6
CONTINUOUS
100
AcDbCircle
 10
31.0
 20
29.43735495
 30
0.0
 40
4.0
100
AcDbArc
 50
180.0
 51
264.86566265
  0
ARC
  5
E77
330
8E8
100
AcDbEntity
  8
240
  6
CONTINUOUS
100
AcDbCircle
 10
26.0
 20
30.5
 30
0.0
 40
1.0
100
AcDbArc
 50
0.0
 51
90.0
  0
LINE
  5
E78
330
8E8
100
AcDbEntity
  8
240
  6
CONTINUOUS
100
AcDbLine
 10
179.50012608
 20
9.19980013
 30
0.0
 11
179.50012608
 21
12.15
 31
0.0
1001
GRPNAME
1000
PASTMD13
  0
LINE
  5
E79
330
8E8
100
AcDbEntity
  8
240
  6
CONTINUOUS
100
AcDbLine
 10
178.70012608
 20
9.19980013
 30
0.0
 11
178.70012608
 21
12.04183441
 31
0.0
1001
GRPNAME
1000
PASTMD03
  0
LINE
  5
E7A
330
8E8
100
AcDbEntity
  8
240
  6
CONTINUOUS
100
AcDbLine
 10
200.0
 20
11.8
 30
0.0
 11
200.0
 21
0.0
 31
0.0
1001
GRPNAME
1000
PASTMD13
  0
LINE
  5
E7B
330
8E8
100
AcDbEntity
  8
241
  6
CONTINUOUS
100
AcDbLine
 10
181.50012608
 20
12.65
 30
0.0
 11
181.50012608
 21
0.0
 31
0.0
1001
GRPNAME
1000
PASTMD13
  0
LINE
  5
E7C
330
8E8
100
AcDbEntity
  8
241
  6
CONTINUOUS
100
AcDbLine
 10
182.70012608
 20
12.5
 30
0.0
 11
182.70012608
 21
0.0
 31
0.0
1001
GRPNAME
1000
PASTMD13
  0
LINE
  5
E7D
330
8E8
100
AcDbEntity
  8
241
  6
HIDDEN2
100
AcDbLine
 10
183.20012608
 20
9.19980013
 30
0.0
 11
179.50012608
 21
9.19980013
 31
0.0
1001
GRPNAME
1000
PASTMD0T
  0
LINE
  5
E7E
330
8E8
100
AcDbEntity
  8
241
  6
HIDDEN2
100
AcDbLine
 10
178.06992797
 20
4.49990013
 30
0.0
 11
194.50012608
 21
5.6488115
 31
0.0
1001
GRPNAME
1000
PASTMD7C
  0
LINE
  5
E7F
330
8E8
100
AcDbEntity
  8
240
  6
CONTINUOUS
100
AcDbLine
 10
181.7599337
 20
-12.5
 30
0.0
 11
199.3
 21
-12.5
 31
0.0
1001
GRPNAME
1000
PASTMD13
  0
LINE
  5
E80
330
8E8
100
AcDbEntity
  8
241
  6
HIDDEN2
100
AcDbLine
 10
172.71559917
 20
3.0
 30
0.0
 11
200.0
 21
3.0
 31
0.0
1001
GRPNAME
1000
PASTMD10
  0
LINE
  5
E81
330
8E8
100
AcDbEntity
  8
241
  6
CONTINUOUS
100
AcDbLine
 10
181.50012608
 20
-12.65
 30
0.0
 11
181.50012608
 21
0.0
 31
0.0
1001
GRPNAME
1000
PASTMD13
  0
LINE
  5
E82
330
8E8
100
AcDbEntity
  8
241
  6
CONTINUOUS
100
AcDbLine
 10
182.70012608
 20
-12.5
 30
0.0
 11
182.70012608
 21
0.0
 31
0.0
1001
GRPNAME
1000
PASTMD13
  0
LINE
  5
E83
330
8E8
100
AcDbEntity
  8
241
100
AcDbLine
 10
179.50012608
 20
-9.19980013
 30
0.0
 11
179.50012608
 21
0.0
 31
0.0
  0
LINE
  5
E84
330
8E8
100
AcDbEntity
  8
241
100
AcDbLine
 10
178.70012608
 20
-9.19980013
 30
0.0
 11
178.70012608
 21
0.0
 31
0.0
  0
LINE
  5
E85
330
8E8
100
AcDbEntity
  8
240
  6
CONTINUOUS
100
AcDbLine
 10
178.70012608
 20
-9.19980013
 30
0.0
 11
178.70012608
 21
-12.04183441
 31
0.0
1001
GRPNAME
1000
PASTMD03
  0
LINE
  5
E86
330
8E8
100
AcDbEntity
  8
240
  6
CONTINUOUS
100
AcDbLine
 10
179.50012608
 20
-9.19980013
 30
0.0
 11
179.50012608
 21
-12.15
 31
0.0
1001
GRPNAME
1000
PASTMD13
  0
LINE
  5
E87
330
8E8
100
AcDbEntity
  8
240
100
AcDbLine
 10
181.7599337
 20
-12.5
 30
0.0
 11
181.50012608
 21
-12.65
 31
0.0
  0
ARC
  5
E88
330
8E8
100
AcDbEntity
  8
240
  6
CONTINUOUS
100
AcDbCircle
 10
178.20012608
 20
-12.04183441
 30
0.0
 40
0.4999999999999768
100
AcDbArc
 50
275.0
 51
0.0
  0
ARC
  5
E89
330
8E8
100
AcDbEntity
  8
240
  6
CONTINUOUS
100
AcDbCircle
 10
180.00012608
 20
-12.15
 30
0.0
 40
0.5
100
AcDbArc
 50
180.00000009
 51
270.00000009
1001
GRPNAME
1000
PASTMD13
  0
LINE
  5
E8A
330
8E8
100
AcDbEntity
  8
240
  6
CONTINUOUS
100
AcDbLine
 10
180.00012608
 20
-12.65
 30
0.0
 11
181.50012608
 21
-12.65
 31
0.0
1001
GRPNAME
1000
PASTMD13
  0
LINE
  5
E8B
330
8E8
100
AcDbEntity
  8
240
  6
CONTINUOUS
100
AcDbLine
 10
179.50012608
 20
-9.19980013
 30
0.0
 11
178.70012608
 21
-9.19980013
 31
0.0
1001
GRPNAME
1000
PASTMD03
  0
LINE
  5
E8C
330
8E8
100
AcDbEntity
  8
241
  6
HIDDEN2
100
AcDbLine
 10
165.10012912
 20
4.49990013
 30
0.0
 11
178.06992797
 21
4.49990013
 31
0.0
1001
GRPNAME
1000
PASTMD7C
  0
LINE
  5
E8D
330
8E8
100
AcDbEntity
  8
241
  6
HIDDEN2
100
AcDbLine
 10
172.71559917
 20
0.0
 30
0.0
 11
172.71559917
 21
3.2
 31
0.0
1001
GRPNAME
1000
PASTMD10
  0
LINE
  5
E8E
330
8E8
100
AcDbEntity
  8
241
  6
HIDDEN2
100
AcDbLine
 10
165.10012912
 20
0.0
 30
0.0
 11
165.10012912
 21
4.49990013
 31
0.0
1001
GRPNAME
1000
PASTMD7C
  0
LINE
  5
E8F
330
8E8
100
AcDbEntity
  8
241
  6
HIDDEN2
100
AcDbLine
 10
172.71559917
 20
3.2
 30
0.0
 11
165.10012912
 21
3.2
 31
0.0
1001
GRPNAME
1000
PASTMD10
  0
LINE
  5
E90
330
8E8
100
AcDbEntity
  8
241
  6
HIDDEN2
100
AcDbLine
 10
166.50012912
 20
4.49990013
 30
0.0
 11
166.50012912
 21
4.79990013
 31
0.0
1001
GRPNAME
1000
PASTMD03
  0
LINE
  5
E91
330
8E8
100
AcDbEntity
  8
241
100
AcDbLine
 10
179.50012608
 20
9.19980013
 30
0.0
 11
179.50012608
 21
0.0
 31
0.0
  0
LINE
  5
E92
330
8E8
100
AcDbEntity
  8
241
100
AcDbLine
 10
178.70012608
 20
9.19980013
 30
0.0
 11
178.70012608
 21
0.0
 31
0.0
  0
LINE
  5
E93
330
8E8
100
AcDbEntity
  8
240
  6
CONTINUOUS
100
AcDbLine
 10
179.50012608
 20
9.19980013
 30
0.0
 11
178.70012608
 21
9.19980013
 31
0.0
1001
GRPNAME
1000
PASTMD03
  0
LINE
  5
E94
330
8E8
100
AcDbEntity
  8
240
  6
CONTINUOUS
100
AcDbLine
 10
200.0
 20
-11.8
 30
0.0
 11
200.0
 21
0.0
 31
0.0
1001
GRPNAME
1000
PASTMD13
  0
ARC
  5
E95
330
8E8
100
AcDbEntity
  8
240
  6
CONTINUOUS
100
AcDbCircle
 10
199.3
 20
-11.8
 30
0.0
 40
0.7
100
AcDbArc
 50
270.0
 51
0.0
1001
GRPNAME
1000
PASTMD13
  0
LINE
  5
E96
330
8E8
100
AcDbEntity
  8
241
  6
HIDDEN2
100
AcDbLine
 10
193.10012608
 20
8.99980013
 30
0.0
 11
193.80012608
 21
8.29980013
 31
0.0
1001
GRPNAME
1000
PASTMD03
  0
LINE
  5
E97
330
8E8
100
AcDbEntity
  8
242
  6
HIDDEN2
100
AcDbLine
 10
193.60012608
 20
8.49980013
 30
0.0
 11
186.05012608
 21
8.49980013
 31
0.0
1001
GRPNAME
1000
PASTMD0T
  0
LINE
  5
E98
330
8E8
100
AcDbEntity
  8
241
  6
HIDDEN2
100
AcDbLine
 10
193.10012608
 20
8.99980013
 30
0.0
 11
185.55012608
 21
8.99980013
 31
0.0
1001
GRPNAME
1000
PASTMD0T
  0
LINE
  5
E99
330
8E8
100
AcDbEntity
  8
241
  6
HIDDEN2
100
AcDbLine
 10
185.55012608
 20
8.99980013
 30
0.0
 11
185.30012608
 21
9.24980013
 31
0.0
1001
GRPNAME
1000
PASTMD0T
  0
LINE
  5
E9A
330
8E8
100
AcDbEntity
  8
241
  6
HIDDEN2
100
AcDbLine
 10
184.30012608
 20
8.21947759
 30
0.0
 11
184.30012608
 21
9.24980013
 31
0.0
1001
GRPNAME
1000
PASTMD0T
  0
LINE
  5
E9B
330
8E8
100
AcDbEntity
  8
241
  6
HIDDEN2
100
AcDbLine
 10
183.20012608
 20
8.21947759
 30
0.0
 11
183.20012608
 21
9.19980013
 31
0.0
1001
GRPNAME
1000
PASTMD0T
  0
LINE
  5
E9C
330
8E8
100
AcDbEntity
  8
241
100
AcDbLine
 10
183.20012608
 20
8.21947759
 30
0.0
 11
184.30012608
 21
8.21947759
 31
0.0
  0
LINE
  5
E9D
330
8E8
100
AcDbEntity
  8
241
  6
HIDDEN2
100
AcDbLine
 10
185.30012608
 20
9.24980013
 30
0.0
 11
184.30012608
 21
9.24980013
 31
0.0
1001
GRPNAME
1000
PASTMD0T
  0
LINE
  5
E9E
330
8E8
100
AcDbEntity
  8
242
  6
HIDDEN2
100
AcDbLine
 10
186.05012608
 20
8.49980013
 30
0.0
 11
185.55012608
 21
8.99980013
 31
0.0
1001
GRPNAME
1000
PASTMD0T
  0
LINE
  5
E9F
330
8E8
100
AcDbEntity
  8
241
  6
HIDDEN2
100
AcDbLine
 10
197.88465603
 20
4.8
 30
0.0
 11
200.0
 21
4.03007776
 31
0.0
1001
GRPNAME
1000
PASTMD0Z
  0
LINE
  5
EA0
330
8E8
100
AcDbEntity
  8
241
  6
HIDDEN2
100
AcDbLine
 10
197.08465603
 20
4.8
 30
0.0
 11
197.88465603
 21
4.8
 31
0.0
1001
GRPNAME
1000
PASTMD7C
  0
LINE
  5
EA1
330
8E8
100
AcDbEntity
  8
241
  6
HIDDEN2
100
AcDbLine
 10
196.63465603
 20
4.35
 30
0.0
 11
197.08465603
 21
4.8
 31
0.0
1001
GRPNAME
1000
PASTMD7C
  0
LINE
  5
EA2
330
8E8
100
AcDbEntity
  8
241
  6
HIDDEN2
100
AcDbLine
 10
195.24999525
 20
4.35
 30
0.0
 11
194.50012608
 21
5.6488115
 31
0.0
1001
GRPNAME
1000
PASTMD7C
  0
LINE
  5
EA3
330
8E8
100
AcDbEntity
  8
241
  6
HIDDEN2
100
AcDbLine
 10
193.80012608
 20
8.29980013
 30
0.0
 11
193.80012608
 21
5.59986273
 31
0.0
1001
GRPNAME
1000
PASTMD0T
  0
LINE
  5
EA4
330
8E8
100
AcDbEntity
  8
241
  6
HIDDEN2
100
AcDbLine
 10
195.24999525
 20
4.35
 30
0.0
 11
196.63465603
 21
4.35
 31
0.0
1001
GRPNAME
1000
PASTMD7C
  0
LINE
  5
EA5
330
8E8
100
AcDbEntity
  8
240
  6
CONTINUOUS
100
AcDbLine
 10
181.7599337
 20
12.5
 30
0.0
 11
199.3
 21
12.5
 31
0.0
1001
GRPNAME
1000
PASTMD7F
  0
LINE
  5
EA6
330
8E8
100
AcDbEntity
  8
240
100
AcDbLine
 10
181.7599337
 20
12.5
 30
0.0
 11
181.50012608
 21
12.65
 31
0.0
  0
ARC
  5
EA7
330
8E8
100
AcDbEntity
  8
240
  6
CONTINUOUS
100
AcDbCircle
 10
178.20012608
 20
12.04183441
 30
0.0
 40
0.5
100
AcDbArc
 50
0.0
 51
85.0
  0
ARC
  5
EA8
330
8E8
100
AcDbEntity
  8
240
  6
CONTINUOUS
100
AcDbCircle
 10
180.00012608
 20
12.15
 30
0.0
 40
0.5
100
AcDbArc
 50
89.99999999
 51
180.0
1001
GRPNAME
1000
PASTMD13
  0
LINE
  5
EA9
330
8E8
100
AcDbEntity
  8
240
  6
CONTINUOUS
100
AcDbLine
 10
180.00012608
 20
12.65
 30
0.0
 11
181.50012608
 21
12.65
 31
0.0
1001
GRPNAME
1000
PASTMD7G
  0
ARC
  5
EAA
330
8E8
100
AcDbEntity
  8
240
  6
CONTINUOUS
100
AcDbCircle
 10
199.3
 20
11.8
 30
0.0
 40
0.7
100
AcDbArc
 50
0.0
 51
90.0
1001
GRPNAME
1000
PASTMD7F
  0
ENDBLK
  5
8EA
330
8E8
100
AcDbEntity
  8
0
100
AcDbBlockEnd
  0
BLOCK
  5
9C2
330
9B8
100
AcDbEntity
  8
0
100
AcDbBlockBegin
  2
*D5
 70
     1
 10
0.0
 20
0.0
 30
0.0
  3
*D5
  1

  0
LINE
  5
E27
330
9B8
100
AcDbEntity
  8
250
  6
CONTINUOUS
 62
     3
100
AcDbLine
 10
0.0
 20
22.725
 30
0.0
 11
0.0
 21
43.0
 31
0.0
  0
LINE
  5
E28
330
9B8
100
AcDbEntity
  8
250
  6
CONTINUOUS
 62
     3
100
AcDbLine
 10
200.0
 20
17.305322
 30
0.0
 11
200.0
 21
43.0
 31
0.0
  0
LINE
  5
E29
330
9B8
100
AcDbEntity
  8
250
  6
CONTINUOUS
 62
     3
100
AcDbLine
 10
2.23
 20
42.0
 30
0.0
 11
197.77
 21
42.0
 31
0.0
  0
INSERT
  5
E2A
330
9B8
100
AcDbEntity
  8
250
  6
CONTINUOUS
 62
     3
100
AcDbBlockReference
  2
_OPEN
 10
0.0
 20
42.0
 30
0.0
 41
2.23
 42
2.23
 43
2.23
 50
180.0
  0
INSERT
  5
E2B
330
9B8
100
AcDbEntity
  8
250
  6
CONTINUOUS
 62
     3
100
AcDbBlockReference
  2
_OPEN
 10
200.0
 20
42.0
 30
0.0
 41
2.23
 42
2.23
 43
2.23
  0
MTEXT
  5
E2C
330
9B8
100
AcDbEntity
  8
250
  6
CONTINUOUS
 62
    40
100
AcDbMText
 10
100.0
 20
44.5
 30
0.0
 40
3.0
 41
0.0
 71
     5
 72
     1
  1
\A1;200
1001
ACAD
1000
MTEXTBEGIN
1070
    73
1070
     1
1070
    44
1040
1.0
1070
    74
1070
     0
1000
MTEXTEND
  0
POINT
  5
E2D
330
9B8
100
AcDbEntity
  8
DEFPOINTS
  6
CONTINUOUS
 62
     0
100
AcDbPoint
 10
0.0
 20
22.225
 30
0.0
  0
POINT
  5
E2E
330
9B8
100
AcDbEntity
  8
DEFPOINTS
  6
CONTINUOUS
 62
     0
100
AcDbPoint
 10
200.0
 20
16.805322
 30
0.0
  0
POINT
  5
E2F
330
9B8
100
AcDbEntity
  8
DEFPOINTS
  6
CONTINUOUS
 62
     0
100
AcDbPoint
 10
200.0
 20
42.0
 30
0.0
  0
ENDBLK
  5
9C3
330
9B8
100
AcDbEntity
  8
0
100
AcDbBlockEnd
  0
BLOCK
  5
DD4
330
DCA
100
AcDbEntity
  8
0
100
AcDbBlockBegin
  2
*D12
 70
     1
 10
0.0
 20
0.0
 30
0.0
  3
*D12
  1

  0
LINE
  5
DE0
330
DCA
100
AcDbEntity
  8
250
  6
CONTINUOUS
 62
     3
100
AcDbLine
 10
199.8
 20
-12.5
 30
0.0
 11
217.0
 21
-12.5
 31
0.0
  0
LINE
  5
DE1
330
DCA
100
AcDbEntity
  8
250
  6
CONTINUOUS
 62
     3
100
AcDbLine
 10
199.8
 20
12.5
 30
0.0
 11
217.0
 21
12.5
 31
0.0
  0
LINE
  5
DE2
330
DCA
100
AcDbEntity
  8
250
  6
CONTINUOUS
 62
     3
100
AcDbLine
 10
216.0
 20
-10.27
 30
0.0
 11
216.0
 21
10.27
 31
0.0
  0
INSERT
  5
DE3
330
DCA
100
AcDbEntity
  8
250
  6
CONTINUOUS
 62
     3
100
AcDbBlockReference
  2
_OPEN
 10
216.0
 20
-12.5
 30
0.0
 41
2.23
 42
2.23
 43
2.23
 50
270.0
  0
INSERT
  5
DE4
330
DCA
100
AcDbEntity
  8
250
  6
CONTINUOUS
 62
     3
100
AcDbBlockReference
  2
_OPEN
 10
216.0
 20
12.5
 30
0.0
 41
2.23
 42
2.23
 43
2.23
 50
90.0
  0
MTEXT
  5
DE5
330
DCA
100
AcDbEntity
  8
250
  6
CONTINUOUS
 62
    40
100
AcDbMText
 10
213.5
 20
0.0
 30
0.0
 40
3.0
 41
0.0
 71
     5
 72
     1
  1
\A1;{\H3;\U+2205}25
 11
0.0
 21
1.0
 31
0.0
1001
ACAD
1000
MTEXTBEGIN
1070
    73
1070
     1
1070
    44
1040
1.0
1070
    74
1070
     0
1000
MTEXTEND
  0
POINT
  5
DE6
330
DCA
100
AcDbEntity
  8
DEFPOINTS
  6
CONTINUOUS
 62
     0
100
AcDbPoint
 10
199.3
 20
-12.5
 30
0.0
  0
POINT
  5
DE7
330
DCA
100
AcDbEntity
  8
DEFPOINTS
  6
CONTINUOUS
 62
     0
100
AcDbPoint
 10
199.3
 20
12.5
 30
0.0
  0
POINT
  5
DE8
330
DCA
100
AcDbEntity
  8
DEFPOINTS
  6
CONTINUOUS
 62
     0
100
AcDbPoint
 10
216.0
 20
12.5
 30
0.0
  0
ENDBLK
  5
DD5
330
DCA
100
AcDbEntity
  8
0
100
AcDbBlockEnd
  0
BLOCK
  5
DDE
330
DD6
100
AcDbEntity
  8
0
100
AcDbBlockBegin
  2
*D13
 70
     1
 10
0.0
 20
0.0
 30
0.0
  3
*D13
  1

  0
LINE
  5
DE9
330
DD6
100
AcDbEntity
  8
250
  6
CONTINUOUS
 62
     3
100
AcDbLine
 10
200.5
 20
3.0
 30
0.0
 11
209.8861836
 21
3.0
 31
0.0
  0
LINE
  5
DEA
330
DD6
100
AcDbEntity
  8
250
  6
CONTINUOUS
 62
     3
100
AcDbLine
 10
208.8861836
 20
-3.0
 30
0.0
 11
208.8861836
 21
0.77
 31
0.0
  0
INSERT
  5
DEB
330
DD6
100
AcDbEntity
  8
250
  6
CONTINUOUS
 62
     3
100
AcDbBlockReference
  2
_OPEN
 10
208.8861836
 20
3.0
 30
0.0
 41
2.23
 42
2.23
 43
2.23
 50
90.0
  0
MTEXT
  5
DEC
330
DD6
100
AcDbEntity
  8
250
  6
CONTINUOUS
 62
    40
100
AcDbMText
 10
206.3861836
 20
-1.115
 30
0.0
 40
3.0
 41
0.0
 71
     5
 72
     1
  1
\A1;max.φ6
 11
0.0
 21
1.0
 31
0.0
1001
ACAD
1000
MTEXTBEGIN
1070
    73
1070
     1
1070
    44
1040
1.0
1070
    74
1070
     0
1000
MTEXTEND
  0
POINT
  5
DED
330
DD6
100
AcDbEntity
  8
DEFPOINTS
  6
CONTINUOUS
 62
     0
100
AcDbPoint
 10
199.8
 20
-3.0
 30
0.0
  0
POINT
  5
DEE
330
DD6
100
AcDbEntity
  8
DEFPOINTS
  6
CONTINUOUS
 62
     0
100
AcDbPoint
 10
200.0
 20
3.0
 30
0.0
  0
POINT
  5
DEF
330
DD6
100
AcDbEntity
  8
DEFPOINTS
  6
CONTINUOUS
 62
     0
100
AcDbPoint
 10
208.8861836
 20
3.0
 30
0.0
  0
ENDBLK
  5
DDF
330
DD6
100
AcDbEntity
  8
0
100
AcDbBlockEnd
  0
BLOCK
  5
E3D
330
E33
100
AcDbEntity
  8
0
100
AcDbBlockBegin
  2
*D16
 70
     1
 10
0.0
 20
0.0
 30
0.0
  3
*D16
  1

  0
LINE
  5
E34
330
E33
100
AcDbEntity
  8
250
  6
CONTINUOUS
 62
     3
100
AcDbLine
 10
27.0
 20
31.0
 30
0.0
 11
27.0
 21
36.0
 31
0.0
  0
LINE
  5
E35
330
E33
100
AcDbEntity
  8
250
  6
CONTINUOUS
 62
     3
100
AcDbLine
 10
200.0
 20
12.3
 30
0.0
 11
200.0
 21
36.0
 31
0.0
  0
LINE
  5
E36
330
E33
100
AcDbEntity
  8
250
  6
CONTINUOUS
 62
     3
100
AcDbLine
 10
29.23
 20
35.0
 30
0.0
 11
197.77
 21
35.0
 31
0.0
  0
INSERT
  5
E37
330
E33
100
AcDbEntity
  8
250
  6
CONTINUOUS
 62
     3
100
AcDbBlockReference
  2
_OPEN
 10
27.0
 20
35.0
 30
0.0
 41
2.23
 42
2.23
 43
2.23
 50
180.0
  0
INSERT
  5
E38
330
E33
100
AcDbEntity
  8
250
  6
CONTINUOUS
 62
     3
100
AcDbBlockReference
  2
_OPEN
 10
200.0
 20
35.0
 30
0.0
 41
2.23
 42
2.23
 43
2.23
  0
MTEXT
  5
E39
330
E33
100
AcDbEntity
  8
250
  6
CONTINUOUS
 62
    40
100
AcDbMText
 10
113.5
 20
37.5
 30
0.0
 40
3.0
 41
0.0
 71
     5
 72
     1
  1
\A1;173
1001
ACAD
1000
MTEXTBEGIN
1070
    73
1070
     1
1070
    44
1040
1.0
1070
    74
1070
     0
1000
MTEXTEND
  0
POINT
  5
E3A
330
E33
100
AcDbEntity
  8
DEFPOINTS
  6
CONTINUOUS
 62
     0
100
AcDbPoint
 10
27.0
 20
30.5
 30
0.0
  0
POINT
  5
E3B
330
E33
100
AcDbEntity
  8
DEFPOINTS
  6
CONTINUOUS
 62
     0
100
AcDbPoint
 10
200.0
 20
11.8
 30
0.0
  0
POINT
  5
E3C
330
E33
100
AcDbEntity
  8
DEFPOINTS
  6
CONTINUOUS
 62
     0
100
AcDbPoint
 10
200.0
 20
35.0
 30
0.0
  0
ENDBLK
  5
E3E
330
E33
100
AcDbEntity
  8
0
100
AcDbBlockEnd
  0
ENDSEC
  0
SECTION
  2
ENTITIES
  0
INSERT
  5
6E6
330
1A
100
AcDbEntity
  8
245
100
AcDbBlockReference
  2
矢印なし
 10
175.62382697
 20
90.55123572
 30
0.0
  0
TEXT
  5
7A8
330
1A
100
AcDbEntity
  8
241
100
AcDbText
 10
-65.4
 20
63.0
 30
0.0
 40
5.0
  1
BBT40-MEGA6E-200
  7
YOKO
 11
-65.4
 21
63.0
 31
0.0
100
AcDbText
 73
     1
  0
DIMENSION
  5
8B8
330
1A
100
AcDbEntity
  8
250
  6
CONTINUOUS
100
AcDbDimension
  2
*D3
 10
200.0
 20
49.0
 30
0.0
 11
86.62793154
 21
49.0
 31
0.0
 70
   160
  1
（max.<>）
  3
BIGT$0
100
AcDbAlignedDimension
 13
-35.0
 23
3.20000082
 33
0.0
 14
200.0
 24
11.8
 34
0.0
100
AcDbRotatedDimension
  0
DIMENSION
  5
9B7
330
1A
100
AcDbEntity
  8
250
  6
CONTINUOUS
100
AcDbDimension
  2
*D5
 10
200.0
 20
42.0
 30
0.0
 11
100.0
 21
44.5
 31
0.0
 70
    32
  3
BIGT$0
100
AcDbAlignedDimension
 13
0.0
 23
22.225
 33
0.0
 14
200.0
 24
16.805322
 34
0.0
100
AcDbRotatedDimension
  0
LEADER
  5
D17
330
1A
100
AcDbEntity
  8
250
  6
CONTINUOUS
100
AcDbLeader
  3
BIGT
 76
     2
 10
-26.64442081
 20
-18.3393553
 30
0.0
 10
-32.4583971
 20
-28.40945762
 30
0.0
1001
ACAD
1000
DSTYLE
1002
{
1070
     6
1000
OPEN
1070
   343
1005
594
1002
}
  0
MTEXT
  5
D18
330
1A
100
AcDbEntity
  8
250
  6
CONTINUOUS
 62
    40
100
AcDbMText
 10
-47.39173044
 20
-27.40945762
 30
0.0
 40
2.8
 41
0.0
 71
     7
 72
     1
  1
BBT40
  7
YOKO
1001
ITEMNAME
1000
LNSP3
1001
ACAD
1000
MTEXTBEGIN
1070
    73
1070
     1
1070
    44
1040
1.0
1070
    74
1070
     0
1000
MTEXTEND
1000
MTEXTBEGIN
1070
    73
1070
     1
1070
    44
1040
1.0
1070
    74
1070
     0
1000
MTEXTEND
  0
LINE
  5
D1B
330
1A
100
AcDbEntity
  8
250
  6
CONTINUOUS
100
AcDbLine
 10
-32.4583971
 20
-28.40945762
 30
0.0
 11
-50.19173044
 21
-28.40945762
 31
0.0
1001
ITEMNAME
1000
LNSP2
  0
DIMENSION
  5
D98
330
1A
100
AcDbEntity
  8
250
  6
CONTINUOUS
100
AcDbDimension
  2
*D12
 10
216.0
 20
12.5
 30
0.0
 11
216.0
 21
0.0
 31
0.0
 70
   160
  1
{\H3;\U+2205}<>
  3
BIGT$0
100
AcDbAlignedDimension
 13
199.3
 23
-12.5
 33
0.0
 14
199.3
 24
12.5
 34
0.0
 50
90.0
100
AcDbRotatedDimension
  0
DIMENSION
  5
D99
330
1A
100
AcDbEntity
  8
250
  6
CONTINUOUS
100
AcDbDimension
  2
*D13
 10
208.8861836
 20
3.0
 30
0.0
 11
208.8861836
 21
-1.115
 31
0.0
 70
   160
  1
max.φ<>
  3
BIGT$0
100
AcDbAlignedDimension
 13
199.8
 23
-3.0
 33
0.0
 14
200.0
 24
3.0
 34
0.0
 50
90.0
100
AcDbRotatedDimension
1001
ACAD
1000
DSTYLE
1002
{
1070
     5
1000

1070
   173
1070
     1
1070
     7
1000
OPEN
1070
    75
1070
     1
1070
     6
1000
NONE
1002
}
  0
DIMENSION
  5
E32
330
1A
100
AcDbEntity
  8
250
  6
CONTINUOUS
100
AcDbDimension
  2
*D16
 10
200.0
 20
35.0
 30
0.0
 11
113.5
 21
37.5
 31
0.0
 70
    32
  3
BIGT$0
100
AcDbAlignedDimension
 13
27.0
 23
30.5
 33
0.0
 14
200.0
 24
11.8
 34
0.0
100
AcDbRotatedDimension
  0
INSERT
  5
EAB
330
1A
100
AcDbEntity
  8
245
100
AcDbBlockReference
  2
1
 10
0.0
 20
0.0
 30
0.0
  0
VIEWPORT
  5
22
330
17
100
AcDbEntity
 67
     1
  8
0
100
AcDbViewport
 10
261.51769912
 20
148.5
 30
0.0
 40
523.03539823
 41
297.0
 68
     1
 69
     1
1001
ACAD
1000
MVIEW
1002
{
1070
    16
1010
0.0
1020
0.0
1030
0.0
1010
0.0
1020
0.0
1030
1.0
1040
0.0
1040
297.0
1040
261.51769912
1040
148.5
1040
50.0
1040
0.0
1040
0.0
1070
     0
1070
   100
1070
     1
1070
     1
1070
     0
1070
     0
1070
     0
1070
     0
1040
0.0
1040
0.0
1040
0.0
1040
1.0
1040
1.0
1040
10.0
1040
10.0
1070
     0
1002
{
1002
}
1002
}
  0
ENDSEC
  0
SECTION
  2
OBJECTS
  0
DICTIONARY
  5
C
330
0
100
AcDbDictionary
  3
ACAD_GROUP
350
D
  3
ACAD_LAYOUT
350
565
  3
ACAD_MLINESTYLE
350
E
  3
ACAD_PLOTSETTINGS
350
566
  3
ACAD_PLOTSTYLENAME
350
563
  3
ACDBHEADERROUNDTRIPXREC
350
EAD
  3
GRADE_DWG
350
540
  0
DICTIONARY
  5
995
330
1A
100
AcDbDictionary
280
     1
  3
ACAD_LAYOUTSELFREF
360
ECF
  0
DICTIONARY
  5
993
330
17
100
AcDbDictionary
280
     1
  3
ACAD_LAYOUTSELFREF
360
ECE
  0
DICTIONARY
  5
D
102
{ACAD_REACTORS
330
C
102
}
330
C
100
AcDbDictionary
  3
*A1
350
6C7
  3
*A2
350
6C8
  3
*A3
350
6D4
  3
*A4
350
6D5
  3
DREC-1
350
5FC
  3
DREC-2
350
654
  3
DREC-3
350
673
  0
DICTIONARY
  5
565
102
{ACAD_REACTORS
330
C
102
}
330
C
100
AcDbDictionary
  0
DICTIONARY
  5
E
102
{ACAD_REACTORS
330
C
102
}
330
C
100
AcDbDictionary
  3
STANDARD
350
13
  0
DICTIONARY
  5
566
102
{ACAD_REACTORS
330
C
102
}
330
C
100
AcDbDictionary
  3
A3_0_5倍_
350
758
  3
A3_1倍_
350
757
  3
A3_1倍__2000_
350
707
  3
A3_2倍_
350
759
  3
A4_0_5倍_
350
755
  3
A4_1倍_
350
754
  3
A4_1倍__2000_
350
708
  3
A4_2倍_
350
756
  0
ACDBDICTIONARYWDFLT
  5
563
102
{ACAD_REACTORS
330
C
102
}
330
C
100
AcDbDictionary
281
     1
  3
Normal
350
564
100
AcDbDictionaryWithDefault
340
564
  0
DICTIONARY
  5
EAD
102
{ACAD_REACTORS
330
C
102
}
330
C
100
AcDbDictionary
  3
CEPSNTYPE
350
EB7
  3
DIMSTYLEDATA
350
EBB
  3
FINGERPRINTGUID
350
EB8
  3
HYPERLINKBASE
350
EB0
  3
INSUNITS
350
EB6
  3
LAYOUTDICT
350
EB2
  3
LWETCUNION
350
EB5
  3
PLOTSETDICT
350
EB3
  3
PLOTSTYLNAMDICT
350
EB4
  3
PSVPSCALE
350
EBA
  3
PUCSBASE
350
EBE
  3
PUCSORGBACK
350
EC4
  3
PUCSORGBOTTOM
350
EC0
  3
PUCSORGFRONT
350
EC3
  3
PUCSORGLEFT
350
EC1
  3
PUCSORGRIGHT
350
EC2
  3
PUCSORGTOP
350
EBF
  3
PUCSORTHOREF
350
EBC
  3
PUCSORTHOVIEW
350
EBD
  3
STYLESHEET
350
EB1
  3
TSTACKALIGN
350
EAE
  3
TSTACKSIZE
350
EAF
  3
UCSBASE
350
EC7
  3
UCSORGBACK
350
ECD
  3
UCSORGBOTTOM
350
EC9
  3
UCSORGFRONT
350
ECC
  3
UCSORGLEFT
350
ECA
  3
UCSORGRIGHT
350
ECB
  3
UCSORGTOP
350
EC8
  3
UCSORTHOREF
350
EC5
  3
UCSORTHOVIEW
350
EC6
  3
VERSIONGUID
350
EB9
  0
DICTIONARY
  5
540
102
{ACAD_REACTORS
330
C
102
}
330
C
100
AcDbDictionary
  3
VERSION
350
560
  0
XRECORD
  5
ECF
102
{ACAD_REACTORS
330
995
102
}
330
995
100
AcDbXrecord
340
1A
  0
XRECORD
  5
ECE
102
{ACAD_REACTORS
330
993
102
}
330
993
100
AcDbXrecord
340
17
  0
GROUP
  5
6C7
102
{ACAD_REACTORS
330
D
102
}
330
D
100
AcDbGroup
300

 70
     0
 71
     1
1001
GRPNAME
1000
DMA00
  0
GROUP
  5
6C8
102
{ACAD_REACTORS
330
D
102
}
330
D
100
AcDbGroup
300

 70
     0
 71
     1
1001
GRPNAME
1000
DMA00
  0
GROUP
  5
6D4
102
{ACAD_REACTORS
330
D
102
}
330
D
100
AcDbGroup
300

 70
     0
 71
     1
1001
GRPNAME
1000
DMA00
  0
GROUP
  5
6D5
102
{ACAD_REACTORS
330
D
102
}
330
D
100
AcDbGroup
300

 70
     0
 71
     1
1001
GRPNAME
1000
DMA00
  0
GROUP
  5
5FC
102
{ACAD_REACTORS
330
D
102
}
330
D
100
AcDbGroup
300

 70
     0
 71
     1
1001
GRPNAME
1000
DREC-
1001
GPARA
1000
xsiz
1000
44.182
1000
ysiz
1000
40.677
1000
angl
1000
0
1000
ctyp
1000
0
1000
csiz
1000
5
1000
lfnt
1000
cont
1000
hcnt
1000
hoff
1000
vcnt
1000
voff
1000
opnt
1000
4
1000
dxpt
1000
0
1000
dypt
1000
0
  0
GROUP
  5
654
102
{ACAD_REACTORS
330
D
102
}
330
D
100
AcDbGroup
300

 70
     0
 71
     1
1001
GRPNAME
1000
DREC-
1001
GPARA
1000
xsiz
1000
54.592
1000
ysiz
1000
53.036
1000
angl
1000
0
1000
ctyp
1000
0
1000
csiz
1000
5
1000
lfnt
1000
cont
1000
hcnt
1000
hoff
1000
vcnt
1000
voff
1000
opnt
1000
4
1000
dxpt
1000
0
1000
dypt
1000
0
  0
GROUP
  5
673
102
{ACAD_REACTORS
330
D
102
}
330
D
100
AcDbGroup
300

 70
     0
 71
     1
1001
GRPNAME
1000
DREC-
1001
GPARA
1000
xsiz
1000
30.363
1000
ysiz
1000
36.175
1000
angl
1000
0
1000
ctyp
1000
0
1000
csiz
1000
5
1000
lfnt
1000
cont
1000
hcnt
1000
hoff
1000
vcnt
1000
voff
1000
opnt
1000
4
1000
dxpt
1000
0
1000
dypt
1000
0
  0
MLINESTYLE
  5
13
102
{ACAD_REACTORS
330
E
102
}
330
E
100
AcDbMlineStyle
  2
STANDARD
 70
     0
  3

 62
     0
 51
90.0
 52
90.0
 71
     2
 49
0.5
 62
   256
  6
BYLAYER
 49
-0.5
 62
   256
  6
BYLAYER
  0
PLOTSETTINGS
  5
758
102
{ACAD_REACTORS
330
566
102
}
330
566
100
AcDbPlotSettings
  1
A3(0.5倍)
  2
\\AWTECPC05\HP DeskJet 1120C
  4
A3
  6

 40
5.95841646
 41
13.49375153
 42
6.04309082
 43
3.67242432
 44
296.92599487
 45
419.94665527
 46
89.96
 47
127.14
 48
0.0
 49
0.0
140
0.0
141
0.0
142
1.0
143
2.0
 70
  1716
 72
     1
 73
     1
 74
     2
  7
big.ctb
 75
    17
147
0.5
148
0.0
149
0.0
  0
PLOTSETTINGS
  5
757
102
{ACAD_REACTORS
330
566
102
}
330
566
100
AcDbPlotSettings
  1
A3(1倍)
  2
\\AWTECPC05\HP DeskJet 1120C
  4
A3
  6

 40
5.95841646
 41
13.49375153
 42
6.04309082
 43
3.67242432
 44
296.92599487
 45
419.94665527
 46
37.46
 47
52.89
 48
0.0
 49
0.0
140
0.0
141
0.0
142
1.0
143
1.0
 70
  1716
 72
     1
 73
     1
 74
     2
  7
big.ctb
 75
    16
147
1.0
148
0.0
149
0.0
  0
PLOTSETTINGS
  5
707
102
{ACAD_REACTORS
330
566
102
}
330
566
100
AcDbPlotSettings
  1
A3(1倍)(2000)
  2
SII LS-1300 (D-SCAN)
  4
User258
  6

 40
3.17499995
 41
3.17499995
 42
3.17498779
 43
3.17498779
 44
419.98898315
 45
296.98950195
 46
58.32
 47
40.32
 48
0.0
 49
0.0
140
0.0
141
0.0
142
1.0
143
1.0
 70
  1716
 72
     1
 73
     0
 74
     2
  7
big.ctb
 75
    16
147
1.0
148
0.0
149
0.0
  0
PLOTSETTINGS
  5
759
102
{ACAD_REACTORS
330
566
102
}
330
566
100
AcDbPlotSettings
  1
A3(2倍)
  2
\\AWTECPC05\HP DeskJet 1120C
  4
A3
  6

 40
5.95841646
 41
13.49375153
 42
6.04309082
 43
3.67242432
 44
296.92599487
 45
419.94665527
 46
-67.54
 47
-95.61
 48
0.0
 49
0.0
140
0.0
141
0.0
142
1.0
143
0.5
 70
  1716
 72
     1
 73
     1
 74
     2
  7
big.ctb
 75
    27
147
2.0
148
0.0
149
0.0
  0
PLOTSETTINGS
  5
755
102
{ACAD_REACTORS
330
566
102
}
330
566
100
AcDbPlotSettings
  1
A4(0.5倍)
  2
\\AWTECPC05\HP DeskJet 1120C
  4
A4
  6

 40
4.18041658
 41
13.49374962
 42
4.18040466
 43
3.92642212
 44
209.97332764
 45
296.92599487
 46
48.31
 47
65.5
 48
0.0
 49
0.0
140
0.0
141
0.0
142
1.0
143
2.0
 70
  1716
 72
     1
 73
     1
 74
     2
  7
big.ctb
 75
    17
147
0.5
148
0.0
149
0.0
  0
PLOTSETTINGS
  5
754
102
{ACAD_REACTORS
330
566
102
}
330
566
100
AcDbPlotSettings
  1
A4(1倍)
  2
\\AWTECPC05\HP DeskJet 1120C
  4
A4
  6

 40
4.18041658
 41
13.49374962
 42
4.18040466
 43
3.92642212
 44
209.97332764
 45
296.92599487
 46
-4.19
 47
-8.75
 48
0.0
 49
0.0
140
0.0
141
0.0
142
1.0
143
1.0
 70
  1716
 72
     1
 73
     1
 74
     2
  7
big.ctb
 75
    16
147
1.0
148
0.0
149
0.0
  0
PLOTSETTINGS
  5
708
102
{ACAD_REACTORS
330
566
102
}
330
566
100
AcDbPlotSettings
  1
A4(1倍)(2000)
  2
SII LS-1300 (D-SCAN)
  4
User259
  6

 40
3.17499995
 41
3.17499995
 42
3.17498779
 43
3.17500305
 44
296.98950195
 45
209.99449158
 46
-3.18
 47
-3.18
 48
0.0
 49
0.0
140
0.0
141
0.0
142
1.0
143
1.0
 70
  1716
 72
     1
 73
     0
 74
     2
  7
big.ctb
 75
    16
147
1.0
148
0.0
149
0.0
  0
PLOTSETTINGS
  5
756
102
{ACAD_REACTORS
330
566
102
}
330
566
100
AcDbPlotSettings
  1
A4(2倍)
  2
\\AWTECPC05\HP DeskJet 1120C
  4
A4
  6

 40
4.18041658
 41
13.49374962
 42
4.18040466
 43
3.92642212
 44
209.97332764
 45
296.92599487
 46
-109.19
 47
-157.25
 48
0.0
 49
0.0
140
0.0
141
0.0
142
1.0
143
0.5
 70
  1716
 72
     1
 73
     1
 74
     2
  7
big.ctb
 75
    27
147
2.0
148
0.0
149
0.0
  0
ACDBPLACEHOLDER
  5
564
102
{ACAD_REACTORS
330
563
102
}
330
563
100
AcDbPlaceHolder
280
     0
  0
XRECORD
  5
EB7
102
{ACAD_REACTORS
330
EAD
102
}
330
EAD
100
AcDbXrecord
 90
        0
  0
XRECORD
  5
EBB
102
{ACAD_REACTORS
330
EAD
102
}
330
EAD
100
AcDbXrecord
1000
DSTYLE
1002
{
1070
   341
340
594
1070
   343
340
594
1070
   344
340
594
1002
}
  0
XRECORD
  5
EB8
102
{ACAD_REACTORS
330
EAD
102
}
330
EAD
100
AcDbXrecord
  1
{51294030-9CB4-11D3-8E18-00A0C925D94D}
  0
XRECORD
  5
EB0
102
{ACAD_REACTORS
330
EAD
102
}
330
EAD
100
AcDbXrecord
  1

  0
XRECORD
  5
EB6
102
{ACAD_REACTORS
330
EAD
102
}
330
EAD
100
AcDbXrecord
 90
        0
  0
XRECORD
  5
EB2
102
{ACAD_REACTORS
330
EAD
102
}
330
EAD
100
AcDbXrecord
340
565
  0
XRECORD
  5
EB5
102
{ACAD_REACTORS
330
EAD
102
}
330
EAD
100
AcDbXrecord
 90
    10781
  0
XRECORD
  5
EB3
102
{ACAD_REACTORS
330
EAD
102
}
330
EAD
100
AcDbXrecord
340
566
  0
XRECORD
  5
EB4
102
{ACAD_REACTORS
330
EAD
102
}
330
EAD
100
AcDbXrecord
340
563
  0
XRECORD
  5
EBA
102
{ACAD_REACTORS
330
EAD
102
}
330
EAD
100
AcDbXrecord
 40
0.0
  0
XRECORD
  5
EBE
102
{ACAD_REACTORS
330
EAD
102
}
330
EAD
100
AcDbXrecord
340
0
  0
XRECORD
  5
EC4
102
{ACAD_REACTORS
330
EAD
102
}
330
EAD
100
AcDbXrecord
 10
0.0
 20
0.0
 30
0.0
  0
XRECORD
  5
EC0
102
{ACAD_REACTORS
330
EAD
102
}
330
EAD
100
AcDbXrecord
 10
0.0
 20
0.0
 30
0.0
  0
XRECORD
  5
EC3
102
{ACAD_REACTORS
330
EAD
102
}
330
EAD
100
AcDbXrecord
 10
0.0
 20
0.0
 30
0.0
  0
XRECORD
  5
EC1
102
{ACAD_REACTORS
330
EAD
102
}
330
EAD
100
AcDbXrecord
 10
0.0
 20
0.0
 30
0.0
  0
XRECORD
  5
EC2
102
{ACAD_REACTORS
330
EAD
102
}
330
EAD
100
AcDbXrecord
 10
0.0
 20
0.0
 30
0.0
  0
XRECORD
  5
EBF
102
{ACAD_REACTORS
330
EAD
102
}
330
EAD
100
AcDbXrecord
 10
0.0
 20
0.0
 30
0.0
  0
XRECORD
  5
EBC
102
{ACAD_REACTORS
330
EAD
102
}
330
EAD
100
AcDbXrecord
340
0
  0
XRECORD
  5
EBD
102
{ACAD_REACTORS
330
EAD
102
}
330
EAD
100
AcDbXrecord
 70
     0
  0
XRECORD
  5
EB1
102
{ACAD_REACTORS
330
EAD
102
}
330
EAD
100
AcDbXrecord
  1
big.ctb
  0
XRECORD
  5
EAE
102
{ACAD_REACTORS
330
EAD
102
}
330
EAD
100
AcDbXrecord
 90
        1
  0
XRECORD
  5
EAF
102
{ACAD_REACTORS
330
EAD
102
}
330
EAD
100
AcDbXrecord
 90
       70
  0
XRECORD
  5
EC7
102
{ACAD_REACTORS
330
EAD
102
}
330
EAD
100
AcDbXrecord
340
0
  0
XRECORD
  5
ECD
102
{ACAD_REACTORS
330
EAD
102
}
330
EAD
100
AcDbXrecord
 10
0.0
 20
0.0
 30
0.0
  0
XRECORD
  5
EC9
102
{ACAD_REACTORS
330
EAD
102
}
330
EAD
100
AcDbXrecord
 10
0.0
 20
0.0
 30
0.0
  0
XRECORD
  5
ECC
102
{ACAD_REACTORS
330
EAD
102
}
330
EAD
100
AcDbXrecord
 10
0.0
 20
0.0
 30
0.0
  0
XRECORD
  5
ECA
102
{ACAD_REACTORS
330
EAD
102
}
330
EAD
100
AcDbXrecord
 10
0.0
 20
0.0
 30
0.0
  0
XRECORD
  5
ECB
102
{ACAD_REACTORS
330
EAD
102
}
330
EAD
100
AcDbXrecord
 10
0.0
 20
0.0
 30
0.0
  0
XRECORD
  5
EC8
102
{ACAD_REACTORS
330
EAD
102
}
330
EAD
100
AcDbXrecord
 10
0.0
 20
0.0
 30
0.0
  0
XRECORD
  5
EC5
102
{ACAD_REACTORS
330
EAD
102
}
330
EAD
100
AcDbXrecord
340
0
  0
XRECORD
  5
EC6
102
{ACAD_REACTORS
330
EAD
102
}
330
EAD
100
AcDbXrecord
 70
     0
  0
XRECORD
  5
EB9
102
{ACAD_REACTORS
330
EAD
102
}
330
EAD
100
AcDbXrecord
  1
{10A91A1C-B38B-48EB-86DF-376B7B3C6DFB}
  0
XRECORD
  5
560
102
{ACAD_REACTORS
330
540
102
}
330
540
100
AcDbXrecord
  1
2.0.0
  0
ENDSEC
  0
EOF
