  0
SECTION
  2
HEADER
  9
$ACADVER
  1
AC1015
  9
$ACADMAINTVER
 70
    20
  9
$DWGCODEPAGE
  3
ANSI_932
  9
$INSBASE
 10
0.0
 20
0.0
 30
0.0
  9
$EXTMIN
 10
-66.41108924179707
 20
-31.50736943284005
 30
-0.0015258207003583
  9
$EXTMAX
 10
229.0011268655781
 20
68.0059894716901
 30
0.0000000349246037
  9
$LIMMIN
 10
0.0
 20
0.0
  9
$LIMMAX
 10
297.0
 20
210.0
  9
$ORTHOMODE
 70
     0
  9
$REGENMODE
 70
     1
  9
$FILLMODE
 70
     1
  9
$QTEXTMODE
 70
     0
  9
$MIRRTEXT
 70
     1
  9
$LTSCALE
 40
10.0
  9
$ATTMODE
 70
     1
  9
$TEXTSIZE
 40
3.0
  9
$TRACEWID
 40
1.0
  9
$TEXTSTYLE
  7
YOKO
  9
$CLAYER
  8
245
  9
$CELTYPE
  6
BYLAYER
  9
$CECOLOR
 62
   256
  9
$CELTSCALE
 40
1.0
  9
$DISPSILH
 70
     0
  9
$DIMSCALE
 40
1.0
  9
$DIMASZ
 40
2.0
  9
$DIMEXO
 40
0.5
  9
$DIMDLI
 40
2.5
  9
$DIMRND
 40
0.0
  9
$DIMDLE
 40
0.0
  9
$DIMEXE
 40
1.0
  9
$DIMTP
 40
0.0
  9
$DIMTM
 40
0.0
  9
$DIMTXT
 40
2.799999999999999
  9
$DIMCEN
 40
0.0
  9
$DIMTSZ
 40
0.0
  9
$DIMTOL
 70
     0
  9
$DIMLIM
 70
     0
  9
$DIMTIH
 70
     0
  9
$DIMTOH
 70
     0
  9
$DIMSE1
 70
     0
  9
$DIMSE2
 70
     0
  9
$DIMTAD
 70
     3
  9
$DIMZIN
 70
     8
  9
$DIMBLK
  1

  9
$DIMASO
 70
     1
  9
$DIMSHO
 70
     1
  9
$DIMPOST
  1

  9
$DIMAPOST
  1

  9
$DIMALT
 70
     0
  9
$DIMALTD
 70
     2
  9
$DIMALTF
 40
25.4
  9
$DIMLFAC
 40
1.0
  9
$DIMTOFL
 70
     1
  9
$DIMTVP
 40
0.0
  9
$DIMTIX
 70
     1
  9
$DIMSOXD
 70
     0
  9
$DIMSAH
 70
     1
  9
$DIMBLK1
  1
Open
  9
$DIMBLK2
  1
Open
  9
$DIMSTYLE
  2
BIGT
  9
$DIMCLRD
 70
   256
  9
$DIMCLRE
 70
   256
  9
$DIMCLRT
 70
    40
  9
$DIMTFAC
 40
1.0
  9
$DIMGAP
 40
1.0
  9
$DIMJUST
 70
     0
  9
$DIMSD1
 70
     0
  9
$DIMSD2
 70
     0
  9
$DIMTOLJ
 70
     1
  9
$DIMTZIN
 70
     8
  9
$DIMALTZ
 70
     0
  9
$DIMALTTZ
 70
     0
  9
$DIMUPT
 70
     0
  9
$DIMDEC
 70
     3
  9
$DIMTDEC
 70
     3
  9
$DIMALTU
 70
     2
  9
$DIMALTTD
 70
     2
  9
$DIMTXSTY
  7
STANDARD
  9
$DIMAUNIT
 70
     0
  9
$DIMADEC
 70
     3
  9
$DIMALTRND
 40
0.0
  9
$DIMAZIN
 70
     2
  9
$DIMDSEP
 70
    46
  9
$DIMATFIT
 70
     2
  9
$DIMFRAC
 70
     0
  9
$DIMLDRBLK
  1
Open
  9
$DIMLUNIT
 70
     2
  9
$DIMLWD
 70
    -1
  9
$DIMLWE
 70
    -1
  9
$DIMTMOVE
 70
     0
  9
$LUNITS
 70
     2
  9
$LUPREC
 70
     3
  9
$SKETCHINC
 40
1.0
  9
$FILLETRAD
 40
0.0
  9
$AUNITS
 70
     0
  9
$AUPREC
 70
     3
  9
$MENU
  1
.
  9
$ELEVATION
 40
0.0
  9
$PELEVATION
 40
0.0
  9
$THICKNESS
 40
0.0
  9
$LIMCHECK
 70
     0
  9
$CHAMFERA
 40
10.0
  9
$CHAMFERB
 40
10.0
  9
$CHAMFERC
 40
0.0
  9
$CHAMFERD
 40
0.0
  9
$SKPOLY
 70
     0
  9
$TDCREATE
 40
2456316.655569294
  9
$TDUCREATE
 40
2456316.280569294
  9
$TDUPDATE
 40
2456318.409317130
  9
$TDUUPDATE
 40
2456318.034317130
  9
$TDINDWG
 40
0.0060668056
  9
$TDUSRTIMER
 40
0.0060624653
  9
$USRTIMER
 70
     1
  9
$ANGBASE
 50
0.0
  9
$ANGDIR
 70
     0
  9
$PDMODE
 70
     1
  9
$PDSIZE
 40
-5.0
  9
$PLINEWID
 40
0.0
  9
$SPLFRAME
 70
     0
  9
$SPLINETYPE
 70
     6
  9
$SPLINESEGS
 70
     8
  9
$HANDSEED
  5
BE3
  9
$SURFTAB1
 70
     6
  9
$SURFTAB2
 70
     6
  9
$SURFTYPE
 70
     6
  9
$SURFU
 70
     6
  9
$SURFV
 70
     6
  9
$UCSBASE
  2

  9
$UCSNAME
  2

  9
$UCSORG
 10
0.0
 20
0.0
 30
0.0
  9
$UCSXDIR
 10
1.0
 20
0.0
 30
0.0
  9
$UCSYDIR
 10
0.0
 20
1.0
 30
0.0
  9
$UCSORTHOREF
  2

  9
$UCSORTHOVIEW
 70
     0
  9
$UCSORGTOP
 10
0.0
 20
0.0
 30
0.0
  9
$UCSORGBOTTOM
 10
0.0
 20
0.0
 30
0.0
  9
$UCSORGLEFT
 10
0.0
 20
0.0
 30
0.0
  9
$UCSORGRIGHT
 10
0.0
 20
0.0
 30
0.0
  9
$UCSORGFRONT
 10
0.0
 20
0.0
 30
0.0
  9
$UCSORGBACK
 10
0.0
 20
0.0
 30
0.0
  9
$PUCSBASE
  2

  9
$PUCSNAME
  2

  9
$PUCSORG
 10
0.0
 20
0.0
 30
0.0
  9
$PUCSXDIR
 10
1.0
 20
0.0
 30
0.0
  9
$PUCSYDIR
 10
0.0
 20
1.0
 30
0.0
  9
$PUCSORTHOREF
  2

  9
$PUCSORTHOVIEW
 70
     0
  9
$PUCSORGTOP
 10
0.0
 20
0.0
 30
0.0
  9
$PUCSORGBOTTOM
 10
0.0
 20
0.0
 30
0.0
  9
$PUCSORGLEFT
 10
0.0
 20
0.0
 30
0.0
  9
$PUCSORGRIGHT
 10
0.0
 20
0.0
 30
0.0
  9
$PUCSORGFRONT
 10
0.0
 20
0.0
 30
0.0
  9
$PUCSORGBACK
 10
0.0
 20
0.0
 30
0.0
  9
$USERI1
 70
     1
  9
$USERI2
 70
     0
  9
$USERI3
 70
     0
  9
$USERI4
 70
     0
  9
$USERI5
 70
     0
  9
$USERR1
 40
0.0
  9
$USERR2
 40
0.0
  9
$USERR3
 40
0.0
  9
$USERR4
 40
0.0
  9
$USERR5
 40
0.0
  9
$WORLDVIEW
 70
     1
  9
$SHADEDGE
 70
     3
  9
$SHADEDIF
 70
    70
  9
$TILEMODE
 70
     1
  9
$MAXACTVP
 70
    16
  9
$PINSBASE
 10
0.0
 20
0.0
 30
0.0
  9
$PLIMCHECK
 70
     0
  9
$PEXTMIN
 10
1.000000000000000E+20
 20
1.000000000000000E+20
 30
1.000000000000000E+20
  9
$PEXTMAX
 10
-1.000000000000000E+20
 20
-1.000000000000000E+20
 30
-1.000000000000000E+20
  9
$PLIMMIN
 10
0.0
 20
0.0
  9
$PLIMMAX
 10
420.0
 20
297.0
  9
$UNITMODE
 70
     0
  9
$VISRETAIN
 70
     0
  9
$PLINEGEN
 70
     0
  9
$PSLTSCALE
 70
     1
  9
$TREEDEPTH
 70
  3020
  9
$CMLSTYLE
  2
STANDARD
  9
$CMLJUST
 70
     0
  9
$CMLSCALE
 40
1.0
  9
$PROXYGRAPHICS
 70
     1
  9
$MEASUREMENT
 70
     1
  9
$CELWEIGHT
370
    -1
  9
$ENDCAPS
280
     0
  9
$JOINSTYLE
280
     0
  9
$LWDISPLAY
290
     0
  9
$INSUNITS
 70
     0
  9
$HYPERLINKBASE
  1

  9
$STYLESHEET
  1
BIG.CTB
  9
$XEDIT
290
     1
  9
$CEPSNTYPE
380
     0
  9
$PSTYLEMODE
290
     1
  9
$FINGERPRINTGUID
  2
{C6110516-A30C-45E0-9D9E-7CE50DA2B058}
  9
$VERSIONGUID
  2
{BCAEE9FC-5473-4341-AC88-6321D688D900}
  9
$EXTNAMES
290
     1
  9
$PSVPSCALE
 40
0.0
  9
$OLESTARTUP
290
     0
  0
ENDSEC
  0
SECTION
  2
CLASSES
  0
CLASS
  1
ACDBDICTIONARYWDFLT
  2
AcDbDictionaryWithDefault
  3
ObjectDBX Classes
 90
        0
280
     0
281
     0
  0
CLASS
  1
ACDBPLACEHOLDER
  2
AcDbPlaceHolder
  3
ObjectDBX Classes
 90
        0
280
     0
281
     0
  0
CLASS
  1
LAYOUT
  2
AcDbLayout
  3
ObjectDBX Classes
 90
        0
280
     0
281
     0
  0
CLASS
  1
PLOTSETTINGS
  2
AcDbPlotSettings
  3
ObjectDBX Classes
 90
        0
280
     0
281
     0
  0
CLASS
  1
MATERIAL
  2
AcDbMaterial
  3
ObjectDBX Classes
 90
     1024
280
     0
281
     0
  0
CLASS
  1
VISUALSTYLE
  2
AcDbVisualStyle
  3
ObjectDBX Classes
 90
     4095
280
     0
281
     0
  0
CLASS
  1
TABLESTYLE
  2
AcDbTableStyle
  3
ObjectDBX Classes
 90
     4095
280
     0
281
     0
  0
CLASS
  1
SORTENTSTABLE
  2
AcDbSortentsTable
  3
ObjectDBX Classes
 90
        0
280
     0
281
     0
  0
CLASS
  1
DICTIONARYVAR
  2
AcDbDictionaryVar
  3
ObjectDBX Classes
 90
        0
280
     0
281
     0
  0
ENDSEC
  0
SECTION
  2
TABLES
  0
TABLE
  2
VPORT
  5
8
330
0
100
AcDbSymbolTable
 70
     1
  0
VPORT
  5
77A
330
8
100
AcDbSymbolTableRecord
100
AcDbViewportTableRecord
  2
*Active
 70
     0
 10
0.0
 20
0.0
 11
1.0
 21
1.0
 12
81.29501881189053
 22
18.24931001942504
 13
0.0
 23
0.0
 14
7.0
 24
7.0
 15
7.0
 25
7.0
 16
0.0
 26
0.0
 36
1.0
 17
0.0
 27
0.0
 37
0.0
 40
206.5573405946927
 41
1.436127744510978
 42
50.0
 43
0.0
 44
0.0
 50
0.0
 51
0.0
 71
     0
 72
 20000
 73
     1
 74
     0
 75
     0
 76
     0
 77
     0
 78
     0
281
     0
 65
     1
110
0.0
120
0.0
130
0.0
111
1.0
121
0.0
131
0.0
112
0.0
122
1.0
132
0.0
 79
     0
146
0.0
  0
ENDTAB
  0
TABLE
  2
LTYPE
  5
5
330
0
100
AcDbSymbolTable
 70
    39
  0
LTYPE
  5
14
330
5
100
AcDbSymbolTableRecord
100
AcDbLinetypeTableRecord
  2
BYBLOCK
 70
     0
  3

 72
    65
 73
     0
 40
0.0
  0
LTYPE
  5
15
330
5
100
AcDbSymbolTableRecord
100
AcDbLinetypeTableRecord
  2
BYLAYER
 70
     0
  3

 72
    65
 73
     0
 40
0.0
  0
LTYPE
  5
16
330
5
100
AcDbSymbolTableRecord
100
AcDbLinetypeTableRecord
  2
CONTINUOUS
 70
     0
  3
Solid line
 72
    65
 73
     0
 40
0.0
  0
LTYPE
  5
258
330
5
100
AcDbSymbolTableRecord
100
AcDbLinetypeTableRecord
  2
CENTER2
 70
     0
  3
___ _ ___ _ ___ _ ___ _ ___ _ ___ _ ___ _ ___ _
 72
    65
 73
     4
 40
1.125
 49
0.75
 74
     0
 49
-0.125
 74
     0
 49
0.125
 74
     0
 49
-0.125
 74
     0
  0
LTYPE
  5
25C
330
5
100
AcDbSymbolTableRecord
100
AcDbLinetypeTableRecord
  2
HIDDEN2
 70
     0
  3
_ _ _ _ _ _ _ _ _ _ _ _ _ _ _ _ _ _ _ _ _ _ _ _
 72
    65
 73
     2
 40
0.1875
 49
0.125
 74
     0
 49
-0.0625
 74
     0
  0
ENDTAB
  0
TABLE
  2
LAYER
  5
2
330
0
100
AcDbSymbolTable
 70
    32
  0
LAYER
  5
F
330
2
100
AcDbSymbolTableRecord
100
AcDbLayerTableRecord
  2
0
 70
     0
 62
     7
  6
CONTINUOUS
370
    -3
390
564
  0
LAYER
  5
1AA
330
2
100
AcDbSymbolTableRecord
100
AcDbLayerTableRecord
  2
240
 70
     0
 62
     4
  6
CONTINUOUS
370
    -3
390
564
  0
LAYER
  5
1AB
330
2
100
AcDbSymbolTableRecord
100
AcDbLayerTableRecord
  2
241
 70
     0
 62
   211
  6
CONTINUOUS
370
    -3
390
564
  0
LAYER
  5
1AF
330
2
100
AcDbSymbolTableRecord
100
AcDbLayerTableRecord
  2
245
 70
     0
 62
     2
  6
CENTER2
370
    -3
390
564
  0
LAYER
  5
21E
330
2
100
AcDbSymbolTableRecord
100
AcDbLayerTableRecord
  2
250
 70
     0
 62
     3
  6
CONTINUOUS
370
    -3
390
564
  0
LAYER
  5
5C4
330
2
100
AcDbSymbolTableRecord
100
AcDbLayerTableRecord
  2
Defpoints
 70
     0
 62
     7
  6
CONTINUOUS
290
     0
370
    -3
390
564
  0
ENDTAB
  0
TABLE
  2
STYLE
  5
3
330
0
100
AcDbSymbolTable
 70
     3
  0
STYLE
  5
10
330
3
100
AcDbSymbolTableRecord
100
AcDbTextStyleTableRecord
  2
STANDARD
 70
     0
 40
0.0
 41
1.0
 50
0.0
 71
     0
 42
3.0
  3
romans.shx
  4
BIGFONT.SHX
  0
STYLE
  5
339
330
3
100
AcDbSymbolTableRecord
100
AcDbTextStyleTableRecord
  2
YOKO
 70
     0
 40
0.0
 41
1.0
 50
0.0
 71
     0
 42
3.0
  3
romans.shx
  4
extfont.shx
  0
ENDTAB
  0
TABLE
  2
VIEW
  5
6
330
0
100
AcDbSymbolTable
 70
     0
  0
ENDTAB
  0
TABLE
  2
UCS
  5
7
330
0
100
AcDbSymbolTable
 70
     0
  0
ENDTAB
  0
TABLE
  2
APPID
  5
9
330
0
100
AcDbSymbolTable
 70
     9
  0
APPID
  5
11
330
9
100
AcDbSymbolTableRecord
100
AcDbRegAppTableRecord
  2
ACAD
 70
     0
  0
APPID
  5
1B1
330
9
100
AcDbSymbolTableRecord
100
AcDbRegAppTableRecord
  2
GLOBAL
 70
     0
  0
APPID
  5
2A4
330
9
100
AcDbSymbolTableRecord
100
AcDbRegAppTableRecord
  2
DETAIL
 70
     0
  0
APPID
  5
5FD
330
9
100
AcDbSymbolTableRecord
100
AcDbRegAppTableRecord
  2
GRPNAME
 70
     0
  0
APPID
  5
5FE
330
9
100
AcDbSymbolTableRecord
100
AcDbRegAppTableRecord
  2
GPARA
 70
     0
  0
APPID
  5
6C4
330
9
100
AcDbSymbolTableRecord
100
AcDbRegAppTableRecord
  2
DCO15
 70
     0
  0
APPID
  5
6C5
330
9
100
AcDbSymbolTableRecord
100
AcDbRegAppTableRecord
  2
ITEMNAME
 70
     0
  0
APPID
  5
6C6
330
9
100
AcDbSymbolTableRecord
100
AcDbRegAppTableRecord
  2
GRADE_0
 70
     0
  0
APPID
  5
7D5
330
9
100
AcDbSymbolTableRecord
100
AcDbRegAppTableRecord
  2
ASK_MEN_XD
 70
     0
  0
ENDTAB
  0
TABLE
  2
DIMSTYLE
  5
A
330
0
100
AcDbSymbolTable
 70
    11
100
AcDbDimStyleTable
 71
     1
340
725
  0
DIMSTYLE
105
725
102
{ACAD_REACTORS
330
852
330
853
330
854
330
855
330
856
102
}
330
A
100
AcDbSymbolTableRecord
100
AcDbDimStyleTableRecord
  2
BIGT
 70
     0
 41
2.229999999999999
 42
0.5
 43
2.5
 44
1.0
 73
     0
 74
     0
 77
     3
 78
     8
 79
     2
140
2.799999999999998
141
0.0
147
1.0
172
     1
173
     1
174
     1
176
   256
177
   256
178
    40
179
     3
271
     3
272
     3
284
     8
289
     2
340
10
341
594
343
594
344
594
371
    -1
372
    -1
  0
ENDTAB
  0
TABLE
  2
BLOCK_RECORD
  5
1
330
0
100
AcDbSymbolTable
 70
    23
  0
BLOCK_RECORD
  5
1A
102
{ACAD_XDICTIONARY
360
A6D
102
}
330
1
100
AcDbSymbolTableRecord
100
AcDbBlockTableRecord
  2
*MODEL_SPACE
340
567
  0
BLOCK_RECORD
  5
17
330
1
100
AcDbSymbolTableRecord
100
AcDbBlockTableRecord
  2
*PAPER_SPACE
340
568
  0
BLOCK_RECORD
  5
594
330
1
100
AcDbSymbolTableRecord
100
AcDbBlockTableRecord
  2
_Open
340
0
102
{BLKREFS
331
79F
331
7AA
331
7AB
331
7B6
331
7B7
331
7C2
331
7C3
331
7CE
331
7CF
331
940
331
948
331
949
331
951
331
952
331
95A
331
95B
331
963
331
964
102
}
  0
BLOCK_RECORD
  5
6E3
330
1
100
AcDbSymbolTableRecord
100
AcDbBlockTableRecord
  2
矢印なし
340
0
102
{BLKREFS
331
6E6
331
79E
331
93F
102
}
  0
BLOCK_RECORD
  5
8C0
330
1
100
AcDbSymbolTableRecord
100
AcDbBlockTableRecord
  2
*D17
340
0
  0
BLOCK_RECORD
  5
8CB
330
1
100
AcDbSymbolTableRecord
100
AcDbBlockTableRecord
  2
*D18
340
0
  0
BLOCK_RECORD
  5
8D7
330
1
100
AcDbSymbolTableRecord
100
AcDbBlockTableRecord
  2
*D19
340
0
  0
BLOCK_RECORD
  5
8E3
330
1
100
AcDbSymbolTableRecord
100
AcDbBlockTableRecord
  2
*D20
340
0
  0
BLOCK_RECORD
  5
8EF
330
1
100
AcDbSymbolTableRecord
100
AcDbBlockTableRecord
  2
*D21
340
0
  0
BLOCK_RECORD
  5
969
330
1
100
AcDbSymbolTableRecord
100
AcDbBlockTableRecord
  2
1
340
0
310
2800000020000000200000000100080000000000000400000000000000000000000000000000000000000000000080000080000000808000800000008000800080800000C0C0C000C0DCC000F0CAA6000020400000206000002080000020A0000020C0000020E00000400000004020000040400000406000004080000040A0
310
000040C0000040E00000600000006020000060400000606000006080000060A0000060C0000060E00000800000008020000080400000806000008080000080A0000080C0000080E00000A0000000A0200000A0400000A0600000A0800000A0A00000A0C00000A0E00000C0000000C0200000C0400000C0600000C0800000C0
310
A00000C0C00000C0E00000E0000000E0200000E0400000E0600000E0800000E0A00000E0C00000E0E00040000000400020004000400040006000400080004000A0004000C0004000E00040200000402020004020400040206000402080004020A0004020C0004020E000404000004040200040404000404060004040800040
310
40A0004040C0004040E00040600000406020004060400040606000406080004060A0004060C0004060E00040800000408020004080400040806000408080004080A0004080C0004080E00040A0000040A0200040A0400040A0600040A0800040A0A00040A0C00040A0E00040C0000040C0200040C0400040C0600040C08000
310
40C0A00040C0C00040C0E00040E0000040E0200040E0400040E0600040E0800040E0A00040E0C00040E0E00080000000800020008000400080006000800080008000A0008000C0008000E00080200000802020008020400080206000802080008020A0008020C0008020E00080400000804020008040400080406000804080
310
008040A0008040C0008040E00080600000806020008060400080606000806080008060A0008060C0008060E00080800000808020008080400080806000808080008080A0008080C0008080E00080A0000080A0200080A0400080A0600080A0800080A0A00080A0C00080A0E00080C0000080C0200080C0400080C0600080C0
310
800080C0A00080C0C00080C0E00080E0000080E0200080E0400080E0600080E0800080E0A00080E0C00080E0E000C0000000C0002000C0004000C0006000C0008000C000A000C000C000C000E000C0200000C0202000C0204000C0206000C0208000C020A000C020C000C020E000C0400000C0402000C0404000C0406000C0
310
408000C040A000C040C000C040E000C0600000C0602000C0604000C0606000C0608000C060A000C060C000C060E000C0800000C0802000C0804000C0806000C0808000C080A000C080C000C080E000C0A00000C0A02000C0A04000C0A06000C0A08000C0A0A000C0A0C000C0A0E000C0C00000C0C02000C0C04000C0C06000
310
C0C08000C0C0A000F0FBFF00A4A0A000808080000000FF0000FF000000FFFF00FF000000FF00FF00FFFF0000FFFFFF0000000000000000000000000000000000000000000000000000000000000000000000000000000000000000000000000000000000000000000000000000000000000000000000000000000000000000
310
00000000000000000000000000000000000000000000000000000000000000000000000000000000000000000000000000000000000000000000000000000000000000000000000000000000000000000000000000000000000000000000000000000000000000000000000000000000000000000000000000000000000000
310
00000000000000000000000000000000000000000000000000000000000000000000000000000000000000000000000000000000000000000000000000000000000000000000000000000000000000000000000000000000000000000000000000000000000000000000000000000000000000000000000000000000000000
310
000000000000000000000000000000000000000000000000000000000000000000000000000000000000000000000000000000000000000000000000FEFEFEFEFEFEFEFE000000000000000000000000000000000000000000FEFEFEE7FEE70000000000FEFEFEFEFEFEFEFEFEE7FEE7FE00000000FEFEFEFE0000E7E7E7E7
310
00000000000000000000E7E7E7E7E700E7FE00000000FE0000000000E7E7E7E700000000FBFBFBFBFBFBE7E7E7E7E7FBE7E7FB0000FBFBFBFBFBFBFBE7E7E7E7FBFBFBFB000000000000E7E7E7E7E700E7E700000000FEFEFE000000E7E7E7E700000000000000000000E7E7E7E7E7E7E7E700000000000000FEFEFEE7E7E7
310
E70000000000FEFEFEFEFEE7E7E7E7E7FEE7FE0000000000000000000000FEE7FEFEFEFEFEFE0000000000000000000000000000000000000000000000000000000000000000000000000000000000000000000000000000000000000000000000000000000000000000000000000000000000000000000000000000000000
310
00000000000000000000000000000000000000000000000000000000000000000000000000000000000000000000000000000000000000000000000000000000000000000000000000000000000000000000000000000000000000000000000000000000000000000000000000000000000000000000000000000000000000
310
00000000000000000000000000000000000000000000000000000000000000000000000000000000000000000000000000000000000000000000000000000000000000000000000000000000000000000000000000000000000000000000000000000000000000000000000000000000000000000000000000000000000000
310
0000000000000000000000000000000000000000000000000000000000000000000000000000000000000000000000000000000000000000
102
{BLKREFS
331
BC9
102
}
  0
ENDTAB
  0
ENDSEC
  0
SECTION
  2
BLOCKS
  0
BLOCK
  5
1B
330
1A
100
AcDbEntity
  8
0
100
AcDbBlockBegin
  2
*MODEL_SPACE
 70
     0
 10
0.0
 20
0.0
 30
0.0
  3
*MODEL_SPACE
  1

  0
ENDBLK
  5
1C
330
1A
100
AcDbEntity
  8
0
100
AcDbBlockEnd
  0
BLOCK
  5
18
330
17
100
AcDbEntity
 67
     1
  8
0
100
AcDbBlockBegin
  2
*PAPER_SPACE
 70
     0
 10
0.0
 20
0.0
 30
0.0
  3
*PAPER_SPACE
  1

  0
ENDBLK
  5
19
330
17
100
AcDbEntity
 67
     1
  8
0
100
AcDbBlockEnd
  0
BLOCK
  5
598
330
594
100
AcDbEntity
  8
0
100
AcDbBlockBegin
  2
_Open
 70
     0
 10
0.0
 20
0.0
 30
0.0
  3
_Open
  1

  0
LINE
  5
595
330
594
100
AcDbEntity
  8
0
  6
ByBlock
 62
     0
370
    -2
100
AcDbLine
 10
-1.0
 20
0.1666666666666666
 30
0.0
 11
0.0
 21
0.0
 31
0.0
  0
LINE
  5
596
330
594
100
AcDbEntity
  8
0
  6
ByBlock
 62
     0
370
    -2
100
AcDbLine
 10
-1.0
 20
-0.1666666666666666
 30
0.0
 11
0.0
 21
0.0
 31
0.0
  0
LINE
  5
597
330
594
100
AcDbEntity
  8
0
  6
ByBlock
 62
     0
370
    -2
100
AcDbLine
 10
0.0
 20
0.0
 30
0.0
 11
-1.0
 21
0.0
 31
0.0
  0
ENDBLK
  5
599
330
594
100
AcDbEntity
  8
0
100
AcDbBlockEnd
  0
BLOCK
  5
6E4
330
6E3
100
AcDbEntity
  8
0
100
AcDbBlockBegin
  2
矢印なし
 70
     0
 10
0.0
 20
0.0
 30
0.0
  3
矢印なし
  1

  0
ENDBLK
  5
6E5
330
6E3
100
AcDbEntity
  8
0
100
AcDbBlockEnd
  0
BLOCK
  5
8C9
330
8C0
100
AcDbEntity
  8
0
100
AcDbBlockBegin
  2
*D17
 70
     1
 10
0.0
 20
0.0
 30
0.0
  3
*D17
  1

  0
LINE
  5
93D
330
8C0
100
AcDbEntity
  8
250
  6
Continuous
100
AcDbLine
 10
198.0000000000017
 20
9.99999999999982
 30
0.0
 11
215.000000000002
 21
9.999999999999817
 31
0.0
  0
LINE
  5
93E
330
8C0
100
AcDbEntity
  8
250
  6
Continuous
100
AcDbLine
 10
214.000000000002
 20
-7.770000000000099
 30
0.0
 11
214.000000000002
 21
7.769999999999813
 31
0.0
  0
INSERT
  5
93F
330
8C0
100
AcDbEntity
  8
250
  6
Continuous
100
AcDbBlockReference
  2
矢印なし
 10
214.000000000002
 20
-10.0000000000001
 30
0.0
 41
2.229999999999999
 42
2.229999999999999
 43
2.229999999999999
 50
270.0
  0
INSERT
  5
940
330
8C0
100
AcDbEntity
  8
250
  6
Continuous
100
AcDbBlockReference
  2
_Open
 10
214.000000000002
 20
9.999999999999817
 30
0.0
 41
2.229999999999999
 42
2.229999999999999
 43
2.229999999999999
 50
90.0
  0
MTEXT
  5
941
330
8C0
100
AcDbEntity
  8
250
  6
Continuous
 62
    40
370
    -3
100
AcDbMText
 10
211.600000000002
 20
-0.000000000000107
 30
0.0
 40
2.799999999999998
 41
0.0
 71
     5
 72
     1
  1
\A1;{\H2.8;%%C}20
 11
0.0000000000000001
 21
1.0
 31
0.0
 73
     1
 44
1.0
1001
ACAD
1000
MTEXTBEGIN
1070
    73
1070
     1
1070
    44
1040
1.0
1070
    74
1070
     0
1000
MTEXTEND
  0
POINT
  5
942
330
8C0
100
AcDbEntity
  8
Defpoints
  6
Continuous
 62
     0
100
AcDbPoint
 10
197.5000000000014
 20
-10.00000000000009
 30
0.0
  0
POINT
  5
943
330
8C0
100
AcDbEntity
  8
Defpoints
  6
Continuous
 62
     0
100
AcDbPoint
 10
197.5000000000017
 20
9.99999999999982
 30
0.0
  0
POINT
  5
944
330
8C0
100
AcDbEntity
  8
Defpoints
  6
Continuous
 62
     0
100
AcDbPoint
 10
214.000000000002
 20
9.999999999999817
 30
0.0
  0
ENDBLK
  5
8CA
330
8C0
100
AcDbEntity
  8
0
100
AcDbBlockEnd
  0
BLOCK
  5
8D5
330
8CB
100
AcDbEntity
  8
0
100
AcDbBlockBegin
  2
*D18
 70
     1
 10
0.0
 20
0.0
 30
0.0
  3
*D18
  1

  0
LINE
  5
945
330
8CB
100
AcDbEntity
  8
250
  6
Continuous
100
AcDbLine
 10
190.8838290319121
 20
-25.00000000000042
 30
0.0
 11
222.0000000000018
 21
-25.00000000000043
 31
0.0
  0
LINE
  5
946
330
8CB
100
AcDbEntity
  8
250
  6
Continuous
100
AcDbLine
 10
190.8838290319121
 20
24.99999999999957
 30
0.0
 11
222.0000000000018
 21
24.99999999999956
 31
0.0
  0
LINE
  5
947
330
8CB
100
AcDbEntity
  8
250
  6
Continuous
100
AcDbLine
 10
221.0000000000018
 20
-22.77000000000043
 30
0.0
 11
221.0000000000018
 21
22.76999999999956
 31
0.0
  0
INSERT
  5
948
330
8CB
100
AcDbEntity
  8
250
  6
Continuous
100
AcDbBlockReference
  2
_Open
 10
221.0000000000018
 20
-25.00000000000043
 30
0.0
 41
2.229999999999999
 42
2.229999999999999
 43
2.229999999999999
 50
270.0
  0
INSERT
  5
949
330
8CB
100
AcDbEntity
  8
250
  6
Continuous
100
AcDbBlockReference
  2
_Open
 10
221.0000000000018
 20
24.99999999999956
 30
0.0
 41
2.229999999999999
 42
2.229999999999999
 43
2.229999999999999
 50
90.0
  0
MTEXT
  5
94A
330
8CB
100
AcDbEntity
  8
250
  6
Continuous
 62
    40
370
    -3
100
AcDbMText
 10
218.6000000000019
 20
-0.0000000000004005
 30
0.0
 40
2.799999999999998
 41
0.0
 71
     5
 72
     1
  1
\A1;{\H2.8;%%C}50
 11
0.0000000000000001
 21
1.0
 31
0.0
 73
     1
 44
1.0
1001
ACAD
1000
MTEXTBEGIN
1070
    73
1070
     1
1070
    44
1040
1.0
1070
    74
1070
     0
1000
MTEXTEND
  0
POINT
  5
94B
330
8CB
100
AcDbEntity
  8
Defpoints
  6
Continuous
 62
     0
100
AcDbPoint
 10
190.3838290319121
 20
-25.00000000000042
 30
0.0
  0
POINT
  5
94C
330
8CB
100
AcDbEntity
  8
Defpoints
  6
Continuous
 62
     0
100
AcDbPoint
 10
190.3838290319121
 20
24.99999999999957
 30
0.0
  0
POINT
  5
94D
330
8CB
100
AcDbEntity
  8
Defpoints
  6
Continuous
 62
     0
100
AcDbPoint
 10
221.0000000000018
 20
24.99999999999956
 30
0.0
  0
ENDBLK
  5
8D6
330
8CB
100
AcDbEntity
  8
0
100
AcDbBlockEnd
  0
BLOCK
  5
8E1
330
8D7
100
AcDbEntity
  8
0
100
AcDbBlockBegin
  2
*D19
 70
     1
 10
0.0
 20
0.0
 30
0.0
  3
*D19
  1

  0
LINE
  5
94E
330
8D7
100
AcDbEntity
  8
250
  6
Continuous
100
AcDbLine
 10
163.1712501195262
 20
-27.50000000000043
 30
0.0
 11
229.000000000002
 21
-27.50000000000045
 31
0.0
  0
LINE
  5
94F
330
8D7
100
AcDbEntity
  8
250
  6
Continuous
100
AcDbLine
 10
163.1712501195262
 20
27.49999999999957
 30
0.0
 11
229.000000000002
 21
27.49999999999956
 31
0.0
  0
LINE
  5
950
330
8D7
100
AcDbEntity
  8
250
  6
Continuous
100
AcDbLine
 10
228.0000000000021
 20
-25.27000000000045
 30
0.0
 11
228.0000000000021
 21
25.26999999999955
 31
0.0
  0
INSERT
  5
951
330
8D7
100
AcDbEntity
  8
250
  6
Continuous
100
AcDbBlockReference
  2
_Open
 10
228.0000000000021
 20
-27.50000000000045
 30
0.0
 41
2.229999999999999
 42
2.229999999999999
 43
2.229999999999999
 50
270.0
  0
INSERT
  5
952
330
8D7
100
AcDbEntity
  8
250
  6
Continuous
100
AcDbBlockReference
  2
_Open
 10
228.0000000000021
 20
27.49999999999956
 30
0.0
 41
2.229999999999999
 42
2.229999999999999
 43
2.229999999999999
 50
90.0
  0
MTEXT
  5
953
330
8D7
100
AcDbEntity
  8
250
  6
Continuous
 62
    40
370
    -3
100
AcDbMText
 10
225.6000000000021
 20
-0.0000000000004151
 30
0.0
 40
2.799999999999998
 41
0.0
 71
     5
 72
     1
  1
\A1;{\H2.8;%%C}55
 11
0.0000000000000001
 21
1.0
 31
0.0
 73
     1
 44
1.0
1001
ACAD
1000
MTEXTBEGIN
1070
    73
1070
     1
1070
    44
1040
1.0
1070
    74
1070
     0
1000
MTEXTEND
  0
POINT
  5
954
330
8D7
100
AcDbEntity
  8
Defpoints
  6
Continuous
 62
     0
100
AcDbPoint
 10
162.6712501195262
 20
-27.50000000000043
 30
0.0
  0
POINT
  5
955
330
8D7
100
AcDbEntity
  8
Defpoints
  6
Continuous
 62
     0
100
AcDbPoint
 10
162.6712501195262
 20
27.49999999999957
 30
0.0
  0
POINT
  5
956
330
8D7
100
AcDbEntity
  8
Defpoints
  6
Continuous
 62
     0
100
AcDbPoint
 10
228.0000000000021
 20
27.49999999999956
 30
0.0
  0
ENDBLK
  5
8E2
330
8D7
100
AcDbEntity
  8
0
100
AcDbBlockEnd
  0
BLOCK
  5
8ED
330
8E3
100
AcDbEntity
  8
0
100
AcDbBlockBegin
  2
*D20
 70
     1
 10
0.0
 20
0.0
 30
0.0
  3
*D20
  1

  0
LINE
  5
957
330
8E3
100
AcDbEntity
  8
250
  6
Continuous
100
AcDbLine
 10
115.000000000002
 20
10.49999999999977
 30
0.0
 11
115.000000000002
 21
42.9999999999996
 31
0.0
  0
LINE
  5
958
330
8E3
100
AcDbEntity
  8
250
  6
Continuous
100
AcDbLine
 10
200.0000000000032
 20
19.89937738537039
 30
0.0
 11
200.0000000000032
 21
42.9999999999996
 31
0.0
  0
LINE
  5
959
330
8E3
100
AcDbEntity
  8
250
  6
Continuous
100
AcDbLine
 10
117.000000000002
 20
41.9999999999996
 30
0.0
 11
198.0000000000032
 21
41.9999999999996
 31
0.0
  0
INSERT
  5
95A
330
8E3
100
AcDbEntity
  8
250
  6
Continuous
100
AcDbBlockReference
  2
_Open
 10
115.000000000002
 20
41.9999999999996
 30
0.0
 41
2.0
 42
2.0
 43
2.0
 50
180.0
  0
INSERT
  5
95B
330
8E3
100
AcDbEntity
  8
250
  6
Continuous
100
AcDbBlockReference
  2
_Open
 10
200.0000000000032
 20
41.9999999999996
 30
0.0
 41
2.0
 42
2.0
 43
2.0
  0
MTEXT
  5
95C
330
8E3
100
AcDbEntity
  8
250
  6
Continuous
 62
    40
370
    -3
100
AcDbMText
 10
158.1695001018689
 20
44.3999999999996
 30
0.0
 40
2.799999999999998
 41
0.0
 71
     5
 72
     1
  1
\A1;（max.85）
 73
     1
 44
1.0
1001
ACAD
1000
MTEXTBEGIN
1070
    73
1070
     1
1070
    44
1040
1.0
1070
    74
1070
     0
1000
MTEXTEND
  0
POINT
  5
95D
330
8E3
100
AcDbEntity
  8
Defpoints
  6
Continuous
 62
     0
100
AcDbPoint
 10
115.000000000002
 20
9.999999999999772
 30
0.0
  0
POINT
  5
95E
330
8E3
100
AcDbEntity
  8
Defpoints
  6
Continuous
 62
     0
100
AcDbPoint
 10
200.0000000000032
 20
19.39937738537039
 30
0.0
  0
POINT
  5
95F
330
8E3
100
AcDbEntity
  8
Defpoints
  6
Continuous
 62
     0
100
AcDbPoint
 10
200.0000000000032
 20
41.9999999999996
 30
0.0
  0
ENDBLK
  5
8EE
330
8E3
100
AcDbEntity
  8
0
100
AcDbBlockEnd
  0
BLOCK
  5
8F9
330
8EF
100
AcDbEntity
  8
0
100
AcDbBlockBegin
  2
*D21
 70
     1
 10
0.0
 20
0.0
 30
0.0
  3
*D21
  1

  0
LINE
  5
960
330
8EF
100
AcDbEntity
  8
250
  6
Continuous
100
AcDbLine
 10
-0.0000000000001137
 20
22.72499999999998
 30
0.0
 11
-0.000000000000112
 21
50.0
 31
0.0
  0
LINE
  5
961
330
8EF
100
AcDbEntity
  8
250
  6
Continuous
100
AcDbLine
 10
200.0000000000032
 20
19.89937738537039
 30
0.0
 11
200.0000000000032
 21
50.0
 31
0.0
  0
LINE
  5
962
330
8EF
100
AcDbEntity
  8
250
  6
Continuous
100
AcDbLine
 10
1.999999999999887
 20
49.0
 30
0.0
 11
198.0000000000032
 21
49.0
 31
0.0
  0
INSERT
  5
963
330
8EF
100
AcDbEntity
  8
250
  6
Continuous
100
AcDbBlockReference
  2
_Open
 10
-0.000000000000112
 20
49.0
 30
0.0
 41
2.0
 42
2.0
 43
2.0
 50
180.0
  0
INSERT
  5
964
330
8EF
100
AcDbEntity
  8
250
  6
Continuous
100
AcDbBlockReference
  2
_Open
 10
200.0000000000032
 20
49.0
 30
0.0
 41
2.0
 42
2.0
 43
2.0
  0
MTEXT
  5
965
330
8EF
100
AcDbEntity
  8
250
  6
Continuous
 62
    40
370
    -3
100
AcDbMText
 10
100.0000000000015
 20
51.4
 30
0.0
 40
2.799999999999998
 41
0.0
 71
     5
 72
     1
  1
\A1;200
 73
     1
 44
1.0
1001
ACAD
1000
MTEXTBEGIN
1070
    73
1070
     1
1070
    44
1040
1.0
1070
    74
1070
     0
1000
MTEXTEND
  0
POINT
  5
966
330
8EF
100
AcDbEntity
  8
Defpoints
  6
Continuous
 62
     0
100
AcDbPoint
 10
-0.0000000000001137
 20
22.22499999999998
 30
0.0
  0
POINT
  5
967
330
8EF
100
AcDbEntity
  8
Defpoints
  6
Continuous
 62
     0
100
AcDbPoint
 10
200.0000000000032
 20
19.39937738537039
 30
0.0
  0
POINT
  5
968
330
8EF
100
AcDbEntity
  8
Defpoints
  6
Continuous
 62
     0
100
AcDbPoint
 10
200.0000000000032
 20
49.0
 30
0.0
  0
ENDBLK
  5
8FA
330
8EF
100
AcDbEntity
  8
0
100
AcDbBlockEnd
  0
BLOCK
  5
96A
330
969
100
AcDbEntity
  8
0
100
AcDbBlockBegin
  2
1
 70
     0
 10
0.0
 20
0.0
 30
0.0
  3
1
  1

  0
LINE
  5
B63
330
969
100
AcDbEntity
  8
245
  6
CENTER2
100
AcDbLine
 10
16.59999999999994
 20
31.50000000000011
 30
0.0
 11
16.59999999999991
 21
-31.50000000000031
 31
0.0
  0
LINE
  5
B64
330
969
100
AcDbEntity
  8
241
  6
Continuous
100
AcDbLine
 10
21.59999999999991
 20
-31.49999999999998
 30
0.0
 11
21.59999999999991
 21
-0.0000000000000142
 31
0.0
  0
LINE
  5
B65
330
969
100
AcDbEntity
  8
241
  6
Continuous
100
AcDbLine
 10
11.59999999999991
 20
-0.0000000000000142
 30
0.0
 11
11.59999999999993
 21
-31.50000000000003
 31
0.0
  0
LINE
  5
B66
330
969
100
AcDbEntity
  8
241
  6
Continuous
100
AcDbLine
 10
-0.0000000000001705
 20
-22.22499999999995
 30
0.0
 11
0.0
 21
-0.0000000000000142
 31
0.0
  0
LINE
  5
B67
330
969
100
AcDbEntity
  8
240
  6
Continuous
100
AcDbLine
 10
0.9999999999998864
 20
-30.50000000000002
 30
0.0
 11
0.9999999999998292
 21
-22.22499999999993
 31
0.0
  0
ARC
  5
B68
330
969
100
AcDbEntity
  8
240
  6
Continuous
100
AcDbCircle
 10
1.999999999999885
 20
-30.50000000000002
 30
0.0
 40
1.0
100
AcDbArc
 50
180.0
 51
270.0
  0
LINE
  5
B69
330
969
100
AcDbEntity
  8
240
  6
Continuous
100
AcDbLine
 10
-65.40000000000005
 20
11.30390895524864
 30
0.0
 11
-65.40000000000008
 21
-11.30390895524874
 31
0.0
  0
ARC
  5
B6A
330
969
100
AcDbEntity
  8
240
  6
Continuous
100
AcDbCircle
 10
-63.80000000000006
 20
-11.30390895524874
 30
0.0
 40
1.6
100
AcDbArc
 50
180.0
 51
261.702855030163
  0
LINE
  5
B6B
330
969
100
AcDbEntity
  8
240
  6
Continuous
100
AcDbLine
 10
-0.0000000000001137
 20
-22.22500000000001
 30
0.0
 11
-64.03089102891485
 21
-12.88716172494998
 31
0.0
  0
LINE
  5
B6C
330
969
100
AcDbEntity
  8
240
  6
Continuous
100
AcDbLine
 10
21.59999999999991
 20
-31.49999999999998
 30
0.0
 11
26.9999999999998
 21
-31.50000000000034
 31
0.0
  0
LINE
  5
B6D
330
969
100
AcDbEntity
  8
241
  6
HIDDEN2
100
AcDbLine
 10
22.99999999999989
 20
-22.50000000000001
 30
0.0
 11
22.99999999999989
 21
-31.50000000000002
 31
0.0
  0
LINE
  5
B6E
330
969
100
AcDbEntity
  8
240
  6
Continuous
100
AcDbLine
 10
1.999999999999885
 20
-31.50000000000002
 30
0.0
 11
11.59999999999985
 21
-31.50000000000022
 31
0.0
  0
LINE
  5
B6F
330
969
100
AcDbEntity
  8
241
  6
HIDDEN2
100
AcDbLine
 10
22.99999999999989
 20
-22.50000000000001
 30
0.0
 11
0.9999999999998864
 21
-22.50000000000001
 31
0.0
  0
LINE
  5
B70
330
969
100
AcDbEntity
  8
245
  6
CENTER2
100
AcDbLine
 10
-66.40000000000006
 20
0.0000000000000142
 30
0.0
 11
201.0000000000019
 21
-0.0000000000000568
 31
0.0
  0
LINE
  5
B71
330
969
100
AcDbEntity
  8
240
  6
Continuous
100
AcDbLine
 10
-0.0000000000001137
 20
22.22499999999998
 30
0.0
 11
-64.03089102891482
 21
12.88716172494989
 31
0.0
  0
ARC
  5
B72
330
969
100
AcDbEntity
  8
240
  6
Continuous
100
AcDbCircle
 10
-63.80000000000006
 20
11.30390895524864
 30
0.0
 40
1.6
100
AcDbArc
 50
98.29714496983692
 51
180.0
  0
LINE
  5
B73
330
969
100
AcDbEntity
  8
240
  6
Continuous
100
AcDbLine
 10
21.59999999999991
 20
31.5
 30
0.0
 11
26.99999999999318
 21
31.4999999999996
 31
0.0
  0
LINE
  5
B74
330
969
100
AcDbEntity
  8
241
  6
HIDDEN2
100
AcDbLine
 10
22.99999999999989
 20
22.49999999999999
 30
0.0
 11
1.299999999999897
 21
22.49999999999999
 31
0.0
  0
LINE
  5
B75
330
969
100
AcDbEntity
  8
240
  6
Continuous
100
AcDbLine
 10
1.999999999999829
 20
31.5
 30
0.0
 11
11.59999999999993
 21
31.50000000000006
 31
0.0
  0
ARC
  5
B76
330
969
100
AcDbEntity
  8
240
  6
Continuous
100
AcDbCircle
 10
1.999999999999829
 20
30.5
 30
0.0
 40
1.0
100
AcDbArc
 50
90.0
 51
180.0000000000023
  0
LINE
  5
B77
330
969
100
AcDbEntity
  8
240
  6
Continuous
100
AcDbLine
 10
1.000000000000225
 20
22.2250000000014
 30
0.0
 11
0.9999999999998292
 21
30.5
 31
0.0
  0
LINE
  5
B78
330
969
100
AcDbEntity
  8
241
  6
HIDDEN2
100
AcDbLine
 10
22.99999999999989
 20
22.49999999999999
 30
0.0
 11
22.99999999999989
 21
31.5
 31
0.0
  0
LINE
  5
B79
330
969
100
AcDbEntity
  8
240
  6
Continuous
100
AcDbLine
 10
26.9999999999998
 20
-31.50000000000034
 30
0.0
 11
27.00000000000162
 21
-30.4999999477011
 31
0.0
  0
LINE
  5
B7A
330
969
100
AcDbEntity
  8
240
  6
Continuous
100
AcDbLine
 10
26.99999999999318
 20
31.4999999999996
 30
0.0
 11
27.00000000000557
 21
30.49999993083729
 31
0.0
  0
LINE
  5
B7B
330
969
100
AcDbEntity
  8
241
  6
Continuous
100
AcDbLine
 10
14.48675134594822
 20
-26.49999999999969
 30
0.0
 11
14.48675134594825
 21
0.0
 31
0.0
  0
LINE
  5
B7C
330
969
100
AcDbEntity
  8
240
  6
Continuous
100
AcDbLine
 10
14.48675134594822
 20
-26.49999999999969
 30
0.0
 11
11.59999999999985
 21
-31.50000000000022
 31
0.0
  0
LINE
  5
B7D
330
969
100
AcDbEntity
  8
240
  6
Continuous
100
AcDbLine
 10
18.71324865405168
 20
-26.4999999999998
 30
0.0
 11
14.48675134594822
 21
-26.49999999999969
 31
0.0
1001
GRPNAME
1000
PASTMD1I
  0
LINE
  5
B7E
330
969
100
AcDbEntity
  8
241
  6
Continuous
100
AcDbLine
 10
18.71324865405168
 20
-26.4999999999998
 30
0.0
 11
18.71324865405179
 21
0.0
 31
0.0
  0
LINE
  5
B7F
330
969
100
AcDbEntity
  8
240
  6
Continuous
100
AcDbLine
 10
18.71324865405168
 20
-26.4999999999998
 30
0.0
 11
21.59999999999999
 21
-31.49999999999999
 31
0.0
  0
LINE
  5
B80
330
969
100
AcDbEntity
  8
240
  6
Continuous
100
AcDbLine
 10
21.60000000000028
 20
31.5
 30
0.0
 11
18.71324865405097
 21
26.49999999999926
 31
0.0
  0
LINE
  5
B81
330
969
100
AcDbEntity
  8
240
  6
Continuous
100
AcDbLine
 10
11.59999999999988
 20
31.50000000000006
 30
0.0
 11
14.48675134594876
 21
26.49999999999915
 31
0.0
  0
LINE
  5
B82
330
969
100
AcDbEntity
  8
240
100
AcDbLine
 10
-0.0000000000001705
 20
-22.22499999999995
 30
0.0
 11
0.9999999999998292
 21
-22.22499999999993
 31
0.0
  0
LINE
  5
B83
330
969
100
AcDbEntity
  8
241
100
AcDbLine
 10
0.9999999999998292
 20
-22.22499999999961
 30
0.0
 11
0.9999999999998292
 21
-0.0000000000000142
 31
0.0
  0
LINE
  5
B84
330
969
100
AcDbEntity
  8
241
100
AcDbLine
 10
26.99999999999989
 20
-0.0000000000000142
 30
0.0
 11
26.99999999999997
 21
-30.49999994770113
 31
0.0
  0
LINE
  5
B85
330
969
100
AcDbEntity
  8
241
  6
Continuous
100
AcDbLine
 10
14.48675134594822
 20
26.49999999999967
 30
0.0
 11
14.48675134594825
 21
-0.0000000000000284
 31
0.0
  0
LINE
  5
B86
330
969
100
AcDbEntity
  8
240
  6
Continuous
100
AcDbLine
 10
18.71324865405168
 20
26.49999999999977
 30
0.0
 11
14.48675134594822
 21
26.49999999999967
 31
0.0
1001
GRPNAME
1000
PASTMD1I
  0
LINE
  5
B87
330
969
100
AcDbEntity
  8
241
  6
Continuous
100
AcDbLine
 10
18.71324865405168
 20
26.49999999999977
 30
0.0
 11
18.71324865405179
 21
-0.0000000000000284
 31
0.0
  0
LINE
  5
B88
330
969
100
AcDbEntity
  8
240
100
AcDbLine
 10
-0.0000000000001705
 20
22.22499999999994
 30
0.0
 11
1.000000000000225
 21
22.2250000000014
 31
0.0
  0
LINE
  5
B89
330
969
100
AcDbEntity
  8
241
  6
Continuous
100
AcDbLine
 10
-0.0000000000001705
 20
22.22499999999994
 30
0.0
 11
0.0
 21
-0.0000000000000142
 31
0.0
  0
LINE
  5
B8A
330
969
100
AcDbEntity
  8
241
100
AcDbLine
 10
0.9999999999998292
 20
22.2249999999996
 30
0.0
 11
0.9999999999998292
 21
-0.0000000000000142
 31
0.0
  0
LINE
  5
B8B
330
969
100
AcDbEntity
  8
241
  6
Continuous
100
AcDbLine
 10
21.59999999999991
 20
31.5
 30
0.0
 11
21.59999999999991
 21
-0.0000000000000142
 31
0.0
  0
LINE
  5
B8C
330
969
100
AcDbEntity
  8
241
  6
Continuous
100
AcDbLine
 10
11.59999999999991
 20
-0.0000000000000142
 30
0.0
 11
11.59999999999993
 21
31.50000000000006
 31
0.0
  0
LINE
  5
B8D
330
969
100
AcDbEntity
  8
241
100
AcDbLine
 10
26.99999999999989
 20
-0.0000000000000142
 30
0.0
 11
26.99999999999993
 21
30.49999993083748
 31
0.0
  0
LINE
  5
B8E
330
969
100
AcDbEntity
  8
241
  6
HIDDEN2
100
AcDbLine
 10
131.866025403785
 20
9.999999999999957
 30
0.0
 11
197.5000000000018
 21
9.9999999999999
 31
0.0
1001
GRPNAME
1000
PASTMD1D
  0
LINE
  5
B8F
330
969
100
AcDbEntity
  8
241
100
AcDbLine
 10
143.499999999996
 20
-0.0466926061900068
 30
0.0
 11
143.4999999999982
 21
-27.78015563713947
 31
0.0
  0
LINE
  5
B90
330
969
100
AcDbEntity
  8
241
100
AcDbLine
 10
137.4999999999962
 20
-0.0466926061900068
 30
0.0
 11
137.4999999999982
 21
-27.92023345570918
 31
0.0
  0
LINE
  5
B91
330
969
100
AcDbEntity
  8
241
100
AcDbLine
 10
135.4999999999963
 20
-0.0466926061900068
 30
0.0
 11
135.499999999998
 21
-27.96692606189909
 31
0.0
  0
LINE
  5
B92
330
969
100
AcDbEntity
  8
241
100
AcDbLine
 10
129.4999999999961
 20
-0.0466926061900068
 30
0.0
 11
129.499999999998
 21
-28.10700388046885
 31
0.0
  0
LINE
  5
B93
330
969
100
AcDbEntity
  8
240
100
AcDbLine
 10
143.5000000000018
 20
-27.78015563713919
 30
0.0
 11
155.5000000000017
 21
-27.50000000000019
 31
0.0
  0
LINE
  5
B94
330
969
100
AcDbEntity
  8
240
100
AcDbLine
 10
137.499999999994
 20
-27.92023345570882
 30
0.0
 11
135.4999999999977
 21
-27.96692606189923
 31
0.0
  0
LINE
  5
B95
330
969
100
AcDbEntity
  8
240
100
AcDbLine
 10
129.499999999998
 20
-28.10700388046885
 30
0.0
 11
26.99999999999997
 21
-30.49999994770113
 31
0.0
  0
LINE
  5
B96
330
969
100
AcDbEntity
  8
240
100
AcDbLine
 10
138.0120916917555
 20
-27.40814176395642
 30
0.0
 11
143.0112737082219
 21
-27.29142934537268
 31
0.0
  0
LINE
  5
B97
330
969
100
AcDbEntity
  8
240
100
AcDbLine
 10
138.0120916917555
 20
-27.40814176395642
 30
0.0
 11
137.499999999994
 21
-27.92023345570882
 31
0.0
  0
LINE
  5
B98
330
969
100
AcDbEntity
  8
240
100
AcDbLine
 10
143.5000000000018
 20
-27.78015563713919
 30
0.0
 11
143.0112737082219
 21
-27.29142934537268
 31
0.0
  0
LINE
  5
B99
330
969
100
AcDbEntity
  8
240
100
AcDbLine
 10
143.4999999984721
 20
27.78015563560064
 30
0.0
 11
155.4999999999979
 21
27.49999999999935
 31
0.0
  0
LINE
  5
B9A
330
969
100
AcDbEntity
  8
240
100
AcDbLine
 10
129.5000000034965
 20
28.10700387697512
 30
0.0
 11
26.99999999999993
 21
30.49999993083748
 31
0.0
  0
LINE
  5
B9B
330
969
100
AcDbEntity
  8
241
100
AcDbLine
 10
155.5000000000038
 20
-27.50000000000085
 30
0.0
 11
155.5000000000017
 21
-0.0000000000001705
 31
0.0
  0
LINE
  5
B9C
330
969
100
AcDbEntity
  8
240
100
AcDbLine
 10
170.8496772442404
 20
24.99999999999966
 30
0.0
 11
190.383829031912
 21
24.99999999999957
 31
0.0
  0
ARC
  5
B9D
330
969
100
AcDbEntity
  8
240
100
AcDbCircle
 10
197.0000000000032
 20
19.39937738537039
 30
0.0
 40
3.0
100
AcDbArc
 50
0.0
 51
69.99999999999658
1001
ASK_MEN_XD
1005
B9E
1070
     1
1005
0
1070
     1
  0
LINE
  5
B9E
330
969
100
AcDbEntity
  8
240
100
AcDbLine
 10
198.0260604299802
 20
22.21845524772815
 30
0.0
 11
190.3838290319121
 21
24.99999999999956
 31
0.0
  0
LINE
  5
B9F
330
969
100
AcDbEntity
  8
240
100
AcDbLine
 10
155.5000000000038
 20
27.4999999999998
 30
0.0
 11
162.6712501195262
 21
27.49999999999957
 31
0.0
  0
LINE
  5
BA0
330
969
100
AcDbEntity
  8
240
100
AcDbLine
 10
199.9999999999998
 20
19.39937738537071
 30
0.0
 11
200.0000000000023
 21
-0.0000000000004263
 31
0.0
  0
LINE
  5
BA1
330
969
100
AcDbEntity
  8
240
100
AcDbLine
 10
170.8496772442544
 20
-25.00000000000023
 30
0.0
 11
190.3838290319121
 21
-25.00000000000041
 31
0.0
  0
LINE
  5
BA2
330
969
100
AcDbEntity
  8
240
100
AcDbLine
 10
198.0260604299769
 20
-22.21845524773019
 30
0.0
 11
190.3838290319121
 21
-25.00000000000041
 31
0.0
  0
LINE
  5
BA3
330
969
100
AcDbEntity
  8
240
100
AcDbLine
 10
155.5000000000038
 20
-27.50000000000085
 30
0.0
 11
162.6712501195262
 21
-27.50000000000043
 31
0.0
  0
LINE
  5
BA4
330
969
100
AcDbEntity
  8
240
100
AcDbLine
 10
199.9999999999999
 20
-19.39937738537281
 30
0.0
 11
200.000000000002
 21
-0.0000000000003979
 31
0.0
  0
ARC
  5
BA5
330
969
100
AcDbEntity
  8
240
100
AcDbCircle
 10
196.9999999999999
 20
-19.39937738537247
 30
0.0
 40
3.0
100
AcDbArc
 50
290.0000000000001
 51
359.9999999999935
  0
LINE
  5
BA6
330
969
100
AcDbEntity
  8
241
100
AcDbLine
 10
190.3838290319121
 20
-25.00000000000041
 30
0.0
 11
190.3838290319121
 21
-0.0000000000004263
 31
0.0
  0
LINE
  5
BA7
330
969
100
AcDbEntity
  8
240
100
AcDbLine
 10
165.3567840254595
 20
-25.6428932188135
 30
0.0
 11
164.0854636818993
 21
-26.91421356237369
 31
0.0
  0
ARC
  5
BA8
330
969
100
AcDbEntity
  8
240
100
AcDbCircle
 10
162.6712501195262
 20
-25.50000000000046
 30
0.0
 40
2.0
100
AcDbArc
 50
270.0
 51
315.0
1001
ASK_MEN_XD
1005
0
1070
     1
1005
0
1070
     1
  0
LINE
  5
BA9
330
969
100
AcDbEntity
  8
241
100
AcDbLine
 10
163.4996772442725
 20
-27.3203594422493
 30
0.0
 11
163.4996772442724
 21
-0.0000000000002842
 31
0.0
  0
LINE
  5
BAA
330
969
100
AcDbEntity
  8
240
100
AcDbLine
 10
170.8496772442544
 20
-25.00000000000023
 30
0.0
 11
170.4996772442731
 21
-25.35000000000002
 31
0.0
1001
GRPNAME
1000
PASTMD1P
  0
LINE
  5
BAB
330
969
100
AcDbEntity
  8
241
100
AcDbLine
 10
170.8496772442544
 20
-25.00000000000023
 30
0.0
 11
170.8496772442544
 21
-0.0000000000005116
 31
0.0
  0
LINE
  5
BAC
330
969
100
AcDbEntity
  8
240
100
AcDbLine
 10
170.4996772442728
 20
-25.35000000000008
 30
0.0
 11
166.0638908066461
 21
-25.35000000000002
 31
0.0
  0
ARC
  5
BAD
330
969
100
AcDbEntity
  8
240
100
AcDbCircle
 10
166.0638908066461
 20
-26.35000000000002
 30
0.0
 40
1.0
100
AcDbArc
 50
90.0
 51
135.0
1001
ASK_MEN_XD
1005
BA7
1070
     1
1005
BAC
1070
     1
  0
LINE
  5
BAE
330
969
100
AcDbEntity
  8
241
100
AcDbLine
 10
165.649677244273
 20
-25.35000000000002
 30
0.0
 11
165.6496772442729
 21
-0.0000000000002842
 31
0.0
  0
LINE
  5
BAF
330
969
100
AcDbEntity
  8
240
100
AcDbLine
 10
165.3567840254594
 20
25.64289321881259
 30
0.0
 11
164.0854636818993
 21
26.91421356237277
 31
0.0
  0
ARC
  5
BB0
330
969
100
AcDbEntity
  8
240
100
AcDbCircle
 10
162.6712501195262
 20
25.49999999999954
 30
0.0
 40
2.0
100
AcDbArc
 50
45.0
 51
90.0
1001
ASK_MEN_XD
1005
0
1070
     1
1005
0
1070
     1
  0
LINE
  5
BB1
330
969
100
AcDbEntity
  8
240
100
AcDbLine
 10
170.4996772442731
 20
25.34999999999917
 30
0.0
 11
166.063890806646
 21
25.34999999999911
 31
0.0
  0
ARC
  5
BB2
330
969
100
AcDbEntity
  8
240
100
AcDbCircle
 10
166.063890806646
 20
26.34999999999911
 30
0.0
 40
1.0
100
AcDbArc
 50
224.9999999999989
 51
270.0
1001
ASK_MEN_XD
1005
BAF
1070
     1
1005
BB1
1070
     1
  0
LINE
  5
BB3
330
969
100
AcDbEntity
  8
240
100
AcDbLine
 10
170.8496772442404
 20
24.99999999999966
 30
0.0
 11
170.4996772442731
 21
25.34999999999917
 31
0.0
1001
GRPNAME
1000
PASTMD1P
  0
LINE
  5
BB4
330
969
100
AcDbEntity
  8
241
100
AcDbLine
 10
190.3838290319121
 20
24.99999999999956
 30
0.0
 11
190.3838290319121
 21
-0.0000000000003979
 31
0.0
  0
LINE
  5
BB5
330
969
100
AcDbEntity
  8
241
100
AcDbLine
 10
163.4996772442725
 20
27.32035944224845
 30
0.0
 11
163.4996772442724
 21
-0.0000000000005684
 31
0.0
  0
LINE
  5
BB6
330
969
100
AcDbEntity
  8
241
100
AcDbLine
 10
170.8496772442544
 20
24.99999999999938
 30
0.0
 11
170.8496772442544
 21
-0.0000000000003411
 31
0.0
  0
LINE
  5
BB7
330
969
100
AcDbEntity
  8
241
100
AcDbLine
 10
165.6496772442729
 20
25.34999999999917
 30
0.0
 11
165.6496772442729
 21
-0.0000000000005684
 31
0.0
  0
LINE
  5
BB8
330
969
100
AcDbEntity
  8
241
  6
HIDDEN2
100
AcDbLine
 10
197.5000000000017
 20
14.41635083268949
 30
0.0
 11
197.5000000000017
 21
-0.0000000000001705
 31
0.0
  0
LINE
  5
BB9
330
969
100
AcDbEntity
  8
241
100
AcDbLine
 10
155.5000000000038
 20
27.5000000000006
 30
0.0
 11
155.5000000000017
 21
-0.0000000000000853
 31
0.0
  0
LINE
  5
BBA
330
969
100
AcDbEntity
  8
240
100
AcDbLine
 10
130.0120916917514
 20
-27.59491218871648
 30
0.0
 11
135.0112737082178
 21
-27.47819977013272
 31
0.0
  0
LINE
  5
BBB
330
969
100
AcDbEntity
  8
240
100
AcDbLine
 10
130.0120916917514
 20
-27.59491218871648
 30
0.0
 11
129.4999999999899
 21
-28.10700388046885
 31
0.0
  0
LINE
  5
BBC
330
969
100
AcDbEntity
  8
240
100
AcDbLine
 10
135.4999999999977
 20
-27.96692606189923
 30
0.0
 11
135.0112737082178
 21
-27.47819977013272
 31
0.0
  0
LINE
  5
BBD
330
969
100
AcDbEntity
  8
240
100
AcDbLine
 10
137.499999999994
 20
27.92023345570874
 30
0.0
 11
135.4999999999977
 21
27.96692606189916
 31
0.0
  0
LINE
  5
BBE
330
969
100
AcDbEntity
  8
240
100
AcDbLine
 10
138.0120916917555
 20
27.40814176395637
 30
0.0
 11
143.0112737082219
 21
27.29142934537259
 31
0.0
  0
LINE
  5
BBF
330
969
100
AcDbEntity
  8
240
100
AcDbLine
 10
138.0120916917555
 20
27.40814176395637
 30
0.0
 11
137.499999999994
 21
27.92023345570874
 31
0.0
  0
LINE
  5
BC0
330
969
100
AcDbEntity
  8
240
100
AcDbLine
 10
143.5000000000018
 20
27.78015563713911
 30
0.0
 11
143.0112737082219
 21
27.29142934537259
 31
0.0
  0
LINE
  5
BC1
330
969
100
AcDbEntity
  8
240
100
AcDbLine
 10
130.0120916917514
 20
27.59491218871642
 30
0.0
 11
135.0112737082178
 21
27.47819977013265
 31
0.0
  0
LINE
  5
BC2
330
969
100
AcDbEntity
  8
240
100
AcDbLine
 10
130.0120916917514
 20
27.59491218871642
 30
0.0
 11
129.4999999999899
 21
28.1070038804688
 31
0.0
  0
LINE
  5
BC3
330
969
100
AcDbEntity
  8
240
100
AcDbLine
 10
135.4999999999977
 20
27.96692606189916
 30
0.0
 11
135.0112737082178
 21
27.47819977013265
 31
0.0
  0
LINE
  5
BC4
330
969
100
AcDbEntity
  8
241
100
AcDbLine
 10
143.499999999996
 20
0.0466926061899358
 30
0.0
 11
143.4999999999983
 21
27.78015563713939
 31
0.0
  0
LINE
  5
BC5
330
969
100
AcDbEntity
  8
241
100
AcDbLine
 10
137.4999999999962
 20
0.0466926061899358
 30
0.0
 11
137.4999999999982
 21
27.92023345570911
 31
0.0
  0
LINE
  5
BC6
330
969
100
AcDbEntity
  8
241
100
AcDbLine
 10
135.4999999999963
 20
0.0466926061899358
 30
0.0
 11
135.499999999998
 21
27.96692606189902
 31
0.0
  0
LINE
  5
BC7
330
969
100
AcDbEntity
  8
241
100
AcDbLine
 10
129.4999999999961
 20
0.0466926061899358
 30
0.0
 11
129.499999999998
 21
28.1070038804688
 31
0.0
  0
LINE
  5
BC8
330
969
100
AcDbEntity
  8
241
100
AcDbLine
 10
197.5000000000017
 20
10.04999999999899
 30
0.0
 11
200.000000000001
 21
10.04999999999899
 31
0.0
  0
ENDBLK
  5
96B
330
969
100
AcDbEntity
  8
0
100
AcDbBlockEnd
  0
ENDSEC
  0
SECTION
  2
ENTITIES
  0
INSERT
  5
6E6
330
1A
100
AcDbEntity
  8
245
100
AcDbBlockReference
  2
矢印なし
 10
175.6238269664377
 20
90.55123571690598
 30
0.0
  0
TEXT
  5
84E
330
1A
100
AcDbEntity
  8
241
  6
Continuous
100
AcDbText
 10
-65.40000000000006
 20
62.99999999999997
 30
0.0
 40
5.0
  1
BBT40-MEGA20D-200A
  7
YOKO
 11
-65.40000000000006
 21
62.99999999999997
 31
0.0
100
AcDbText
 73
     1
  0
LEADER
  5
84F
330
1A
100
AcDbEntity
  8
250
  6
Continuous
370
    -3
100
AcDbLeader
  3
BIGT
 76
     2
 10
-41.35292523879352
 20
-16.19436506934268
 30
0.0
 10
-48.25637089013412
 20
-28.15148368475501
 30
0.0
1001
ACAD
1000
DSTYLE
1002
{
1070
    41
1040
2.0
1002
}
  0
MTEXT
  5
850
330
1A
100
AcDbEntity
  8
250
  6
Continuous
 62
    40
370
    -3
100
AcDbMText
 10
-63.18970422346747
 20
-27.151483684755
 30
0.0
 40
2.799999999999998
 41
0.0
 71
     7
 72
     1
  1
BBT40
  7
YOKO
 73
     1
 44
1.0
1001
ITEMNAME
1000
LNSP3
1001
ACAD
1000
MTEXTBEGIN
1070
    73
1070
     1
1070
    44
1040
1.0
1070
    74
1070
     0
1000
MTEXTEND
  0
LINE
  5
851
330
1A
100
AcDbEntity
  8
250
  6
Continuous
370
    -3
100
AcDbLine
 10
-48.25637089013412
 20
-28.15148368475501
 30
0.0
 11
-65.98970422346745
 21
-28.15148368475501
 31
0.0
1001
ITEMNAME
1000
LNSP2
  0
DIMENSION
  5
852
330
1A
100
AcDbEntity
  8
250
  6
Continuous
370
    -3
100
AcDbDimension
  2
*D17
 10
214.000000000002
 20
9.999999999999817
 30
0.0
 11
211.600000000002
 21
-0.000000000000107
 31
0.0
 70
    32
  1
{\H2.8;%%C}<>
 71
     5
 42
19.99999999999991
  3
BIGT
100
AcDbAlignedDimension
 13
197.5000000000014
 23
-10.00000000000008
 33
0.0
 14
197.5000000000017
 24
9.999999999999827
 34
0.0
 50
90.0
100
AcDbRotatedDimension
1001
ACAD
1000
DSTYLE
1002
{
1070
    42
1040
0.5
1070
    47
1040
0.02
1070
    48
1040
0.02
1070
    75
1070
     1
1070
   284
1070
     8
1070
   343
1005
6E3
1002
}
  0
DIMENSION
  5
853
330
1A
100
AcDbEntity
  8
250
  6
Continuous
370
    -3
100
AcDbDimension
  2
*D18
 10
221.0000000000018
 20
24.99999999999956
 30
0.0
 11
218.6000000000019
 21
-0.0000000000004005
 31
0.0
 70
    32
  1
{\H2.8;%%C}<>
 71
     5
 42
50.0
  3
BIGT
100
AcDbAlignedDimension
 13
190.3838290319121
 23
-25.00000000000041
 33
0.0
 14
190.3838290319121
 24
24.99999999999957
 34
0.0
 50
90.0
100
AcDbRotatedDimension
1001
ACAD
1000
DSTYLE
1002
{
1070
    42
1040
0.5
1070
    47
1040
0.02
1070
    48
1040
0.02
1070
   284
1070
     8
1002
}
  0
DIMENSION
  5
854
330
1A
100
AcDbEntity
  8
250
  6
Continuous
370
    -3
100
AcDbDimension
  2
*D19
 10
228.0000000000021
 20
27.49999999999956
 30
0.0
 11
225.6000000000021
 21
-0.0000000000004151
 31
0.0
 70
    32
  1
{\H2.8;%%C}<>
 71
     5
 42
55.0
  3
BIGT
100
AcDbAlignedDimension
 13
162.6712501195262
 23
-27.50000000000043
 33
0.0
 14
162.6712501195262
 24
27.49999999999957
 34
0.0
 50
90.0
100
AcDbRotatedDimension
1001
ACAD
1000
DSTYLE
1002
{
1070
    42
1040
0.5
1070
    47
1040
0.02
1070
    48
1040
0.02
1070
   284
1070
     8
1002
}
  0
DIMENSION
  5
855
330
1A
100
AcDbEntity
  8
250
  6
Continuous
370
    -3
100
AcDbDimension
  2
*D20
 10
200.0000000000032
 20
41.9999999999996
 30
0.0
 11
158.1695001018689
 21
41.9999999999996
 31
0.0
 70
   160
  1
（max.<>）
 71
     5
 42
85.00000000000119
  3
BIGT
100
AcDbAlignedDimension
 13
115.000000000002
 23
9.999999999999772
 33
0.0
 14
200.0000000000032
 24
19.39937738537039
 34
0.0
100
AcDbRotatedDimension
1001
ACAD
1000
DSTYLE
1002
{
1070
    41
1040
2.0
1002
}
  0
DIMENSION
  5
856
330
1A
100
AcDbEntity
  8
250
  6
Continuous
370
    -3
100
AcDbDimension
  2
*D21
 10
200.0000000000032
 20
49.0
 30
0.0
 11
100.0000000000015
 21
49.0
 31
0.0
 70
   160
 71
     5
 42
200.0000000000033
  3
BIGT
100
AcDbAlignedDimension
 13
-0.0000000000001137
 23
22.22499999999998
 33
0.0
 14
200.0000000000032
 24
19.39937738537039
 34
0.0
100
AcDbRotatedDimension
1001
ACAD
1000
DSTYLE
1002
{
1070
    41
1040
2.0
1002
}
  0
INSERT
  5
BC9
330
1A
100
AcDbEntity
  8
245
100
AcDbBlockReference
  2
1
 10
0.0
 20
0.0
 30
0.0
  0
VIEWPORT
  5
22
102
{ACAD_XDICTIONARY
360
BCB
102
}
330
17
100
AcDbEntity
 67
     1
  8
0
100
AcDbViewport
 10
261.5176991150442
 20
148.5
 30
0.0
 40
523.0353982300885
 41
297.0
 68
     1
 69
     1
 12
261.5176991150442
 22
148.5
 13
0.0
 23
0.0
 14
1.0
 24
1.0
 15
10.0
 25
10.0
 16
0.0
 26
0.0
 36
1.0
 17
0.0
 27
0.0
 37
0.0
 42
50.0
 43
0.0
 44
0.0
 45
297.0
 50
0.0
 51
0.0
 72
   100
 90
    32800
  1

281
     0
 71
     1
 74
     0
110
0.0
120
0.0
130
0.0
111
1.0
121
0.0
131
0.0
112
0.0
122
1.0
132
0.0
 79
     0
146
0.0
  0
ENDSEC
  0
SECTION
  2
OBJECTS
  0
DICTIONARY
  5
C
330
0
100
AcDbDictionary
281
     1
  3
ACAD_COLOR
350
791
  3
ACAD_GROUP
350
D
  3
ACAD_LAYOUT
350
565
  3
ACAD_MATERIAL
350
77C
  3
ACAD_MLINESTYLE
350
E
  3
ACAD_PLOTSETTINGS
350
566
  3
ACAD_PLOTSTYLENAME
350
563
  3
ACAD_TABLESTYLE
350
792
  3
ACAD_VISUALSTYLE
350
780
  3
AcDbVariableDictionary
350
9D4
  3
DWGPROPS
350
BCA
  3
GRADE_DWG
350
540
  0
DICTIONARY
  5
A6D
330
1A
100
AcDbDictionary
280
     1
281
     1
  3
ACAD_SORTENTS
360
A6E
  0
DICTIONARY
  5
BCB
330
22
100
AcDbDictionary
280
     1
281
     1
  3
ACAD_XREC_ROUNDTRIP
360
BCC
  0
DICTIONARY
  5
791
102
{ACAD_REACTORS
330
C
102
}
330
C
100
AcDbDictionary
281
     1
  0
DICTIONARY
  5
D
102
{ACAD_REACTORS
330
C
102
}
330
C
100
AcDbDictionary
281
     1
  3
*A1
350
6C7
  3
*A2
350
6C8
  3
*A3
350
6D4
  3
*A4
350
6D5
  3
DREC-1
350
5FC
  3
DREC-2
350
654
  3
DREC-3
350
673
  0
DICTIONARY
  5
565
102
{ACAD_REACTORS
330
C
102
}
330
C
100
AcDbDictionary
281
     1
  3
Model
350
567
  3
ﾚｲｱｳﾄ1
350
568
  0
DICTIONARY
  5
77C
102
{ACAD_REACTORS
330
C
102
}
330
C
100
AcDbDictionary
281
     1
  3
ByBlock
350
77E
  3
ByLayer
350
77D
  3
Global
350
77F
  0
DICTIONARY
  5
E
102
{ACAD_REACTORS
330
C
102
}
330
C
100
AcDbDictionary
281
     1
  3
STANDARD
350
13
  0
DICTIONARY
  5
566
102
{ACAD_REACTORS
330
C
102
}
330
C
100
AcDbDictionary
281
     1
  3
A3(0.5倍)
350
772
  3
A3(1倍)
350
773
  3
A3(1倍)(2000)
350
774
  3
A3(2倍)
350
775
  3
A4(0.5倍)
350
776
  3
A4(1倍)
350
777
  3
A4(1倍)(2000)
350
778
  3
A4(2倍)
350
779
  0
ACDBDICTIONARYWDFLT
  5
563
102
{ACAD_REACTORS
330
C
102
}
330
C
100
AcDbDictionary
281
     1
  3
Normal
350
564
100
AcDbDictionaryWithDefault
340
564
  0
DICTIONARY
  5
792
102
{ACAD_REACTORS
330
C
102
}
330
C
100
AcDbDictionary
281
     1
  3
Standard
350
793
  0
DICTIONARY
  5
780
102
{ACAD_REACTORS
330
C
102
}
330
C
100
AcDbDictionary
281
     1
  3
2dWireframe
350
786
  3
3D Hidden
350
788
  3
3dWireframe
350
787
  3
Basic
350
785
  3
Brighten
350
78C
  3
ColorChange
350
790
  3
Conceptual
350
789
  3
Dim
350
78B
  3
Facepattern
350
78F
  3
Flat
350
781
  3
FlatWithEdges
350
782
  3
Gouraud
350
783
  3
GouraudWithEdges
350
784
  3
Linepattern
350
78E
  3
Realistic
350
78A
  3
Thicken
350
78D
  0
DICTIONARY
  5
9D4
102
{ACAD_REACTORS
330
C
102
}
330
C
100
AcDbDictionary
281
     1
  3
CTABLESTYLE
350
9D5
  3
DIMASSOC
350
9D8
  3
INDEXCTL
350
9D7
  3
SORTENTS
350
9D6
  0
XRECORD
  5
BCA
102
{ACAD_REACTORS
330
C
102
}
330
C
100
AcDbXrecord
280
     1
  1
DWGPROPS COOKIE
  2

  3

  4

  6

  7

  8
AWTEC
  9

300
=
301
=
302
=
303
=
304
=
305
=
306
=
307
=
308
=
309
=
 40
0.0060662731481481
 41
2456316.655569294
 42
2456318.40931713
  1

 90
        0
  0
DICTIONARY
  5
540
102
{ACAD_REACTORS
330
C
102
}
330
C
100
AcDbDictionary
281
     1
  3
VERSION
350
560
  0
SORTENTSTABLE
  5
A6E
102
{ACAD_REACTORS
330
A6D
102
}
330
A6D
100
AcDbSortentsTable
330
1A
331
852
  5
852
331
850
  5
850
331
84F
  5
84F
331
855
  5
855
331
853
  5
853
331
851
  5
851
331
6E6
  5
6E6
331
84E
  5
84E
331
856
  5
856
331
854
  5
854
  0
XRECORD
  5
BCC
102
{ACAD_REACTORS
330
BCB
102
}
330
BCB
100
AcDbXrecord
280
     1
102
SHADEPLOT
 70
     0
  0
GROUP
  5
6C7
102
{ACAD_REACTORS
330
D
102
}
330
D
100
AcDbGroup
300

 70
     0
 71
     1
1001
GRPNAME
1000
DMA00
  0
GROUP
  5
6C8
102
{ACAD_REACTORS
330
D
102
}
330
D
100
AcDbGroup
300

 70
     0
 71
     1
1001
GRPNAME
1000
DMA00
  0
GROUP
  5
6D4
102
{ACAD_REACTORS
330
D
102
}
330
D
100
AcDbGroup
300

 70
     0
 71
     1
1001
GRPNAME
1000
DMA00
  0
GROUP
  5
6D5
102
{ACAD_REACTORS
330
D
102
}
330
D
100
AcDbGroup
300

 70
     0
 71
     1
1001
GRPNAME
1000
DMA00
  0
GROUP
  5
5FC
102
{ACAD_REACTORS
330
D
102
}
330
D
100
AcDbGroup
300

 70
     0
 71
     1
1001
GRPNAME
1000
DREC-
1001
GPARA
1000
xsiz
1000
44.182
1000
ysiz
1000
40.677
1000
angl
1000
0
1000
ctyp
1000
0
1000
csiz
1000
5
1000
lfnt
1000
cont
1000
hcnt
1000
hoff
1000
vcnt
1000
voff
1000
opnt
1000
4
1000
dxpt
1000
0
1000
dypt
1000
0
  0
GROUP
  5
654
102
{ACAD_REACTORS
330
D
102
}
330
D
100
AcDbGroup
300

 70
     0
 71
     1
1001
GRPNAME
1000
DREC-
1001
GPARA
1000
xsiz
1000
54.592
1000
ysiz
1000
53.036
1000
angl
1000
0
1000
ctyp
1000
0
1000
csiz
1000
5
1000
lfnt
1000
cont
1000
hcnt
1000
hoff
1000
vcnt
1000
voff
1000
opnt
1000
4
1000
dxpt
1000
0
1000
dypt
1000
0
  0
GROUP
  5
673
102
{ACAD_REACTORS
330
D
102
}
330
D
100
AcDbGroup
300

 70
     0
 71
     1
1001
GRPNAME
1000
DREC-
1001
GPARA
1000
xsiz
1000
30.363
1000
ysiz
1000
36.175
1000
angl
1000
0
1000
ctyp
1000
0
1000
csiz
1000
5
1000
lfnt
1000
cont
1000
hcnt
1000
hoff
1000
vcnt
1000
voff
1000
opnt
1000
4
1000
dxpt
1000
0
1000
dypt
1000
0
  0
LAYOUT
  5
567
102
{ACAD_XDICTIONARY
360
BCD
102
}
102
{ACAD_REACTORS
330
565
102
}
330
565
100
AcDbPlotSettings
  1
A3(1倍)
  2
Canon LBP5600.pc3
  4
A3
  6

 40
5.873749732971191
 41
5.873747825622557
 42
5.873748779296875
 43
5.873748779296875
 44
296.9259948730469
 45
419.9466552734373
 46
37.59
 47
55.6
 48
0.0
 49
0.0
140
0.0
141
0.0
142
1.0
143
1.0
 70
 11956
 72
     1
 73
     1
 74
     2
  7
big.ctb
 75
    16
147
1.0
148
0.0
149
0.0
100
AcDbLayout
  1
Model
 70
     1
 71
     0
 10
0.0
 20
0.0
 11
12.0
 21
9.0
 12
0.0
 22
0.0
 32
0.0
 14
0.0
 24
0.0
 34
0.0
 15
0.0
 25
0.0
 35
0.0
146
0.0
 13
0.0
 23
0.0
 33
0.0
 16
1.0
 26
0.0
 36
0.0
 17
0.0
 27
1.0
 37
0.0
 76
     0
330
1A
331
77A
  0
LAYOUT
  5
568
102
{ACAD_XDICTIONARY
360
BCF
102
}
102
{ACAD_REACTORS
330
565
102
}
330
565
100
AcDbPlotSettings
  1

  2
\\ICHIRO\FX Able Model-PRII ART4-ADV
  4

  6

 40
0.0
 41
0.0
 42
0.0
 43
0.0
 44
0.0
 45
0.0
 46
0.0
 47
0.0
 48
0.0
 49
0.0
140
0.0
141
0.0
142
1.0
143
1.0
 70
   688
 72
     0
 73
     0
 74
     5
  7
big.ctb
 75
    16
147
1.0
148
0.0
149
0.0
100
AcDbLayout
  1
ﾚｲｱｳﾄ1
 70
     1
 71
     1
 10
0.0
 20
0.0
 11
420.0
 21
297.0
 12
0.0
 22
0.0
 32
0.0
 14
1.000000000000000E+20
 24
1.000000000000000E+20
 34
1.000000000000000E+20
 15
-1.000000000000000E+20
 25
-1.000000000000000E+20
 35
-1.000000000000000E+20
146
0.0
 13
0.0
 23
0.0
 33
0.0
 16
1.0
 26
0.0
 36
0.0
 17
0.0
 27
1.0
 37
0.0
 76
     0
330
17
331
22
  0
MATERIAL
  5
77E
102
{ACAD_XDICTIONARY
360
9F2
102
}
102
{ACAD_REACTORS
330
77C
102
}
330
77C
100
AcDbMaterial
  1
ByBlock
  0
MATERIAL
  5
77D
102
{ACAD_XDICTIONARY
360
9F0
102
}
102
{ACAD_REACTORS
330
77C
102
}
330
77C
100
AcDbMaterial
  1
ByLayer
  0
MATERIAL
  5
77F
102
{ACAD_XDICTIONARY
360
9F4
102
}
102
{ACAD_REACTORS
330
77C
102
}
330
77C
100
AcDbMaterial
  1
Global
  0
MLINESTYLE
  5
13
102
{ACAD_REACTORS
330
E
102
}
330
E
100
AcDbMlineStyle
  2
STANDARD
 70
     0
  3

 62
     0
 51
90.0
 52
90.0
 71
     2
 49
0.5
 62
   256
  6
BYLAYER
 49
-0.5
 62
   256
  6
BYLAYER
  0
PLOTSETTINGS
  5
772
102
{ACAD_XDICTIONARY
360
BD1
102
}
102
{ACAD_REACTORS
330
566
102
}
330
566
100
AcDbPlotSettings
  1
A3(0.5倍)
  2
Canon LBP5600.pc3
  4
A3
  6

 40
5.873749732971191
 41
5.873747825622557
 42
5.873748779296875
 43
5.873748779296875
 44
296.9259948730469
 45
419.9466552734373
 46
90.09
 47
129.85
 48
0.0
 49
0.0
140
0.0
141
0.0
142
1.0
143
2.0
 70
  1716
 72
     1
 73
     1
 74
     2
  7
big.ctb
 75
    17
147
0.5
148
0.0
149
0.0
  0
PLOTSETTINGS
  5
773
102
{ACAD_XDICTIONARY
360
BD3
102
}
102
{ACAD_REACTORS
330
566
102
}
330
566
100
AcDbPlotSettings
  1
A3(1倍)
  2
Canon LBP5600.pc3
  4
A3
  6

 40
5.873749732971191
 41
5.873747825622557
 42
5.873748779296875
 43
5.873748779296875
 44
296.9259948730469
 45
419.9466552734373
 46
37.59
 47
55.6
 48
0.0
 49
0.0
140
0.0
141
0.0
142
1.0
143
1.0
 70
  1716
 72
     1
 73
     1
 74
     2
  7
big.ctb
 75
    16
147
1.0
148
0.0
149
0.0
  0
PLOTSETTINGS
  5
774
102
{ACAD_XDICTIONARY
360
BD5
102
}
102
{ACAD_REACTORS
330
566
102
}
330
566
100
AcDbPlotSettings
  1
A3(1倍)(2000)
  2
Canon LBP5600.pc3
  4
A3
  6

 40
5.873749732971191
 41
5.873747825622557
 42
5.873748779296875
 43
5.873748779296875
 44
296.9259948730469
 45
419.9466552734373
 46
37.59
 47
55.6
 48
0.0
 49
0.0
140
0.0
141
0.0
142
1.0
143
1.0
 70
  1716
 72
     1
 73
     1
 74
     2
  7
big.ctb
 75
    16
147
1.0
148
0.0
149
0.0
  0
PLOTSETTINGS
  5
775
102
{ACAD_XDICTIONARY
360
BD7
102
}
102
{ACAD_REACTORS
330
566
102
}
330
566
100
AcDbPlotSettings
  1
A3(2倍)
  2
Canon LBP5600.pc3
  4
A3
  6

 40
5.873749732971191
 41
5.873747825622557
 42
5.873748779296875
 43
5.873748779296875
 44
296.9259948730469
 45
419.9466552734373
 46
-67.40999999999999
 47
-92.9
 48
0.0
 49
0.0
140
0.0
141
0.0
142
1.0
143
0.5
 70
  1716
 72
     1
 73
     1
 74
     2
  7
big.ctb
 75
    27
147
2.0
148
0.0
149
0.0
  0
PLOTSETTINGS
  5
776
102
{ACAD_XDICTIONARY
360
BD9
102
}
102
{ACAD_REACTORS
330
566
102
}
330
566
100
AcDbPlotSettings
  1
A4(0.5倍)
  2
Canon LBP5600.pc3
  4
A3
  6

 40
5.873749732971191
 41
5.873747825622557
 42
5.873748779296875
 43
5.873748779296875
 44
296.9259948730469
 45
419.9466552734373
 46
90.09
 47
129.85
 48
0.0
 49
0.0
140
0.0
141
0.0
142
1.0
143
2.0
 70
  1716
 72
     1
 73
     1
 74
     2
  7
big.ctb
 75
    17
147
0.5
148
0.0
149
0.0
  0
PLOTSETTINGS
  5
777
102
{ACAD_XDICTIONARY
360
BDB
102
}
102
{ACAD_REACTORS
330
566
102
}
330
566
100
AcDbPlotSettings
  1
A4(1倍)
  2
Canon LBP5600.pc3
  4
A3
  6

 40
5.873749732971191
 41
5.873747825622557
 42
5.873748779296875
 43
5.873748779296875
 44
296.9259948730469
 45
419.9466552734373
 46
37.59
 47
55.6
 48
0.0
 49
0.0
140
0.0
141
0.0
142
1.0
143
1.0
 70
  1716
 72
     1
 73
     1
 74
     2
  7
big.ctb
 75
    16
147
1.0
148
0.0
149
0.0
  0
PLOTSETTINGS
  5
778
102
{ACAD_XDICTIONARY
360
BDD
102
}
102
{ACAD_REACTORS
330
566
102
}
330
566
100
AcDbPlotSettings
  1
A4(1倍)(2000)
  2
Canon LBP5600.pc3
  4
A3
  6

 40
5.873749732971191
 41
5.873747825622557
 42
5.873748779296875
 43
5.873748779296875
 44
296.9259948730469
 45
419.9466552734373
 46
37.59
 47
55.6
 48
0.0
 49
0.0
140
0.0
141
0.0
142
1.0
143
1.0
 70
  1716
 72
     1
 73
     1
 74
     2
  7
big.ctb
 75
    16
147
1.0
148
0.0
149
0.0
  0
PLOTSETTINGS
  5
779
102
{ACAD_XDICTIONARY
360
BDF
102
}
102
{ACAD_REACTORS
330
566
102
}
330
566
100
AcDbPlotSettings
  1
A4(2倍)
  2
Canon LBP5600.pc3
  4
A3
  6

 40
5.873749732971191
 41
5.873747825622557
 42
5.873748779296875
 43
5.873748779296875
 44
296.9259948730469
 45
419.9466552734373
 46
-67.40999999999999
 47
-92.9
 48
0.0
 49
0.0
140
0.0
141
0.0
142
1.0
143
0.5
 70
  1716
 72
     1
 73
     1
 74
     2
  7
big.ctb
 75
    27
147
2.0
148
0.0
149
0.0
  0
ACDBPLACEHOLDER
  5
564
102
{ACAD_REACTORS
330
563
102
}
330
563
  0
TABLESTYLE
  5
793
102
{ACAD_XDICTIONARY
360
BE1
102
}
102
{ACAD_REACTORS
330
792
102
}
330
792
100
AcDbTableStyle
  3
Standard
 70
     0
 71
     0
 40
1.5
 41
1.5
280
     0
281
     0
  7
STANDARD
140
4.5
170
     2
 62
     0
 63
     7
283
     0
274
    -2
284
     1
 64
     0
275
    -2
285
     1
 65
     0
276
    -2
286
     1
 66
     0
277
    -2
287
     1
 67
     0
278
    -2
288
     1
 68
     0
279
    -2
289
     1
 69
     0
  7
STANDARD
140
6.0
170
     5
 62
     0
 63
     7
283
     0
274
    -2
284
     1
 64
     0
275
    -2
285
     1
 65
     0
276
    -2
286
     1
 66
     0
277
    -2
287
     1
 67
     0
278
    -2
288
     1
 68
     0
279
    -2
289
     1
 69
     0
  7
STANDARD
140
4.5
170
     5
 62
     0
 63
     7
283
     0
274
    -2
284
     1
 64
     0
275
    -2
285
     1
 65
     0
276
    -2
286
     1
 66
     0
277
    -2
287
     1
 67
     0
278
    -2
288
     1
 68
     0
279
    -2
289
     1
 69
     0
  0
VISUALSTYLE
  5
786
102
{ACAD_REACTORS
330
780
102
}
330
780
100
AcDbVisualStyle
  2
2dWireframe
 70
     4
 71
     0
 72
     2
 73
     0
 90
        0
 40
-0.6
 41
-30.0
 62
     5
 63
     7
 74
     1
 91
        4
 64
     7
 65
   257
 75
     1
175
     1
 42
1.0
 92
        0
 66
   257
 43
1.0
 76
     1
 77
     6
 78
     2
 67
     7
 79
     5
170
     0
171
     0
290
     0
174
     0
 93
        1
 44
0.0
173
     0
291
     0
 45
0.0
1001
ACAD
1000
AcDbSavedByObjectVersion
1070
     0
1000
AcDbSavedByObjectVersion
1070
     0
1000
AcDbSavedByObjectVersion
1070
     0
  0
VISUALSTYLE
  5
788
102
{ACAD_REACTORS
330
780
102
}
330
780
100
AcDbVisualStyle
  2
3D Hidden
 70
     6
 71
     1
 72
     2
 73
     2
 90
        0
 40
-0.6
 41
-30.0
 62
     5
 63
     7
 74
     2
 91
        2
 64
     7
 65
   257
 75
     2
175
     1
 42
40.0
 92
        0
 66
   257
 43
1.0
 76
     1
 77
     6
 78
     2
 67
     7
 79
     3
170
     0
171
     0
290
     0
174
     0
 93
        1
 44
0.0
173
     0
291
     0
 45
0.0
1001
ACAD
1000
AcDbSavedByObjectVersion
1070
     0
1000
AcDbSavedByObjectVersion
1070
     0
1000
AcDbSavedByObjectVersion
1070
     0
  0
VISUALSTYLE
  5
787
102
{ACAD_REACTORS
330
780
102
}
330
780
100
AcDbVisualStyle
  2
3dWireframe
 70
     5
 71
     0
 72
     2
 73
     0
 90
        0
 40
-0.6
 41
-30.0
 62
     5
 63
     7
 74
     1
 91
        4
 64
     7
 65
   257
 75
     1
175
     1
 42
1.0
 92
        0
 66
   257
 43
1.0
 76
     1
 77
     6
 78
     2
 67
     7
 79
     5
170
     0
171
     0
290
     0
174
     0
 93
        1
 44
0.0
173
     0
291
     0
 45
0.0
1001
ACAD
1000
AcDbSavedByObjectVersion
1070
     0
1000
AcDbSavedByObjectVersion
1070
     0
1000
AcDbSavedByObjectVersion
1070
     0
  0
VISUALSTYLE
  5
785
102
{ACAD_REACTORS
330
780
102
}
330
780
100
AcDbVisualStyle
  2
Basic
 70
     7
 71
     1
 72
     0
 73
     1
 90
        0
 40
-0.6
 41
-30.0
 62
     5
 63
     7
 74
     0
 91
        4
 64
     7
 65
   257
 75
     1
175
     1
 42
1.0
 92
        8
 66
     7
 43
1.0
 76
     1
 77
     6
 78
     2
 67
     7
 79
     5
170
     0
171
     0
290
     0
174
     0
 93
        1
 44
0.0
173
     0
291
     1
 45
0.0
1001
ACAD
1000
AcDbSavedByObjectVersion
1070
     0
1000
AcDbSavedByObjectVersion
1070
     0
1000
AcDbSavedByObjectVersion
1070
     0
  0
VISUALSTYLE
  5
78C
102
{ACAD_REACTORS
330
780
102
}
330
780
100
AcDbVisualStyle
  2
Brighten
 70
    12
 71
     2
 72
     2
 73
     0
 90
        0
 40
-0.6
 41
-30.0
 62
     5
 63
     7
 74
     1
 91
        4
 64
     7
 65
   257
 75
     1
175
     1
 42
1.0
 92
        8
 66
     7
 43
1.0
 76
     1
 77
     6
 78
     2
 67
     7
 79
     5
170
     0
171
     0
290
     0
174
     0
 93
        1
 44
50.0
173
     0
291
     1
 45
0.0
1001
ACAD
1000
AcDbSavedByObjectVersion
1070
     0
1000
AcDbSavedByObjectVersion
1070
     0
1000
AcDbSavedByObjectVersion
1070
     0
  0
VISUALSTYLE
  5
790
102
{ACAD_REACTORS
330
780
102
}
330
780
100
AcDbVisualStyle
  2
ColorChange
 70
    16
 71
     2
 72
     2
 73
     3
 90
        0
 40
-0.6
 41
-30.0
 62
     5
 63
     8
 74
     1
 91
        4
 64
     7
 65
   257
 75
     1
175
     1
 42
1.0
 92
        8
 66
     8
 43
1.0
 76
     1
 77
     6
 78
     2
 67
     7
 79
     5
170
     0
171
     0
290
     0
174
     0
 93
        1
 44
0.0
173
     0
291
     1
 45
0.0
1001
ACAD
1000
AcDbSavedByObjectVersion
1070
     0
1000
AcDbSavedByObjectVersion
1070
     0
1000
AcDbSavedByObjectVersion
1070
     0
  0
VISUALSTYLE
  5
789
102
{ACAD_REACTORS
330
780
102
}
330
780
100
AcDbVisualStyle
  2
Conceptual
 70
     9
 71
     3
 72
     2
 73
     0
 90
        0
 40
-0.6
 41
-30.0
 62
     5
 63
     7
 74
     2
 91
        2
 64
     7
 65
   257
 75
     1
175
     1
 42
40.0
 92
        8
 66
     7
 43
1.0
 76
     1
 77
     6
 78
     2
 67
     7
 79
     3
170
     0
171
     0
290
     0
174
     0
 93
        1
 44
0.0
173
     0
291
     0
 45
0.0
1001
ACAD
1000
AcDbSavedByObjectVersion
1070
     0
1000
AcDbSavedByObjectVersion
1070
     0
1000
AcDbSavedByObjectVersion
1070
     0
  0
VISUALSTYLE
  5
78B
102
{ACAD_REACTORS
330
780
102
}
330
780
100
AcDbVisualStyle
  2
Dim
 70
    11
 71
     2
 72
     2
 73
     0
 90
        0
 40
-0.6
 41
-30.0
 62
     5
 63
     7
 74
     1
 91
        4
 64
     7
 65
   257
 75
     1
175
     1
 42
1.0
 92
        8
 66
     7
 43
1.0
 76
     1
 77
     6
 78
     2
 67
     7
 79
     5
170
     0
171
     0
290
     0
174
     0
 93
        1
 44
-50.0
173
     0
291
     1
 45
0.0
1001
ACAD
1000
AcDbSavedByObjectVersion
1070
     0
1000
AcDbSavedByObjectVersion
1070
     0
1000
AcDbSavedByObjectVersion
1070
     0
  0
VISUALSTYLE
  5
78F
102
{ACAD_REACTORS
330
780
102
}
330
780
100
AcDbVisualStyle
  2
Facepattern
 70
    15
 71
     2
 72
     2
 73
     0
 90
        0
 40
-0.6
 41
-30.0
 62
     5
 63
     7
 74
     1
 91
        4
 64
     7
 65
   257
 75
     1
175
     1
 42
1.0
 92
        8
 66
     7
 43
1.0
 76
     1
 77
     6
 78
     2
 67
     7
 79
     5
170
     0
171
     0
290
     0
174
     0
 93
        1
 44
0.0
173
     0
291
     1
 45
0.0
1001
ACAD
1000
AcDbSavedByObjectVersion
1070
     0
1000
AcDbSavedByObjectVersion
1070
     0
1000
AcDbSavedByObjectVersion
1070
     0
  0
VISUALSTYLE
  5
781
102
{ACAD_REACTORS
330
780
102
}
330
780
100
AcDbVisualStyle
  2
Flat
 70
     0
 71
     2
 72
     1
 73
     1
 90
        2
 40
-0.6
 41
30.0
 62
     5
 63
     7
 74
     0
 91
        4
 64
     7
 65
   257
 75
     1
175
     1
 42
1.0
 92
        8
 66
     7
 43
1.0
 76
     1
 77
     6
 78
     2
 67
     7
 79
     5
170
     0
171
     0
290
     0
174
     0
 93
       13
 44
0.0
173
     0
291
     1
 45
0.0
1001
ACAD
1000
AcDbSavedByObjectVersion
1070
     0
1000
AcDbSavedByObjectVersion
1070
     0
1000
AcDbSavedByObjectVersion
1070
     0
  0
VISUALSTYLE
  5
782
102
{ACAD_REACTORS
330
780
102
}
330
780
100
AcDbVisualStyle
  2
FlatWithEdges
 70
     1
 71
     2
 72
     1
 73
     1
 90
        2
 40
-0.6
 41
30.0
 62
     5
 63
     7
 74
     1
 91
        4
 64
     7
 65
   257
 75
     1
175
     1
 42
1.0
 92
        0
 66
   257
 43
1.0
 76
     1
 77
     6
 78
     2
 67
     7
 79
     5
170
     0
171
     0
290
     0
174
     0
 93
       13
 44
0.0
173
     0
291
     1
 45
0.0
1001
ACAD
1000
AcDbSavedByObjectVersion
1070
     0
1000
AcDbSavedByObjectVersion
1070
     0
1000
AcDbSavedByObjectVersion
1070
     0
  0
VISUALSTYLE
  5
783
102
{ACAD_REACTORS
330
780
102
}
330
780
100
AcDbVisualStyle
  2
Gouraud
 70
     2
 71
     2
 72
     2
 73
     1
 90
        2
 40
-0.6
 41
30.0
 62
     5
 63
     7
 74
     0
 91
        4
 64
     7
 65
   257
 75
     1
175
     1
 42
1.0
 92
        0
 66
     7
 43
1.0
 76
     1
 77
     6
 78
     2
 67
     7
 79
     5
170
     0
171
     0
290
     0
174
     0
 93
       13
 44
0.0
173
     0
291
     1
 45
0.0
1001
ACAD
1000
AcDbSavedByObjectVersion
1070
     0
1000
AcDbSavedByObjectVersion
1070
     0
1000
AcDbSavedByObjectVersion
1070
     0
  0
VISUALSTYLE
  5
784
102
{ACAD_REACTORS
330
780
102
}
330
780
100
AcDbVisualStyle
  2
GouraudWithEdges
 70
     3
 71
     2
 72
     2
 73
     1
 90
        2
 40
-0.6
 41
30.0
 62
     5
 63
     7
 74
     1
 91
        4
 64
     7
 65
   257
 75
     1
175
     1
 42
1.0
 92
        0
 66
   257
 43
1.0
 76
     1
 77
     6
 78
     2
 67
     7
 79
     5
170
     0
171
     0
290
     0
174
     0
 93
       13
 44
0.0
173
     0
291
     1
 45
0.0
1001
ACAD
1000
AcDbSavedByObjectVersion
1070
     0
1000
AcDbSavedByObjectVersion
1070
     0
1000
AcDbSavedByObjectVersion
1070
     0
  0
VISUALSTYLE
  5
78E
102
{ACAD_REACTORS
330
780
102
}
330
780
100
AcDbVisualStyle
  2
Linepattern
 70
    14
 71
     2
 72
     2
 73
     0
 90
        0
 40
-0.6
 41
-30.0
 62
     5
 63
     7
 74
     1
 91
        4
 64
     7
 65
   257
 75
     7
175
     7
 42
1.0
 92
        8
 66
     7
 43
1.0
 76
     1
 77
     6
 78
     2
 67
     7
 79
     5
170
     0
171
     0
290
     0
174
     0
 93
        1
 44
0.0
173
     0
291
     1
 45
0.0
1001
ACAD
1000
AcDbSavedByObjectVersion
1070
     0
1000
AcDbSavedByObjectVersion
1070
     0
1000
AcDbSavedByObjectVersion
1070
     0
  0
VISUALSTYLE
  5
78A
102
{ACAD_REACTORS
330
780
102
}
330
780
100
AcDbVisualStyle
  2
Realistic
 70
     8
 71
     2
 72
     2
 73
     0
 90
        0
 40
-0.6
 41
-30.0
 62
     5
 63
     7
 74
     1
 91
        0
 64
     7
 65
   257
 75
     1
175
     1
 42
1.0
 92
        8
 66
     8
 43
1.0
 76
     1
 77
     6
 78
     2
 67
     7
 79
     5
170
     0
171
     0
290
     0
174
     0
 93
       13
 44
0.0
173
     0
291
     0
 45
0.0
1001
ACAD
1000
AcDbSavedByObjectVersion
1070
     0
1000
AcDbSavedByObjectVersion
1070
     0
1000
AcDbSavedByObjectVersion
1070
     0
  0
VISUALSTYLE
  5
78D
102
{ACAD_REACTORS
330
780
102
}
330
780
100
AcDbVisualStyle
  2
Thicken
 70
    13
 71
     2
 72
     2
 73
     0
 90
        0
 40
-0.6
 41
-30.0
 62
     5
 63
     7
 74
     1
 91
        4
 64
     7
 65
   257
 75
     1
175
     1
 42
1.0
 92
       12
 66
     7
 43
1.0
 76
     1
 77
     6
 78
     2
 67
     7
 79
     5
170
     0
171
     0
290
     0
174
     0
 93
        1
 44
0.0
173
     0
291
     1
 45
0.0
1001
ACAD
1000
AcDbSavedByObjectVersion
1070
     0
1000
AcDbSavedByObjectVersion
1070
     0
1000
AcDbSavedByObjectVersion
1070
     0
  0
DICTIONARYVAR
  5
9D5
102
{ACAD_REACTORS
330
9D4
102
}
330
9D4
100
DictionaryVariables
280
     0
  1
STANDARD
  0
DICTIONARYVAR
  5
9D8
102
{ACAD_REACTORS
330
9D4
102
}
330
9D4
100
DictionaryVariables
280
     0
  1
1
  0
DICTIONARYVAR
  5
9D7
102
{ACAD_REACTORS
330
9D4
102
}
330
9D4
100
DictionaryVariables
280
     0
  1
0
  0
DICTIONARYVAR
  5
9D6
102
{ACAD_REACTORS
330
9D4
102
}
330
9D4
100
DictionaryVariables
280
     0
  1
127
  0
XRECORD
  5
560
102
{ACAD_REACTORS
330
540
102
}
330
540
100
AcDbXrecord
280
     1
  1
2.0.0
  0
DICTIONARY
  5
BCD
330
567
100
AcDbDictionary
280
     1
281
     1
  3
ACAD_XREC_ROUNDTRIP
360
BCE
  0
DICTIONARY
  5
BCF
330
568
100
AcDbDictionary
280
     1
281
     1
  3
ACAD_XREC_ROUNDTRIP
360
BD0
  0
DICTIONARY
  5
9F2
330
77E
100
AcDbDictionary
280
     1
281
     1
  3
ACAD_XREC_ROUNDTRIP
360
9F3
  0
DICTIONARY
  5
9F0
330
77D
100
AcDbDictionary
280
     1
281
     1
  3
ACAD_XREC_ROUNDTRIP
360
9F1
  0
DICTIONARY
  5
9F4
330
77F
100
AcDbDictionary
280
     1
281
     1
  3
ACAD_XREC_ROUNDTRIP
360
9F5
  0
DICTIONARY
  5
BD1
330
772
100
AcDbDictionary
280
     1
281
     1
  3
ACAD_XREC_ROUNDTRIP
360
BD2
  0
DICTIONARY
  5
BD3
330
773
100
AcDbDictionary
280
     1
281
     1
  3
ACAD_XREC_ROUNDTRIP
360
BD4
  0
DICTIONARY
  5
BD5
330
774
100
AcDbDictionary
280
     1
281
     1
  3
ACAD_XREC_ROUNDTRIP
360
BD6
  0
DICTIONARY
  5
BD7
330
775
100
AcDbDictionary
280
     1
281
     1
  3
ACAD_XREC_ROUNDTRIP
360
BD8
  0
DICTIONARY
  5
BD9
330
776
100
AcDbDictionary
280
     1
281
     1
  3
ACAD_XREC_ROUNDTRIP
360
BDA
  0
DICTIONARY
  5
BDB
330
777
100
AcDbDictionary
280
     1
281
     1
  3
ACAD_XREC_ROUNDTRIP
360
BDC
  0
DICTIONARY
  5
BDD
330
778
100
AcDbDictionary
280
     1
281
     1
  3
ACAD_XREC_ROUNDTRIP
360
BDE
  0
DICTIONARY
  5
BDF
330
779
100
AcDbDictionary
280
     1
281
     1
  3
ACAD_XREC_ROUNDTRIP
360
BE0
  0
DICTIONARY
  5
BE1
330
793
100
AcDbDictionary
280
     1
281
     1
  3
ACAD_XREC_ROUNDTRIP
360
BE2
  0
XRECORD
  5
BCE
102
{ACAD_REACTORS
330
BCD
102
}
330
BCD
100
AcDbXrecord
280
     1
102
SHADEPLOT
 70
     0
102
SHADEPLOTRESLEVEL
 70
     2
102
SHADEPLOTCUSTOMDPI
 70
   300
  0
XRECORD
  5
BD0
102
{ACAD_REACTORS
330
BCF
102
}
330
BCF
100
AcDbXrecord
280
     1
102
SHADEPLOT
 70
     0
102
SHADEPLOTRESLEVEL
 70
     2
102
SHADEPLOTCUSTOMDPI
 70
   300
  0
XRECORD
  5
9F3
102
{ACAD_REACTORS
330
9F2
102
}
330
9F2
100
AcDbXrecord
280
     1
102
MATERIAL
148
0.0
149
0.0
149
0.0
 93
        0
 94
       63
282
     0
 72
     1
 77
     1
171
     1
175
     1
179
     1
273
     0
  0
XRECORD
  5
9F1
102
{ACAD_REACTORS
330
9F0
102
}
330
9F0
100
AcDbXrecord
280
     1
102
MATERIAL
148
0.0
149
0.0
149
0.0
 93
        0
 94
       63
282
     0
 72
     1
 77
     1
171
     1
175
     1
179
     1
273
     0
  0
XRECORD
  5
9F5
102
{ACAD_REACTORS
330
9F4
102
}
330
9F4
100
AcDbXrecord
280
     1
102
MATERIAL
148
0.0
149
0.0
149
0.0
 93
        0
 94
       63
282
     0
 72
     1
 77
     1
171
     1
175
     1
179
     1
273
     0
  0
XRECORD
  5
BD2
102
{ACAD_REACTORS
330
BD1
102
}
330
BD1
100
AcDbXrecord
280
     1
102
SHADEPLOT
 70
     0
102
SHADEPLOTRESLEVEL
 70
     2
102
SHADEPLOTCUSTOMDPI
 70
   300
  0
XRECORD
  5
BD4
102
{ACAD_REACTORS
330
BD3
102
}
330
BD3
100
AcDbXrecord
280
     1
102
SHADEPLOT
 70
     0
102
SHADEPLOTRESLEVEL
 70
     2
102
SHADEPLOTCUSTOMDPI
 70
   300
  0
XRECORD
  5
BD6
102
{ACAD_REACTORS
330
BD5
102
}
330
BD5
100
AcDbXrecord
280
     1
102
SHADEPLOT
 70
     0
102
SHADEPLOTRESLEVEL
 70
     2
102
SHADEPLOTCUSTOMDPI
 70
   300
  0
XRECORD
  5
BD8
102
{ACAD_REACTORS
330
BD7
102
}
330
BD7
100
AcDbXrecord
280
     1
102
SHADEPLOT
 70
     0
102
SHADEPLOTRESLEVEL
 70
     2
102
SHADEPLOTCUSTOMDPI
 70
   300
  0
XRECORD
  5
BDA
102
{ACAD_REACTORS
330
BD9
102
}
330
BD9
100
AcDbXrecord
280
     1
102
SHADEPLOT
 70
     0
102
SHADEPLOTRESLEVEL
 70
     2
102
SHADEPLOTCUSTOMDPI
 70
   300
  0
XRECORD
  5
BDC
102
{ACAD_REACTORS
330
BDB
102
}
330
BDB
100
AcDbXrecord
280
     1
102
SHADEPLOT
 70
     0
102
SHADEPLOTRESLEVEL
 70
     2
102
SHADEPLOTCUSTOMDPI
 70
   300
  0
XRECORD
  5
BDE
102
{ACAD_REACTORS
330
BDD
102
}
330
BDD
100
AcDbXrecord
280
     1
102
SHADEPLOT
 70
     0
102
SHADEPLOTRESLEVEL
 70
     2
102
SHADEPLOTCUSTOMDPI
 70
   300
  0
XRECORD
  5
BE0
102
{ACAD_REACTORS
330
BDF
102
}
330
BDF
100
AcDbXrecord
280
     1
102
SHADEPLOT
 70
     0
102
SHADEPLOTRESLEVEL
 70
     2
102
SHADEPLOTCUSTOMDPI
 70
   300
  0
XRECORD
  5
BE2
102
{ACAD_REACTORS
330
BE1
102
}
330
BE1
100
AcDbXrecord
280
     1
102
ACAD_ROUNDTRIP_PRE2007_TABLESTYLE
 90
      512
 91
        0
  1

 92
      512
 93
        0
  2

 94
      512
 95
        0
  3

  0
ENDSEC
  0
EOF
