  0
SECTION
  2
HEADER
  9
$ACADVER
  1
AC1015
  9
$ACADMAINTVER
 70
    20
  9
$DWGCODEPAGE
  3
ANSI_932
  9
$INSBASE
 10
0.0
 20
0.0
 30
0.0
  9
$EXTMIN
 10
-66.41108924179707
 20
-31.50736943284005
 30
-0.0015258207003583
  9
$EXTMAX
 10
149.013867861328
 20
68.0059894716901
 30
0.0000000349246037
  9
$LIMMIN
 10
0.0
 20
0.0
  9
$LIMMAX
 10
297.0
 20
210.0
  9
$ORTHOMODE
 70
     1
  9
$REGENMODE
 70
     1
  9
$FILLMODE
 70
     1
  9
$QTEXTMODE
 70
     0
  9
$MIRRTEXT
 70
     1
  9
$LTSCALE
 40
10.0
  9
$ATTMODE
 70
     1
  9
$TEXTSIZE
 40
3.0
  9
$TRACEWID
 40
1.0
  9
$TEXTSTYLE
  7
YOKO
  9
$CLAYER
  8
245
  9
$CELTYPE
  6
BYLAYER
  9
$CECOLOR
 62
   256
  9
$CELTSCALE
 40
1.0
  9
$DISPSILH
 70
     0
  9
$DIMSCALE
 40
1.0
  9
$DIMASZ
 40
2.0
  9
$DIMEXO
 40
0.5
  9
$DIMDLI
 40
2.5
  9
$DIMRND
 40
0.0
  9
$DIMDLE
 40
0.0
  9
$DIMEXE
 40
1.0
  9
$DIMTP
 40
0.0
  9
$DIMTM
 40
0.0
  9
$DIMTXT
 40
2.799999999999999
  9
$DIMCEN
 40
0.0
  9
$DIMTSZ
 40
0.0
  9
$DIMTOL
 70
     0
  9
$DIMLIM
 70
     0
  9
$DIMTIH
 70
     0
  9
$DIMTOH
 70
     0
  9
$DIMSE1
 70
     0
  9
$DIMSE2
 70
     0
  9
$DIMTAD
 70
     3
  9
$DIMZIN
 70
     8
  9
$DIMBLK
  1

  9
$DIMASO
 70
     1
  9
$DIMSHO
 70
     1
  9
$DIMPOST
  1

  9
$DIMAPOST
  1

  9
$DIMALT
 70
     0
  9
$DIMALTD
 70
     2
  9
$DIMALTF
 40
25.4
  9
$DIMLFAC
 40
1.0
  9
$DIMTOFL
 70
     1
  9
$DIMTVP
 40
0.0
  9
$DIMTIX
 70
     1
  9
$DIMSOXD
 70
     0
  9
$DIMSAH
 70
     1
  9
$DIMBLK1
  1
Open
  9
$DIMBLK2
  1
Open
  9
$DIMSTYLE
  2
BIGT
  9
$DIMCLRD
 70
   256
  9
$DIMCLRE
 70
   256
  9
$DIMCLRT
 70
    40
  9
$DIMTFAC
 40
1.0
  9
$DIMGAP
 40
1.0
  9
$DIMJUST
 70
     0
  9
$DIMSD1
 70
     0
  9
$DIMSD2
 70
     0
  9
$DIMTOLJ
 70
     1
  9
$DIMTZIN
 70
     8
  9
$DIMALTZ
 70
     0
  9
$DIMALTTZ
 70
     0
  9
$DIMUPT
 70
     0
  9
$DIMDEC
 70
     3
  9
$DIMTDEC
 70
     3
  9
$DIMALTU
 70
     2
  9
$DIMALTTD
 70
     2
  9
$DIMTXSTY
  7
STANDARD
  9
$DIMAUNIT
 70
     0
  9
$DIMADEC
 70
     3
  9
$DIMALTRND
 40
0.0
  9
$DIMAZIN
 70
     2
  9
$DIMDSEP
 70
    46
  9
$DIMATFIT
 70
     2
  9
$DIMFRAC
 70
     0
  9
$DIMLDRBLK
  1
Open
  9
$DIMLUNIT
 70
     2
  9
$DIMLWD
 70
    -1
  9
$DIMLWE
 70
    -1
  9
$DIMTMOVE
 70
     0
  9
$LUNITS
 70
     2
  9
$LUPREC
 70
     3
  9
$SKETCHINC
 40
1.0
  9
$FILLETRAD
 40
0.0
  9
$AUNITS
 70
     0
  9
$AUPREC
 70
     3
  9
$MENU
  1
.
  9
$ELEVATION
 40
0.0
  9
$PELEVATION
 40
0.0
  9
$THICKNESS
 40
0.0
  9
$LIMCHECK
 70
     0
  9
$CHAMFERA
 40
10.0
  9
$CHAMFERB
 40
10.0
  9
$CHAMFERC
 40
0.0
  9
$CHAMFERD
 40
0.0
  9
$SKPOLY
 70
     0
  9
$TDCREATE
 40
2456316.620572917
  9
$TDUCREATE
 40
2456316.245572917
  9
$TDUPDATE
 40
2456318.410205440
  9
$TDUUPDATE
 40
2456318.035205440
  9
$TDINDWG
 40
0.0152743403
  9
$TDUSRTIMER
 40
0.0152669329
  9
$USRTIMER
 70
     1
  9
$ANGBASE
 50
0.0
  9
$ANGDIR
 70
     0
  9
$PDMODE
 70
     1
  9
$PDSIZE
 40
-5.0
  9
$PLINEWID
 40
0.0
  9
$SPLFRAME
 70
     0
  9
$SPLINETYPE
 70
     6
  9
$SPLINESEGS
 70
     8
  9
$HANDSEED
  5
F06
  9
$SURFTAB1
 70
     6
  9
$SURFTAB2
 70
     6
  9
$SURFTYPE
 70
     6
  9
$SURFU
 70
     6
  9
$SURFV
 70
     6
  9
$UCSBASE
  2

  9
$UCSNAME
  2

  9
$UCSORG
 10
0.0
 20
0.0
 30
0.0
  9
$UCSXDIR
 10
1.0
 20
0.0
 30
0.0
  9
$UCSYDIR
 10
0.0
 20
1.0
 30
0.0
  9
$UCSORTHOREF
  2

  9
$UCSORTHOVIEW
 70
     0
  9
$UCSORGTOP
 10
0.0
 20
0.0
 30
0.0
  9
$UCSORGBOTTOM
 10
0.0
 20
0.0
 30
0.0
  9
$UCSORGLEFT
 10
0.0
 20
0.0
 30
0.0
  9
$UCSORGRIGHT
 10
0.0
 20
0.0
 30
0.0
  9
$UCSORGFRONT
 10
0.0
 20
0.0
 30
0.0
  9
$UCSORGBACK
 10
0.0
 20
0.0
 30
0.0
  9
$PUCSBASE
  2

  9
$PUCSNAME
  2

  9
$PUCSORG
 10
0.0
 20
0.0
 30
0.0
  9
$PUCSXDIR
 10
1.0
 20
0.0
 30
0.0
  9
$PUCSYDIR
 10
0.0
 20
1.0
 30
0.0
  9
$PUCSORTHOREF
  2

  9
$PUCSORTHOVIEW
 70
     0
  9
$PUCSORGTOP
 10
0.0
 20
0.0
 30
0.0
  9
$PUCSORGBOTTOM
 10
0.0
 20
0.0
 30
0.0
  9
$PUCSORGLEFT
 10
0.0
 20
0.0
 30
0.0
  9
$PUCSORGRIGHT
 10
0.0
 20
0.0
 30
0.0
  9
$PUCSORGFRONT
 10
0.0
 20
0.0
 30
0.0
  9
$PUCSORGBACK
 10
0.0
 20
0.0
 30
0.0
  9
$USERI1
 70
     1
  9
$USERI2
 70
     0
  9
$USERI3
 70
     0
  9
$USERI4
 70
     0
  9
$USERI5
 70
     0
  9
$USERR1
 40
0.0
  9
$USERR2
 40
0.0
  9
$USERR3
 40
0.0
  9
$USERR4
 40
0.0
  9
$USERR5
 40
0.0
  9
$WORLDVIEW
 70
     1
  9
$SHADEDGE
 70
     3
  9
$SHADEDIF
 70
    70
  9
$TILEMODE
 70
     1
  9
$MAXACTVP
 70
    16
  9
$PINSBASE
 10
0.0
 20
0.0
 30
0.0
  9
$PLIMCHECK
 70
     0
  9
$PEXTMIN
 10
1.000000000000000E+20
 20
1.000000000000000E+20
 30
1.000000000000000E+20
  9
$PEXTMAX
 10
-1.000000000000000E+20
 20
-1.000000000000000E+20
 30
-1.000000000000000E+20
  9
$PLIMMIN
 10
0.0
 20
0.0
  9
$PLIMMAX
 10
420.0
 20
297.0
  9
$UNITMODE
 70
     0
  9
$VISRETAIN
 70
     0
  9
$PLINEGEN
 70
     0
  9
$PSLTSCALE
 70
     1
  9
$TREEDEPTH
 70
  3020
  9
$CMLSTYLE
  2
STANDARD
  9
$CMLJUST
 70
     0
  9
$CMLSCALE
 40
1.0
  9
$PROXYGRAPHICS
 70
     1
  9
$MEASUREMENT
 70
     1
  9
$CELWEIGHT
370
    -1
  9
$ENDCAPS
280
     0
  9
$JOINSTYLE
280
     0
  9
$LWDISPLAY
290
     0
  9
$INSUNITS
 70
     0
  9
$HYPERLINKBASE
  1

  9
$STYLESHEET
  1
BIG.CTB
  9
$XEDIT
290
     1
  9
$CEPSNTYPE
380
     0
  9
$PSTYLEMODE
290
     1
  9
$FINGERPRINTGUID
  2
{95362441-1F95-4E53-9766-D91AF2CDB30B}
  9
$VERSIONGUID
  2
{5C811B56-7894-4696-9152-CCA0A61F5188}
  9
$EXTNAMES
290
     1
  9
$PSVPSCALE
 40
0.0
  9
$OLESTARTUP
290
     0
  0
ENDSEC
  0
SECTION
  2
CLASSES
  0
CLASS
  1
ACDBDICTIONARYWDFLT
  2
AcDbDictionaryWithDefault
  3
ObjectDBX Classes
 90
        0
280
     0
281
     0
  0
CLASS
  1
ACDBPLACEHOLDER
  2
AcDbPlaceHolder
  3
ObjectDBX Classes
 90
        0
280
     0
281
     0
  0
CLASS
  1
LAYOUT
  2
AcDbLayout
  3
ObjectDBX Classes
 90
        0
280
     0
281
     0
  0
CLASS
  1
PLOTSETTINGS
  2
AcDbPlotSettings
  3
ObjectDBX Classes
 90
        0
280
     0
281
     0
  0
CLASS
  1
MATERIAL
  2
AcDbMaterial
  3
ObjectDBX Classes
 90
     1024
280
     0
281
     0
  0
CLASS
  1
VISUALSTYLE
  2
AcDbVisualStyle
  3
ObjectDBX Classes
 90
     4095
280
     0
281
     0
  0
CLASS
  1
TABLESTYLE
  2
AcDbTableStyle
  3
ObjectDBX Classes
 90
     4095
280
     0
281
     0
  0
CLASS
  1
SORTENTSTABLE
  2
AcDbSortentsTable
  3
ObjectDBX Classes
 90
        0
280
     0
281
     0
  0
CLASS
  1
DICTIONARYVAR
  2
AcDbDictionaryVar
  3
ObjectDBX Classes
 90
        0
280
     0
281
     0
  0
ENDSEC
  0
SECTION
  2
TABLES
  0
TABLE
  2
VPORT
  5
8
330
0
100
AcDbSymbolTable
 70
     1
  0
VPORT
  5
77A
330
8
100
AcDbSymbolTableRecord
100
AcDbViewportTableRecord
  2
*Active
 70
     0
 10
0.0
 20
0.0
 11
1.0
 21
1.0
 12
41.30138930976545
 22
18.24931001942503
 13
0.0
 23
0.0
 14
7.0
 24
7.0
 15
7.0
 25
7.0
 16
0.0
 26
0.0
 36
1.0
 17
0.0
 27
0.0
 37
0.0
 40
150.6288630283774
 41
1.436127744510978
 42
50.0
 43
0.0
 44
0.0
 50
0.0
 51
0.0
 71
     0
 72
 20000
 73
     1
 74
     0
 75
     0
 76
     0
 77
     0
 78
     0
281
     0
 65
     1
110
0.0
120
0.0
130
0.0
111
1.0
121
0.0
131
0.0
112
0.0
122
1.0
132
0.0
 79
     0
146
0.0
  0
ENDTAB
  0
TABLE
  2
LTYPE
  5
5
330
0
100
AcDbSymbolTable
 70
    39
  0
LTYPE
  5
14
330
5
100
AcDbSymbolTableRecord
100
AcDbLinetypeTableRecord
  2
BYBLOCK
 70
     0
  3

 72
    65
 73
     0
 40
0.0
  0
LTYPE
  5
15
330
5
100
AcDbSymbolTableRecord
100
AcDbLinetypeTableRecord
  2
BYLAYER
 70
     0
  3

 72
    65
 73
     0
 40
0.0
  0
LTYPE
  5
16
330
5
100
AcDbSymbolTableRecord
100
AcDbLinetypeTableRecord
  2
CONTINUOUS
 70
     0
  3
Solid line
 72
    65
 73
     0
 40
0.0
  0
LTYPE
  5
258
330
5
100
AcDbSymbolTableRecord
100
AcDbLinetypeTableRecord
  2
CENTER2
 70
     0
  3
___ _ ___ _ ___ _ ___ _ ___ _ ___ _ ___ _ ___ _
 72
    65
 73
     4
 40
1.125
 49
0.75
 74
     0
 49
-0.125
 74
     0
 49
0.125
 74
     0
 49
-0.125
 74
     0
  0
LTYPE
  5
25C
330
5
100
AcDbSymbolTableRecord
100
AcDbLinetypeTableRecord
  2
HIDDEN2
 70
     0
  3
_ _ _ _ _ _ _ _ _ _ _ _ _ _ _ _ _ _ _ _ _ _ _ _
 72
    65
 73
     2
 40
0.1875
 49
0.125
 74
     0
 49
-0.0625
 74
     0
  0
ENDTAB
  0
TABLE
  2
LAYER
  5
2
330
0
100
AcDbSymbolTable
 70
    32
  0
LAYER
  5
F
330
2
100
AcDbSymbolTableRecord
100
AcDbLayerTableRecord
  2
0
 70
     0
 62
     7
  6
CONTINUOUS
370
    -3
390
564
  0
LAYER
  5
1AA
330
2
100
AcDbSymbolTableRecord
100
AcDbLayerTableRecord
  2
240
 70
     0
 62
     4
  6
CONTINUOUS
370
    -3
390
564
  0
LAYER
  5
1AB
330
2
100
AcDbSymbolTableRecord
100
AcDbLayerTableRecord
  2
241
 70
     0
 62
   211
  6
CONTINUOUS
370
    -3
390
564
  0
LAYER
  5
1AF
330
2
100
AcDbSymbolTableRecord
100
AcDbLayerTableRecord
  2
245
 70
     0
 62
     2
  6
CENTER2
370
    -3
390
564
  0
LAYER
  5
21E
330
2
100
AcDbSymbolTableRecord
100
AcDbLayerTableRecord
  2
250
 70
     0
 62
     3
  6
CONTINUOUS
370
    -3
390
564
  0
LAYER
  5
5C4
330
2
100
AcDbSymbolTableRecord
100
AcDbLayerTableRecord
  2
Defpoints
 70
     0
 62
     7
  6
CONTINUOUS
290
     0
370
    -3
390
564
  0
ENDTAB
  0
TABLE
  2
STYLE
  5
3
330
0
100
AcDbSymbolTable
 70
     3
  0
STYLE
  5
10
330
3
100
AcDbSymbolTableRecord
100
AcDbTextStyleTableRecord
  2
STANDARD
 70
     0
 40
0.0
 41
1.0
 50
0.0
 71
     0
 42
3.0
  3
romans.shx
  4
BIGFONT.SHX
  0
STYLE
  5
339
330
3
100
AcDbSymbolTableRecord
100
AcDbTextStyleTableRecord
  2
YOKO
 70
     0
 40
0.0
 41
1.0
 50
0.0
 71
     0
 42
3.0
  3
romans.shx
  4
extfont.shx
  0
ENDTAB
  0
TABLE
  2
VIEW
  5
6
330
0
100
AcDbSymbolTable
 70
     0
  0
ENDTAB
  0
TABLE
  2
UCS
  5
7
330
0
100
AcDbSymbolTable
 70
     0
  0
ENDTAB
  0
TABLE
  2
APPID
  5
9
330
0
100
AcDbSymbolTable
 70
    10
  0
APPID
  5
11
330
9
100
AcDbSymbolTableRecord
100
AcDbRegAppTableRecord
  2
ACAD
 70
     0
  0
APPID
  5
1B1
330
9
100
AcDbSymbolTableRecord
100
AcDbRegAppTableRecord
  2
GLOBAL
 70
     0
  0
APPID
  5
2A4
330
9
100
AcDbSymbolTableRecord
100
AcDbRegAppTableRecord
  2
DETAIL
 70
     0
  0
APPID
  5
5FD
330
9
100
AcDbSymbolTableRecord
100
AcDbRegAppTableRecord
  2
GRPNAME
 70
     0
  0
APPID
  5
5FE
330
9
100
AcDbSymbolTableRecord
100
AcDbRegAppTableRecord
  2
GPARA
 70
     0
  0
APPID
  5
6C4
330
9
100
AcDbSymbolTableRecord
100
AcDbRegAppTableRecord
  2
DCO15
 70
     0
  0
APPID
  5
6C5
330
9
100
AcDbSymbolTableRecord
100
AcDbRegAppTableRecord
  2
ITEMNAME
 70
     0
  0
APPID
  5
6C6
330
9
100
AcDbSymbolTableRecord
100
AcDbRegAppTableRecord
  2
GRADE_0
 70
     0
  0
APPID
  5
7D5
330
9
100
AcDbSymbolTableRecord
100
AcDbRegAppTableRecord
  2
ASK_MEN_XD
 70
     0
  0
APPID
  5
927
330
9
100
AcDbSymbolTableRecord
100
AcDbRegAppTableRecord
  2
Layer_Scale
 70
     0
  0
ENDTAB
  0
TABLE
  2
DIMSTYLE
  5
A
330
0
100
AcDbSymbolTable
 70
    11
100
AcDbDimStyleTable
 71
     1
340
725
  0
DIMSTYLE
105
725
102
{ACAD_REACTORS
330
A71
330
A72
330
A73
330
A74
330
A75
102
}
330
A
100
AcDbSymbolTableRecord
100
AcDbDimStyleTableRecord
  2
BIGT
 70
     0
 41
2.229999999999999
 42
0.5
 43
2.5
 44
1.0
 73
     0
 74
     0
 77
     3
 78
     8
 79
     2
140
2.799999999999998
141
0.0
147
1.0
172
     1
173
     1
174
     1
176
   256
177
   256
178
    40
179
     3
271
     3
272
     3
284
     8
289
     2
340
10
341
594
343
594
344
594
371
    -1
372
    -1
  0
ENDTAB
  0
TABLE
  2
BLOCK_RECORD
  5
1
330
0
100
AcDbSymbolTable
 70
    33
  0
BLOCK_RECORD
  5
1A
102
{ACAD_XDICTIONARY
360
C70
102
}
330
1
100
AcDbSymbolTableRecord
100
AcDbBlockTableRecord
  2
*MODEL_SPACE
340
567
  0
BLOCK_RECORD
  5
17
330
1
100
AcDbSymbolTableRecord
100
AcDbBlockTableRecord
  2
*PAPER_SPACE
340
568
  0
BLOCK_RECORD
  5
594
330
1
100
AcDbSymbolTableRecord
100
AcDbBlockTableRecord
  2
_Open
340
0
102
{BLKREFS
331
79F
331
7AA
331
7AB
331
7B6
331
7B7
331
7C2
331
7C3
331
7CE
331
7CF
331
8FE
331
906
331
907
331
90F
331
910
331
918
331
919
331
921
331
922
331
9EA
331
9F5
331
9F6
331
A01
331
A02
331
A0D
331
A0E
331
A19
331
A1A
331
B45
331
B56
331
B57
331
B5F
331
B60
331
B68
331
B69
331
C94
331
C95
102
}
  0
BLOCK_RECORD
  5
6E3
330
1
100
AcDbSymbolTableRecord
100
AcDbBlockTableRecord
  2
矢印なし
340
0
102
{BLKREFS
331
6E6
331
79E
331
8FD
331
9E9
331
B44
102
}
  0
BLOCK_RECORD
  5
A76
330
1
100
AcDbSymbolTableRecord
100
AcDbBlockTableRecord
  2
*D27
340
0
  0
BLOCK_RECORD
  5
A81
330
1
100
AcDbSymbolTableRecord
100
AcDbBlockTableRecord
  2
*D28
340
0
  0
BLOCK_RECORD
  5
A8D
330
1
100
AcDbSymbolTableRecord
100
AcDbBlockTableRecord
  2
*D29
340
0
  0
BLOCK_RECORD
  5
A99
330
1
100
AcDbSymbolTableRecord
100
AcDbBlockTableRecord
  2
*D30
340
0
  0
BLOCK_RECORD
  5
AA5
330
1
100
AcDbSymbolTableRecord
100
AcDbBlockTableRecord
  2
*D31
340
0
  0
BLOCK_RECORD
  5
B6E
330
1
100
AcDbSymbolTableRecord
100
AcDbBlockTableRecord
  2
1
340
0
310
2800000020000000200000000100080000000000000400000000000000000000000000000000000000000000000080000080000000808000800000008000800080800000C0C0C000C0DCC000F0CAA6000020400000206000002080000020A0000020C0000020E00000400000004020000040400000406000004080000040A0
310
000040C0000040E00000600000006020000060400000606000006080000060A0000060C0000060E00000800000008020000080400000806000008080000080A0000080C0000080E00000A0000000A0200000A0400000A0600000A0800000A0A00000A0C00000A0E00000C0000000C0200000C0400000C0600000C0800000C0
310
A00000C0C00000C0E00000E0000000E0200000E0400000E0600000E0800000E0A00000E0C00000E0E00040000000400020004000400040006000400080004000A0004000C0004000E00040200000402020004020400040206000402080004020A0004020C0004020E000404000004040200040404000404060004040800040
310
40A0004040C0004040E00040600000406020004060400040606000406080004060A0004060C0004060E00040800000408020004080400040806000408080004080A0004080C0004080E00040A0000040A0200040A0400040A0600040A0800040A0A00040A0C00040A0E00040C0000040C0200040C0400040C0600040C08000
310
40C0A00040C0C00040C0E00040E0000040E0200040E0400040E0600040E0800040E0A00040E0C00040E0E00080000000800020008000400080006000800080008000A0008000C0008000E00080200000802020008020400080206000802080008020A0008020C0008020E00080400000804020008040400080406000804080
310
008040A0008040C0008040E00080600000806020008060400080606000806080008060A0008060C0008060E00080800000808020008080400080806000808080008080A0008080C0008080E00080A0000080A0200080A0400080A0600080A0800080A0A00080A0C00080A0E00080C0000080C0200080C0400080C0600080C0
310
800080C0A00080C0C00080C0E00080E0000080E0200080E0400080E0600080E0800080E0A00080E0C00080E0E000C0000000C0002000C0004000C0006000C0008000C000A000C000C000C000E000C0200000C0202000C0204000C0206000C0208000C020A000C020C000C020E000C0400000C0402000C0404000C0406000C0
310
408000C040A000C040C000C040E000C0600000C0602000C0604000C0606000C0608000C060A000C060C000C060E000C0800000C0802000C0804000C0806000C0808000C080A000C080C000C080E000C0A00000C0A02000C0A04000C0A06000C0A08000C0A0A000C0A0C000C0A0E000C0C00000C0C02000C0C04000C0C06000
310
C0C08000C0C0A000F0FBFF00A4A0A000808080000000FF0000FF000000FFFF00FF000000FF00FF00FFFF0000FFFFFF0000000000000000000000000000000000000000000000000000000000000000000000000000000000000000000000000000000000000000000000000000000000000000000000000000000000000000
310
00000000000000000000000000000000000000000000000000000000000000000000000000000000000000000000000000000000000000000000000000000000000000000000000000000000000000000000000000000000000000000000000000000000000000000000000000000000000000000000000000000000000000
310
00000000000000000000000000000000000000000000000000000000000000000000000000000000000000000000000000000000000000000000000000000000000000000000000000000000000000000000000000000000000000000000000000000000000000000000000000000000000000000000000000000000000000
310
00000000000000000000000000000000000000000000000000000000000000FEFEFBFEFEFEFEFEFEFEFEE7E700000000000000000000000000000000FEFEFEE7E7FEE7000000E7E7E700E7E7FEFEFEE7FE00000000000000FEFEFEFE0000E7E7E7E7E7000000E7E7E700E7E7E70000E7FE00000000FEFEFE000000000000E7
310
E7E7E7E7000000E7E7E700E7E7E70000E7FE00000000FE0000000000000000E7E7E7E7E7FBFBFBE7E7E7FBE7E7E7FBFBE7E7FB0000FBFBFBFBFBFBFBFBFBFBE7E7E7E7E7000000E7E7E700E7E7E70000E7E700000000FEFEFE000000000000E7E7E7E7E7000000E7E7E7E7E7E7E7E7E7E7E700000000000000FEFEFEFE0000
310
E7E7E7E7E7000000E7E7E700E7E7E70000E7E70000000000000000000000FEFEE7E7E7E7E7000000E7E7E700E7E7E7FEFEE7FE0000000000000000000000000000FEE7FBFEFEFEFEE7E7E7FEE7E700000000000000000000000000000000000000000000000000000000000000000000000000000000000000000000000000
310
00000000000000000000000000000000000000000000000000000000000000000000000000000000000000000000000000000000000000000000000000000000000000000000000000000000000000000000000000000000000000000000000000000000000000000000000000000000000000000000000000000000000000
310
00000000000000000000000000000000000000000000000000000000000000000000000000000000000000000000000000000000000000000000000000000000000000000000000000000000000000000000000000000000000000000000000000000000000000000000000000000000000000000000000000000000000000
310
0000000000000000000000000000000000000000000000000000000000000000000000000000000000000000000000000000000000000000
102
{BLKREFS
331
EEC
102
}
  0
ENDTAB
  0
ENDSEC
  0
SECTION
  2
BLOCKS
  0
BLOCK
  5
1B
330
1A
100
AcDbEntity
  8
0
100
AcDbBlockBegin
  2
*MODEL_SPACE
 70
     0
 10
0.0
 20
0.0
 30
0.0
  3
*MODEL_SPACE
  1

  0
ENDBLK
  5
1C
330
1A
100
AcDbEntity
  8
0
100
AcDbBlockEnd
  0
BLOCK
  5
18
330
17
100
AcDbEntity
 67
     1
  8
0
100
AcDbBlockBegin
  2
*PAPER_SPACE
 70
     0
 10
0.0
 20
0.0
 30
0.0
  3
*PAPER_SPACE
  1

  0
ENDBLK
  5
19
330
17
100
AcDbEntity
 67
     1
  8
0
100
AcDbBlockEnd
  0
BLOCK
  5
598
330
594
100
AcDbEntity
  8
0
100
AcDbBlockBegin
  2
_Open
 70
     0
 10
0.0
 20
0.0
 30
0.0
  3
_Open
  1

  0
LINE
  5
595
330
594
100
AcDbEntity
  8
0
  6
ByBlock
 62
     0
370
    -2
100
AcDbLine
 10
-1.0
 20
0.1666666666666666
 30
0.0
 11
0.0
 21
0.0
 31
0.0
  0
LINE
  5
596
330
594
100
AcDbEntity
  8
0
  6
ByBlock
 62
     0
370
    -2
100
AcDbLine
 10
-1.0
 20
-0.1666666666666666
 30
0.0
 11
0.0
 21
0.0
 31
0.0
  0
LINE
  5
597
330
594
100
AcDbEntity
  8
0
  6
ByBlock
 62
     0
370
    -2
100
AcDbLine
 10
0.0
 20
0.0
 30
0.0
 11
-1.0
 21
0.0
 31
0.0
  0
ENDBLK
  5
599
330
594
100
AcDbEntity
  8
0
100
AcDbBlockEnd
  0
BLOCK
  5
6E4
330
6E3
100
AcDbEntity
  8
0
100
AcDbBlockBegin
  2
矢印なし
 70
     0
 10
0.0
 20
0.0
 30
0.0
  3
矢印なし
  1

  0
ENDBLK
  5
6E5
330
6E3
100
AcDbEntity
  8
0
100
AcDbBlockEnd
  0
BLOCK
  5
A7F
330
A76
100
AcDbEntity
  8
0
100
AcDbBlockBegin
  2
*D27
 70
     1
 10
0.0
 20
0.0
 30
0.0
  3
*D27
  1

  0
LINE
  5
B42
330
A76
100
AcDbEntity
  8
250
  6
Continuous
100
AcDbLine
 10
118.0000000000088
 20
9.999999999999914
 30
0.0
 11
135.0000000000091
 21
9.999999999999907
 31
0.0
  0
LINE
  5
B43
330
A76
100
AcDbEntity
  8
250
  6
Continuous
100
AcDbLine
 10
134.0000000000091
 20
-7.770000000000004
 30
0.0
 11
134.0000000000091
 21
7.769999999999907
 31
0.0
  0
INSERT
  5
B44
330
A76
100
AcDbEntity
  8
250
  6
Continuous
100
AcDbBlockReference
  2
矢印なし
 10
134.0000000000091
 20
-10.0
 30
0.0
 41
2.229999999999999
 42
2.229999999999999
 43
2.229999999999999
 50
270.0
  0
INSERT
  5
B45
330
A76
100
AcDbEntity
  8
250
  6
Continuous
100
AcDbBlockReference
  2
_Open
 10
134.0000000000091
 20
9.999999999999907
 30
0.0
 41
2.229999999999999
 42
2.229999999999999
 43
2.229999999999999
 50
90.0
  0
MTEXT
  5
B46
330
A76
100
AcDbEntity
  8
250
  6
Continuous
 62
    40
370
    -3
100
AcDbMText
 10
131.6000000000091
 20
-0.0000000000000257
 30
0.0
 40
2.799999999999998
 41
0.0
 71
     5
 72
     1
  1
\A1;{\H2.8;%%C}20
 11
0.0000000000000001
 21
1.0
 31
0.0
 73
     1
 44
1.0
1001
ACAD
1000
MTEXTBEGIN
1070
    73
1070
     1
1070
    44
1040
1.0
1070
    74
1070
     0
1000
MTEXTEND
  0
POINT
  5
B47
330
A76
100
AcDbEntity
  8
Defpoints
  6
Continuous
 62
     0
100
AcDbPoint
 10
117.5000000000086
 20
-10.0
 30
0.0
  0
POINT
  5
B48
330
A76
100
AcDbEntity
  8
Defpoints
  6
Continuous
 62
     0
100
AcDbPoint
 10
117.5000000000087
 20
9.999999999999914
 30
0.0
  0
POINT
  5
B49
330
A76
100
AcDbEntity
  8
Defpoints
  6
Continuous
 62
     0
100
AcDbPoint
 10
134.0000000000091
 20
9.999999999999907
 30
0.0
  0
ENDBLK
  5
A80
330
A76
100
AcDbEntity
  8
0
100
AcDbBlockEnd
  0
BLOCK
  5
A8B
330
A81
100
AcDbEntity
  8
0
100
AcDbBlockBegin
  2
*D28
 70
     1
 10
0.0
 20
0.0
 30
0.0
  3
*D28
  1

  0
LINE
  5
C91
330
A81
100
AcDbEntity
  8
250
  6
Continuous
100
AcDbLine
 10
110.8838290319192
 20
-25.00000000000032
 30
0.0
 11
142.0000000000091
 21
-25.00000000000033
 31
0.0
  0
LINE
  5
C92
330
A81
100
AcDbEntity
  8
250
  6
Continuous
100
AcDbLine
 10
110.8838290319191
 20
24.99999999999966
 30
0.0
 11
142.0000000000091
 21
24.99999999999965
 31
0.0
  0
LINE
  5
C93
330
A81
100
AcDbEntity
  8
250
  6
Continuous
100
AcDbLine
 10
141.0000000000091
 20
-22.77000000000033
 30
0.0
 11
141.0000000000091
 21
22.76999999999965
 31
0.0
  0
INSERT
  5
C94
330
A81
100
AcDbEntity
  8
250
  6
Continuous
100
AcDbBlockReference
  2
_Open
 10
141.0000000000091
 20
-25.00000000000033
 30
0.0
 41
2.229999999999999
 42
2.229999999999999
 43
2.229999999999999
 50
270.0
  0
INSERT
  5
C95
330
A81
100
AcDbEntity
  8
250
  6
Continuous
100
AcDbBlockReference
  2
_Open
 10
141.0000000000091
 20
24.99999999999965
 30
0.0
 41
2.229999999999999
 42
2.229999999999999
 43
2.229999999999999
 50
90.0
  0
MTEXT
  5
C96
330
A81
100
AcDbEntity
  8
250
  6
Continuous
 62
    40
370
    -3
100
AcDbMText
 10
138.6000000000091
 20
-0.0000000000003174
 30
0.0
 40
2.799999999999998
 41
0.0
 71
     5
 72
     1
  1
\A1;{\H2.8;%%C}50
 11
0.0000000000000001
 21
1.0
 31
0.0
 73
     1
 44
1.0
1001
ACAD
1000
MTEXTBEGIN
1070
    73
1070
     1
1070
    44
1040
1.0
1070
    74
1070
     0
1000
MTEXTEND
  0
POINT
  5
C97
330
A81
100
AcDbEntity
  8
Defpoints
  6
Continuous
 62
     0
100
AcDbPoint
 10
110.3838290319192
 20
-25.00000000000032
 30
0.0
  0
POINT
  5
C98
330
A81
100
AcDbEntity
  8
Defpoints
  6
Continuous
 62
     0
100
AcDbPoint
 10
110.3838290319191
 20
24.99999999999966
 30
0.0
  0
POINT
  5
C99
330
A81
100
AcDbEntity
  8
Defpoints
  6
Continuous
 62
     0
100
AcDbPoint
 10
141.0000000000091
 20
24.99999999999965
 30
0.0
  0
ENDBLK
  5
A8C
330
A81
100
AcDbEntity
  8
0
100
AcDbBlockEnd
  0
BLOCK
  5
A97
330
A8D
100
AcDbEntity
  8
0
100
AcDbBlockBegin
  2
*D29
 70
     1
 10
0.0
 20
0.0
 30
0.0
  3
*D29
  1

  0
LINE
  5
B53
330
A8D
100
AcDbEntity
  8
250
  6
Continuous
100
AcDbLine
 10
83.17125011953335
 20
-27.50000000000034
 30
0.0
 11
149.0000000000091
 21
-27.50000000000036
 31
0.0
  0
LINE
  5
B54
330
A8D
100
AcDbEntity
  8
250
  6
Continuous
100
AcDbLine
 10
83.17125011953331
 20
27.49999999999966
 30
0.0
 11
149.0000000000091
 21
27.49999999999964
 31
0.0
  0
LINE
  5
B55
330
A8D
100
AcDbEntity
  8
250
  6
Continuous
100
AcDbLine
 10
148.0000000000091
 20
-25.27000000000036
 30
0.0
 11
148.0000000000091
 21
25.26999999999964
 31
0.0
  0
INSERT
  5
B56
330
A8D
100
AcDbEntity
  8
250
  6
Continuous
100
AcDbBlockReference
  2
_Open
 10
148.0000000000091
 20
-27.50000000000036
 30
0.0
 41
2.229999999999999
 42
2.229999999999999
 43
2.229999999999999
 50
270.0
  0
INSERT
  5
B57
330
A8D
100
AcDbEntity
  8
250
  6
Continuous
100
AcDbBlockReference
  2
_Open
 10
148.0000000000091
 20
27.49999999999964
 30
0.0
 41
2.229999999999999
 42
2.229999999999999
 43
2.229999999999999
 50
90.0
  0
MTEXT
  5
B58
330
A8D
100
AcDbEntity
  8
250
  6
Continuous
 62
    40
370
    -3
100
AcDbMText
 10
145.6000000000091
 20
-0.0000000000003356
 30
0.0
 40
2.799999999999998
 41
0.0
 71
     5
 72
     1
  1
\A1;{\H2.8;%%C}55
 11
0.0000000000000001
 21
1.0
 31
0.0
 73
     1
 44
1.0
1001
ACAD
1000
MTEXTBEGIN
1070
    73
1070
     1
1070
    44
1040
1.0
1070
    74
1070
     0
1000
MTEXTEND
  0
POINT
  5
B59
330
A8D
100
AcDbEntity
  8
Defpoints
  6
Continuous
 62
     0
100
AcDbPoint
 10
82.67125011953336
 20
-27.50000000000034
 30
0.0
  0
POINT
  5
B5A
330
A8D
100
AcDbEntity
  8
Defpoints
  6
Continuous
 62
     0
100
AcDbPoint
 10
82.6712501195333
 20
27.49999999999966
 30
0.0
  0
POINT
  5
B5B
330
A8D
100
AcDbEntity
  8
Defpoints
  6
Continuous
 62
     0
100
AcDbPoint
 10
148.0000000000091
 20
27.49999999999964
 30
0.0
  0
ENDBLK
  5
A98
330
A8D
100
AcDbEntity
  8
0
100
AcDbBlockEnd
  0
BLOCK
  5
AA3
330
A99
100
AcDbEntity
  8
0
100
AcDbBlockBegin
  2
*D30
 70
     1
 10
0.0
 20
0.0
 30
0.0
  3
*D30
  1

  0
LINE
  5
B5C
330
A99
100
AcDbEntity
  8
250
  6
Continuous
100
AcDbLine
 10
35.00000000000909
 20
10.49999999999986
 30
0.0
 11
35.00000000000909
 21
42.99999999999967
 31
0.0
  0
LINE
  5
B5D
330
A99
100
AcDbEntity
  8
250
  6
Continuous
100
AcDbLine
 10
120.0000000000102
 20
19.89937738537048
 30
0.0
 11
120.0000000000102
 21
42.99999999999967
 31
0.0
  0
LINE
  5
B5E
330
A99
100
AcDbEntity
  8
250
  6
Continuous
100
AcDbLine
 10
37.00000000000911
 20
41.99999999999969
 30
0.0
 11
118.0000000000102
 21
41.99999999999969
 31
0.0
  0
INSERT
  5
B5F
330
A99
100
AcDbEntity
  8
250
  6
Continuous
100
AcDbBlockReference
  2
_Open
 10
35.00000000000909
 20
41.99999999999969
 30
0.0
 41
2.0
 42
2.0
 43
2.0
 50
180.0
  0
INSERT
  5
B60
330
A99
100
AcDbEntity
  8
250
  6
Continuous
100
AcDbBlockReference
  2
_Open
 10
120.0000000000102
 20
41.99999999999969
 30
0.0
 41
2.0
 42
2.0
 43
2.0
  0
MTEXT
  5
B61
330
A99
100
AcDbEntity
  8
250
  6
Continuous
 62
    40
370
    -3
100
AcDbMText
 10
77.0
 20
44.39999999999968
 30
0.0
 40
2.799999999999998
 41
0.0
 71
     5
 72
     1
  1
\A1;（max.85）
 73
     1
 44
1.0
1001
ACAD
1000
MTEXTBEGIN
1070
    73
1070
     1
1070
    44
1040
1.0
1070
    74
1070
     0
1000
MTEXTEND
  0
POINT
  5
B62
330
A99
100
AcDbEntity
  8
Defpoints
  6
Continuous
 62
     0
100
AcDbPoint
 10
35.00000000000909
 20
9.999999999999856
 30
0.0
  0
POINT
  5
B63
330
A99
100
AcDbEntity
  8
Defpoints
  6
Continuous
 62
     0
100
AcDbPoint
 10
120.0000000000102
 20
19.39937738537048
 30
0.0
  0
POINT
  5
B64
330
A99
100
AcDbEntity
  8
Defpoints
  6
Continuous
 62
     0
100
AcDbPoint
 10
120.0000000000102
 20
41.99999999999969
 30
0.0
  0
ENDBLK
  5
AA4
330
A99
100
AcDbEntity
  8
0
100
AcDbBlockEnd
  0
BLOCK
  5
AAF
330
AA5
100
AcDbEntity
  8
0
100
AcDbBlockBegin
  2
*D31
 70
     1
 10
0.0
 20
0.0
 30
0.0
  3
*D31
  1

  0
LINE
  5
B65
330
AA5
100
AcDbEntity
  8
250
  6
Continuous
100
AcDbLine
 10
-0.0000000000004973
 20
22.72499999999994
 30
0.0
 11
-0.0000000000004957
 21
50.0
 31
0.0
  0
LINE
  5
B66
330
AA5
100
AcDbEntity
  8
250
  6
Continuous
100
AcDbLine
 10
120.0000000000102
 20
19.89937738537048
 30
0.0
 11
120.0000000000102
 21
50.0
 31
0.0
  0
LINE
  5
B67
330
AA5
100
AcDbEntity
  8
250
  6
Continuous
100
AcDbLine
 10
1.999999999999503
 20
49.0
 30
0.0
 11
118.0000000000102
 21
49.0
 31
0.0
  0
INSERT
  5
B68
330
AA5
100
AcDbEntity
  8
250
  6
Continuous
100
AcDbBlockReference
  2
_Open
 10
-0.0000000000004957
 20
49.0
 30
0.0
 41
2.0
 42
2.0
 43
2.0
 50
180.0
  0
INSERT
  5
B69
330
AA5
100
AcDbEntity
  8
250
  6
Continuous
100
AcDbBlockReference
  2
_Open
 10
120.0000000000102
 20
49.0
 30
0.0
 41
2.0
 42
2.0
 43
2.0
  0
MTEXT
  5
B6A
330
AA5
100
AcDbEntity
  8
250
  6
Continuous
 62
    40
370
    -3
100
AcDbMText
 10
60.00000000000486
 20
51.4
 30
0.0
 40
2.799999999999998
 41
0.0
 71
     5
 72
     1
  1
\A1;120
 73
     1
 44
1.0
1001
ACAD
1000
MTEXTBEGIN
1070
    73
1070
     1
1070
    44
1040
1.0
1070
    74
1070
     0
1000
MTEXTEND
  0
POINT
  5
B6B
330
AA5
100
AcDbEntity
  8
Defpoints
  6
Continuous
 62
     0
100
AcDbPoint
 10
-0.0000000000004974
 20
22.22499999999994
 30
0.0
  0
POINT
  5
B6C
330
AA5
100
AcDbEntity
  8
Defpoints
  6
Continuous
 62
     0
100
AcDbPoint
 10
120.0000000000102
 20
19.39937738537048
 30
0.0
  0
POINT
  5
B6D
330
AA5
100
AcDbEntity
  8
Defpoints
  6
Continuous
 62
     0
100
AcDbPoint
 10
120.0000000000102
 20
49.0
 30
0.0
  0
ENDBLK
  5
AB0
330
AA5
100
AcDbEntity
  8
0
100
AcDbBlockEnd
  0
BLOCK
  5
B6F
330
B6E
100
AcDbEntity
  8
0
100
AcDbBlockBegin
  2
1
 70
     0
 10
0.0
 20
0.0
 30
0.0
  3
1
  1

  0
LINE
  5
E86
330
B6E
100
AcDbEntity
  8
245
  6
CENTER2
100
AcDbLine
 10
16.59999999999994
 20
31.50000000000011
 30
0.0
 11
16.59999999999991
 21
-31.5000000000003
 31
0.0
  0
LINE
  5
E87
330
B6E
100
AcDbEntity
  8
241
  6
Continuous
100
AcDbLine
 10
21.59999999999991
 20
-31.49999999999999
 30
0.0
 11
21.59999999999991
 21
0.0
 31
0.0
  0
LINE
  5
E88
330
B6E
100
AcDbEntity
  8
241
  6
Continuous
100
AcDbLine
 10
11.59999999999991
 20
0.0
 30
0.0
 11
11.59999999999993
 21
-31.50000000000002
 31
0.0
  0
LINE
  5
E89
330
B6E
100
AcDbEntity
  8
241
  6
Continuous
100
AcDbLine
 10
-0.0000000000001705
 20
-22.22499999999994
 30
0.0
 11
0.0
 21
0.0
 31
0.0
  0
LINE
  5
E8A
330
B6E
100
AcDbEntity
  8
240
  6
Continuous
100
AcDbLine
 10
0.9999999999998864
 20
-30.5
 30
0.0
 11
0.9999999999998292
 21
-22.22499999999991
 31
0.0
  0
ARC
  5
E8B
330
B6E
100
AcDbEntity
  8
240
  6
Continuous
100
AcDbCircle
 10
1.999999999999884
 20
-30.5
 30
0.0
 40
1.0
100
AcDbArc
 50
180.0
 51
270.0
  0
LINE
  5
E8C
330
B6E
100
AcDbEntity
  8
240
  6
Continuous
100
AcDbLine
 10
-65.40000000000005
 20
11.30390895524866
 30
0.0
 11
-65.40000000000008
 21
-11.30390895524873
 31
0.0
  0
ARC
  5
E8D
330
B6E
100
AcDbEntity
  8
240
  6
Continuous
100
AcDbCircle
 10
-63.80000000000006
 20
-11.30390895524873
 30
0.0
 40
1.6
100
AcDbArc
 50
180.0
 51
261.702855030163
  0
LINE
  5
E8E
330
B6E
100
AcDbEntity
  8
240
  6
Continuous
100
AcDbLine
 10
-0.0000000000001137
 20
-22.225
 30
0.0
 11
-64.03089102891485
 21
-12.88716172494998
 31
0.0
  0
LINE
  5
E8F
330
B6E
100
AcDbEntity
  8
240
  6
Continuous
100
AcDbLine
 10
21.59999999999991
 20
-31.49999999999999
 30
0.0
 11
26.9999999999998
 21
-31.50000000000033
 31
0.0
  0
LINE
  5
E90
330
B6E
100
AcDbEntity
  8
241
  6
HIDDEN2
100
AcDbLine
 10
22.99999999999989
 20
-22.5
 30
0.0
 11
22.99999999999989
 21
-31.5
 31
0.0
  0
LINE
  5
E91
330
B6E
100
AcDbEntity
  8
240
  6
Continuous
100
AcDbLine
 10
1.999999999999884
 20
-31.5
 30
0.0
 11
11.59999999999985
 21
-31.5000000000002
 31
0.0
  0
LINE
  5
E92
330
B6E
100
AcDbEntity
  8
241
  6
HIDDEN2
100
AcDbLine
 10
22.99999999999989
 20
-22.5
 30
0.0
 11
0.9999999999998864
 21
-22.5
 31
0.0
  0
LINE
  5
E93
330
B6E
100
AcDbEntity
  8
245
  6
CENTER2
100
AcDbLine
 10
-66.40000000000006
 20
0.0000000000000284
 30
0.0
 11
121.0000000000091
 21
-0.0000000000000142
 31
0.0
  0
LINE
  5
E94
330
B6E
100
AcDbEntity
  8
240
  6
Continuous
100
AcDbLine
 10
-0.0000000000001137
 20
22.225
 30
0.0
 11
-64.03089102891482
 21
12.8871617249499
 31
0.0
  0
ARC
  5
E95
330
B6E
100
AcDbEntity
  8
240
  6
Continuous
100
AcDbCircle
 10
-63.80000000000006
 20
11.30390895524866
 30
0.0
 40
1.6
100
AcDbArc
 50
98.29714496983692
 51
180.0
  0
LINE
  5
E96
330
B6E
100
AcDbEntity
  8
240
  6
Continuous
100
AcDbLine
 10
21.59999999999991
 20
31.50000000000003
 30
0.0
 11
26.99999999999318
 21
31.49999999999963
 31
0.0
  0
LINE
  5
E97
330
B6E
100
AcDbEntity
  8
241
  6
HIDDEN2
100
AcDbLine
 10
22.99999999999989
 20
22.5
 30
0.0
 11
1.299999999999897
 21
22.5
 31
0.0
  0
LINE
  5
E98
330
B6E
100
AcDbEntity
  8
240
  6
Continuous
100
AcDbLine
 10
1.999999999999829
 20
31.50000000000003
 30
0.0
 11
11.59999999999993
 21
31.50000000000006
 31
0.0
  0
ARC
  5
E99
330
B6E
100
AcDbEntity
  8
240
  6
Continuous
100
AcDbCircle
 10
1.999999999999829
 20
30.50000000000003
 30
0.0
 40
1.0
100
AcDbArc
 50
90.0
 51
180.0000000000024
  0
LINE
  5
E9A
330
B6E
100
AcDbEntity
  8
240
  6
Continuous
100
AcDbLine
 10
1.000000000000224
 20
22.22500000000142
 30
0.0
 11
0.9999999999998292
 21
30.50000000000003
 31
0.0
  0
LINE
  5
E9B
330
B6E
100
AcDbEntity
  8
241
  6
HIDDEN2
100
AcDbLine
 10
22.99999999999989
 20
22.5
 30
0.0
 11
22.99999999999989
 21
31.50000000000003
 31
0.0
  0
LINE
  5
E9C
330
B6E
100
AcDbEntity
  8
240
  6
Continuous
100
AcDbLine
 10
26.9999999999998
 20
-31.50000000000033
 30
0.0
 11
26.99999999999974
 21
-30.50000000000051
 31
0.0
  0
LINE
  5
E9D
330
B6E
100
AcDbEntity
  8
240
  6
Continuous
100
AcDbLine
 10
26.99999999999318
 20
31.49999999999963
 30
0.0
 11
27.0000000000014
 21
30.50000000000046
 31
0.0
  0
LINE
  5
E9E
330
B6E
100
AcDbEntity
  8
241
  6
Continuous
100
AcDbLine
 10
14.48675134594822
 20
-26.49999999999967
 30
0.0
 11
14.48675134594825
 21
0.0000000000000142
 31
0.0
  0
LINE
  5
E9F
330
B6E
100
AcDbEntity
  8
240
  6
Continuous
100
AcDbLine
 10
14.48675134594822
 20
-26.49999999999967
 30
0.0
 11
11.59999999999985
 21
-31.5000000000002
 31
0.0
  0
LINE
  5
EA0
330
B6E
100
AcDbEntity
  8
240
  6
Continuous
100
AcDbLine
 10
18.71324865405168
 20
-26.49999999999979
 30
0.0
 11
14.48675134594822
 21
-26.49999999999967
 31
0.0
1001
GRPNAME
1000
PASTMD1I
  0
LINE
  5
EA1
330
B6E
100
AcDbEntity
  8
241
  6
Continuous
100
AcDbLine
 10
18.71324865405168
 20
-26.49999999999979
 30
0.0
 11
18.71324865405179
 21
0.0000000000000142
 31
0.0
  0
LINE
  5
EA2
330
B6E
100
AcDbEntity
  8
240
  6
Continuous
100
AcDbLine
 10
18.71324865405168
 20
-26.49999999999979
 30
0.0
 11
21.59999999999997
 21
-31.49999999999998
 31
0.0
  0
LINE
  5
EA3
330
B6E
100
AcDbEntity
  8
240
  6
Continuous
100
AcDbLine
 10
21.60000000000028
 20
31.50000000000003
 30
0.0
 11
18.71324865405097
 21
26.49999999999926
 31
0.0
  0
LINE
  5
EA4
330
B6E
100
AcDbEntity
  8
240
  6
Continuous
100
AcDbLine
 10
11.59999999999988
 20
31.50000000000006
 30
0.0
 11
14.48675134594876
 21
26.49999999999915
 31
0.0
  0
LINE
  5
EA5
330
B6E
100
AcDbEntity
  8
240
100
AcDbLine
 10
-0.0000000000001705
 20
-22.22499999999994
 30
0.0
 11
0.9999999999998292
 21
-22.22499999999991
 31
0.0
  0
LINE
  5
EA6
330
B6E
100
AcDbEntity
  8
241
100
AcDbLine
 10
0.9999999999998292
 20
-22.2249999999996
 30
0.0
 11
0.9999999999998292
 21
0.0
 31
0.0
  0
LINE
  5
EA7
330
B6E
100
AcDbEntity
  8
241
100
AcDbLine
 10
26.99999999999989
 20
0.0
 30
0.0
 11
26.99999999999993
 21
-30.50000000000049
 31
0.0
  0
LINE
  5
EA8
330
B6E
100
AcDbEntity
  8
241
  6
Continuous
100
AcDbLine
 10
14.48675134594822
 20
26.49999999999967
 30
0.0
 11
14.48675134594825
 21
-0.0000000000000142
 31
0.0
  0
LINE
  5
EA9
330
B6E
100
AcDbEntity
  8
240
  6
Continuous
100
AcDbLine
 10
18.71324865405168
 20
26.4999999999998
 30
0.0
 11
14.48675134594822
 21
26.49999999999967
 31
0.0
1001
GRPNAME
1000
PASTMD1I
  0
LINE
  5
EAA
330
B6E
100
AcDbEntity
  8
241
  6
Continuous
100
AcDbLine
 10
18.71324865405168
 20
26.4999999999998
 30
0.0
 11
18.71324865405179
 21
-0.0000000000000142
 31
0.0
  0
LINE
  5
EAB
330
B6E
100
AcDbEntity
  8
240
100
AcDbLine
 10
-0.0000000000001705
 20
22.22499999999994
 30
0.0
 11
1.000000000000224
 21
22.22500000000142
 31
0.0
  0
LINE
  5
EAC
330
B6E
100
AcDbEntity
  8
241
  6
Continuous
100
AcDbLine
 10
-0.0000000000001705
 20
22.22499999999994
 30
0.0
 11
0.0
 21
0.0
 31
0.0
  0
LINE
  5
EAD
330
B6E
100
AcDbEntity
  8
241
100
AcDbLine
 10
0.9999999999998292
 20
22.2249999999996
 30
0.0
 11
0.9999999999998292
 21
0.0
 31
0.0
  0
LINE
  5
EAE
330
B6E
100
AcDbEntity
  8
241
  6
Continuous
100
AcDbLine
 10
21.59999999999991
 20
31.50000000000003
 30
0.0
 11
21.59999999999991
 21
0.0
 31
0.0
  0
LINE
  5
EAF
330
B6E
100
AcDbEntity
  8
241
  6
Continuous
100
AcDbLine
 10
11.59999999999991
 20
0.0
 30
0.0
 11
11.59999999999993
 21
31.50000000000006
 31
0.0
  0
LINE
  5
EB0
330
B6E
100
AcDbEntity
  8
241
100
AcDbLine
 10
26.99999999999989
 20
0.0
 30
0.0
 11
26.99999999999983
 21
30.49999999999986
 31
0.0
  0
LINE
  5
EB1
330
B6E
100
AcDbEntity
  8
241
  6
HIDDEN2
100
AcDbLine
 10
51.86602540379396
 20
10.00000000000005
 30
0.0
 11
117.5000000000087
 21
9.999999999999943
 31
0.0
1001
GRPNAME
1000
PASTMD1D
  0
LINE
  5
EB2
330
B6E
100
AcDbEntity
  8
241
100
AcDbLine
 10
63.50000000001082
 20
-28.24226804123687
 30
0.0
 11
63.50000000000881
 21
0.0000000000000284
 31
0.0
  0
LINE
  5
EB3
330
B6E
100
AcDbEntity
  8
241
100
AcDbLine
 10
57.50000000001108
 20
-28.613402061855
 30
0.0
 11
57.50000000000891
 21
0.0000000000000284
 31
0.0
  0
LINE
  5
EB4
330
B6E
100
AcDbEntity
  8
241
100
AcDbLine
 10
55.50000000001078
 20
-28.7371134020618
 30
0.0
 11
55.50000000000895
 21
0.0000000000000284
 31
0.0
  0
LINE
  5
EB5
330
B6E
100
AcDbEntity
  8
241
100
AcDbLine
 10
49.50000000001086
 20
-29.10824742268021
 30
0.0
 11
49.50000000000867
 21
0.0000000000000284
 31
0.0
  0
LINE
  5
EB6
330
B6E
100
AcDbEntity
  8
240
100
AcDbLine
 10
58.03398565851431
 20
-28.07941640334721
 30
0.0
 11
63.02822626288776
 21
-27.77049430410763
 31
0.0
  0
LINE
  5
EB7
330
B6E
100
AcDbEntity
  8
240
100
AcDbLine
 10
58.03398565851431
 20
-28.07941640334721
 30
0.0
 11
57.50000000001072
 21
-28.61340206185503
 31
0.0
  0
LINE
  5
EB8
330
B6E
100
AcDbEntity
  8
240
100
AcDbLine
 10
63.50000000001043
 20
-28.24226804123626
 30
0.0
 11
63.02822626288776
 21
-27.77049430410763
 31
0.0
  0
LINE
  5
EB9
330
B6E
100
AcDbEntity
  8
240
100
AcDbLine
 10
63.50000000001078
 20
-28.24226804123681
 30
0.0
 11
75.50000000001086
 21
-27.4999999999999
 31
0.0
  0
LINE
  5
EBA
330
B6E
100
AcDbEntity
  8
240
100
AcDbLine
 10
26.99999999999993
 20
-30.50000000000049
 30
0.0
 11
49.50000000001086
 21
-29.10824742268021
 31
0.0
  0
LINE
  5
EBB
330
B6E
100
AcDbEntity
  8
240
100
AcDbLine
 10
55.50000000001078
 20
-28.7371134020618
 30
0.0
 11
57.50000000001072
 21
-28.61340206185503
 31
0.0
  0
LINE
  5
EBC
330
B6E
100
AcDbEntity
  8
240
100
AcDbLine
 10
27.0000000000014
 20
30.50000000000046
 30
0.0
 11
49.50000000002001
 21
29.10824742267977
 31
0.0
  0
LINE
  5
EBD
330
B6E
100
AcDbEntity
  8
240
100
AcDbLine
 10
63.50000000002117
 20
28.24226804123637
 30
0.0
 11
75.5000000000108
 21
27.50000000000003
 31
0.0
  0
LINE
  5
EBE
330
B6E
100
AcDbEntity
  8
240
100
AcDbLine
 10
90.84967724424757
 20
24.99999999999975
 30
0.0
 11
110.3838290319191
 21
24.99999999999966
 31
0.0
  0
ARC
  5
EBF
330
B6E
100
AcDbEntity
  8
240
100
AcDbCircle
 10
117.0000000000102
 20
19.39937738537048
 30
0.0
 40
3.0
100
AcDbArc
 50
0.0
 51
69.99999999999658
1001
ASK_MEN_XD
1005
EC0
1070
     1
1005
0
1070
     1
  0
LINE
  5
EC0
330
B6E
100
AcDbEntity
  8
240
100
AcDbLine
 10
118.0260604299873
 20
22.21845524772823
 30
0.0
 11
110.3838290319191
 21
24.99999999999966
 31
0.0
  0
LINE
  5
EC1
330
B6E
100
AcDbEntity
  8
240
100
AcDbLine
 10
75.50000000001087
 20
27.49999999999989
 30
0.0
 11
82.6712501195333
 21
27.49999999999966
 31
0.0
  0
LINE
  5
EC2
330
B6E
100
AcDbEntity
  8
240
100
AcDbLine
 10
120.0000000000068
 20
19.3993773853708
 30
0.0
 11
120.0000000000093
 21
-0.0000000000003411
 31
0.0
  0
LINE
  5
EC3
330
B6E
100
AcDbEntity
  8
240
100
AcDbLine
 10
90.84967724426149
 20
-25.00000000000014
 30
0.0
 11
110.3838290319191
 21
-25.00000000000032
 31
0.0
  0
LINE
  5
EC4
330
B6E
100
AcDbEntity
  8
240
100
AcDbLine
 10
118.026060429984
 20
-22.2184552477301
 30
0.0
 11
110.3838290319192
 21
-25.00000000000031
 31
0.0
  0
LINE
  5
EC5
330
B6E
100
AcDbEntity
  8
240
100
AcDbLine
 10
75.50000000001091
 20
-27.50000000000077
 30
0.0
 11
82.67125011953336
 21
-27.50000000000034
 31
0.0
  0
LINE
  5
EC6
330
B6E
100
AcDbEntity
  8
240
100
AcDbLine
 10
120.0000000000069
 20
-19.39937738537273
 30
0.0
 11
120.0000000000091
 21
-0.0000000000003126
 31
0.0
  0
ARC
  5
EC7
330
B6E
100
AcDbEntity
  8
240
100
AcDbCircle
 10
117.0000000000069
 20
-19.39937738537239
 30
0.0
 40
3.0
100
AcDbArc
 50
290.0000000000001
 51
359.9999999999935
  0
LINE
  5
EC8
330
B6E
100
AcDbEntity
  8
241
100
AcDbLine
 10
110.3838290319192
 20
-25.00000000000031
 30
0.0
 11
110.3838290319192
 21
-0.0000000000003411
 31
0.0
  0
LINE
  5
EC9
330
B6E
100
AcDbEntity
  8
240
100
AcDbLine
 10
85.35678402546659
 20
-25.64289321881342
 30
0.0
 11
84.08546368190645
 21
-26.91421356237359
 31
0.0
  0
ARC
  5
ECA
330
B6E
100
AcDbEntity
  8
240
100
AcDbCircle
 10
82.67125011953336
 20
-25.50000000000038
 30
0.0
 40
2.0
100
AcDbArc
 50
270.0
 51
315.0
1001
ASK_MEN_XD
1005
0
1070
     1
1005
0
1070
     1
  0
LINE
  5
ECB
330
B6E
100
AcDbEntity
  8
241
100
AcDbLine
 10
83.49967724427967
 20
-27.32035944224922
 30
0.0
 11
83.49967724427955
 21
-0.000000000000199
 31
0.0
  0
LINE
  5
ECC
330
B6E
100
AcDbEntity
  8
240
100
AcDbLine
 10
90.84967724426149
 20
-25.00000000000014
 30
0.0
 11
90.49967724428025
 21
-25.34999999999994
 31
0.0
1001
GRPNAME
1000
PASTMD1P
  0
LINE
  5
ECD
330
B6E
100
AcDbEntity
  8
241
100
AcDbLine
 10
90.84967724426149
 20
-25.00000000000014
 30
0.0
 11
90.84967724426144
 21
-0.0000000000004263
 31
0.0
  0
LINE
  5
ECE
330
B6E
100
AcDbEntity
  8
240
100
AcDbLine
 10
90.49967724427991
 20
-25.35
 30
0.0
 11
86.06389080665314
 21
-25.34999999999994
 31
0.0
  0
ARC
  5
ECF
330
B6E
100
AcDbEntity
  8
240
100
AcDbCircle
 10
86.06389080665314
 20
-26.34999999999994
 30
0.0
 40
1.0
100
AcDbArc
 50
90.0
 51
135.0
1001
ASK_MEN_XD
1005
EC9
1070
     1
1005
ECE
1070
     1
  0
LINE
  5
ED0
330
B6E
100
AcDbEntity
  8
241
100
AcDbLine
 10
85.64967724428004
 20
-25.34999999999994
 30
0.0
 11
85.64967724427992
 21
-0.000000000000199
 31
0.0
  0
LINE
  5
ED1
330
B6E
100
AcDbEntity
  8
240
100
AcDbLine
 10
85.35678402546652
 20
25.64289321881267
 30
0.0
 11
84.08546368190645
 21
26.91421356237285
 31
0.0
  0
ARC
  5
ED2
330
B6E
100
AcDbEntity
  8
240
100
AcDbCircle
 10
82.67125011953336
 20
25.49999999999963
 30
0.0
 40
2.0
100
AcDbArc
 50
45.0
 51
90.0
1001
ASK_MEN_XD
1005
0
1070
     1
1005
0
1070
     1
  0
LINE
  5
ED3
330
B6E
100
AcDbEntity
  8
240
100
AcDbLine
 10
90.4996772442802
 20
25.34999999999925
 30
0.0
 11
86.0638908066531
 21
25.3499999999992
 31
0.0
  0
ARC
  5
ED4
330
B6E
100
AcDbEntity
  8
240
100
AcDbCircle
 10
86.0638908066531
 20
26.3499999999992
 30
0.0
 40
1.0
100
AcDbArc
 50
224.9999999999977
 51
270.0
1001
ASK_MEN_XD
1005
ED1
1070
     1
1005
ED3
1070
     1
  0
LINE
  5
ED5
330
B6E
100
AcDbEntity
  8
240
100
AcDbLine
 10
90.84967724424757
 20
24.99999999999975
 30
0.0
 11
90.4996772442802
 21
25.34999999999925
 31
0.0
1001
GRPNAME
1000
PASTMD1P
  0
LINE
  5
ED6
330
B6E
100
AcDbEntity
  8
241
100
AcDbLine
 10
110.3838290319191
 20
24.99999999999966
 30
0.0
 11
110.3838290319192
 21
-0.0000000000003126
 31
0.0
  0
LINE
  5
ED7
330
B6E
100
AcDbEntity
  8
241
100
AcDbLine
 10
83.49967724427964
 20
27.32035944224853
 30
0.0
 11
83.49967724427955
 21
-0.0000000000004832
 31
0.0
  0
LINE
  5
ED8
330
B6E
100
AcDbEntity
  8
241
100
AcDbLine
 10
90.84967724426149
 20
24.99999999999946
 30
0.0
 11
90.84967724426144
 21
-0.0000000000002558
 31
0.0
  0
LINE
  5
ED9
330
B6E
100
AcDbEntity
  8
241
100
AcDbLine
 10
85.64967724428001
 20
25.34999999999925
 30
0.0
 11
85.64967724427992
 21
-0.0000000000004832
 31
0.0
  0
LINE
  5
EDA
330
B6E
100
AcDbEntity
  8
241
  6
HIDDEN2
100
AcDbLine
 10
117.5000000000087
 20
14.41635083268957
 30
0.0
 11
117.5000000000087
 21
-0.0000000000000853
 31
0.0
  0
LINE
  5
EDB
330
B6E
100
AcDbEntity
  8
241
100
AcDbLine
 10
75.50000000001091
 20
27.50000000000068
 30
0.0
 11
75.50000000000884
 21
0.0
 31
0.0
  0
LINE
  5
EDC
330
B6E
100
AcDbEntity
  8
241
100
AcDbLine
 10
75.50000000001091
 20
-27.50000000000068
 30
0.0
 11
75.50000000000884
 21
-0.0000000000000142
 31
0.0
  0
LINE
  5
EDD
330
B6E
100
AcDbEntity
  8
240
100
AcDbLine
 10
50.03398565851465
 20
-28.57426176417275
 30
0.0
 11
55.0282262628881
 21
-28.26533966493317
 31
0.0
  0
LINE
  5
EDE
330
B6E
100
AcDbEntity
  8
240
100
AcDbLine
 10
50.03398565851465
 20
-28.57426176417275
 30
0.0
 11
49.50000000001104
 21
-29.10824742268057
 31
0.0
  0
LINE
  5
EDF
330
B6E
100
AcDbEntity
  8
240
100
AcDbLine
 10
55.50000000001078
 20
-28.7371134020618
 30
0.0
 11
55.0282262628881
 21
-28.26533966493317
 31
0.0
  0
LINE
  5
EE0
330
B6E
100
AcDbEntity
  8
240
100
AcDbLine
 10
58.03398565851434
 20
28.07941640334721
 30
0.0
 11
63.02822626288778
 21
27.77049430410762
 31
0.0
  0
LINE
  5
EE1
330
B6E
100
AcDbEntity
  8
240
100
AcDbLine
 10
58.03398565851434
 20
28.07941640334721
 30
0.0
 11
57.50000000001072
 21
28.61340206185503
 31
0.0
  0
LINE
  5
EE2
330
B6E
100
AcDbEntity
  8
240
100
AcDbLine
 10
63.50000000001045
 20
28.24226804123626
 30
0.0
 11
63.02822626288778
 21
27.77049430410762
 31
0.0
  0
LINE
  5
EE3
330
B6E
100
AcDbEntity
  8
240
100
AcDbLine
 10
55.50000000001078
 20
28.7371134020618
 30
0.0
 11
57.50000000001072
 21
28.61340206185503
 31
0.0
  0
LINE
  5
EE4
330
B6E
100
AcDbEntity
  8
240
100
AcDbLine
 10
50.03398565851469
 20
28.57426176417275
 30
0.0
 11
55.02822626288812
 21
28.26533966493315
 31
0.0
  0
LINE
  5
EE5
330
B6E
100
AcDbEntity
  8
240
100
AcDbLine
 10
50.03398565851469
 20
28.57426176417275
 30
0.0
 11
49.50000000001107
 21
29.10824742268057
 31
0.0
  0
LINE
  5
EE6
330
B6E
100
AcDbEntity
  8
240
100
AcDbLine
 10
55.50000000001078
 20
28.7371134020618
 30
0.0
 11
55.02822626288812
 21
28.26533966493315
 31
0.0
  0
LINE
  5
EE7
330
B6E
100
AcDbEntity
  8
241
100
AcDbLine
 10
63.50000000001084
 20
28.24226804123686
 30
0.0
 11
63.50000000000881
 21
-0.0000000000000284
 31
0.0
  0
LINE
  5
EE8
330
B6E
100
AcDbEntity
  8
241
100
AcDbLine
 10
57.50000000001111
 20
28.613402061855
 30
0.0
 11
57.50000000000891
 21
-0.0000000000000284
 31
0.0
  0
LINE
  5
EE9
330
B6E
100
AcDbEntity
  8
241
100
AcDbLine
 10
55.50000000001078
 20
28.7371134020618
 30
0.0
 11
55.50000000000895
 21
-0.0000000000000284
 31
0.0
  0
LINE
  5
EEA
330
B6E
100
AcDbEntity
  8
241
100
AcDbLine
 10
49.50000000001089
 20
29.10824742268022
 30
0.0
 11
49.50000000000867
 21
-0.0000000000000284
 31
0.0
  0
LINE
  5
EEB
330
B6E
100
AcDbEntity
  8
241
  6
HIDDEN2
100
AcDbLine
 10
117.5000000000087
 20
10.04999999999902
 30
0.0
 11
120.000000000008
 21
10.04999999999902
 31
0.0
  0
ENDBLK
  5
B70
330
B6E
100
AcDbEntity
  8
0
100
AcDbBlockEnd
  0
ENDSEC
  0
SECTION
  2
ENTITIES
  0
INSERT
  5
6E6
330
1A
100
AcDbEntity
  8
245
100
AcDbBlockReference
  2
矢印なし
 10
175.6238269664377
 20
90.55123571690598
 30
0.0
  0
TEXT
  5
84E
330
1A
100
AcDbEntity
  8
241
  6
Continuous
100
AcDbText
 10
-65.40000000000006
 20
63.0
 30
0.0
 40
5.0
  1
BBT40-MEGA20D-120A
  7
YOKO
 11
-65.40000000000006
 21
63.0
 31
0.0
100
AcDbText
 73
     1
  0
LEADER
  5
87B
330
1A
100
AcDbEntity
  8
250
  6
Continuous
370
    -3
100
AcDbLeader
  3
BIGT
 76
     2
 10
-41.35292523879352
 20
-16.19436506934266
 30
0.0
 10
-48.25637089013412
 20
-28.151483684755
 30
0.0
1001
ACAD
1000
DSTYLE
1002
{
1070
    41
1040
2.0
1002
}
  0
MTEXT
  5
87C
330
1A
100
AcDbEntity
  8
250
  6
Continuous
 62
    40
370
    -3
100
AcDbMText
 10
-63.18970422346747
 20
-27.151483684755
 30
0.0
 40
2.799999999999998
 41
0.0
 71
     7
 72
     1
  1
BBT40
  7
YOKO
 73
     1
 44
1.0
1001
ITEMNAME
1000
LNSP3
1001
ACAD
1000
MTEXTBEGIN
1070
    73
1070
     1
1070
    44
1040
1.0
1070
    74
1070
     0
1000
MTEXTEND
  0
LINE
  5
87D
330
1A
100
AcDbEntity
  8
250
  6
Continuous
370
    -3
100
AcDbLine
 10
-48.25637089013412
 20
-28.151483684755
 30
0.0
 11
-65.98970422346745
 21
-28.151483684755
 31
0.0
1001
ITEMNAME
1000
LNSP2
  0
DIMENSION
  5
A71
330
1A
100
AcDbEntity
  8
250
  6
Continuous
370
    -3
100
AcDbDimension
  2
*D27
 10
134.0000000000091
 20
9.999999999999907
 30
0.0
 11
131.6000000000091
 21
-0.0000000000000257
 31
0.0
 70
    32
  1
{\H2.8;%%C}<>
 71
     5
 42
19.99999999999991
  3
BIGT
100
AcDbAlignedDimension
 13
117.5000000000086
 23
-10.0
 33
0.0
 14
117.5000000000087
 24
9.999999999999914
 34
0.0
 50
90.0
100
AcDbRotatedDimension
1001
ACAD
1000
DSTYLE
1002
{
1070
    42
1040
0.5
1070
    47
1040
0.02
1070
    48
1040
0.02
1070
    75
1070
     1
1070
   284
1070
     8
1070
   343
1005
6E3
1002
}
  0
DIMENSION
  5
A72
330
1A
100
AcDbEntity
  8
250
  6
Continuous
370
    -3
100
AcDbDimension
  2
*D28
 10
141.0000000000091
 20
24.99999999999965
 30
0.0
 11
138.6000000000091
 21
-0.0000000000003174
 31
0.0
 70
    32
  1
{\H2.8;%%C}<>
 71
     5
 42
49.99999999999998
  3
BIGT
100
AcDbAlignedDimension
 13
110.3838290319192
 23
-25.00000000000032
 33
0.0
 14
110.3838290319191
 24
24.99999999999966
 34
0.0
 50
90.0
100
AcDbRotatedDimension
1001
ACAD
1000
DSTYLE
1002
{
1070
    42
1040
0.5
1070
    47
1040
0.02
1070
    48
1040
0.02
1070
   284
1070
     8
1002
}
  0
DIMENSION
  5
A73
330
1A
100
AcDbEntity
  8
250
  6
Continuous
370
    -3
100
AcDbDimension
  2
*D29
 10
148.0000000000091
 20
27.49999999999964
 30
0.0
 11
145.6000000000091
 21
-0.0000000000003356
 31
0.0
 70
    32
  1
{\H2.8;%%C}<>
 71
     5
 42
55.0
  3
BIGT
100
AcDbAlignedDimension
 13
82.67125011953336
 23
-27.50000000000034
 33
0.0
 14
82.6712501195333
 24
27.49999999999966
 34
0.0
 50
90.0
100
AcDbRotatedDimension
1001
ACAD
1000
DSTYLE
1002
{
1070
    42
1040
0.5
1070
    47
1040
0.02
1070
    48
1040
0.02
1070
   284
1070
     8
1002
}
  0
DIMENSION
  5
A74
330
1A
100
AcDbEntity
  8
250
  6
Continuous
370
    -3
100
AcDbDimension
  2
*D30
 10
120.0000000000102
 20
41.99999999999969
 30
0.0
 11
77.0
 21
41.99999999999969
 31
0.0
 70
   160
  1
（max.<>）
 71
     5
 42
85.00000000000111
  3
BIGT
100
AcDbAlignedDimension
 13
35.00000000000909
 23
9.999999999999856
 33
0.0
 14
120.0000000000102
 24
19.39937738537048
 34
0.0
100
AcDbRotatedDimension
1001
ACAD
1000
DSTYLE
1002
{
1070
    41
1040
2.0
1002
}
  0
DIMENSION
  5
A75
330
1A
100
AcDbEntity
  8
250
  6
Continuous
370
    -3
100
AcDbDimension
  2
*D31
 10
120.0000000000102
 20
49.0
 30
0.0
 11
60.00000000000486
 21
49.0
 31
0.0
 70
   160
 71
     5
 42
120.0000000000107
  3
BIGT
100
AcDbAlignedDimension
 13
-0.0000000000004974
 23
22.22499999999994
 33
0.0
 14
120.0000000000102
 24
19.39937738537048
 34
0.0
100
AcDbRotatedDimension
1001
ACAD
1000
DSTYLE
1002
{
1070
    41
1040
2.0
1002
}
  0
INSERT
  5
EEC
330
1A
100
AcDbEntity
  8
245
100
AcDbBlockReference
  2
1
 10
0.0
 20
0.0
 30
0.0
  0
VIEWPORT
  5
22
102
{ACAD_XDICTIONARY
360
EEE
102
}
330
17
100
AcDbEntity
 67
     1
  8
0
100
AcDbViewport
 10
261.5176991150442
 20
148.5
 30
0.0
 40
523.0353982300885
 41
297.0
 68
     1
 69
     1
 12
261.5176991150442
 22
148.5
 13
0.0
 23
0.0
 14
1.0
 24
1.0
 15
10.0
 25
10.0
 16
0.0
 26
0.0
 36
1.0
 17
0.0
 27
0.0
 37
0.0
 42
50.0
 43
0.0
 44
0.0
 45
297.0
 50
0.0
 51
0.0
 72
   100
 90
    32800
  1

281
     0
 71
     1
 74
     0
110
0.0
120
0.0
130
0.0
111
1.0
121
0.0
131
0.0
112
0.0
122
1.0
132
0.0
 79
     0
146
0.0
  0
ENDSEC
  0
SECTION
  2
OBJECTS
  0
DICTIONARY
  5
C
330
0
100
AcDbDictionary
281
     1
  3
ACAD_COLOR
350
791
  3
ACAD_GROUP
350
D
  3
ACAD_LAYOUT
350
565
  3
ACAD_MATERIAL
350
77C
  3
ACAD_MLINESTYLE
350
E
  3
ACAD_PLOTSETTINGS
350
566
  3
ACAD_PLOTSTYLENAME
350
563
  3
ACAD_TABLESTYLE
350
792
  3
ACAD_VISUALSTYLE
350
780
  3
AcDbVariableDictionary
350
BDB
  3
DWGPROPS
350
EED
  3
GRADE_DWG
350
540
  0
DICTIONARY
  5
C70
330
1A
100
AcDbDictionary
280
     1
281
     1
  3
ACAD_SORTENTS
360
C71
  0
DICTIONARY
  5
EEE
330
22
100
AcDbDictionary
280
     1
281
     1
  3
ACAD_XREC_ROUNDTRIP
360
EEF
  0
DICTIONARY
  5
791
102
{ACAD_REACTORS
330
C
102
}
330
C
100
AcDbDictionary
281
     1
  0
DICTIONARY
  5
D
102
{ACAD_REACTORS
330
C
102
}
330
C
100
AcDbDictionary
281
     1
  3
*A1
350
6C7
  3
*A2
350
6C8
  3
*A3
350
6D4
  3
*A4
350
6D5
  3
DREC-1
350
5FC
  3
DREC-2
350
654
  3
DREC-3
350
673
  0
DICTIONARY
  5
565
102
{ACAD_REACTORS
330
C
102
}
330
C
100
AcDbDictionary
281
     1
  3
Model
350
567
  3
ﾚｲｱｳﾄ1
350
568
  0
DICTIONARY
  5
77C
102
{ACAD_REACTORS
330
C
102
}
330
C
100
AcDbDictionary
281
     1
  3
ByBlock
350
77E
  3
ByLayer
350
77D
  3
Global
350
77F
  0
DICTIONARY
  5
E
102
{ACAD_REACTORS
330
C
102
}
330
C
100
AcDbDictionary
281
     1
  3
STANDARD
350
13
  0
DICTIONARY
  5
566
102
{ACAD_REACTORS
330
C
102
}
330
C
100
AcDbDictionary
281
     1
  3
A3(0.5倍)
350
772
  3
A3(1倍)
350
773
  3
A3(1倍)(2000)
350
774
  3
A3(2倍)
350
775
  3
A4(0.5倍)
350
776
  3
A4(1倍)
350
777
  3
A4(1倍)(2000)
350
778
  3
A4(2倍)
350
779
  0
ACDBDICTIONARYWDFLT
  5
563
102
{ACAD_REACTORS
330
C
102
}
330
C
100
AcDbDictionary
281
     1
  3
Normal
350
564
100
AcDbDictionaryWithDefault
340
564
  0
DICTIONARY
  5
792
102
{ACAD_REACTORS
330
C
102
}
330
C
100
AcDbDictionary
281
     1
  3
Standard
350
793
  0
DICTIONARY
  5
780
102
{ACAD_REACTORS
330
C
102
}
330
C
100
AcDbDictionary
281
     1
  3
2dWireframe
350
786
  3
3D Hidden
350
788
  3
3dWireframe
350
787
  3
Basic
350
785
  3
Brighten
350
78C
  3
ColorChange
350
790
  3
Conceptual
350
789
  3
Dim
350
78B
  3
Facepattern
350
78F
  3
Flat
350
781
  3
FlatWithEdges
350
782
  3
Gouraud
350
783
  3
GouraudWithEdges
350
784
  3
Linepattern
350
78E
  3
Realistic
350
78A
  3
Thicken
350
78D
  0
DICTIONARY
  5
BDB
102
{ACAD_REACTORS
330
C
102
}
330
C
100
AcDbDictionary
281
     1
  3
CTABLESTYLE
350
BDC
  3
DIMASSOC
350
BDF
  3
INDEXCTL
350
BDE
  3
SORTENTS
350
BDD
  0
XRECORD
  5
EED
102
{ACAD_REACTORS
330
C
102
}
330
C
100
AcDbXrecord
280
     1
  1
DWGPROPS COOKIE
  2

  3

  4

  6

  7

  8
AWTEC
  9

300
=
301
=
302
=
303
=
304
=
305
=
306
=
307
=
308
=
309
=
 40
0.0152739814814815
 41
2456316.620572917
 42
2456318.41020544
  1

 90
        0
  0
DICTIONARY
  5
540
102
{ACAD_REACTORS
330
C
102
}
330
C
100
AcDbDictionary
281
     1
  3
VERSION
350
560
  0
SORTENTSTABLE
  5
C71
102
{ACAD_REACTORS
330
C70
102
}
330
C70
100
AcDbSortentsTable
330
1A
331
A75
  5
A75
331
A73
  5
A73
331
A71
  5
A71
331
87C
  5
87C
331
A74
  5
A74
331
A72
  5
A72
331
6E6
  5
6E6
331
84E
  5
84E
331
87D
  5
87D
331
87B
  5
87B
  0
XRECORD
  5
EEF
102
{ACAD_REACTORS
330
EEE
102
}
330
EEE
100
AcDbXrecord
280
     1
102
SHADEPLOT
 70
     0
  0
GROUP
  5
6C7
102
{ACAD_REACTORS
330
D
102
}
330
D
100
AcDbGroup
300

 70
     0
 71
     1
1001
GRPNAME
1000
DMA00
  0
GROUP
  5
6C8
102
{ACAD_REACTORS
330
D
102
}
330
D
100
AcDbGroup
300

 70
     0
 71
     1
1001
GRPNAME
1000
DMA00
  0
GROUP
  5
6D4
102
{ACAD_REACTORS
330
D
102
}
330
D
100
AcDbGroup
300

 70
     0
 71
     1
1001
GRPNAME
1000
DMA00
  0
GROUP
  5
6D5
102
{ACAD_REACTORS
330
D
102
}
330
D
100
AcDbGroup
300

 70
     0
 71
     1
1001
GRPNAME
1000
DMA00
  0
GROUP
  5
5FC
102
{ACAD_REACTORS
330
D
102
}
330
D
100
AcDbGroup
300

 70
     0
 71
     1
1001
GRPNAME
1000
DREC-
1001
GPARA
1000
xsiz
1000
44.182
1000
ysiz
1000
40.677
1000
angl
1000
0
1000
ctyp
1000
0
1000
csiz
1000
5
1000
lfnt
1000
cont
1000
hcnt
1000
hoff
1000
vcnt
1000
voff
1000
opnt
1000
4
1000
dxpt
1000
0
1000
dypt
1000
0
  0
GROUP
  5
654
102
{ACAD_REACTORS
330
D
102
}
330
D
100
AcDbGroup
300

 70
     0
 71
     1
1001
GRPNAME
1000
DREC-
1001
GPARA
1000
xsiz
1000
54.592
1000
ysiz
1000
53.036
1000
angl
1000
0
1000
ctyp
1000
0
1000
csiz
1000
5
1000
lfnt
1000
cont
1000
hcnt
1000
hoff
1000
vcnt
1000
voff
1000
opnt
1000
4
1000
dxpt
1000
0
1000
dypt
1000
0
  0
GROUP
  5
673
102
{ACAD_REACTORS
330
D
102
}
330
D
100
AcDbGroup
300

 70
     0
 71
     1
1001
GRPNAME
1000
DREC-
1001
GPARA
1000
xsiz
1000
30.363
1000
ysiz
1000
36.175
1000
angl
1000
0
1000
ctyp
1000
0
1000
csiz
1000
5
1000
lfnt
1000
cont
1000
hcnt
1000
hoff
1000
vcnt
1000
voff
1000
opnt
1000
4
1000
dxpt
1000
0
1000
dypt
1000
0
  0
LAYOUT
  5
567
102
{ACAD_XDICTIONARY
360
EF0
102
}
102
{ACAD_REACTORS
330
565
102
}
330
565
100
AcDbPlotSettings
  1
A3(1倍)
  2
Canon LBP5600.pc3
  4
A3
  6

 40
5.873749732971191
 41
5.873747825622557
 42
5.873748779296875
 43
5.873748779296875
 44
296.9259948730469
 45
419.9466552734373
 46
37.59
 47
55.6
 48
0.0
 49
0.0
140
0.0
141
0.0
142
1.0
143
1.0
 70
 11956
 72
     1
 73
     1
 74
     2
  7
big.ctb
 75
    16
147
1.0
148
0.0
149
0.0
100
AcDbLayout
  1
Model
 70
     1
 71
     0
 10
0.0
 20
0.0
 11
12.0
 21
9.0
 12
0.0
 22
0.0
 32
0.0
 14
0.0
 24
0.0
 34
0.0
 15
0.0
 25
0.0
 35
0.0
146
0.0
 13
0.0
 23
0.0
 33
0.0
 16
1.0
 26
0.0
 36
0.0
 17
0.0
 27
1.0
 37
0.0
 76
     0
330
1A
331
77A
  0
LAYOUT
  5
568
102
{ACAD_XDICTIONARY
360
EF2
102
}
102
{ACAD_REACTORS
330
565
102
}
330
565
100
AcDbPlotSettings
  1

  2
\\ICHIRO\FX Able Model-PRII ART4-ADV
  4

  6

 40
0.0
 41
0.0
 42
0.0
 43
0.0
 44
0.0
 45
0.0
 46
0.0
 47
0.0
 48
0.0
 49
0.0
140
0.0
141
0.0
142
1.0
143
1.0
 70
   688
 72
     0
 73
     0
 74
     5
  7
big.ctb
 75
    16
147
1.0
148
0.0
149
0.0
100
AcDbLayout
  1
ﾚｲｱｳﾄ1
 70
     1
 71
     1
 10
0.0
 20
0.0
 11
420.0
 21
297.0
 12
0.0
 22
0.0
 32
0.0
 14
1.000000000000000E+20
 24
1.000000000000000E+20
 34
1.000000000000000E+20
 15
-1.000000000000000E+20
 25
-1.000000000000000E+20
 35
-1.000000000000000E+20
146
0.0
 13
0.0
 23
0.0
 33
0.0
 16
1.0
 26
0.0
 36
0.0
 17
0.0
 27
1.0
 37
0.0
 76
     0
330
17
331
22
  0
MATERIAL
  5
77E
102
{ACAD_XDICTIONARY
360
BF9
102
}
102
{ACAD_REACTORS
330
77C
102
}
330
77C
100
AcDbMaterial
  1
ByBlock
  0
MATERIAL
  5
77D
102
{ACAD_XDICTIONARY
360
BF7
102
}
102
{ACAD_REACTORS
330
77C
102
}
330
77C
100
AcDbMaterial
  1
ByLayer
  0
MATERIAL
  5
77F
102
{ACAD_XDICTIONARY
360
BFB
102
}
102
{ACAD_REACTORS
330
77C
102
}
330
77C
100
AcDbMaterial
  1
Global
  0
MLINESTYLE
  5
13
102
{ACAD_REACTORS
330
E
102
}
330
E
100
AcDbMlineStyle
  2
STANDARD
 70
     0
  3

 62
     0
 51
90.0
 52
90.0
 71
     2
 49
0.5
 62
   256
  6
BYLAYER
 49
-0.5
 62
   256
  6
BYLAYER
  0
PLOTSETTINGS
  5
772
102
{ACAD_XDICTIONARY
360
EF4
102
}
102
{ACAD_REACTORS
330
566
102
}
330
566
100
AcDbPlotSettings
  1
A3(0.5倍)
  2
Canon LBP5600.pc3
  4
A3
  6

 40
5.873749732971191
 41
5.873747825622557
 42
5.873748779296875
 43
5.873748779296875
 44
296.9259948730469
 45
419.9466552734373
 46
90.09
 47
129.85
 48
0.0
 49
0.0
140
0.0
141
0.0
142
1.0
143
2.0
 70
  1716
 72
     1
 73
     1
 74
     2
  7
big.ctb
 75
    17
147
0.5
148
0.0
149
0.0
  0
PLOTSETTINGS
  5
773
102
{ACAD_XDICTIONARY
360
EF6
102
}
102
{ACAD_REACTORS
330
566
102
}
330
566
100
AcDbPlotSettings
  1
A3(1倍)
  2
Canon LBP5600.pc3
  4
A3
  6

 40
5.873749732971191
 41
5.873747825622557
 42
5.873748779296875
 43
5.873748779296875
 44
296.9259948730469
 45
419.9466552734373
 46
37.59
 47
55.6
 48
0.0
 49
0.0
140
0.0
141
0.0
142
1.0
143
1.0
 70
  1716
 72
     1
 73
     1
 74
     2
  7
big.ctb
 75
    16
147
1.0
148
0.0
149
0.0
  0
PLOTSETTINGS
  5
774
102
{ACAD_XDICTIONARY
360
EF8
102
}
102
{ACAD_REACTORS
330
566
102
}
330
566
100
AcDbPlotSettings
  1
A3(1倍)(2000)
  2
Canon LBP5600.pc3
  4
A3
  6

 40
5.873749732971191
 41
5.873747825622557
 42
5.873748779296875
 43
5.873748779296875
 44
296.9259948730469
 45
419.9466552734373
 46
37.59
 47
55.6
 48
0.0
 49
0.0
140
0.0
141
0.0
142
1.0
143
1.0
 70
  1716
 72
     1
 73
     1
 74
     2
  7
big.ctb
 75
    16
147
1.0
148
0.0
149
0.0
  0
PLOTSETTINGS
  5
775
102
{ACAD_XDICTIONARY
360
EFA
102
}
102
{ACAD_REACTORS
330
566
102
}
330
566
100
AcDbPlotSettings
  1
A3(2倍)
  2
Canon LBP5600.pc3
  4
A3
  6

 40
5.873749732971191
 41
5.873747825622557
 42
5.873748779296875
 43
5.873748779296875
 44
296.9259948730469
 45
419.9466552734373
 46
-67.40999999999999
 47
-92.9
 48
0.0
 49
0.0
140
0.0
141
0.0
142
1.0
143
0.5
 70
  1716
 72
     1
 73
     1
 74
     2
  7
big.ctb
 75
    27
147
2.0
148
0.0
149
0.0
  0
PLOTSETTINGS
  5
776
102
{ACAD_XDICTIONARY
360
EFC
102
}
102
{ACAD_REACTORS
330
566
102
}
330
566
100
AcDbPlotSettings
  1
A4(0.5倍)
  2
Canon LBP5600.pc3
  4
A3
  6

 40
5.873749732971191
 41
5.873747825622557
 42
5.873748779296875
 43
5.873748779296875
 44
296.9259948730469
 45
419.9466552734373
 46
90.09
 47
129.85
 48
0.0
 49
0.0
140
0.0
141
0.0
142
1.0
143
2.0
 70
  1716
 72
     1
 73
     1
 74
     2
  7
big.ctb
 75
    17
147
0.5
148
0.0
149
0.0
  0
PLOTSETTINGS
  5
777
102
{ACAD_XDICTIONARY
360
EFE
102
}
102
{ACAD_REACTORS
330
566
102
}
330
566
100
AcDbPlotSettings
  1
A4(1倍)
  2
Canon LBP5600.pc3
  4
A3
  6

 40
5.873749732971191
 41
5.873747825622557
 42
5.873748779296875
 43
5.873748779296875
 44
296.9259948730469
 45
419.9466552734373
 46
37.59
 47
55.6
 48
0.0
 49
0.0
140
0.0
141
0.0
142
1.0
143
1.0
 70
  1716
 72
     1
 73
     1
 74
     2
  7
big.ctb
 75
    16
147
1.0
148
0.0
149
0.0
  0
PLOTSETTINGS
  5
778
102
{ACAD_XDICTIONARY
360
F00
102
}
102
{ACAD_REACTORS
330
566
102
}
330
566
100
AcDbPlotSettings
  1
A4(1倍)(2000)
  2
Canon LBP5600.pc3
  4
A3
  6

 40
5.873749732971191
 41
5.873747825622557
 42
5.873748779296875
 43
5.873748779296875
 44
296.9259948730469
 45
419.9466552734373
 46
37.59
 47
55.6
 48
0.0
 49
0.0
140
0.0
141
0.0
142
1.0
143
1.0
 70
  1716
 72
     1
 73
     1
 74
     2
  7
big.ctb
 75
    16
147
1.0
148
0.0
149
0.0
  0
PLOTSETTINGS
  5
779
102
{ACAD_XDICTIONARY
360
F02
102
}
102
{ACAD_REACTORS
330
566
102
}
330
566
100
AcDbPlotSettings
  1
A4(2倍)
  2
Canon LBP5600.pc3
  4
A3
  6

 40
5.873749732971191
 41
5.873747825622557
 42
5.873748779296875
 43
5.873748779296875
 44
296.9259948730469
 45
419.9466552734373
 46
-67.40999999999999
 47
-92.9
 48
0.0
 49
0.0
140
0.0
141
0.0
142
1.0
143
0.5
 70
  1716
 72
     1
 73
     1
 74
     2
  7
big.ctb
 75
    27
147
2.0
148
0.0
149
0.0
  0
ACDBPLACEHOLDER
  5
564
102
{ACAD_REACTORS
330
563
102
}
330
563
  0
TABLESTYLE
  5
793
102
{ACAD_XDICTIONARY
360
F04
102
}
102
{ACAD_REACTORS
330
792
102
}
330
792
100
AcDbTableStyle
  3
Standard
 70
     0
 71
     0
 40
1.5
 41
1.5
280
     0
281
     0
  7
STANDARD
140
4.5
170
     2
 62
     0
 63
     7
283
     0
274
    -2
284
     1
 64
     0
275
    -2
285
     1
 65
     0
276
    -2
286
     1
 66
     0
277
    -2
287
     1
 67
     0
278
    -2
288
     1
 68
     0
279
    -2
289
     1
 69
     0
  7
STANDARD
140
6.0
170
     5
 62
     0
 63
     7
283
     0
274
    -2
284
     1
 64
     0
275
    -2
285
     1
 65
     0
276
    -2
286
     1
 66
     0
277
    -2
287
     1
 67
     0
278
    -2
288
     1
 68
     0
279
    -2
289
     1
 69
     0
  7
STANDARD
140
4.5
170
     5
 62
     0
 63
     7
283
     0
274
    -2
284
     1
 64
     0
275
    -2
285
     1
 65
     0
276
    -2
286
     1
 66
     0
277
    -2
287
     1
 67
     0
278
    -2
288
     1
 68
     0
279
    -2
289
     1
 69
     0
  0
VISUALSTYLE
  5
786
102
{ACAD_REACTORS
330
780
102
}
330
780
100
AcDbVisualStyle
  2
2dWireframe
 70
     4
 71
     0
 72
     2
 73
     0
 90
        0
 40
-0.6
 41
-30.0
 62
     5
 63
     7
 74
     1
 91
        4
 64
     7
 65
   257
 75
     1
175
     1
 42
1.0
 92
        0
 66
   257
 43
1.0
 76
     1
 77
     6
 78
     2
 67
     7
 79
     5
170
     0
171
     0
290
     0
174
     0
 93
        1
 44
0.0
173
     0
291
     0
 45
0.0
1001
ACAD
1000
AcDbSavedByObjectVersion
1070
     0
1000
AcDbSavedByObjectVersion
1070
     0
1000
AcDbSavedByObjectVersion
1070
     0
1000
AcDbSavedByObjectVersion
1070
     0
  0
VISUALSTYLE
  5
788
102
{ACAD_REACTORS
330
780
102
}
330
780
100
AcDbVisualStyle
  2
3D Hidden
 70
     6
 71
     1
 72
     2
 73
     2
 90
        0
 40
-0.6
 41
-30.0
 62
     5
 63
     7
 74
     2
 91
        2
 64
     7
 65
   257
 75
     2
175
     1
 42
40.0
 92
        0
 66
   257
 43
1.0
 76
     1
 77
     6
 78
     2
 67
     7
 79
     3
170
     0
171
     0
290
     0
174
     0
 93
        1
 44
0.0
173
     0
291
     0
 45
0.0
1001
ACAD
1000
AcDbSavedByObjectVersion
1070
     0
1000
AcDbSavedByObjectVersion
1070
     0
1000
AcDbSavedByObjectVersion
1070
     0
1000
AcDbSavedByObjectVersion
1070
     0
  0
VISUALSTYLE
  5
787
102
{ACAD_REACTORS
330
780
102
}
330
780
100
AcDbVisualStyle
  2
3dWireframe
 70
     5
 71
     0
 72
     2
 73
     0
 90
        0
 40
-0.6
 41
-30.0
 62
     5
 63
     7
 74
     1
 91
        4
 64
     7
 65
   257
 75
     1
175
     1
 42
1.0
 92
        0
 66
   257
 43
1.0
 76
     1
 77
     6
 78
     2
 67
     7
 79
     5
170
     0
171
     0
290
     0
174
     0
 93
        1
 44
0.0
173
     0
291
     0
 45
0.0
1001
ACAD
1000
AcDbSavedByObjectVersion
1070
     0
1000
AcDbSavedByObjectVersion
1070
     0
1000
AcDbSavedByObjectVersion
1070
     0
1000
AcDbSavedByObjectVersion
1070
     0
  0
VISUALSTYLE
  5
785
102
{ACAD_REACTORS
330
780
102
}
330
780
100
AcDbVisualStyle
  2
Basic
 70
     7
 71
     1
 72
     0
 73
     1
 90
        0
 40
-0.6
 41
-30.0
 62
     5
 63
     7
 74
     0
 91
        4
 64
     7
 65
   257
 75
     1
175
     1
 42
1.0
 92
        8
 66
     7
 43
1.0
 76
     1
 77
     6
 78
     2
 67
     7
 79
     5
170
     0
171
     0
290
     0
174
     0
 93
        1
 44
0.0
173
     0
291
     1
 45
0.0
1001
ACAD
1000
AcDbSavedByObjectVersion
1070
     0
1000
AcDbSavedByObjectVersion
1070
     0
1000
AcDbSavedByObjectVersion
1070
     0
1000
AcDbSavedByObjectVersion
1070
     0
  0
VISUALSTYLE
  5
78C
102
{ACAD_REACTORS
330
780
102
}
330
780
100
AcDbVisualStyle
  2
Brighten
 70
    12
 71
     2
 72
     2
 73
     0
 90
        0
 40
-0.6
 41
-30.0
 62
     5
 63
     7
 74
     1
 91
        4
 64
     7
 65
   257
 75
     1
175
     1
 42
1.0
 92
        8
 66
     7
 43
1.0
 76
     1
 77
     6
 78
     2
 67
     7
 79
     5
170
     0
171
     0
290
     0
174
     0
 93
        1
 44
50.0
173
     0
291
     1
 45
0.0
1001
ACAD
1000
AcDbSavedByObjectVersion
1070
     0
1000
AcDbSavedByObjectVersion
1070
     0
1000
AcDbSavedByObjectVersion
1070
     0
1000
AcDbSavedByObjectVersion
1070
     0
  0
VISUALSTYLE
  5
790
102
{ACAD_REACTORS
330
780
102
}
330
780
100
AcDbVisualStyle
  2
ColorChange
 70
    16
 71
     2
 72
     2
 73
     3
 90
        0
 40
-0.6
 41
-30.0
 62
     5
 63
     8
 74
     1
 91
        4
 64
     7
 65
   257
 75
     1
175
     1
 42
1.0
 92
        8
 66
     8
 43
1.0
 76
     1
 77
     6
 78
     2
 67
     7
 79
     5
170
     0
171
     0
290
     0
174
     0
 93
        1
 44
0.0
173
     0
291
     1
 45
0.0
1001
ACAD
1000
AcDbSavedByObjectVersion
1070
     0
1000
AcDbSavedByObjectVersion
1070
     0
1000
AcDbSavedByObjectVersion
1070
     0
1000
AcDbSavedByObjectVersion
1070
     0
  0
VISUALSTYLE
  5
789
102
{ACAD_REACTORS
330
780
102
}
330
780
100
AcDbVisualStyle
  2
Conceptual
 70
     9
 71
     3
 72
     2
 73
     0
 90
        0
 40
-0.6
 41
-30.0
 62
     5
 63
     7
 74
     2
 91
        2
 64
     7
 65
   257
 75
     1
175
     1
 42
40.0
 92
        8
 66
     7
 43
1.0
 76
     1
 77
     6
 78
     2
 67
     7
 79
     3
170
     0
171
     0
290
     0
174
     0
 93
        1
 44
0.0
173
     0
291
     0
 45
0.0
1001
ACAD
1000
AcDbSavedByObjectVersion
1070
     0
1000
AcDbSavedByObjectVersion
1070
     0
1000
AcDbSavedByObjectVersion
1070
     0
1000
AcDbSavedByObjectVersion
1070
     0
  0
VISUALSTYLE
  5
78B
102
{ACAD_REACTORS
330
780
102
}
330
780
100
AcDbVisualStyle
  2
Dim
 70
    11
 71
     2
 72
     2
 73
     0
 90
        0
 40
-0.6
 41
-30.0
 62
     5
 63
     7
 74
     1
 91
        4
 64
     7
 65
   257
 75
     1
175
     1
 42
1.0
 92
        8
 66
     7
 43
1.0
 76
     1
 77
     6
 78
     2
 67
     7
 79
     5
170
     0
171
     0
290
     0
174
     0
 93
        1
 44
-50.0
173
     0
291
     1
 45
0.0
1001
ACAD
1000
AcDbSavedByObjectVersion
1070
     0
1000
AcDbSavedByObjectVersion
1070
     0
1000
AcDbSavedByObjectVersion
1070
     0
1000
AcDbSavedByObjectVersion
1070
     0
  0
VISUALSTYLE
  5
78F
102
{ACAD_REACTORS
330
780
102
}
330
780
100
AcDbVisualStyle
  2
Facepattern
 70
    15
 71
     2
 72
     2
 73
     0
 90
        0
 40
-0.6
 41
-30.0
 62
     5
 63
     7
 74
     1
 91
        4
 64
     7
 65
   257
 75
     1
175
     1
 42
1.0
 92
        8
 66
     7
 43
1.0
 76
     1
 77
     6
 78
     2
 67
     7
 79
     5
170
     0
171
     0
290
     0
174
     0
 93
        1
 44
0.0
173
     0
291
     1
 45
0.0
1001
ACAD
1000
AcDbSavedByObjectVersion
1070
     0
1000
AcDbSavedByObjectVersion
1070
     0
1000
AcDbSavedByObjectVersion
1070
     0
1000
AcDbSavedByObjectVersion
1070
     0
  0
VISUALSTYLE
  5
781
102
{ACAD_REACTORS
330
780
102
}
330
780
100
AcDbVisualStyle
  2
Flat
 70
     0
 71
     2
 72
     1
 73
     1
 90
        2
 40
-0.6
 41
30.0
 62
     5
 63
     7
 74
     0
 91
        4
 64
     7
 65
   257
 75
     1
175
     1
 42
1.0
 92
        8
 66
     7
 43
1.0
 76
     1
 77
     6
 78
     2
 67
     7
 79
     5
170
     0
171
     0
290
     0
174
     0
 93
       13
 44
0.0
173
     0
291
     1
 45
0.0
1001
ACAD
1000
AcDbSavedByObjectVersion
1070
     0
1000
AcDbSavedByObjectVersion
1070
     0
1000
AcDbSavedByObjectVersion
1070
     0
1000
AcDbSavedByObjectVersion
1070
     0
  0
VISUALSTYLE
  5
782
102
{ACAD_REACTORS
330
780
102
}
330
780
100
AcDbVisualStyle
  2
FlatWithEdges
 70
     1
 71
     2
 72
     1
 73
     1
 90
        2
 40
-0.6
 41
30.0
 62
     5
 63
     7
 74
     1
 91
        4
 64
     7
 65
   257
 75
     1
175
     1
 42
1.0
 92
        0
 66
   257
 43
1.0
 76
     1
 77
     6
 78
     2
 67
     7
 79
     5
170
     0
171
     0
290
     0
174
     0
 93
       13
 44
0.0
173
     0
291
     1
 45
0.0
1001
ACAD
1000
AcDbSavedByObjectVersion
1070
     0
1000
AcDbSavedByObjectVersion
1070
     0
1000
AcDbSavedByObjectVersion
1070
     0
1000
AcDbSavedByObjectVersion
1070
     0
  0
VISUALSTYLE
  5
783
102
{ACAD_REACTORS
330
780
102
}
330
780
100
AcDbVisualStyle
  2
Gouraud
 70
     2
 71
     2
 72
     2
 73
     1
 90
        2
 40
-0.6
 41
30.0
 62
     5
 63
     7
 74
     0
 91
        4
 64
     7
 65
   257
 75
     1
175
     1
 42
1.0
 92
        0
 66
     7
 43
1.0
 76
     1
 77
     6
 78
     2
 67
     7
 79
     5
170
     0
171
     0
290
     0
174
     0
 93
       13
 44
0.0
173
     0
291
     1
 45
0.0
1001
ACAD
1000
AcDbSavedByObjectVersion
1070
     0
1000
AcDbSavedByObjectVersion
1070
     0
1000
AcDbSavedByObjectVersion
1070
     0
1000
AcDbSavedByObjectVersion
1070
     0
  0
VISUALSTYLE
  5
784
102
{ACAD_REACTORS
330
780
102
}
330
780
100
AcDbVisualStyle
  2
GouraudWithEdges
 70
     3
 71
     2
 72
     2
 73
     1
 90
        2
 40
-0.6
 41
30.0
 62
     5
 63
     7
 74
     1
 91
        4
 64
     7
 65
   257
 75
     1
175
     1
 42
1.0
 92
        0
 66
   257
 43
1.0
 76
     1
 77
     6
 78
     2
 67
     7
 79
     5
170
     0
171
     0
290
     0
174
     0
 93
       13
 44
0.0
173
     0
291
     1
 45
0.0
1001
ACAD
1000
AcDbSavedByObjectVersion
1070
     0
1000
AcDbSavedByObjectVersion
1070
     0
1000
AcDbSavedByObjectVersion
1070
     0
1000
AcDbSavedByObjectVersion
1070
     0
  0
VISUALSTYLE
  5
78E
102
{ACAD_REACTORS
330
780
102
}
330
780
100
AcDbVisualStyle
  2
Linepattern
 70
    14
 71
     2
 72
     2
 73
     0
 90
        0
 40
-0.6
 41
-30.0
 62
     5
 63
     7
 74
     1
 91
        4
 64
     7
 65
   257
 75
     7
175
     7
 42
1.0
 92
        8
 66
     7
 43
1.0
 76
     1
 77
     6
 78
     2
 67
     7
 79
     5
170
     0
171
     0
290
     0
174
     0
 93
        1
 44
0.0
173
     0
291
     1
 45
0.0
1001
ACAD
1000
AcDbSavedByObjectVersion
1070
     0
1000
AcDbSavedByObjectVersion
1070
     0
1000
AcDbSavedByObjectVersion
1070
     0
1000
AcDbSavedByObjectVersion
1070
     0
  0
VISUALSTYLE
  5
78A
102
{ACAD_REACTORS
330
780
102
}
330
780
100
AcDbVisualStyle
  2
Realistic
 70
     8
 71
     2
 72
     2
 73
     0
 90
        0
 40
-0.6
 41
-30.0
 62
     5
 63
     7
 74
     1
 91
        0
 64
     7
 65
   257
 75
     1
175
     1
 42
1.0
 92
        8
 66
     8
 43
1.0
 76
     1
 77
     6
 78
     2
 67
     7
 79
     5
170
     0
171
     0
290
     0
174
     0
 93
       13
 44
0.0
173
     0
291
     0
 45
0.0
1001
ACAD
1000
AcDbSavedByObjectVersion
1070
     0
1000
AcDbSavedByObjectVersion
1070
     0
1000
AcDbSavedByObjectVersion
1070
     0
1000
AcDbSavedByObjectVersion
1070
     0
  0
VISUALSTYLE
  5
78D
102
{ACAD_REACTORS
330
780
102
}
330
780
100
AcDbVisualStyle
  2
Thicken
 70
    13
 71
     2
 72
     2
 73
     0
 90
        0
 40
-0.6
 41
-30.0
 62
     5
 63
     7
 74
     1
 91
        4
 64
     7
 65
   257
 75
     1
175
     1
 42
1.0
 92
       12
 66
     7
 43
1.0
 76
     1
 77
     6
 78
     2
 67
     7
 79
     5
170
     0
171
     0
290
     0
174
     0
 93
        1
 44
0.0
173
     0
291
     1
 45
0.0
1001
ACAD
1000
AcDbSavedByObjectVersion
1070
     0
1000
AcDbSavedByObjectVersion
1070
     0
1000
AcDbSavedByObjectVersion
1070
     0
1000
AcDbSavedByObjectVersion
1070
     0
  0
DICTIONARYVAR
  5
BDC
102
{ACAD_REACTORS
330
BDB
102
}
330
BDB
100
DictionaryVariables
280
     0
  1
STANDARD
  0
DICTIONARYVAR
  5
BDF
102
{ACAD_REACTORS
330
BDB
102
}
330
BDB
100
DictionaryVariables
280
     0
  1
1
  0
DICTIONARYVAR
  5
BDE
102
{ACAD_REACTORS
330
BDB
102
}
330
BDB
100
DictionaryVariables
280
     0
  1
0
  0
DICTIONARYVAR
  5
BDD
102
{ACAD_REACTORS
330
BDB
102
}
330
BDB
100
DictionaryVariables
280
     0
  1
127
  0
XRECORD
  5
560
102
{ACAD_REACTORS
330
540
102
}
330
540
100
AcDbXrecord
280
     1
  1
2.0.0
  0
DICTIONARY
  5
EF0
330
567
100
AcDbDictionary
280
     1
281
     1
  3
ACAD_XREC_ROUNDTRIP
360
EF1
  0
DICTIONARY
  5
EF2
330
568
100
AcDbDictionary
280
     1
281
     1
  3
ACAD_XREC_ROUNDTRIP
360
EF3
  0
DICTIONARY
  5
BF9
330
77E
100
AcDbDictionary
280
     1
281
     1
  3
ACAD_XREC_ROUNDTRIP
360
BFA
  0
DICTIONARY
  5
BF7
330
77D
100
AcDbDictionary
280
     1
281
     1
  3
ACAD_XREC_ROUNDTRIP
360
BF8
  0
DICTIONARY
  5
BFB
330
77F
100
AcDbDictionary
280
     1
281
     1
  3
ACAD_XREC_ROUNDTRIP
360
BFC
  0
DICTIONARY
  5
EF4
330
772
100
AcDbDictionary
280
     1
281
     1
  3
ACAD_XREC_ROUNDTRIP
360
EF5
  0
DICTIONARY
  5
EF6
330
773
100
AcDbDictionary
280
     1
281
     1
  3
ACAD_XREC_ROUNDTRIP
360
EF7
  0
DICTIONARY
  5
EF8
330
774
100
AcDbDictionary
280
     1
281
     1
  3
ACAD_XREC_ROUNDTRIP
360
EF9
  0
DICTIONARY
  5
EFA
330
775
100
AcDbDictionary
280
     1
281
     1
  3
ACAD_XREC_ROUNDTRIP
360
EFB
  0
DICTIONARY
  5
EFC
330
776
100
AcDbDictionary
280
     1
281
     1
  3
ACAD_XREC_ROUNDTRIP
360
EFD
  0
DICTIONARY
  5
EFE
330
777
100
AcDbDictionary
280
     1
281
     1
  3
ACAD_XREC_ROUNDTRIP
360
EFF
  0
DICTIONARY
  5
F00
330
778
100
AcDbDictionary
280
     1
281
     1
  3
ACAD_XREC_ROUNDTRIP
360
F01
  0
DICTIONARY
  5
F02
330
779
100
AcDbDictionary
280
     1
281
     1
  3
ACAD_XREC_ROUNDTRIP
360
F03
  0
DICTIONARY
  5
F04
330
793
100
AcDbDictionary
280
     1
281
     1
  3
ACAD_XREC_ROUNDTRIP
360
F05
  0
XRECORD
  5
EF1
102
{ACAD_REACTORS
330
EF0
102
}
330
EF0
100
AcDbXrecord
280
     1
102
SHADEPLOT
 70
     0
102
SHADEPLOTRESLEVEL
 70
     2
102
SHADEPLOTCUSTOMDPI
 70
   300
  0
XRECORD
  5
EF3
102
{ACAD_REACTORS
330
EF2
102
}
330
EF2
100
AcDbXrecord
280
     1
102
SHADEPLOT
 70
     0
102
SHADEPLOTRESLEVEL
 70
     2
102
SHADEPLOTCUSTOMDPI
 70
   300
  0
XRECORD
  5
BFA
102
{ACAD_REACTORS
330
BF9
102
}
330
BF9
100
AcDbXrecord
280
     1
102
MATERIAL
148
0.0
149
0.0
149
0.0
 93
        0
 94
       63
282
     0
 72
     1
 77
     1
171
     1
175
     1
179
     1
273
     0
  0
XRECORD
  5
BF8
102
{ACAD_REACTORS
330
BF7
102
}
330
BF7
100
AcDbXrecord
280
     1
102
MATERIAL
148
0.0
149
0.0
149
0.0
 93
        0
 94
       63
282
     0
 72
     1
 77
     1
171
     1
175
     1
179
     1
273
     0
  0
XRECORD
  5
BFC
102
{ACAD_REACTORS
330
BFB
102
}
330
BFB
100
AcDbXrecord
280
     1
102
MATERIAL
148
0.0
149
0.0
149
0.0
 93
        0
 94
       63
282
     0
 72
     1
 77
     1
171
     1
175
     1
179
     1
273
     0
  0
XRECORD
  5
EF5
102
{ACAD_REACTORS
330
EF4
102
}
330
EF4
100
AcDbXrecord
280
     1
102
SHADEPLOT
 70
     0
102
SHADEPLOTRESLEVEL
 70
     2
102
SHADEPLOTCUSTOMDPI
 70
   300
  0
XRECORD
  5
EF7
102
{ACAD_REACTORS
330
EF6
102
}
330
EF6
100
AcDbXrecord
280
     1
102
SHADEPLOT
 70
     0
102
SHADEPLOTRESLEVEL
 70
     2
102
SHADEPLOTCUSTOMDPI
 70
   300
  0
XRECORD
  5
EF9
102
{ACAD_REACTORS
330
EF8
102
}
330
EF8
100
AcDbXrecord
280
     1
102
SHADEPLOT
 70
     0
102
SHADEPLOTRESLEVEL
 70
     2
102
SHADEPLOTCUSTOMDPI
 70
   300
  0
XRECORD
  5
EFB
102
{ACAD_REACTORS
330
EFA
102
}
330
EFA
100
AcDbXrecord
280
     1
102
SHADEPLOT
 70
     0
102
SHADEPLOTRESLEVEL
 70
     2
102
SHADEPLOTCUSTOMDPI
 70
   300
  0
XRECORD
  5
EFD
102
{ACAD_REACTORS
330
EFC
102
}
330
EFC
100
AcDbXrecord
280
     1
102
SHADEPLOT
 70
     0
102
SHADEPLOTRESLEVEL
 70
     2
102
SHADEPLOTCUSTOMDPI
 70
   300
  0
XRECORD
  5
EFF
102
{ACAD_REACTORS
330
EFE
102
}
330
EFE
100
AcDbXrecord
280
     1
102
SHADEPLOT
 70
     0
102
SHADEPLOTRESLEVEL
 70
     2
102
SHADEPLOTCUSTOMDPI
 70
   300
  0
XRECORD
  5
F01
102
{ACAD_REACTORS
330
F00
102
}
330
F00
100
AcDbXrecord
280
     1
102
SHADEPLOT
 70
     0
102
SHADEPLOTRESLEVEL
 70
     2
102
SHADEPLOTCUSTOMDPI
 70
   300
  0
XRECORD
  5
F03
102
{ACAD_REACTORS
330
F02
102
}
330
F02
100
AcDbXrecord
280
     1
102
SHADEPLOT
 70
     0
102
SHADEPLOTRESLEVEL
 70
     2
102
SHADEPLOTCUSTOMDPI
 70
   300
  0
XRECORD
  5
F05
102
{ACAD_REACTORS
330
F04
102
}
330
F04
100
AcDbXrecord
280
     1
102
ACAD_ROUNDTRIP_PRE2007_TABLESTYLE
 90
      512
 91
        0
  1

 92
      512
 93
        0
  2

 94
      512
 95
        0
  3

  0
ENDSEC
  0
EOF
