  0
SECTION
  2
HEADER
  9
$ACADVER
  1
AC1014
  9
$ACADMAINTVER
 70
     9
  9
$DWGCODEPAGE
  3
ANSI_932
  9
$INSBASE
 10
0.0
 20
0.0
 30
0.0
  9
$EXTMIN
 10
-66.41484262
 20
-31.71713736
 30
-0.00152582
  9
$EXTMAX
 10
183.03437586
 20
82.01323419
 30
0.00000003
  9
$LIMMIN
 10
0.0
 20
0.0
  9
$LIMMAX
 10
420.0
 20
297.0
  9
$ORTHOMODE
 70
     1
  9
$REGENMODE
 70
     1
  9
$FILLMODE
 70
     1
  9
$QTEXTMODE
 70
     0
  9
$MIRRTEXT
 70
     1
  9
$DRAGMODE
 70
     2
  9
$LTSCALE
 40
10.0
  9
$OSMODE
 70
   549
  9
$ATTMODE
 70
     1
  9
$TEXTSIZE
 40
3.0
  9
$TRACEWID
 40
1.0
  9
$TEXTSTYLE
  7
YOKO
  9
$CLAYER
  8
245
  9
$CELTYPE
  6
BYLAYER
  9
$CECOLOR
 62
   256
  9
$CELTSCALE
 40
1.0
  9
$DELOBJ
 70
     1
  9
$DISPSILH
 70
     0
  9
$DIMSCALE
 40
1.0
  9
$DIMASZ
 40
2.0
  9
$DIMEXO
 40
2.0
  9
$DIMDLI
 40
2.5
  9
$DIMRND
 40
0.0
  9
$DIMDLE
 40
0.0
  9
$DIMEXE
 40
2.0
  9
$DIMTP
 40
0.0
  9
$DIMTM
 40
0.0
  9
$DIMTXT
 40
4.0
  9
$DIMCEN
 40
0.0
  9
$DIMTSZ
 40
0.0
  9
$DIMTOL
 70
     0
  9
$DIMLIM
 70
     0
  9
$DIMTIH
 70
     0
  9
$DIMTOH
 70
     0
  9
$DIMSE1
 70
     0
  9
$DIMSE2
 70
     0
  9
$DIMTAD
 70
     3
  9
$DIMZIN
 70
     8
  9
$DIMBLK
  1

  9
$DIMASO
 70
     1
  9
$DIMSHO
 70
     1
  9
$DIMPOST
  1

  9
$DIMAPOST
  1

  9
$DIMALT
 70
     0
  9
$DIMALTD
 70
     2
  9
$DIMALTF
 40
25.4
  9
$DIMLFAC
 40
1.0
  9
$DIMTOFL
 70
     1
  9
$DIMTVP
 40
0.0
  9
$DIMTIX
 70
     1
  9
$DIMSOXD
 70
     0
  9
$DIMSAH
 70
     1
  9
$DIMBLK1
  1
OPEN
  9
$DIMBLK2
  1
OPEN
  9
$DIMSTYLE
  2
BIGT
  9
$DIMCLRD
 70
   256
  9
$DIMCLRE
 70
   256
  9
$DIMCLRT
 70
    40
  9
$DIMTFAC
 40
1.0
  9
$DIMGAP
 40
1.0
  9
$DIMJUST
 70
     0
  9
$DIMSD1
 70
     0
  9
$DIMSD2
 70
     0
  9
$DIMTOLJ
 70
     1
  9
$DIMTZIN
 70
     8
  9
$DIMALTZ
 70
     0
  9
$DIMALTTZ
 70
     0
  9
$DIMFIT
 70
     3
  9
$DIMUPT
 70
     0
  9
$DIMUNIT
 70
     2
  9
$DIMDEC
 70
     3
  9
$DIMTDEC
 70
     3
  9
$DIMALTU
 70
     2
  9
$DIMALTTD
 70
     2
  9
$DIMTXSTY
  7
STANDARD
  9
$DIMAUNIT
 70
     0
  9
$LUNITS
 70
     2
  9
$LUPREC
 70
     3
  9
$SKETCHINC
 40
1.0
  9
$FILLETRAD
 40
0.0
  9
$AUNITS
 70
     0
  9
$AUPREC
 70
     3
  9
$MENU
  1
.
  9
$ELEVATION
 40
0.0
  9
$PELEVATION
 40
0.0
  9
$THICKNESS
 40
0.0
  9
$LIMCHECK
 70
     0
  9
$BLIPMODE
 70
     0
  9
$CHAMFERA
 40
10.0
  9
$CHAMFERB
 40
10.0
  9
$CHAMFERC
 40
0.0
  9
$CHAMFERD
 40
0.0
  9
$SKPOLY
 70
     0
  9
$TDCREATE
 40
2455020.698788333
  9
$TDUPDATE
 40
2455275.616020324
  9
$TDINDWG
 40
0.0753993171
  9
$TDUSRTIMER
 40
0.0753991319
  9
$USRTIMER
 70
     1
  9
$ANGBASE
 50
0.0
  9
$ANGDIR
 70
     0
  9
$PDMODE
 70
     1
  9
$PDSIZE
 40
-5.0
  9
$PLINEWID
 40
0.0
  9
$COORDS
 70
     2
  9
$SPLFRAME
 70
     0
  9
$SPLINETYPE
 70
     6
  9
$SPLINESEGS
 70
     8
  9
$ATTDIA
 70
     0
  9
$ATTREQ
 70
     1
  9
$HANDLING
 70
-16383
  9
$HANDSEED
  5
15E0
  9
$SURFTAB1
 70
     6
  9
$SURFTAB2
 70
     6
  9
$SURFTYPE
 70
     6
  9
$SURFU
 70
     6
  9
$SURFV
 70
     6
  9
$UCSNAME
  2

  9
$UCSORG
 10
0.0
 20
0.0
 30
0.0
  9
$UCSXDIR
 10
1.0
 20
0.0
 30
0.0
  9
$UCSYDIR
 10
0.0
 20
1.0
 30
0.0
  9
$PUCSNAME
  2

  9
$PUCSORG
 10
0.0
 20
0.0
 30
0.0
  9
$PUCSXDIR
 10
1.0
 20
0.0
 30
0.0
  9
$PUCSYDIR
 10
0.0
 20
1.0
 30
0.0
  9
$USERI1
 70
     1
  9
$USERI2
 70
     0
  9
$USERI3
 70
     0
  9
$USERI4
 70
     0
  9
$USERI5
 70
     0
  9
$USERR1
 40
0.0
  9
$USERR2
 40
0.0
  9
$USERR3
 40
0.0
  9
$USERR4
 40
0.0
  9
$USERR5
 40
0.0
  9
$WORLDVIEW
 70
     1
  9
$SHADEDGE
 70
     3
  9
$SHADEDIF
 70
    70
  9
$TILEMODE
 70
     1
  9
$MAXACTVP
 70
    16
  9
$PINSBASE
 10
0.0
 20
0.0
 30
0.0
  9
$PLIMCHECK
 70
     0
  9
$PEXTMIN
 10
1.00000000E+20
 20
1.00000000E+20
 30
1.00000000E+20
  9
$PEXTMAX
 10
-1.00000000E+20
 20
-1.00000000E+20
 30
-1.00000000E+20
  9
$PLIMMIN
 10
0.0
 20
0.0
  9
$PLIMMAX
 10
420.0
 20
297.0
  9
$UNITMODE
 70
     0
  9
$VISRETAIN
 70
     0
  9
$PLINEGEN
 70
     0
  9
$PSLTSCALE
 70
     1
  9
$TREEDEPTH
 70
  3020
  9
$PICKSTYLE
 70
     0
  9
$CMLSTYLE
  2
STANDARD
  9
$CMLJUST
 70
     0
  9
$CMLSCALE
 40
1.0
  9
$PROXYGRAPHICS
 70
     1
  9
$MEASUREMENT
 70
     1
  0
ENDSEC
  0
SECTION
  2
CLASSES
  0
CLASS
  1
XRECORD
  2
AcDbXrecord
  3
AutoCAD 2000
 90
        0
280
     0
281
     0
  0
CLASS
  1
ACDBDICTIONARYWDFLT
  2
AcDbDictionaryWithDefault
  3
AutoCAD 2000
 90
        0
280
     0
281
     0
  0
CLASS
  1
ACDBPLACEHOLDER
  2
AcDbPlaceHolder
  3
AutoCAD 2000
 90
        0
280
     0
281
     0
  0
CLASS
  1
LAYOUT
  2
AcDbLayout
  3
AutoCAD 2000
 90
        0
280
     0
281
     0
  0
CLASS
  1
PLOTSETTINGS
  2
AcDbPlotSettings
  3
AutoCAD 2000
 90
        0
280
     0
281
     0
  0
CLASS
  1
LONG_TRANSACTION
  2
AcDbLongTransaction
  3
AutoCAD 2000
 90
        0
280
     0
281
     0
  0
CLASS
  1
LWPOLYLINE
  2
AcDbPolyline
  3
AutoCAD 2000
 90
        0
280
     0
281
     1
  0
CLASS
  1
HATCH
  2
AcDbHatch
  3
AutoCAD 2000
 90
        0
280
     0
281
     1
  0
CLASS
  1
XRECORD
  2
AcDbXrecord
  3
AutoCAD 2000
 90
        0
280
     0
281
     0
  0
CLASS
  1
LONG_TRANSACTION
  2
AcDbLongTransaction
  3
AutoCAD 2000
 90
        0
280
     0
281
     0
  0
CLASS
  1
LWPOLYLINE
  2
AcDbPolyline
  3
AutoCAD 2000
 90
        0
280
     0
281
     1
  0
CLASS
  1
HATCH
  2
AcDbHatch
  3
AutoCAD 2000
 90
        0
280
     0
281
     1
  0
CLASS
  1
XRECORD
  2
AcDbXrecord
  3
AutoCAD 2000
 90
        0
280
     0
281
     0
  0
CLASS
  1
LONG_TRANSACTION
  2
AcDbLongTransaction
  3
AutoCAD 2000
 90
        0
280
     0
281
     0
  0
CLASS
  1
LWPOLYLINE
  2
AcDbPolyline
  3
AutoCAD 2000
 90
        0
280
     0
281
     1
  0
CLASS
  1
HATCH
  2
AcDbHatch
  3
AutoCAD 2000
 90
        0
280
     0
281
     1
  0
CLASS
  1
XRECORD
  2
AcDbXrecord
  3
AutoCAD 2000
 90
        0
280
     0
281
     0
  0
CLASS
  1
LONG_TRANSACTION
  2
AcDbLongTransaction
  3
AutoCAD 2000
 90
        0
280
     0
281
     0
  0
CLASS
  1
LWPOLYLINE
  2
AcDbPolyline
  3
AutoCAD 2000
 90
        0
280
     0
281
     1
  0
CLASS
  1
HATCH
  2
AcDbHatch
  3
AutoCAD 2000
 90
        0
280
     0
281
     1
  0
CLASS
  1
XRECORD
  2
AcDbXrecord
  3
AutoCAD 2000
 90
        0
280
     0
281
     0
  0
CLASS
  1
LONG_TRANSACTION
  2
AcDbLongTransaction
  3
AutoCAD 2000
 90
        0
280
     0
281
     0
  0
CLASS
  1
LWPOLYLINE
  2
AcDbPolyline
  3
AutoCAD 2000
 90
        0
280
     0
281
     1
  0
CLASS
  1
HATCH
  2
AcDbHatch
  3
AutoCAD 2000
 90
        0
280
     0
281
     1
  0
CLASS
  1
XRECORD
  2
AcDbXrecord
  3
AutoCAD 2000
 90
        0
280
     0
281
     0
  0
ENDSEC
  0
SECTION
  2
TABLES
  0
TABLE
  2
VPORT
  5
8
330
0
100
AcDbSymbolTable
 70
     2
  0
VPORT
  5
15BB
330
8
100
AcDbSymbolTableRecord
100
AcDbViewportTableRecord
  2
*ACTIVE
 70
     0
 10
0.0
 20
0.0
 11
1.0
 21
1.0
 12
58.30976662
 22
25.14804841
 13
0.0
 23
0.0
 14
7.0
 24
7.0
 15
7.0
 25
7.0
 16
0.0
 26
0.0
 36
1.0
 17
0.0
 27
0.0
 37
0.0
 40
175.14376912
 41
1.43184713
 42
50.0
 43
0.0
 44
0.0
 50
0.0
 51
0.0
 71
     0
 72
  2000
 73
     1
 74
     0
 75
     0
 76
     0
 77
     0
 78
     0
  0
ENDTAB
  0
TABLE
  2
LTYPE
  5
5
330
0
100
AcDbSymbolTable
 70
     3
  0
LTYPE
  5
14
330
5
100
AcDbSymbolTableRecord
100
AcDbLinetypeTableRecord
  2
BYBLOCK
 70
     0
  3

 72
    65
 73
     0
 40
0.0
  0
LTYPE
  5
15
330
5
100
AcDbSymbolTableRecord
100
AcDbLinetypeTableRecord
  2
BYLAYER
 70
     0
  3

 72
    65
 73
     0
 40
0.0
  0
LTYPE
  5
16
330
5
100
AcDbSymbolTableRecord
100
AcDbLinetypeTableRecord
  2
CONTINUOUS
 70
     0
  3
Solid line
 72
    65
 73
     0
 40
0.0
  0
LTYPE
  5
258
330
5
100
AcDbSymbolTableRecord
100
AcDbLinetypeTableRecord
  2
CENTER2
 70
     0
  3
___ _ ___ _ ___ _ ___ _ ___ _ ___ _ ___ _ ___ _
 72
    65
 73
     4
 40
1.125
 49
0.75
 74
     0
 49
-0.125
 74
     0
 49
0.125
 74
     0
 49
-0.125
 74
     0
  0
LTYPE
  5
25C
330
5
100
AcDbSymbolTableRecord
100
AcDbLinetypeTableRecord
  2
HIDDEN2
 70
     0
  3
_ _ _ _ _ _ _ _ _ _ _ _ _ _ _ _ _ _ _ _ _ _ _ _
 72
    65
 73
     2
 40
0.1875
 49
0.125
 74
     0
 49
-0.0625
 74
     0
  0
ENDTAB
  0
TABLE
  2
LAYER
  5
2
330
0
100
AcDbSymbolTable
 70
    11
  0
LAYER
  5
F
330
2
100
AcDbSymbolTableRecord
100
AcDbLayerTableRecord
  2
0
 70
     0
 62
     7
  6
CONTINUOUS
  0
LAYER
  5
1AA
330
2
100
AcDbSymbolTableRecord
100
AcDbLayerTableRecord
  2
240
 70
     0
 62
     4
  6
CONTINUOUS
  0
LAYER
  5
1AB
330
2
100
AcDbSymbolTableRecord
100
AcDbLayerTableRecord
  2
241
 70
     0
 62
   211
  6
CONTINUOUS
  0
LAYER
  5
1AC
330
2
100
AcDbSymbolTableRecord
100
AcDbLayerTableRecord
  2
242
 70
     0
 62
     3
  6
CONTINUOUS
  0
LAYER
  5
1AF
330
2
100
AcDbSymbolTableRecord
100
AcDbLayerTableRecord
  2
245
 70
     0
 62
     2
  6
CENTER2
  0
LAYER
  5
21E
330
2
100
AcDbSymbolTableRecord
100
AcDbLayerTableRecord
  2
250
 70
     0
 62
     3
  6
CONTINUOUS
  0
LAYER
  5
5C4
330
2
100
AcDbSymbolTableRecord
100
AcDbLayerTableRecord
  2
DEFPOINTS
 70
     0
 62
     7
  6
CONTINUOUS
  0
LAYER
  5
1507
330
2
100
AcDbSymbolTableRecord
100
AcDbLayerTableRecord
  2
251
 70
     0
 62
    40
  6
CONTINUOUS
  0
ENDTAB
  0
TABLE
  2
STYLE
  5
3
330
0
100
AcDbSymbolTable
 70
     2
  0
STYLE
  5
10
330
3
100
AcDbSymbolTableRecord
100
AcDbTextStyleTableRecord
  2
STANDARD
 70
     0
 40
0.0
 41
1.0
 50
0.0
 71
     0
 42
3.0
  3
romans.shx
  4
BIGFONT.SHX
  0
STYLE
  5
339
330
3
100
AcDbSymbolTableRecord
100
AcDbTextStyleTableRecord
  2
YOKO
 70
     0
 40
0.0
 41
1.0
 50
0.0
 71
     0
 42
3.0
  3
romans.shx
  4
extfont.shx
  0
ENDTAB
  0
TABLE
  2
VIEW
  5
6
330
0
100
AcDbSymbolTable
 70
     0
  0
ENDTAB
  0
TABLE
  2
UCS
  5
7
330
0
100
AcDbSymbolTable
 70
     0
  0
ENDTAB
  0
TABLE
  2
APPID
  5
9
330
0
100
AcDbSymbolTable
 70
     9
  0
APPID
  5
11
330
9
100
AcDbSymbolTableRecord
100
AcDbRegAppTableRecord
  2
ACAD
 70
     0
  0
APPID
  5
1B1
330
9
100
AcDbSymbolTableRecord
100
AcDbRegAppTableRecord
  2
GLOBAL
 70
     0
  0
APPID
  5
2A4
330
9
100
AcDbSymbolTableRecord
100
AcDbRegAppTableRecord
  2
DETAIL
 70
     0
  0
APPID
  5
5FD
330
9
100
AcDbSymbolTableRecord
100
AcDbRegAppTableRecord
  2
GRPNAME
 70
     0
  0
APPID
  5
5FE
330
9
100
AcDbSymbolTableRecord
100
AcDbRegAppTableRecord
  2
GPARA
 70
     0
  0
APPID
  5
6C4
330
9
100
AcDbSymbolTableRecord
100
AcDbRegAppTableRecord
  2
DCO15
 70
     0
  0
APPID
  5
6C5
330
9
100
AcDbSymbolTableRecord
100
AcDbRegAppTableRecord
  2
ITEMNAME
 70
     0
  0
APPID
  5
6C6
330
9
100
AcDbSymbolTableRecord
100
AcDbRegAppTableRecord
  2
GRADE_0
 70
     0
  0
APPID
  5
D4D
330
9
100
AcDbSymbolTableRecord
100
AcDbRegAppTableRecord
  2
CONTENTBLOCKICON
 70
     0
  0
ENDTAB
  0
TABLE
  2
DIMSTYLE
  5
A
330
0
100
AcDbSymbolTable
 70
     4
  0
DIMSTYLE
105
725
102
{ACAD_REACTORS
330
86C
330
86D
330
BC1
330
BD1
102
}
330
A
100
AcDbSymbolTableRecord
100
AcDbDimStyleTableRecord
  2
BIGT
 70
     0
  3

  4

  5

  6
OPEN
  7
OPEN
 40
1.0
 41
2.23
 42
0.5
 43
2.5
 44
1.0
 45
0.0
 46
0.0
 47
0.0
 48
0.0
140
2.8
141
0.0
142
0.0
143
25.4
144
1.0
145
0.0
146
1.0
147
1.0
 71
     0
 72
     0
 73
     0
 74
     0
 75
     0
 76
     0
 77
     3
 78
     8
170
     0
171
     2
172
     1
173
     1
174
     1
175
     0
176
   256
177
   256
178
    40
270
     2
271
     3
272
     3
273
     2
274
     2
340
10
275
     0
280
     0
281
     0
282
     0
283
     1
284
     8
285
     0
286
     0
287
     3
288
     0
  0
ENDTAB
  0
TABLE
  2
BLOCK_RECORD
  5
1
330
0
100
AcDbSymbolTable
 70
    11
  0
BLOCK_RECORD
  5
1A
102
{ACAD_XDICTIONARY
360
D43
102
}
330
1
100
AcDbSymbolTableRecord
100
AcDbBlockTableRecord
  2
*MODEL_SPACE
  0
BLOCK_RECORD
  5
17
102
{ACAD_XDICTIONARY
360
D41
102
}
330
1
100
AcDbSymbolTableRecord
100
AcDbBlockTableRecord
  2
*PAPER_SPACE
  0
BLOCK_RECORD
  5
594
330
1
100
AcDbSymbolTableRecord
100
AcDbBlockTableRecord
  2
_OPEN
  0
BLOCK_RECORD
  5
6E3
330
1
100
AcDbSymbolTableRecord
100
AcDbBlockTableRecord
  2
矢印なし
  0
BLOCK_RECORD
  5
8E8
330
1
100
AcDbSymbolTableRecord
100
AcDbBlockTableRecord
  2
*D2
  0
BLOCK_RECORD
  5
8F4
330
1
100
AcDbSymbolTableRecord
100
AcDbBlockTableRecord
  2
*D3
  0
BLOCK_RECORD
  5
BC2
330
1
100
AcDbSymbolTableRecord
100
AcDbBlockTableRecord
  2
*D4
  0
BLOCK_RECORD
  5
BD2
330
1
100
AcDbSymbolTableRecord
100
AcDbBlockTableRecord
  2
*D5
  0
BLOCK_RECORD
  5
C25
330
1
100
AcDbSymbolTableRecord
100
AcDbBlockTableRecord
  2
1
1001
CONTENTBLOCKICON
1071
        0
1004
2800000020000000200000000100080000000000000400000000000000000000000000000000000000000000000080000080000000808000800000008000800080800000C0C0C000C0DCC000F0CAA6000020400000206000002080000020A0000020C0000020E00000400000004020000040400000406000004080000040A0
1004
000040C0000040E00000600000006020000060400000606000006080000060A0000060C0000060E00000800000008020000080400000806000008080000080A0000080C0000080E00000A0000000A0200000A0400000A0600000A0800000A0A00000A0C00000A0E00000C0000000C0200000C0400000C0600000C0800000C0
1004
A00000C0C00000C0E00000E0000000E0200000E0400000E0600000E0800000E0A00000E0C00000E0E00040000000400020004000400040006000400080004000A0004000C0004000E00040200000402020004020400040206000402080004020A0004020C0004020E000404000004040200040404000404060004040800040
1004
40A0004040C0004040E00040600000406020004060400040606000406080004060A0004060C0004060E00040800000408020004080400040806000408080004080A0004080C0004080E00040A0000040A0200040A0400040A0600040A0800040A0A00040A0C00040A0E00040C0000040C0200040C0400040C0600040C08000
1004
40C0A00040C0C00040C0E00040E0000040E0200040E0400040E0600040E0800040E0A00040E0C00040E0E00080000000800020008000400080006000800080008000A0008000C0008000E00080200000802020008020400080206000802080008020A0008020C0008020E00080400000804020008040400080406000804080
1004
008040A0008040C0008040E00080600000806020008060400080606000806080008060A0008060C0008060E00080800000808020008080400080806000808080008080A0008080C0008080E00080A0000080A0200080A0400080A0600080A0800080A0A00080A0C00080A0E00080C0000080C0200080C0400080C0600080C0
1004
800080C0A00080C0C00080C0E00080E0000080E0200080E0400080E0600080E0800080E0A00080E0C00080E0E000C0000000C0002000C0004000C0006000C0008000C000A000C000C000C000E000C0200000C0202000C0204000C0206000C0208000C020A000C020C000C020E000C0400000C0402000C0404000C0406000C0
1004
408000C040A000C040C000C040E000C0600000C0602000C0604000C0606000C0608000C060A000C060C000C060E000C0800000C0802000C0804000C0806000C0808000C080A000C080C000C080E000C0A00000C0A02000C0A04000C0A06000C0A08000C0A0A000C0A0C000C0A0E000C0C00000C0C02000C0C04000C0C06000
1004
C0C08000C0C0A000F0FBFF00A4A0A000808080000000FF0000FF000000FFFF00FF000000FF00FF00FFFF0000FFFFFF0000000000000000000000000000000000000000000000000000000000000000000000000000000000000000000000000000000000000000000000000000000000000000000000000000000000000000
1004
00000000000000000000000000000000000000000000000000000000000000000000000000000000000000000000000000000000000000000000000000000000000000000000000000000000000000000000000000000000000000000000000000000000000000000000000000000000000000000000000000000000000000
1004
00000000000000000000000000000000000000000000000000000000000000000000000000000000000000000000000000000000000000000000000000000000000000000000000000000000000000000000000000000000000000000000000000000000000000000000000000000000000000000000000000000000000000
1004
00000000000000000000000000000000000000000000000000000000000000000000000000000000000000000000000000000000000000000000000000FEFEE7E7FEE7E7FEFEFEFEFEFEFEFEFEFEFEFEFE0000000000000000FEFEFEFEFEE7E7E700E7E7E7E7E700E700E70000E700E7E700000000FEFEFEFE000000E7E7E7
1004
E7E700E7FAE7E7E700E700E70000E700E7FE00000000FE000000000000E7E7E7E7E700E7E7E7E7E700E700E70000E700E7E7000000FBFEFBFBFBFBFBFBE7E7E7E7E7FBFAFAE7E7E7FBE7FBE7FBFBE7FBE7E7FB000000FEFEFEFE000000E7E7E7E7E700FAFAE7E7E700E7E7E7E7E7E7E7E7FE0000000000000000FEFEFEFEFE
1004
E7E7E700E7E7E7E7E700E700E70000E700E7FE000000000000000000000000FEFEFEE7FEFEFAFEFEFEFEFEFEFEFEFEFEFEFEFE00000000000000000000000000000000000000000000000000000000000000000000000000000000000000000000000000000000000000000000000000000000000000000000000000000000
1004
00000000000000000000000000000000000000000000000000000000000000000000000000000000000000000000000000000000000000000000000000000000000000000000000000000000000000000000000000000000000000000000000000000000000000000000000000000000000000000000000000000000000000
1004
00000000000000000000000000000000000000000000000000000000000000000000000000000000000000000000000000000000000000000000000000000000000000000000000000000000000000000000000000000000000000000000000000000000000000000000000000000000000000000000000000000000000000
1004
0000000000000000000000000000000000000000000000000000000000000000000000000000000000000000000000000000000000000000
  0
BLOCK_RECORD
  5
14FF
330
1
100
AcDbSymbolTableRecord
100
AcDbBlockTableRecord
  2
HDC-CLAMPSCREW
  0
ENDTAB
  0
ENDSEC
  0
SECTION
  2
BLOCKS
  0
BLOCK
  5
1B
330
1A
100
AcDbEntity
  8
0
100
AcDbBlockBegin
  2
*MODEL_SPACE
 70
     0
 10
0.0
 20
0.0
 30
0.0
  3
*MODEL_SPACE
  1

  0
ENDBLK
  5
1C
330
1A
100
AcDbEntity
  8
0
100
AcDbBlockEnd
  0
BLOCK
  5
18
330
17
100
AcDbEntity
 67
     1
  8
0
100
AcDbBlockBegin
  2
*PAPER_SPACE
 70
     0
 10
0.0
 20
0.0
 30
0.0
  3
*PAPER_SPACE
  1

  0
ENDBLK
  5
19
330
17
100
AcDbEntity
 67
     1
  8
0
100
AcDbBlockEnd
  0
BLOCK
  5
598
330
594
100
AcDbEntity
  8
0
100
AcDbBlockBegin
  2
_OPEN
 70
     0
 10
0.0
 20
0.0
 30
0.0
  3
_OPEN
  1

  0
LINE
  5
595
330
594
100
AcDbEntity
  8
0
  6
BYBLOCK
 62
     0
100
AcDbLine
 10
-1.0
 20
0.16666667
 30
0.0
 11
0.0
 21
0.0
 31
0.0
  0
LINE
  5
596
330
594
100
AcDbEntity
  8
0
  6
BYBLOCK
 62
     0
100
AcDbLine
 10
-1.0
 20
-0.16666667
 30
0.0
 11
0.0
 21
0.0
 31
0.0
  0
LINE
  5
597
330
594
100
AcDbEntity
  8
0
  6
BYBLOCK
 62
     0
100
AcDbLine
 10
0.0
 20
0.0
 30
0.0
 11
-1.0
 21
0.0
 31
0.0
  0
ENDBLK
  5
599
330
594
100
AcDbEntity
  8
0
100
AcDbBlockEnd
  0
BLOCK
  5
6E4
330
6E3
100
AcDbEntity
  8
0
100
AcDbBlockBegin
  2
矢印なし
 70
     0
 10
0.0
 20
0.0
 30
0.0
  3
矢印なし
  1

  0
ENDBLK
  5
6E5
330
6E3
100
AcDbEntity
  8
0
100
AcDbBlockEnd
  0
BLOCK
  5
8F2
330
8E8
100
AcDbEntity
  8
0
100
AcDbBlockBegin
  2
*D2
 70
     1
 10
0.0
 20
0.0
 30
0.0
  3
*D2
  1

  0
LINE
  5
1519
330
8E8
100
AcDbEntity
  8
250
  6
CONTINUOUS
100
AcDbLine
 10
0.0
 20
22.725
 30
0.0
 11
0.0
 21
64.0
 31
0.0
  0
LINE
  5
151A
330
8E8
100
AcDbEntity
  8
250
  6
CONTINUOUS
100
AcDbLine
 10
164.7
 20
15.8
 30
0.0
 11
164.7
 21
64.0
 31
0.0
  0
LINE
  5
151B
330
8E8
100
AcDbEntity
  8
250
  6
CONTINUOUS
100
AcDbLine
 10
2.23
 20
63.0
 30
0.0
 11
162.47
 21
63.0
 31
0.0
  0
INSERT
  5
151C
330
8E8
100
AcDbEntity
  8
250
  6
CONTINUOUS
100
AcDbBlockReference
  2
_OPEN
 10
0.0
 20
63.0
 30
0.0
 41
2.23
 42
2.23
 43
2.23
 50
180.0
  0
INSERT
  5
151D
330
8E8
100
AcDbEntity
  8
250
  6
CONTINUOUS
100
AcDbBlockReference
  2
_OPEN
 10
164.7
 20
63.0
 30
0.0
 41
2.23
 42
2.23
 43
2.23
  0
MTEXT
  5
151E
330
8E8
100
AcDbEntity
  8
250
  6
CONTINUOUS
 62
    40
100
AcDbMText
 10
84.8527386
 20
65.4
 30
0.0
 40
2.8
 41
0.0
 71
     5
 72
     1
  1
\A1;164.7
1001
ACAD
1000
MTEXTBEGIN
1070
    73
1070
     1
1070
    44
1040
1.0
1070
    74
1070
     0
1000
MTEXTEND
  0
POINT
  5
151F
330
8E8
100
AcDbEntity
  8
DEFPOINTS
  6
CONTINUOUS
 62
     0
100
AcDbPoint
 10
0.0
 20
22.225
 30
0.0
  0
POINT
  5
1520
330
8E8
100
AcDbEntity
  8
DEFPOINTS
  6
CONTINUOUS
 62
     0
100
AcDbPoint
 10
164.7
 20
15.3
 30
0.0
  0
POINT
  5
1521
330
8E8
100
AcDbEntity
  8
DEFPOINTS
  6
CONTINUOUS
 62
     0
100
AcDbPoint
 10
164.7
 20
63.0
 30
0.0
  0
ENDBLK
  5
8F3
330
8E8
100
AcDbEntity
  8
0
100
AcDbBlockEnd
  0
BLOCK
  5
8FE
330
8F4
100
AcDbEntity
  8
0
100
AcDbBlockBegin
  2
*D3
 70
     1
 10
0.0
 20
0.0
 30
0.0
  3
*D3
  1

  0
LINE
  5
152B
330
8F4
100
AcDbEntity
  8
250
  6
CONTINUOUS
100
AcDbLine
 10
83.7
 20
13.0
 30
0.0
 11
83.7
 21
57.0
 31
0.0
  0
LINE
  5
152C
330
8F4
100
AcDbEntity
  8
250
  6
CONTINUOUS
100
AcDbLine
 10
164.7
 20
15.8
 30
0.0
 11
164.7
 21
57.0
 31
0.0
  0
LINE
  5
152D
330
8F4
100
AcDbEntity
  8
250
  6
CONTINUOUS
100
AcDbLine
 10
85.93
 20
56.0
 30
0.0
 11
162.47
 21
56.0
 31
0.0
  0
INSERT
  5
152E
330
8F4
100
AcDbEntity
  8
250
  6
CONTINUOUS
100
AcDbBlockReference
  2
_OPEN
 10
83.7
 20
56.0
 30
0.0
 41
2.23
 42
2.23
 43
2.23
 50
180.0
  0
INSERT
  5
152F
330
8F4
100
AcDbEntity
  8
250
  6
CONTINUOUS
100
AcDbBlockReference
  2
_OPEN
 10
164.7
 20
56.0
 30
0.0
 41
2.23
 42
2.23
 43
2.23
  0
MTEXT
  5
1530
330
8F4
100
AcDbEntity
  8
250
  6
CONTINUOUS
 62
    40
100
AcDbMText
 10
124.12635616
 20
58.4
 30
0.0
 40
2.8
 41
0.0
 71
     5
 72
     1
  1
\A1;（max.81）
1001
ACAD
1000
MTEXTBEGIN
1070
    73
1070
     1
1070
    44
1040
1.0
1070
    74
1070
     0
1000
MTEXTEND
  0
POINT
  5
1531
330
8F4
100
AcDbEntity
  8
DEFPOINTS
  6
CONTINUOUS
 62
     0
100
AcDbPoint
 10
83.7
 20
12.5
 30
0.0
  0
POINT
  5
1532
330
8F4
100
AcDbEntity
  8
DEFPOINTS
  6
CONTINUOUS
 62
     0
100
AcDbPoint
 10
164.7
 20
15.3
 30
0.0
  0
POINT
  5
1533
330
8F4
100
AcDbEntity
  8
DEFPOINTS
  6
CONTINUOUS
 62
     0
100
AcDbPoint
 10
164.7
 20
56.0
 30
0.0
  0
ENDBLK
  5
8FF
330
8F4
100
AcDbEntity
  8
0
100
AcDbBlockEnd
  0
BLOCK
  5
BCC
330
BC2
100
AcDbEntity
  8
0
100
AcDbBlockBegin
  2
*D4
 70
     1
 10
0.0
 20
0.0
 30
0.0
  3
*D4
  1

  0
LINE
  5
14C5
330
BC2
100
AcDbEntity
  8
250
  6
CONTINUOUS
100
AcDbLine
 10
165.2
 20
12.5
 30
0.0
 11
176.0
 21
12.5
 31
0.0
  0
LINE
  5
14C6
330
BC2
100
AcDbEntity
  8
250
  6
CONTINUOUS
100
AcDbLine
 10
175.0
 20
-10.27
 30
0.0
 11
175.0
 21
10.27
 31
0.0
  0
INSERT
  5
14C7
330
BC2
100
AcDbEntity
  8
250
  6
CONTINUOUS
100
AcDbBlockReference
  2
矢印なし
 10
175.0
 20
-12.5
 30
0.0
 41
2.23
 42
2.23
 43
2.23
 50
270.0
  0
INSERT
  5
14C8
330
BC2
100
AcDbEntity
  8
250
  6
CONTINUOUS
100
AcDbBlockReference
  2
_OPEN
 10
175.0
 20
12.5
 30
0.0
 41
2.23
 42
2.23
 43
2.23
 50
90.0
  0
MTEXT
  5
14C9
330
BC2
100
AcDbEntity
  8
250
  6
CONTINUOUS
 62
    40
100
AcDbMText
 10
172.6
 20
0.0
 30
0.0
 40
2.8
 41
0.0
 71
     5
 72
     1
  1
\A1;{\H2.8;\U+2205}25
 11
0.0
 21
1.0
 31
0.0
1001
ACAD
1000
MTEXTBEGIN
1070
    73
1070
     1
1070
    44
1040
1.0
1070
    74
1070
     0
1000
MTEXTEND
  0
POINT
  5
14CA
330
BC2
100
AcDbEntity
  8
DEFPOINTS
  6
CONTINUOUS
 62
     0
100
AcDbPoint
 10
164.7
 20
-12.5
 30
0.0
  0
POINT
  5
14CB
330
BC2
100
AcDbEntity
  8
DEFPOINTS
  6
CONTINUOUS
 62
     0
100
AcDbPoint
 10
164.7
 20
12.5
 30
0.0
  0
POINT
  5
14CC
330
BC2
100
AcDbEntity
  8
DEFPOINTS
  6
CONTINUOUS
 62
     0
100
AcDbPoint
 10
175.0
 20
12.5
 30
0.0
  0
ENDBLK
  5
BCD
330
BC2
100
AcDbEntity
  8
0
100
AcDbBlockEnd
  0
BLOCK
  5
BDC
330
BD2
100
AcDbEntity
  8
0
100
AcDbBlockBegin
  2
*D5
 70
     1
 10
0.0
 20
0.0
 30
0.0
  3
*D5
  1

  0
LINE
  5
C02
330
BD2
100
AcDbEntity
  8
250
  6
CONTINUOUS
100
AcDbLine
 10
156.90975922
 20
-27.5
 30
0.0
 11
183.0
 21
-27.5
 31
0.0
  0
LINE
  5
C03
330
BD2
100
AcDbEntity
  8
250
  6
CONTINUOUS
100
AcDbLine
 10
156.90975922
 20
27.5
 30
0.0
 11
183.0
 21
27.5
 31
0.0
  0
LINE
  5
C04
330
BD2
100
AcDbEntity
  8
250
  6
CONTINUOUS
100
AcDbLine
 10
182.0
 20
-25.27
 30
0.0
 11
182.0
 21
25.27
 31
0.0
  0
INSERT
  5
C05
330
BD2
100
AcDbEntity
  8
250
  6
CONTINUOUS
100
AcDbBlockReference
  2
_OPEN
 10
182.0
 20
-27.5
 30
0.0
 41
2.23
 42
2.23
 43
2.23
 50
270.0
  0
INSERT
  5
C06
330
BD2
100
AcDbEntity
  8
250
  6
CONTINUOUS
100
AcDbBlockReference
  2
_OPEN
 10
182.0
 20
27.5
 30
0.0
 41
2.23
 42
2.23
 43
2.23
 50
90.0
  0
MTEXT
  5
C07
330
BD2
100
AcDbEntity
  8
250
  6
CONTINUOUS
 62
    40
100
AcDbMText
 10
179.6
 20
0.0
 30
0.0
 40
2.8
 41
0.0
 71
     5
 72
     1
  1
\A1;{\H2.8;\U+2205}55
 11
0.0
 21
1.0
 31
0.0
1001
ACAD
1000
MTEXTBEGIN
1070
    73
1070
     1
1070
    44
1040
1.0
1070
    74
1070
     0
1000
MTEXTEND
1000
MTEXTBEGIN
1070
    73
1070
     1
1070
    44
1040
1.0
1070
    74
1070
     0
1000
MTEXTEND
1000
MTEXTBEGIN
1070
    73
1070
     1
1070
    44
1040
1.0
1070
    74
1070
     0
1000
MTEXTEND
1000
MTEXTBEGIN
1070
    73
1070
     1
1070
    44
1040
1.0
1070
    74
1070
     0
1000
MTEXTEND
1000
MTEXTBEGIN
1070
    73
1070
     1
1070
    44
1040
1.0
1070
    74
1070
     0
1000
MTEXTEND
  0
POINT
  5
C08
330
BD2
100
AcDbEntity
  8
DEFPOINTS
  6
CONTINUOUS
 62
     0
100
AcDbPoint
 10
156.40975922
 20
-27.5
 30
0.0
  0
POINT
  5
C09
330
BD2
100
AcDbEntity
  8
DEFPOINTS
  6
CONTINUOUS
 62
     0
100
AcDbPoint
 10
156.40975922
 20
27.5
 30
0.0
  0
POINT
  5
C0A
330
BD2
100
AcDbEntity
  8
DEFPOINTS
  6
CONTINUOUS
 62
     0
100
AcDbPoint
 10
182.0
 20
27.5
 30
0.0
  0
ENDBLK
  5
BDD
330
BD2
100
AcDbEntity
  8
0
100
AcDbBlockEnd
  0
BLOCK
  5
C26
330
C25
100
AcDbEntity
  8
0
100
AcDbBlockBegin
  2
1
 70
     0
 10
0.0
 20
0.0
 30
0.0
  3
1
  1

  0
LINE
  5
1534
330
C25
100
AcDbEntity
  8
240
  6
CONTINUOUS
100
AcDbLine
 10
21.6
 20
31.5
 30
0.0
 11
62.95
 21
31.5
 31
0.0
  0
LINE
  5
1535
330
C25
100
AcDbEntity
  8
240
  6
CONTINUOUS
100
AcDbLine
 10
21.6
 20
-31.5
 30
0.0
 11
62.95
 21
-31.5
 31
0.0
  0
LINE
  5
1536
330
C25
100
AcDbEntity
  8
245
  6
CENTER2
100
AcDbLine
 10
-66.4
 20
0.0
 30
0.0
 11
165.7
 21
0.0
 31
0.0
  0
LINE
  5
1537
330
C25
100
AcDbEntity
  8
245
  6
CENTER2
100
AcDbLine
 10
16.6
 20
-31.5
 30
0.0
 11
16.6
 21
31.5
 31
0.0
  0
LINE
  5
1538
330
C25
100
AcDbEntity
  8
240
  6
CONTINUOUS
100
AcDbLine
 10
1.0
 20
22.225
 30
0.0
 11
1.0
 21
30.5
 31
0.0
  0
LINE
  5
1539
330
C25
100
AcDbEntity
  8
240
  6
CONTINUOUS
100
AcDbLine
 10
11.6
 20
31.5
 30
0.0
 11
14.48675135
 21
26.5
 31
0.0
  0
LINE
  5
153A
330
C25
100
AcDbEntity
  8
240
  6
CONTINUOUS
100
AcDbLine
 10
21.6
 20
31.5
 30
0.0
 11
18.71324865
 21
26.5
 31
0.0
  0
LINE
  5
153B
330
C25
100
AcDbEntity
  8
241
  6
CONTINUOUS
100
AcDbLine
 10
21.6
 20
0.0
 30
0.0
 11
21.6
 21
31.5
 31
0.0
  0
LINE
  5
153C
330
C25
100
AcDbEntity
  8
241
  6
CONTINUOUS
100
AcDbLine
 10
11.6
 20
31.5
 30
0.0
 11
11.6
 21
0.0
 31
0.0
  0
LINE
  5
153D
330
C25
100
AcDbEntity
  8
241
  6
HIDDEN2
100
AcDbLine
 10
23.0
 20
22.5
 30
0.0
 11
23.0
 21
31.5
 31
0.0
  0
LINE
  5
153E
330
C25
100
AcDbEntity
  8
240
  6
CONTINUOUS
100
AcDbLine
 10
0.0
 20
22.225
 30
0.0
 11
-64.03089103
 21
12.88716173
 31
0.0
  0
LINE
  5
153F
330
C25
100
AcDbEntity
  8
240
  6
CONTINUOUS
100
AcDbLine
 10
0.0
 20
-22.225
 30
0.0
 11
-64.03089103
 21
-12.88716173
 31
0.0
  0
LINE
  5
1540
330
C25
100
AcDbEntity
  8
240
  6
CONTINUOUS
100
AcDbLine
 10
-65.4
 20
11.30390896
 30
0.0
 11
-65.4
 21
0.0
 31
0.0
  0
LINE
  5
1541
330
C25
100
AcDbEntity
  8
240
  6
CONTINUOUS
100
AcDbLine
 10
-65.4
 20
-11.30390896
 30
0.0
 11
-65.4
 21
0.0
 31
0.0
  0
ARC
  5
1542
330
C25
100
AcDbEntity
  8
240
  6
CONTINUOUS
100
AcDbCircle
 10
-63.8
 20
-11.30390896
 30
0.0
 40
1.6
100
AcDbArc
 50
180.0
 51
261.70285503
  0
ARC
  5
1543
330
C25
100
AcDbEntity
  8
240
  6
CONTINUOUS
100
AcDbCircle
 10
-63.8
 20
11.30390896
 30
0.0
 40
1.6
100
AcDbArc
 50
98.29714497
 51
180.0
  0
LINE
  5
1544
330
C25
100
AcDbEntity
  8
241
  6
CONTINUOUS
100
AcDbLine
 10
14.48675135
 20
-26.5
 30
0.0
 11
14.48675135
 21
0.0
 31
0.0
  0
LINE
  5
1545
330
C25
100
AcDbEntity
  8
241
  6
CONTINUOUS
100
AcDbLine
 10
18.71324865
 20
-26.5
 30
0.0
 11
18.71324865
 21
0.0
 31
0.0
  0
LINE
  5
1546
330
C25
100
AcDbEntity
  8
241
  6
CONTINUOUS
100
AcDbLine
 10
21.6
 20
0.0
 30
0.0
 11
21.6
 21
-31.5
 31
0.0
  0
LINE
  5
1547
330
C25
100
AcDbEntity
  8
241
  6
CONTINUOUS
100
AcDbLine
 10
11.6
 20
-31.5
 30
0.0
 11
11.6
 21
0.0
 31
0.0
  0
LINE
  5
1548
330
C25
100
AcDbEntity
  8
241
100
AcDbLine
 10
1.0
 20
0.0
 30
0.0
 11
1.0
 21
-22.225
 31
0.0
  0
LINE
  5
1549
330
C25
100
AcDbEntity
  8
241
  6
CONTINUOUS
100
AcDbLine
 10
0.0
 20
-22.225
 30
0.0
 11
0.0
 21
0.0
 31
0.0
  0
LINE
  5
154A
330
C25
100
AcDbEntity
  8
240
  6
CONTINUOUS
100
AcDbLine
 10
2.0
 20
-31.5
 30
0.0
 11
11.6
 21
-31.5
 31
0.0
  0
LINE
  5
154B
330
C25
100
AcDbEntity
  8
241
  6
HIDDEN2
100
AcDbLine
 10
23.0
 20
-22.5
 30
0.0
 11
1.0
 21
-22.5
 31
0.0
  0
LINE
  5
154C
330
C25
100
AcDbEntity
  8
240
  6
CONTINUOUS
100
AcDbLine
 10
1.0
 20
-22.225
 30
0.0
 11
1.0
 21
-30.5
 31
0.0
  0
ARC
  5
154D
330
C25
100
AcDbEntity
  8
240
  6
CONTINUOUS
100
AcDbCircle
 10
2.0
 20
-30.5
 30
0.0
 40
1.0
100
AcDbArc
 50
180.0
 51
270.0
  0
LINE
  5
154E
330
C25
100
AcDbEntity
  8
240
100
AcDbLine
 10
0.0
 20
-22.225
 30
0.0
 11
1.0
 21
-22.225
 31
0.0
  0
LINE
  5
154F
330
C25
100
AcDbEntity
  8
240
  6
CONTINUOUS
100
AcDbLine
 10
18.71324865
 20
-26.5
 30
0.0
 11
14.48675135
 21
-26.5
 31
0.0
  0
LINE
  5
1550
330
C25
100
AcDbEntity
  8
240
  6
CONTINUOUS
100
AcDbLine
 10
14.48675135
 20
-26.5
 30
0.0
 11
11.6
 21
-31.5
 31
0.0
  0
LINE
  5
1551
330
C25
100
AcDbEntity
  8
240
  6
CONTINUOUS
100
AcDbLine
 10
18.71324865
 20
-26.5
 30
0.0
 11
21.6
 21
-31.5
 31
0.0
  0
LINE
  5
1552
330
C25
100
AcDbEntity
  8
241
  6
HIDDEN2
100
AcDbLine
 10
23.0
 20
-22.5
 30
0.0
 11
23.0
 21
-31.5
 31
0.0
  0
LINE
  5
1553
330
C25
100
AcDbEntity
  8
241
100
AcDbLine
 10
1.0
 20
0.0
 30
0.0
 11
1.0
 21
22.225
 31
0.0
  0
LINE
  5
1554
330
C25
100
AcDbEntity
  8
241
  6
CONTINUOUS
100
AcDbLine
 10
0.0
 20
22.225
 30
0.0
 11
0.0
 21
0.0
 31
0.0
  0
LINE
  5
1555
330
C25
100
AcDbEntity
  8
241
  6
CONTINUOUS
100
AcDbLine
 10
18.71324865
 20
26.5
 30
0.0
 11
18.71324865
 21
0.0
 31
0.0
  0
LINE
  5
1556
330
C25
100
AcDbEntity
  8
241
  6
CONTINUOUS
100
AcDbLine
 10
14.48675135
 20
26.5
 30
0.0
 11
14.48675135
 21
0.0
 31
0.0
  0
LINE
  5
1557
330
C25
100
AcDbEntity
  8
241
  6
HIDDEN2
100
AcDbLine
 10
23.0
 20
22.5
 30
0.0
 11
1.0
 21
22.5
 31
0.0
  0
LINE
  5
1558
330
C25
100
AcDbEntity
  8
240
100
AcDbLine
 10
0.0
 20
22.225
 30
0.0
 11
1.0
 21
22.225
 31
0.0
  0
LINE
  5
1559
330
C25
100
AcDbEntity
  8
240
  6
CONTINUOUS
100
AcDbLine
 10
18.71324865
 20
26.5
 30
0.0
 11
14.48675135
 21
26.5
 31
0.0
  0
LINE
  5
155A
330
C25
100
AcDbEntity
  8
240
  6
CONTINUOUS
100
AcDbLine
 10
2.0
 20
31.5
 30
0.0
 11
11.6
 21
31.5
 31
0.0
  0
ARC
  5
155B
330
C25
100
AcDbEntity
  8
240
  6
CONTINUOUS
100
AcDbCircle
 10
2.0
 20
30.5
 30
0.0
 40
1.0
100
AcDbArc
 50
90.0
 51
180.0
  0
LINE
  5
155C
330
C25
100
AcDbEntity
  8
241
  6
CONTINUOUS
100
AcDbLine
 10
27.0
 20
0.0
 30
0.0
 11
27.0
 21
31.5
 31
0.0
  0
LINE
  5
155D
330
C25
100
AcDbEntity
  8
241
100
AcDbLine
 10
62.95
 20
0.0
 30
0.0
 11
62.95
 21
31.5
 31
0.0
  0
LINE
  5
155E
330
C25
100
AcDbEntity
  8
240
100
AcDbLine
 10
137.33493649
 20
30.45
 30
0.0
 11
138.46076952
 21
28.5
 31
0.0
  0
LINE
  5
155F
330
C25
100
AcDbEntity
  8
241
100
AcDbLine
 10
47.8
 20
31.45
 30
0.0
 11
47.8
 21
0.0
 31
0.0
  0
LINE
  5
1560
330
C25
100
AcDbEntity
  8
241
100
AcDbLine
 10
58.2
 20
31.45
 30
0.0
 11
58.2
 21
0.0
 31
0.0
  0
LINE
  5
1561
330
C25
100
AcDbEntity
  8
241
100
AcDbLine
 10
73.0
 20
31.45
 30
0.0
 11
73.0
 21
0.0
 31
0.0
  0
LINE
  5
1562
330
C25
100
AcDbEntity
  8
241
100
AcDbLine
 10
81.0
 20
31.45
 30
0.0
 11
81.0
 21
0.0
 31
0.0
  0
LINE
  5
1563
330
C25
100
AcDbEntity
  8
241
100
AcDbLine
 10
91.0
 20
31.45
 30
0.0
 11
91.0
 21
0.0
 31
0.0
  0
LINE
  5
1564
330
C25
100
AcDbEntity
  8
241
100
AcDbLine
 10
99.0
 20
31.45
 30
0.0
 11
99.0
 21
0.0
 31
0.0
  0
LINE
  5
1565
330
C25
100
AcDbEntity
  8
241
100
AcDbLine
 10
109.0
 20
31.45
 30
0.0
 11
109.0
 21
0.0
 31
0.0
  0
LINE
  5
1566
330
C25
100
AcDbEntity
  8
241
100
AcDbLine
 10
136.75758622
 20
31.08299316
 30
0.0
 11
136.75758622
 21
0.0
 31
0.0
  0
LINE
  5
1567
330
C25
100
AcDbEntity
  8
242
100
AcDbLine
 10
48.3
 20
20.89943784
 30
0.0
 11
57.7
 21
31.49800044
 31
0.0
  0
LINE
  5
1568
330
C25
100
AcDbEntity
  8
242
100
AcDbLine
 10
48.3
 20
31.49800044
 30
0.0
 11
57.7
 21
20.89943784
 31
0.0
  0
LINE
  5
1569
330
C25
100
AcDbEntity
  8
241
  6
HIDDEN2
100
AcDbLine
 10
98.8660254
 20
12.5
 30
0.0
 11
164.7
 21
12.5
 31
0.0
  0
LINE
  5
156A
330
C25
100
AcDbEntity
  8
240
100
AcDbLine
 10
100.0
 20
-30.45
 30
0.0
 11
108.0
 21
-30.45
 31
0.0
  0
LINE
  5
156B
330
C25
100
AcDbEntity
  8
241
  6
CONTINUOUS
100
AcDbLine
 10
27.0
 20
0.0
 30
0.0
 11
27.0
 21
-31.5
 31
0.0
  0
LINE
  5
156C
330
C25
100
AcDbEntity
  8
241
100
AcDbLine
 10
62.95
 20
-31.5
 30
0.0
 11
62.95
 21
0.0
 31
0.0
  0
LINE
  5
156D
330
C25
100
AcDbEntity
  8
242
100
AcDbLine
 10
48.3
 20
-2.53692105
 30
0.0
 11
57.7
 21
-23.70176149
 31
0.0
  0
LINE
  5
156E
330
C25
100
AcDbEntity
  8
242
100
AcDbLine
 10
48.3
 20
-23.70176149
 30
0.0
 11
57.7
 21
-2.53692105
 31
0.0
  0
LINE
  5
156F
330
C25
100
AcDbEntity
  8
241
100
AcDbLine
 10
58.2
 20
-31.45
 30
0.0
 11
58.2
 21
0.0
 31
0.0
  0
LINE
  5
1570
330
C25
100
AcDbEntity
  8
241
100
AcDbLine
 10
47.8
 20
-31.45
 30
0.0
 11
47.8
 21
0.0
 31
0.0
  0
LINE
  5
1571
330
C25
100
AcDbEntity
  8
241
100
AcDbLine
 10
99.0
 20
-31.45
 30
0.0
 11
99.0
 21
0.0
 31
0.0
  0
LINE
  5
1572
330
C25
100
AcDbEntity
  8
241
100
AcDbLine
 10
91.0
 20
-31.45
 30
0.0
 11
91.0
 21
0.0
 31
0.0
  0
LINE
  5
1573
330
C25
100
AcDbEntity
  8
241
100
AcDbLine
 10
81.0
 20
-31.45
 30
0.0
 11
81.0
 21
0.0
 31
0.0
  0
LINE
  5
1574
330
C25
100
AcDbEntity
  8
241
100
AcDbLine
 10
73.0
 20
-31.45
 30
0.0
 11
73.0
 21
0.0
 31
0.0
  0
LINE
  5
1575
330
C25
100
AcDbEntity
  8
241
100
AcDbLine
 10
47.8
 20
-23.70176149
 30
0.0
 11
58.2
 21
-23.70176149
 31
0.0
  0
LINE
  5
1576
330
C25
100
AcDbEntity
  8
241
100
AcDbLine
 10
49.8
 20
-23.70176149
 30
0.0
 11
49.8
 21
-31.5
 31
0.0
  0
LINE
  5
1577
330
C25
100
AcDbEntity
  8
241
100
AcDbLine
 10
56.2
 20
-23.70176149
 30
0.0
 11
56.2
 21
-31.5
 31
0.0
  0
LINE
  5
1578
330
C25
100
AcDbEntity
  8
240
100
AcDbLine
 10
81.0
 20
-31.45
 30
0.0
 11
82.0
 21
-30.45
 31
0.0
  0
LINE
  5
1579
330
C25
100
AcDbEntity
  8
240
100
AcDbLine
 10
72.0
 20
-30.45
 30
0.0
 11
73.0
 21
-31.45
 31
0.0
  0
LINE
  5
157A
330
C25
100
AcDbEntity
  8
240
100
AcDbLine
 10
64.0
 20
-30.45
 30
0.0
 11
72.0
 21
-30.45
 31
0.0
  0
LINE
  5
157B
330
C25
100
AcDbEntity
  8
240
100
AcDbLine
 10
62.95
 20
-31.5
 30
0.0
 11
64.0
 21
-30.45
 31
0.0
  0
LINE
  5
157C
330
C25
100
AcDbEntity
  8
240
100
AcDbLine
 10
73.0
 20
-31.45
 30
0.0
 11
81.0
 21
-31.45
 31
0.0
  0
LINE
  5
157D
330
C25
100
AcDbEntity
  8
240
100
AcDbLine
 10
99.0
 20
-31.45
 30
0.0
 11
91.0
 21
-31.45
 31
0.0
  0
LINE
  5
157E
330
C25
100
AcDbEntity
  8
240
100
AcDbLine
 10
82.0
 20
-30.45
 30
0.0
 11
90.0
 21
-30.45
 31
0.0
  0
LINE
  5
157F
330
C25
100
AcDbEntity
  8
240
100
AcDbLine
 10
90.0
 20
-30.45
 30
0.0
 11
91.0
 21
-31.45
 31
0.0
  0
LINE
  5
1580
330
C25
100
AcDbEntity
  8
240
100
AcDbLine
 10
99.0
 20
-31.45
 30
0.0
 11
100.0
 21
-30.45
 31
0.0
  0
LINE
  5
1581
330
C25
100
AcDbEntity
  8
242
100
AcDbLine
 10
57.7
 20
20.47857562
 30
0.0
 11
48.3
 21
-1.98154206
 31
0.0
  0
LINE
  5
1582
330
C25
100
AcDbEntity
  8
242
100
AcDbLine
 10
48.3
 20
20.47857562
 30
0.0
 11
57.7
 21
-1.98154206
 31
0.0
  0
LINE
  5
1583
330
C25
100
AcDbEntity
  8
241
100
AcDbLine
 10
47.8
 20
-1.98154206
 30
0.0
 11
58.2
 21
-1.98154206
 31
0.0
  0
LINE
  5
1584
330
C25
100
AcDbEntity
  8
241
100
AcDbLine
 10
47.8
 20
-2.53692105
 30
0.0
 11
58.2
 21
-2.53692105
 31
0.0
  0
LINE
  5
1585
330
C25
100
AcDbEntity
  8
241
100
AcDbLine
 10
49.8
 20
-2.53692105
 30
0.0
 11
49.8
 21
-1.98154206
 31
0.0
  0
LINE
  5
1586
330
C25
100
AcDbEntity
  8
241
100
AcDbLine
 10
56.2
 20
-2.53692105
 30
0.0
 11
56.2
 21
-1.98154206
 31
0.0
  0
LINE
  5
1587
330
C25
100
AcDbEntity
  8
241
100
AcDbLine
 10
47.8
 20
20.89943784
 30
0.0
 11
58.2
 21
20.89943784
 31
0.0
  0
LINE
  5
1588
330
C25
100
AcDbEntity
  8
241
100
AcDbLine
 10
47.8
 20
20.47857562
 30
0.0
 11
58.2
 21
20.47857562
 31
0.0
  0
LINE
  5
1589
330
C25
100
AcDbEntity
  8
241
100
AcDbLine
 10
49.8
 20
20.47857562
 30
0.0
 11
49.8
 21
20.89943784
 31
0.0
  0
LINE
  5
158A
330
C25
100
AcDbEntity
  8
241
100
AcDbLine
 10
56.2
 20
20.47857562
 30
0.0
 11
56.2
 21
20.89943784
 31
0.0
  0
LINE
  5
158B
330
C25
100
AcDbEntity
  8
245
100
AcDbLine
 10
95.0
 20
2.65
 30
0.0
 11
95.0
 21
-2.65
 31
0.0
  0
CIRCLE
  5
158C
330
C25
100
AcDbEntity
  8
242
100
AcDbCircle
 10
95.0
 20
0.0
 30
0.0
 40
1.649999999999999
  0
CIRCLE
  5
158D
330
C25
100
AcDbEntity
  8
241
100
AcDbCircle
 10
95.0
 20
0.0
 30
0.0
 40
2.0
  0
LINE
  5
158E
330
C25
100
AcDbEntity
  8
240
  6
CONTINUOUS
100
AcDbLine
 10
164.0
 20
-16.0
 30
0.0
 11
164.0
 21
-25.07764973
 31
0.0
  0
LINE
  5
158F
330
C25
100
AcDbEntity
  8
241
100
AcDbLine
 10
136.75758622
 20
-31.08299316
 30
0.0
 11
136.75758622
 21
0.0
 31
0.0
  0
LINE
  5
1590
330
C25
100
AcDbEntity
  8
241
100
AcDbLine
 10
109.0
 20
-31.45
 30
0.0
 11
109.0
 21
0.0
 31
0.0
  0
LINE
  5
1591
330
C25
100
AcDbEntity
  8
241
100
AcDbLine
 10
162.10246787
 20
-26.75054069
 30
0.0
 11
162.10246787
 21
0.0
 31
0.0
  0
LINE
  5
1592
330
C25
100
AcDbEntity
  8
241
100
AcDbLine
 10
156.40975922
 20
-27.5
 30
0.0
 11
156.40975922
 21
0.0
 31
0.0
  0
LINE
  5
1593
330
C25
100
AcDbEntity
  8
241
100
AcDbLine
 10
139.03811978
 20
-27.86700684
 30
0.0
 11
139.03811978
 21
0.0
 31
0.0
  0
ARC
  5
1594
330
C25
100
AcDbEntity
  8
240
100
AcDbCircle
 10
140.19282032
 20
-29.5
 30
0.0
 40
2.0
100
AcDbArc
 50
90.0
 51
150.0
  0
LINE
  5
1595
330
C25
100
AcDbEntity
  8
240
100
AcDbLine
 10
109.0
 20
-31.45
 30
0.0
 11
135.60288568
 21
-31.45
 31
0.0
  0
LINE
  5
1596
330
C25
100
AcDbEntity
  8
240
100
AcDbLine
 10
108.0
 20
-30.45
 30
0.0
 11
109.0
 21
-31.45
 31
0.0
  0
ARC
  5
1597
330
C25
100
AcDbEntity
  8
240
100
AcDbCircle
 10
135.60288568
 20
-29.45
 30
0.0
 40
2.0
100
AcDbArc
 50
270.0
 51
330.0
  0
LINE
  5
1598
330
C25
100
AcDbEntity
  8
240
100
AcDbLine
 10
137.33493649
 20
-30.45
 30
0.0
 11
138.46076952
 21
-28.5
 31
0.0
  0
LINE
  5
1599
330
C25
100
AcDbEntity
  8
240
100
AcDbLine
 10
156.40975922
 20
-27.5
 30
0.0
 11
162.10246789
 21
-26.75054068
 31
0.0
  0
LINE
  5
159A
330
C25
100
AcDbEntity
  8
240
100
AcDbLine
 10
140.19282032
 20
-27.5
 30
0.0
 11
156.40975922
 21
-27.5
 31
0.0
  0
LINE
  5
159B
330
C25
100
AcDbEntity
  8
240
100
AcDbLine
 10
162.10246789
 20
-26.75054068
 30
0.0
 11
163.5
 21
-25.94367513
 31
0.0
  0
ARC
  5
159C
330
C25
100
AcDbEntity
  8
240
100
AcDbCircle
 10
163.0
 20
-25.07764973
 30
0.0
 40
1.0
100
AcDbArc
 50
300.0
 51
0.0
  0
ARC
  5
159D
330
C25
100
AcDbEntity
  8
240
100
AcDbCircle
 10
140.19282032
 20
29.5
 30
0.0
 40
2.0
100
AcDbArc
 50
210.0
 51
270.0
  0
LINE
  5
159E
330
C25
100
AcDbEntity
  8
240
  6
CONTINUOUS
100
AcDbLine
 10
164.7
 20
15.3
 30
0.0
 11
164.7
 21
0.0
 31
0.0
  0
LINE
  5
159F
330
C25
100
AcDbEntity
  8
241
100
AcDbLine
 10
164.0
 20
0.0
 30
0.0
 11
164.0
 21
16.0
 31
0.0
  0
LINE
  5
15A0
330
C25
100
AcDbEntity
  8
241
100
AcDbLine
 10
139.03811978
 20
27.86700684
 30
0.0
 11
139.03811978
 21
0.0
 31
0.0
  0
LINE
  5
15A1
330
C25
100
AcDbEntity
  8
241
100
AcDbLine
 10
156.40975922
 20
27.5
 30
0.0
 11
156.40975922
 21
0.0
 31
0.0
  0
LINE
  5
15A2
330
C25
100
AcDbEntity
  8
241
100
AcDbLine
 10
162.10246787
 20
26.75054069
 30
0.0
 11
162.10246787
 21
0.0
 31
0.0
  0
LINE
  5
15A3
330
C25
100
AcDbEntity
  8
240
  6
CONTINUOUS
100
AcDbLine
 10
164.7
 20
-15.3
 30
0.0
 11
164.7
 21
0.0
 31
0.0
  0
LINE
  5
15A4
330
C25
100
AcDbEntity
  8
241
100
AcDbLine
 10
164.0
 20
0.0
 30
0.0
 11
164.0
 21
-16.0
 31
0.0
  0
LINE
  5
15A5
330
C25
100
AcDbEntity
  8
240
100
AcDbLine
 10
164.0
 20
-16.0
 30
0.0
 11
164.7
 21
-15.3
 31
0.0
  0
LINE
  5
15A6
330
C25
100
AcDbEntity
  8
240
100
AcDbLine
 10
156.40975922
 20
27.5
 30
0.0
 11
162.10246789
 21
26.75054068
 31
0.0
  0
LINE
  5
15A7
330
C25
100
AcDbEntity
  8
240
100
AcDbLine
 10
140.19282032
 20
27.5
 30
0.0
 11
156.40975922
 21
27.5
 31
0.0
  0
LINE
  5
15A8
330
C25
100
AcDbEntity
  8
240
  6
CONTINUOUS
100
AcDbLine
 10
164.0
 20
16.0
 30
0.0
 11
164.0
 21
25.07764973
 31
0.0
  0
LINE
  5
15A9
330
C25
100
AcDbEntity
  8
240
100
AcDbLine
 10
164.0
 20
16.0
 30
0.0
 11
164.7
 21
15.3
 31
0.0
  0
LINE
  5
15AA
330
C25
100
AcDbEntity
  8
240
100
AcDbLine
 10
162.10246789
 20
26.75054068
 30
0.0
 11
163.5
 21
25.94367513
 31
0.0
  0
ARC
  5
15AB
330
C25
100
AcDbEntity
  8
240
100
AcDbCircle
 10
163.0
 20
25.07764973
 30
0.0
 40
1.0
100
AcDbArc
 50
0.0
 51
60.0
  0
LINE
  5
15AC
330
C25
100
AcDbEntity
  8
240
100
AcDbLine
 10
100.0
 20
30.45
 30
0.0
 11
108.0
 21
30.45
 31
0.0
  0
LINE
  5
15AD
330
C25
100
AcDbEntity
  8
240
100
AcDbLine
 10
48.3
 20
31.45
 30
0.0
 11
48.3
 21
31.49800044
 31
0.0
  0
LINE
  5
15AE
330
C25
100
AcDbEntity
  8
240
100
AcDbLine
 10
81.0
 20
31.45
 30
0.0
 11
82.0
 21
30.45
 31
0.0
  0
LINE
  5
15AF
330
C25
100
AcDbEntity
  8
240
100
AcDbLine
 10
72.0
 20
30.45
 30
0.0
 11
73.0
 21
31.45
 31
0.0
  0
LINE
  5
15B0
330
C25
100
AcDbEntity
  8
240
100
AcDbLine
 10
64.0
 20
30.45
 30
0.0
 11
72.0
 21
30.45
 31
0.0
  0
LINE
  5
15B1
330
C25
100
AcDbEntity
  8
240
100
AcDbLine
 10
62.95
 20
31.5
 30
0.0
 11
64.0
 21
30.45
 31
0.0
  0
LINE
  5
15B2
330
C25
100
AcDbEntity
  8
240
100
AcDbLine
 10
73.0
 20
31.45
 30
0.0
 11
81.0
 21
31.45
 31
0.0
  0
LINE
  5
15B3
330
C25
100
AcDbEntity
  8
240
100
AcDbLine
 10
99.0
 20
31.45
 30
0.0
 11
91.0
 21
31.45
 31
0.0
  0
LINE
  5
15B4
330
C25
100
AcDbEntity
  8
240
100
AcDbLine
 10
82.0
 20
30.45
 30
0.0
 11
90.0
 21
30.45
 31
0.0
  0
LINE
  5
15B5
330
C25
100
AcDbEntity
  8
240
100
AcDbLine
 10
90.0
 20
30.45
 30
0.0
 11
91.0
 21
31.45
 31
0.0
  0
LINE
  5
15B6
330
C25
100
AcDbEntity
  8
240
100
AcDbLine
 10
99.0
 20
31.45
 30
0.0
 11
100.0
 21
30.45
 31
0.0
  0
LINE
  5
15B7
330
C25
100
AcDbEntity
  8
240
100
AcDbLine
 10
135.60288568
 20
31.45
 30
0.0
 11
109.0
 21
31.45
 31
0.0
  0
LINE
  5
15B8
330
C25
100
AcDbEntity
  8
240
100
AcDbLine
 10
108.0
 20
30.45
 30
0.0
 11
109.0
 21
31.45
 31
0.0
  0
ARC
  5
15B9
330
C25
100
AcDbEntity
  8
240
100
AcDbCircle
 10
135.60288568
 20
29.45
 30
0.0
 40
2.0
100
AcDbArc
 50
30.0
 51
90.0
  0
ENDBLK
  5
C27
330
C25
100
AcDbEntity
  8
0
100
AcDbBlockEnd
  0
BLOCK
  5
1505
330
14FF
100
AcDbEntity
  8
0
100
AcDbBlockBegin
  2
HDC-CLAMPSCREW
 70
     0
 10
0.0
 20
0.0
 30
0.0
  3
HDC-CLAMPSCREW
  1

  0
INSERT
  5
1500
330
14FF
100
AcDbEntity
  8
245
100
AcDbBlockReference
  2
矢印なし
 10
175.62382697
 20
90.55123572
 30
0.0
  0
LINE
  5
1501
330
14FF
100
AcDbEntity
  8
241
  6
CONTINUOUS
100
AcDbLine
 10
2.23
 20
0.0
 30
0.0
 11
20.0
 21
0.0
 31
0.0
  0
INSERT
  5
1502
330
14FF
100
AcDbEntity
  8
241
  6
CONTINUOUS
100
AcDbBlockReference
  2
_OPEN
 10
0.0
 20
0.0
 30
0.0
 41
6.69
 42
6.69
 43
6.69
 50
180.0
  0
ELLIPSE
  5
1503
330
14FF
100
AcDbEntity
  8
251
100
AcDbEllipse
 10
13.0
 20
0.0
 30
0.0
 11
0.0
 21
-7.000000000002512
 31
0.0
210
0.0
220
0.0
230
1.0
 40
0.5
 41
1.860548028230769
 42
7.564229932538514
  0
INSERT
  5
1504
330
14FF
100
AcDbEntity
  8
251
  6
CONTINUOUS
100
AcDbBlockReference
  2
_OPEN
 10
16.35410197
 20
2.0
 30
0.0
 41
2.23
 42
2.23
 43
2.23
 50
283.18143907
  0
ENDBLK
  5
1506
330
14FF
100
AcDbEntity
  8
0
100
AcDbBlockEnd
  0
ENDSEC
  0
SECTION
  2
ENTITIES
  0
INSERT
  5
6E6
330
1A
100
AcDbEntity
  8
245
100
AcDbBlockReference
  2
矢印なし
 10
175.62382697
 20
90.55123572
 30
0.0
  0
TEXT
  5
862
330
1A
100
AcDbEntity
  8
241
100
AcDbText
 10
-65.4
 20
77.0
 30
0.0
 40
5.0
  1
BBT40-HDC25E-165
  7
YOKO
 11
-65.4
 21
77.0
 31
0.0
100
AcDbText
 73
     1
  0
DIMENSION
  5
86C
330
1A
100
AcDbEntity
  8
250
  6
CONTINUOUS
100
AcDbDimension
  2
*D2
 10
164.7
 20
63.0
 30
0.0
 11
84.8527386
 21
63.0
 31
0.0
 70
   160
  3
BIGT
100
AcDbAlignedDimension
 13
0.0
 23
22.225
 33
0.0
 14
164.7
 24
15.3
 34
0.0
100
AcDbRotatedDimension
  0
DIMENSION
  5
86D
330
1A
100
AcDbEntity
  8
250
  6
CONTINUOUS
100
AcDbDimension
  2
*D3
 10
164.7
 20
56.0
 30
0.0
 11
124.12635616
 21
56.0
 31
0.0
 70
   160
  1
（max.<>）
  3
BIGT
100
AcDbAlignedDimension
 13
83.7
 23
12.5
 33
0.0
 14
164.7
 24
15.3
 34
0.0
100
AcDbRotatedDimension
  0
DIMENSION
  5
BC1
330
1A
100
AcDbEntity
  8
250
  6
CONTINUOUS
100
AcDbDimension
  2
*D4
 10
175.0
 20
12.5
 30
0.0
 11
172.6
 21
0.0
 31
0.0
 70
    32
  1
{\H2.8;\U+2205}<>
  3
BIGT
100
AcDbAlignedDimension
 13
164.7
 23
-12.5
 33
0.0
 14
164.7
 24
12.5
 34
0.0
 50
90.0
100
AcDbRotatedDimension
1001
ACAD
1000
DSTYLE
1002
{
1070
    75
1070
     1
1070
     6
1000
矢印なし
1002
}
  0
DIMENSION
  5
BD1
330
1A
100
AcDbEntity
  8
250
  6
CONTINUOUS
100
AcDbDimension
  2
*D5
 10
182.0
 20
27.5
 30
0.0
 11
179.6
 21
0.0
 31
0.0
 70
    32
  1
{\H2.8;\U+2205}<>
  3
BIGT
100
AcDbAlignedDimension
 13
156.40975922
 23
-27.5
 33
0.0
 14
156.40975922
 24
27.5
 34
0.0
 50
90.0
100
AcDbRotatedDimension
  0
LEADER
  5
1220
330
1A
100
AcDbEntity
  8
250
  6
CONTINUOUS
100
AcDbLeader
  3
BIGT
 76
     2
 10
-26.64442081
 20
-18.3393553
 30
0.0
 10
-32.4583971
 20
-28.40945762
 30
0.0
1001
ACAD
1000
DSTYLE
1002
{
1070
     6
1000
OPEN
1070
   343
1005
594
1002
}
  0
MTEXT
  5
1221
330
1A
100
AcDbEntity
  8
250
  6
CONTINUOUS
 62
    40
100
AcDbMText
 10
-47.39173044
 20
-27.40945762
 30
0.0
 40
2.8
 41
0.0
 71
     7
 72
     1
  1
BBT40
  7
YOKO
1001
ITEMNAME
1000
LNSP3
1001
ACAD
1000
MTEXTBEGIN
1070
    73
1070
     1
1070
    44
1040
1.0
1070
    74
1070
     0
1000
MTEXTEND
1000
MTEXTBEGIN
1070
    73
1070
     1
1070
    44
1040
1.0
1070
    74
1070
     0
1000
MTEXTEND
1000
MTEXTBEGIN
1070
    73
1070
     1
1070
    44
1040
1.0
1070
    74
1070
     0
1000
MTEXTEND
  0
LINE
  5
1224
330
1A
100
AcDbEntity
  8
250
  6
CONTINUOUS
100
AcDbLine
 10
-32.4583971
 20
-28.40945762
 30
0.0
 11
-50.19173044
 21
-28.40945762
 31
0.0
1001
ITEMNAME
1000
LNSP2
  0
INSERT
  5
150E
330
1A
100
AcDbEntity
  8
245
100
AcDbBlockReference
  2
HDC-CLAMPSCREW
 10
37.0
 20
35.0
 30
0.0
 50
90.0
  0
TEXT
  5
150F
330
1A
100
AcDbEntity
  8
251
100
AcDbText
 10
23.33167805
 20
56.22647673
 30
0.0
 40
3.0
  1
クランプスクリュ
  7
YOKO
 11
23.33167805
 21
56.22647673
 31
0.0
100
AcDbText
 73
     1
  0
INSERT
  5
15BA
330
1A
100
AcDbEntity
  8
245
100
AcDbBlockReference
  2
1
 10
0.0
 20
0.0
 30
0.0
  0
VIEWPORT
  5
22
330
17
100
AcDbEntity
 67
     1
  8
0
100
AcDbViewport
 10
261.51769912
 20
148.5
 30
0.0
 40
523.03539823
 41
297.0
 68
     1
 69
     1
1001
ACAD
1000
MVIEW
1002
{
1070
    16
1010
0.0
1020
0.0
1030
0.0
1010
0.0
1020
0.0
1030
1.0
1040
0.0
1040
297.0
1040
261.51769912
1040
148.5
1040
50.0
1040
0.0
1040
0.0
1070
     0
1070
   100
1070
     1
1070
     1
1070
     0
1070
     0
1070
     0
1070
     0
1040
0.0
1040
0.0
1040
0.0
1040
1.0
1040
1.0
1040
10.0
1040
10.0
1070
     0
1002
{
1002
}
1002
}
  0
ENDSEC
  0
SECTION
  2
OBJECTS
  0
DICTIONARY
  5
C
330
0
100
AcDbDictionary
  3
ACAD_GROUP
350
D
  3
ACAD_LAYOUT
350
565
  3
ACAD_MLINESTYLE
350
E
  3
ACAD_PLOTSETTINGS
350
566
  3
ACAD_PLOTSTYLENAME
350
563
  3
ACDBHEADERROUNDTRIPXREC
350
15BC
  3
GRADE_DWG
350
540
  0
DICTIONARY
  5
D43
330
1A
100
AcDbDictionary
280
     1
  3
ACAD_LAYOUTSELFREF
360
15DE
  0
DICTIONARY
  5
D41
330
17
100
AcDbDictionary
280
     1
  3
ACAD_LAYOUTSELFREF
360
15DD
  0
DICTIONARY
  5
D
102
{ACAD_REACTORS
330
C
102
}
330
C
100
AcDbDictionary
  3
*A1
350
6C7
  3
*A2
350
6C8
  3
*A3
350
6D4
  3
*A4
350
6D5
  3
DREC-1
350
5FC
  3
DREC-2
350
654
  3
DREC-3
350
673
  0
DICTIONARY
  5
565
102
{ACAD_REACTORS
330
C
102
}
330
C
100
AcDbDictionary
  0
DICTIONARY
  5
E
102
{ACAD_REACTORS
330
C
102
}
330
C
100
AcDbDictionary
  3
STANDARD
350
13
  0
DICTIONARY
  5
566
102
{ACAD_REACTORS
330
C
102
}
330
C
100
AcDbDictionary
  3
A3_0_5倍_
350
758
  3
A3_1倍_
350
757
  3
A3_1倍__2000_
350
707
  3
A3_2倍_
350
759
  3
A4_0_5倍_
350
755
  3
A4_1倍_
350
754
  3
A4_1倍__2000_
350
708
  3
A4_2倍_
350
756
  0
ACDBDICTIONARYWDFLT
  5
563
102
{ACAD_REACTORS
330
C
102
}
330
C
100
AcDbDictionary
281
     1
  3
Normal
350
564
100
AcDbDictionaryWithDefault
340
564
  0
DICTIONARY
  5
15BC
102
{ACAD_REACTORS
330
C
102
}
330
C
100
AcDbDictionary
  3
CEPSNTYPE
350
15C6
  3
DIMSTYLEDATA
350
15CA
  3
FINGERPRINTGUID
350
15C7
  3
HYPERLINKBASE
350
15BF
  3
INSUNITS
350
15C5
  3
LAYOUTDICT
350
15C1
  3
LWETCUNION
350
15C4
  3
PLOTSETDICT
350
15C2
  3
PLOTSTYLNAMDICT
350
15C3
  3
PSVPSCALE
350
15C9
  3
PUCSBASE
350
15CD
  3
PUCSORGBACK
350
15D3
  3
PUCSORGBOTTOM
350
15CF
  3
PUCSORGFRONT
350
15D2
  3
PUCSORGLEFT
350
15D0
  3
PUCSORGRIGHT
350
15D1
  3
PUCSORGTOP
350
15CE
  3
PUCSORTHOREF
350
15CB
  3
PUCSORTHOVIEW
350
15CC
  3
STYLESHEET
350
15C0
  3
TSTACKALIGN
350
15BD
  3
TSTACKSIZE
350
15BE
  3
UCSBASE
350
15D6
  3
UCSORGBACK
350
15DC
  3
UCSORGBOTTOM
350
15D8
  3
UCSORGFRONT
350
15DB
  3
UCSORGLEFT
350
15D9
  3
UCSORGRIGHT
350
15DA
  3
UCSORGTOP
350
15D7
  3
UCSORTHOREF
350
15D4
  3
UCSORTHOVIEW
350
15D5
  3
VERSIONGUID
350
15C8
  0
DICTIONARY
  5
540
102
{ACAD_REACTORS
330
C
102
}
330
C
100
AcDbDictionary
  3
VERSION
350
560
  0
XRECORD
  5
15DE
102
{ACAD_REACTORS
330
D43
102
}
330
D43
100
AcDbXrecord
340
1A
  0
XRECORD
  5
15DD
102
{ACAD_REACTORS
330
D41
102
}
330
D41
100
AcDbXrecord
340
17
  0
GROUP
  5
6C7
102
{ACAD_REACTORS
330
D
102
}
330
D
100
AcDbGroup
300

 70
     0
 71
     1
1001
GRPNAME
1000
DMA00
  0
GROUP
  5
6C8
102
{ACAD_REACTORS
330
D
102
}
330
D
100
AcDbGroup
300

 70
     0
 71
     1
1001
GRPNAME
1000
DMA00
  0
GROUP
  5
6D4
102
{ACAD_REACTORS
330
D
102
}
330
D
100
AcDbGroup
300

 70
     0
 71
     1
1001
GRPNAME
1000
DMA00
  0
GROUP
  5
6D5
102
{ACAD_REACTORS
330
D
102
}
330
D
100
AcDbGroup
300

 70
     0
 71
     1
1001
GRPNAME
1000
DMA00
  0
GROUP
  5
5FC
102
{ACAD_REACTORS
330
D
102
}
330
D
100
AcDbGroup
300

 70
     0
 71
     1
1001
GRPNAME
1000
DREC-
1001
GPARA
1000
xsiz
1000
44.182
1000
ysiz
1000
40.677
1000
angl
1000
0
1000
ctyp
1000
0
1000
csiz
1000
5
1000
lfnt
1000
cont
1000
hcnt
1000
hoff
1000
vcnt
1000
voff
1000
opnt
1000
4
1000
dxpt
1000
0
1000
dypt
1000
0
  0
GROUP
  5
654
102
{ACAD_REACTORS
330
D
102
}
330
D
100
AcDbGroup
300

 70
     0
 71
     1
1001
GRPNAME
1000
DREC-
1001
GPARA
1000
xsiz
1000
54.592
1000
ysiz
1000
53.036
1000
angl
1000
0
1000
ctyp
1000
0
1000
csiz
1000
5
1000
lfnt
1000
cont
1000
hcnt
1000
hoff
1000
vcnt
1000
voff
1000
opnt
1000
4
1000
dxpt
1000
0
1000
dypt
1000
0
  0
GROUP
  5
673
102
{ACAD_REACTORS
330
D
102
}
330
D
100
AcDbGroup
300

 70
     0
 71
     1
1001
GRPNAME
1000
DREC-
1001
GPARA
1000
xsiz
1000
30.363
1000
ysiz
1000
36.175
1000
angl
1000
0
1000
ctyp
1000
0
1000
csiz
1000
5
1000
lfnt
1000
cont
1000
hcnt
1000
hoff
1000
vcnt
1000
voff
1000
opnt
1000
4
1000
dxpt
1000
0
1000
dypt
1000
0
  0
MLINESTYLE
  5
13
102
{ACAD_REACTORS
330
E
102
}
330
E
100
AcDbMlineStyle
  2
STANDARD
 70
     0
  3

 62
     0
 51
90.0
 52
90.0
 71
     2
 49
0.5
 62
   256
  6
BYLAYER
 49
-0.5
 62
   256
  6
BYLAYER
  0
PLOTSETTINGS
  5
758
102
{ACAD_REACTORS
330
566
102
}
330
566
100
AcDbPlotSettings
  1
A3(0.5倍)
  2
\\AWTECPC05\HP DeskJet 1120C
  4
A3
  6

 40
5.95841646
 41
13.49375153
 42
6.04309082
 43
3.67242432
 44
296.92599487
 45
419.94665527
 46
89.96
 47
127.14
 48
0.0
 49
0.0
140
0.0
141
0.0
142
1.0
143
2.0
 70
  1716
 72
     1
 73
     1
 74
     2
  7
big.ctb
 75
    17
147
0.5
148
0.0
149
0.0
  0
PLOTSETTINGS
  5
757
102
{ACAD_REACTORS
330
566
102
}
330
566
100
AcDbPlotSettings
  1
A3(1倍)
  2
\\AWTECPC05\HP DeskJet 1120C
  4
A3
  6

 40
5.95841646
 41
13.49375153
 42
6.04309082
 43
3.67242432
 44
296.92599487
 45
419.94665527
 46
37.46
 47
52.89
 48
0.0
 49
0.0
140
0.0
141
0.0
142
1.0
143
1.0
 70
  1716
 72
     1
 73
     1
 74
     2
  7
big.ctb
 75
    16
147
1.0
148
0.0
149
0.0
  0
PLOTSETTINGS
  5
707
102
{ACAD_REACTORS
330
566
102
}
330
566
100
AcDbPlotSettings
  1
A3(1倍)(2000)
  2
SII LS-1300 (D-SCAN)
  4
User258
  6

 40
3.17499995
 41
3.17499995
 42
3.17498779
 43
3.17498779
 44
419.98898315
 45
296.98950195
 46
58.32
 47
40.32
 48
0.0
 49
0.0
140
0.0
141
0.0
142
1.0
143
1.0
 70
  1716
 72
     1
 73
     0
 74
     2
  7
big.ctb
 75
    16
147
1.0
148
0.0
149
0.0
  0
PLOTSETTINGS
  5
759
102
{ACAD_REACTORS
330
566
102
}
330
566
100
AcDbPlotSettings
  1
A3(2倍)
  2
\\AWTECPC05\HP DeskJet 1120C
  4
A3
  6

 40
5.95841646
 41
13.49375153
 42
6.04309082
 43
3.67242432
 44
296.92599487
 45
419.94665527
 46
-67.54
 47
-95.61
 48
0.0
 49
0.0
140
0.0
141
0.0
142
1.0
143
0.5
 70
  1716
 72
     1
 73
     1
 74
     2
  7
big.ctb
 75
    27
147
2.0
148
0.0
149
0.0
  0
PLOTSETTINGS
  5
755
102
{ACAD_REACTORS
330
566
102
}
330
566
100
AcDbPlotSettings
  1
A4(0.5倍)
  2
\\AWTECPC05\HP DeskJet 1120C
  4
A4
  6

 40
4.18041658
 41
13.49374962
 42
4.18040466
 43
3.92642212
 44
209.97332764
 45
296.92599487
 46
48.31
 47
65.5
 48
0.0
 49
0.0
140
0.0
141
0.0
142
1.0
143
2.0
 70
  1716
 72
     1
 73
     1
 74
     2
  7
big.ctb
 75
    17
147
0.5
148
0.0
149
0.0
  0
PLOTSETTINGS
  5
754
102
{ACAD_REACTORS
330
566
102
}
330
566
100
AcDbPlotSettings
  1
A4(1倍)
  2
\\AWTECPC05\HP DeskJet 1120C
  4
A4
  6

 40
4.18041658
 41
13.49374962
 42
4.18040466
 43
3.92642212
 44
209.97332764
 45
296.92599487
 46
-4.19
 47
-8.75
 48
0.0
 49
0.0
140
0.0
141
0.0
142
1.0
143
1.0
 70
  1716
 72
     1
 73
     1
 74
     2
  7
big.ctb
 75
    16
147
1.0
148
0.0
149
0.0
  0
PLOTSETTINGS
  5
708
102
{ACAD_REACTORS
330
566
102
}
330
566
100
AcDbPlotSettings
  1
A4(1倍)(2000)
  2
SII LS-1300 (D-SCAN)
  4
User259
  6

 40
3.17499995
 41
3.17499995
 42
3.17498779
 43
3.17500305
 44
296.98950195
 45
209.99449158
 46
-3.18
 47
-3.18
 48
0.0
 49
0.0
140
0.0
141
0.0
142
1.0
143
1.0
 70
  1716
 72
     1
 73
     0
 74
     2
  7
big.ctb
 75
    16
147
1.0
148
0.0
149
0.0
  0
PLOTSETTINGS
  5
756
102
{ACAD_REACTORS
330
566
102
}
330
566
100
AcDbPlotSettings
  1
A4(2倍)
  2
\\AWTECPC05\HP DeskJet 1120C
  4
A4
  6

 40
4.18041658
 41
13.49374962
 42
4.18040466
 43
3.92642212
 44
209.97332764
 45
296.92599487
 46
-109.19
 47
-157.25
 48
0.0
 49
0.0
140
0.0
141
0.0
142
1.0
143
0.5
 70
  1716
 72
     1
 73
     1
 74
     2
  7
big.ctb
 75
    27
147
2.0
148
0.0
149
0.0
  0
ACDBPLACEHOLDER
  5
564
102
{ACAD_REACTORS
330
563
102
}
330
563
100
AcDbPlaceHolder
280
     0
  0
XRECORD
  5
15C6
102
{ACAD_REACTORS
330
15BC
102
}
330
15BC
100
AcDbXrecord
 90
        0
  0
XRECORD
  5
15CA
102
{ACAD_REACTORS
330
15BC
102
}
330
15BC
100
AcDbXrecord
1000
DSTYLE
1002
{
1070
    79
 70
     2
1070
   179
 70
     3
1070
   341
340
594
1070
   343
340
594
1070
   344
340
594
1070
   371
 70
    -1
1070
   372
 70
    -1
1002
}
  0
XRECORD
  5
15C7
102
{ACAD_REACTORS
330
15BC
102
}
330
15BC
100
AcDbXrecord
  1
{51294030-9CB4-11D3-8E18-00A0C925D94D}
  0
XRECORD
  5
15BF
102
{ACAD_REACTORS
330
15BC
102
}
330
15BC
100
AcDbXrecord
  1

  0
XRECORD
  5
15C5
102
{ACAD_REACTORS
330
15BC
102
}
330
15BC
100
AcDbXrecord
 90
        0
  0
XRECORD
  5
15C1
102
{ACAD_REACTORS
330
15BC
102
}
330
15BC
100
AcDbXrecord
340
565
  0
XRECORD
  5
15C4
102
{ACAD_REACTORS
330
15BC
102
}
330
15BC
100
AcDbXrecord
 90
    10781
  0
XRECORD
  5
15C2
102
{ACAD_REACTORS
330
15BC
102
}
330
15BC
100
AcDbXrecord
340
566
  0
XRECORD
  5
15C3
102
{ACAD_REACTORS
330
15BC
102
}
330
15BC
100
AcDbXrecord
340
563
  0
XRECORD
  5
15C9
102
{ACAD_REACTORS
330
15BC
102
}
330
15BC
100
AcDbXrecord
 40
0.0
  0
XRECORD
  5
15CD
102
{ACAD_REACTORS
330
15BC
102
}
330
15BC
100
AcDbXrecord
340
0
  0
XRECORD
  5
15D3
102
{ACAD_REACTORS
330
15BC
102
}
330
15BC
100
AcDbXrecord
 10
0.0
 20
0.0
 30
0.0
  0
XRECORD
  5
15CF
102
{ACAD_REACTORS
330
15BC
102
}
330
15BC
100
AcDbXrecord
 10
0.0
 20
0.0
 30
0.0
  0
XRECORD
  5
15D2
102
{ACAD_REACTORS
330
15BC
102
}
330
15BC
100
AcDbXrecord
 10
0.0
 20
0.0
 30
0.0
  0
XRECORD
  5
15D0
102
{ACAD_REACTORS
330
15BC
102
}
330
15BC
100
AcDbXrecord
 10
0.0
 20
0.0
 30
0.0
  0
XRECORD
  5
15D1
102
{ACAD_REACTORS
330
15BC
102
}
330
15BC
100
AcDbXrecord
 10
0.0
 20
0.0
 30
0.0
  0
XRECORD
  5
15CE
102
{ACAD_REACTORS
330
15BC
102
}
330
15BC
100
AcDbXrecord
 10
0.0
 20
0.0
 30
0.0
  0
XRECORD
  5
15CB
102
{ACAD_REACTORS
330
15BC
102
}
330
15BC
100
AcDbXrecord
340
0
  0
XRECORD
  5
15CC
102
{ACAD_REACTORS
330
15BC
102
}
330
15BC
100
AcDbXrecord
 70
     0
  0
XRECORD
  5
15C0
102
{ACAD_REACTORS
330
15BC
102
}
330
15BC
100
AcDbXrecord
  1
big.ctb
  0
XRECORD
  5
15BD
102
{ACAD_REACTORS
330
15BC
102
}
330
15BC
100
AcDbXrecord
 90
        1
  0
XRECORD
  5
15BE
102
{ACAD_REACTORS
330
15BC
102
}
330
15BC
100
AcDbXrecord
 90
       70
  0
XRECORD
  5
15D6
102
{ACAD_REACTORS
330
15BC
102
}
330
15BC
100
AcDbXrecord
340
0
  0
XRECORD
  5
15DC
102
{ACAD_REACTORS
330
15BC
102
}
330
15BC
100
AcDbXrecord
 10
0.0
 20
0.0
 30
0.0
  0
XRECORD
  5
15D8
102
{ACAD_REACTORS
330
15BC
102
}
330
15BC
100
AcDbXrecord
 10
0.0
 20
0.0
 30
0.0
  0
XRECORD
  5
15DB
102
{ACAD_REACTORS
330
15BC
102
}
330
15BC
100
AcDbXrecord
 10
0.0
 20
0.0
 30
0.0
  0
XRECORD
  5
15D9
102
{ACAD_REACTORS
330
15BC
102
}
330
15BC
100
AcDbXrecord
 10
0.0
 20
0.0
 30
0.0
  0
XRECORD
  5
15DA
102
{ACAD_REACTORS
330
15BC
102
}
330
15BC
100
AcDbXrecord
 10
0.0
 20
0.0
 30
0.0
  0
XRECORD
  5
15D7
102
{ACAD_REACTORS
330
15BC
102
}
330
15BC
100
AcDbXrecord
 10
0.0
 20
0.0
 30
0.0
  0
XRECORD
  5
15D4
102
{ACAD_REACTORS
330
15BC
102
}
330
15BC
100
AcDbXrecord
340
0
  0
XRECORD
  5
15D5
102
{ACAD_REACTORS
330
15BC
102
}
330
15BC
100
AcDbXrecord
 70
     0
  0
XRECORD
  5
15C8
102
{ACAD_REACTORS
330
15BC
102
}
330
15BC
100
AcDbXrecord
  1
{CFA659D1-3E3B-4858-A648-7F64F45EFF4E}
  0
XRECORD
  5
560
102
{ACAD_REACTORS
330
540
102
}
330
540
100
AcDbXrecord
  1
2.0.0
  0
ENDSEC
  0
EOF
